  0
SECTION
  2
HEADER
  9
$ACADVER
  1
AC1021
  9
$ACADMAINTVER
 70
     1
  9
$DWGCODEPAGE
  3
ANSI_1252
  9
$LASTSAVEDBY
  1
gdseiver
  9
$INSBASE
 10
0.0
 20
0.0
 30
0.0
  9
$EXTMIN
 10
-0.5875000000000005
 20
-0.5875000000000059
 30
-0.0000000000000001
  9
$EXTMAX
 10
0.5875000000000004
 20
0.9278107178902681
 30
0.0680000000000001
  9
$LIMMIN
 10
0.0
 20
0.0
  9
$LIMMAX
 10
12.0
 20
9.0
  9
$ORTHOMODE
 70
     0
  9
$REGENMODE
 70
     1
  9
$FILLMODE
 70
     1
  9
$QTEXTMODE
 70
     0
  9
$MIRRTEXT
 70
     1
  9
$LTSCALE
 40
1.0
  9
$ATTMODE
 70
     1
  9
$TEXTSIZE
 40
0.12
  9
$TRACEWID
 40
0.05
  9
$TEXTSTYLE
  7
STANDARD
  9
$CLAYER
  8
0
  9
$CELTYPE
  6
BYLAYER
  9
$CECOLOR
 62
   256
  9
$CELTSCALE
 40
1.0
  9
$DISPSILH
 70
     0
  9
$DIMSCALE
 40
1.0
  9
$DIMASZ
 40
0.09
  9
$DIMEXO
 40
0.0625
  9
$DIMDLI
 40
0.375
  9
$DIMRND
 40
0.0
  9
$DIMDLE
 40
0.0
  9
$DIMEXE
 40
0.03
  9
$DIMTP
 40
0.0
  9
$DIMTM
 40
0.0
  9
$DIMTXT
 40
0.09
  9
$DIMCEN
 40
0.09
  9
$DIMTSZ
 40
0.0
  9
$DIMTOL
 70
     0
  9
$DIMLIM
 70
     0
  9
$DIMTIH
 70
     0
  9
$DIMTOH
 70
     1
  9
$DIMSE1
 70
     0
  9
$DIMSE2
 70
     0
  9
$DIMTAD
 70
     0
  9
$DIMZIN
 70
     4
  9
$DIMBLK
  1

  9
$DIMASO
 70
     1
  9
$DIMSHO
 70
     1
  9
$DIMPOST
  1

  9
$DIMAPOST
  1

  9
$DIMALT
 70
     1
  9
$DIMALTD
 70
     2
  9
$DIMALTF
 40
25.4
  9
$DIMLFAC
 40
1.0
  9
$DIMTOFL
 70
     0
  9
$DIMTVP
 40
0.0
  9
$DIMTIX
 70
     0
  9
$DIMSOXD
 70
     0
  9
$DIMSAH
 70
     0
  9
$DIMBLK1
  1

  9
$DIMBLK2
  1

  9
$DIMSTYLE
  2
ABECAD_3D
  9
$DIMCLRD
 70
     0
  9
$DIMCLRE
 70
     0
  9
$DIMCLRT
 70
     0
  9
$DIMTFAC
 40
1.5
  9
$DIMGAP
 40
0.09
  9
$DIMJUST
 70
     0
  9
$DIMSD1
 70
     0
  9
$DIMSD2
 70
     0
  9
$DIMTOLJ
 70
     1
  9
$DIMTZIN
 70
     4
  9
$DIMALTZ
 70
     4
  9
$DIMALTTZ
 70
     4
  9
$DIMUPT
 70
     1
  9
$DIMDEC
 70
     6
  9
$DIMTDEC
 70
     6
  9
$DIMALTU
 70
     2
  9
$DIMALTTD
 70
     2
  9
$DIMTXSTY
  7
STANDARD
  9
$DIMAUNIT
 70
     0
  9
$DIMADEC
 70
     0
  9
$DIMALTRND
 40
0.0
  9
$DIMAZIN
 70
     0
  9
$DIMDSEP
 70
    46
  9
$DIMATFIT
 70
     2
  9
$DIMFRAC
 70
     2
  9
$DIMLDRBLK
  1

  9
$DIMLUNIT
 70
     5
  9
$DIMLWD
 70
    -2
  9
$DIMLWE
 70
    -2
  9
$DIMTMOVE
 70
     2
  9
$DIMFXL
 40
1.0
  9
$DIMFXLON
 70
     0
  9
$DIMJOGANG
 40
0.7853981633974483
  9
$DIMTFILL
 70
     0
  9
$DIMTFILLCLR
 70
     0
  9
$DIMARCSYM
 70
     0
  9
$DIMLTYPE
  6

  9
$DIMLTEX1
  6

  9
$DIMLTEX2
  6

  9
$LUNITS
 70
     2
  9
$LUPREC
 70
     4
  9
$SKETCHINC
 40
0.1
  9
$FILLETRAD
 40
0.0
  9
$AUNITS
 70
     0
  9
$AUPREC
 70
     0
  9
$MENU
  1
ACAD
  9
$ELEVATION
 40
0.0
  9
$PELEVATION
 40
0.0
  9
$THICKNESS
 40
0.0
  9
$LIMCHECK
 70
     0
  9
$CHAMFERA
 40
0.0
  9
$CHAMFERB
 40
0.0
  9
$CHAMFERC
 40
0.0
  9
$CHAMFERD
 40
0.0
  9
$SKPOLY
 70
     0
  9
$TDCREATE
 40
2451726.480055787
  9
$TDUCREATE
 40
2451726.688389120
  9
$TDUPDATE
 40
2454229.411074167
  9
$TDUUPDATE
 40
2454229.619407500
  9
$TDINDWG
 40
0.0476632176
  9
$TDUSRTIMER
 40
0.0476632176
  9
$USRTIMER
 70
     1
  9
$ANGBASE
 50
0.0
  9
$ANGDIR
 70
     0
  9
$PDMODE
 70
     3
  9
$PDSIZE
 40
0.09
  9
$PLINEWID
 40
0.0
  9
$SPLFRAME
 70
     1
  9
$SPLINETYPE
 70
     6
  9
$SPLINESEGS
 70
     8
  9
$HANDSEED
  5
46539
  9
$SURFTAB1
 70
     6
  9
$SURFTAB2
 70
     6
  9
$SURFTYPE
 70
     6
  9
$SURFU
 70
     6
  9
$SURFV
 70
     6
  9
$UCSBASE
  2

  9
$UCSNAME
  2

  9
$UCSORG
 10
0.0
 20
0.0
 30
0.0
  9
$UCSXDIR
 10
1.0
 20
0.0
 30
0.0
  9
$UCSYDIR
 10
0.0
 20
1.0
 30
0.0
  9
$UCSORTHOREF
  2

  9
$UCSORTHOVIEW
 70
     1
  9
$UCSORGTOP
 10
0.0
 20
0.0
 30
0.0
  9
$UCSORGBOTTOM
 10
0.0
 20
0.0
 30
0.0
  9
$UCSORGLEFT
 10
0.0
 20
0.0
 30
0.0
  9
$UCSORGRIGHT
 10
0.0
 20
0.0
 30
0.0
  9
$UCSORGFRONT
 10
0.0
 20
0.0
 30
0.0
  9
$UCSORGBACK
 10
0.0
 20
0.0
 30
0.0
  9
$PUCSBASE
  2

  9
$PUCSNAME
  2

  9
$PUCSORG
 10
0.0
 20
0.0
 30
0.0
  9
$PUCSXDIR
 10
1.0
 20
0.0
 30
0.0
  9
$PUCSYDIR
 10
0.0
 20
1.0
 30
0.0
  9
$PUCSORTHOREF
  2

  9
$PUCSORTHOVIEW
 70
     0
  9
$PUCSORGTOP
 10
0.0
 20
0.0
 30
0.0
  9
$PUCSORGBOTTOM
 10
0.0
 20
0.0
 30
0.0
  9
$PUCSORGLEFT
 10
0.0
 20
0.0
 30
0.0
  9
$PUCSORGRIGHT
 10
0.0
 20
0.0
 30
0.0
  9
$PUCSORGFRONT
 10
0.0
 20
0.0
 30
0.0
  9
$PUCSORGBACK
 10
0.0
 20
0.0
 30
0.0
  9
$USERI1
 70
     0
  9
$USERI2
 70
     0
  9
$USERI3
 70
     0
  9
$USERI4
 70
     0
  9
$USERI5
 70
     0
  9
$USERR1
 40
0.0
  9
$USERR2
 40
0.0
  9
$USERR3
 40
0.0
  9
$USERR4
 40
0.0
  9
$USERR5
 40
0.0
  9
$WORLDVIEW
 70
     1
  9
$SHADEDGE
 70
     3
  9
$SHADEDIF
 70
    70
  9
$TILEMODE
 70
     1
  9
$MAXACTVP
 70
    16
  9
$PINSBASE
 10
0.0
 20
0.0
 30
0.0
  9
$PLIMCHECK
 70
     0
  9
$PEXTMIN
 10
1.000000000000000E+20
 20
1.000000000000000E+20
 30
1.000000000000000E+20
  9
$PEXTMAX
 10
-1.000000000000000E+20
 20
-1.000000000000000E+20
 30
-1.000000000000000E+20
  9
$PLIMMIN
 10
0.0
 20
0.0
  9
$PLIMMAX
 10
12.0
 20
9.0
  9
$UNITMODE
 70
     0
  9
$VISRETAIN
 70
     0
  9
$PLINEGEN
 70
     0
  9
$PSLTSCALE
 70
     1
  9
$TREEDEPTH
 70
  3020
  9
$CMLSTYLE
  2
STANDARD
  9
$CMLJUST
 70
     0
  9
$CMLSCALE
 40
1.0
  9
$PROXYGRAPHICS
 70
     1
  9
$MEASUREMENT
 70
     0
  9
$CELWEIGHT
370
    -1
  9
$ENDCAPS
280
     0
  9
$JOINSTYLE
280
     0
  9
$LWDISPLAY
290
     0
  9
$INSUNITS
 70
     0
  9
$HYPERLINKBASE
  1

  9
$STYLESHEET
  1

  9
$XEDIT
290
     1
  9
$CEPSNTYPE
380
     0
  9
$PSTYLEMODE
290
     1
  9
$FINGERPRINTGUID
  2
{6E0CF4B8-225E-11D4-A150-00A0CC3303EC}
  9
$VERSIONGUID
  2
{3837F8ED-B157-4DA5-A461-850DAAD7B92D}
  9
$EXTNAMES
290
     1
  9
$PSVPSCALE
 40
0.0
  9
$OLESTARTUP
290
     0
  9
$SORTENTS
280
   127
  9
$INDEXCTL
280
     0
  9
$HIDETEXT
280
     0
  9
$XCLIPFRAME
290
     0
  9
$HALOGAP
280
     0
  9
$OBSCOLOR
 70
   257
  9
$OBSLTYPE
280
     0
  9
$INTERSECTIONDISPLAY
280
     0
  9
$INTERSECTIONCOLOR
 70
   257
  9
$DIMASSOC
280
     1
  9
$PROJECTNAME
  1

  9
$CAMERADISPLAY
290
     0
  9
$LENSLENGTH
 40
50.0
  9
$CAMERAHEIGHT
 40
0.0
  9
$STEPSPERSEC
 40
2.0
  9
$STEPSIZE
 40
6.0
  9
$3DDWFPREC
 40
2.0
  9
$PSOLWIDTH
 40
0.25
  9
$PSOLHEIGHT
 40
4.0
  9
$LOFTANG1
 40
1.570796326794896
  9
$LOFTANG2
 40
1.570796326794896
  9
$LOFTMAG1
 40
0.0
  9
$LOFTMAG2
 40
0.0
  9
$LOFTPARAM
 70
     7
  9
$LOFTNORMALS
280
     1
  9
$LATITUDE
 40
37.795
  9
$LONGITUDE
 40
-122.394
  9
$NORTHDIRECTION
 40
0.0
  9
$TIMEZONE
 70
 -8000
  9
$LIGHTGLYPHDISPLAY
280
     1
  9
$TILEMODELIGHTSYNCH
280
     1
  9
$CMATERIAL
347
464FC
  9
$SOLIDHIST
280
     1
  9
$SHOWHIST
280
     1
  9
$DWFFRAME
280
     2
  9
$DGNFRAME
280
     0
  9
$REALWORLDSCALE
290
     1
  9
$INTERFERECOLOR
 62
     1
  9
$INTERFEREOBJVS
345
46509
  9
$INTERFEREVPVS
346
46506
  9
$CSHADOW
280
     0
  9
$SHADOWPLANELOCATION
 40
0.0
  0
ENDSEC
  0
SECTION
  2
CLASSES
  0
CLASS
  1
DICTIONARYVAR
  2
AcDbDictionaryVar
  3
ObjectDBX Classes
 90
        0
 91
        4
280
     0
281
     0
  0
CLASS
  1
ACDBDICTIONARYWDFLT
  2
AcDbDictionaryWithDefault
  3
ObjectDBX Classes
 90
        0
 91
        1
280
     0
281
     0
  0
CLASS
  1
MATERIAL
  2
AcDbMaterial
  3
ObjectDBX Classes
 90
     1024
 91
        3
280
     0
281
     0
  0
CLASS
  1
VISUALSTYLE
  2
AcDbVisualStyle
  3
ObjectDBX Classes
 90
     4095
 91
       16
280
     0
281
     0
  0
CLASS
  1
TABLESTYLE
  2
AcDbTableStyle
  3
ObjectDBX Classes
 90
     4095
 91
        1
280
     0
281
     0
  0
ENDSEC
  0
SECTION
  2
TABLES
  0
TABLE
  2
VPORT
  5
458C7
102
{ACAD_XDICTIONARY
360
46519
102
}
330
0
100
AcDbSymbolTable
 70
     1
  0
VPORT
  5
464C9
330
458C7
100
AcDbSymbolTableRecord
100
AcDbViewportTableRecord
  2
*Active
 70
     0
 10
0.0
 20
0.0
 11
1.0
 21
1.0
 12
0.0000492897744999
 22
0.1701406991103962
 13
0.0
 23
0.0
 14
0.25
 24
0.25
 15
0.25
 25
0.25
 16
0.0
 26
0.0
 36
1.0
 17
0.0
 27
0.0
 37
0.0
 40
1.527073039429965
 41
1.421818181818181
 42
50.0
 43
0.0
 44
0.0
 50
0.0
 51
0.0
 71
     0
 72
 20000
 73
     1
 74
     1
 75
     0
 76
     0
 77
     0
 78
     0
281
     0
 65
     1
110
0.0
120
0.0
130
0.0
111
1.0
121
0.0
131
0.0
112
0.0
122
1.0
132
0.0
 79
     0
146
0.0
348
46505
 60
     3
 61
     5
292
     1
282
     1
141
0.0
142
0.0
 63
   250
421
  3355443
  0
ENDTAB
  0
TABLE
  2
LTYPE
  5
458C4
330
0
100
AcDbSymbolTable
 70
     1
  0
LTYPE
  5
458D0
330
458C4
100
AcDbSymbolTableRecord
100
AcDbLinetypeTableRecord
  2
BYBLOCK
 70
     0
  3

 72
    65
 73
     0
 40
0.0
  0
LTYPE
  5
458D1
330
458C4
100
AcDbSymbolTableRecord
100
AcDbLinetypeTableRecord
  2
BYLAYER
 70
     0
  3

 72
    65
 73
     0
 40
0.0
  0
LTYPE
  5
458D2
330
458C4
100
AcDbSymbolTableRecord
100
AcDbLinetypeTableRecord
  2
CONTINUOUS
 70
     0
  3
Solid line
 72
    65
 73
     0
 40
0.0
  0
ENDTAB
  0
TABLE
  2
LAYER
  5
458C1
330
0
100
AcDbSymbolTable
 70
     8
  0
LAYER
  5
458CD
330
458C1
100
AcDbSymbolTableRecord
100
AcDbLayerTableRecord
  2
0
 70
     0
 62
     7
  6
CONTINUOUS
370
    -3
390
458FA
347
464FE
  0
LAYER
  5
458EA
330
458C1
100
AcDbSymbolTableRecord
100
AcDbLayerTableRecord
  2
DIMS-MTG-HOLES
 70
     0
 62
     1
  6
CONTINUOUS
370
    -3
390
458FA
347
464FE
  0
LAYER
  5
458EB
330
458C1
100
AcDbSymbolTableRecord
100
AcDbLayerTableRecord
  2
ATTRIBUTES
 70
     0
 62
     7
  6
CONTINUOUS
370
    -3
390
458FA
347
464FE
  0
LAYER
  5
4593B
330
458C1
100
AcDbSymbolTableRecord
100
AcDbLayerTableRecord
  2
AREA1
 70
     1
 62
     7
  6
CONTINUOUS
290
     0
370
    -3
390
458FA
347
464FE
  0
LAYER
  5
45940
330
458C1
100
AcDbSymbolTableRecord
100
AcDbLayerTableRecord
  2
Defpoints
 70
     1
 62
     7
  6
CONTINUOUS
290
     0
370
    -3
390
458FA
347
464FE
  0
LAYER
  5
45954
330
458C1
100
AcDbSymbolTableRecord
100
AcDbLayerTableRecord
  2
SCALE
 70
     1
 62
     7
  6
CONTINUOUS
370
    -3
390
458FA
347
464FE
  0
LAYER
  5
459CE
330
458C1
100
AcDbSymbolTableRecord
100
AcDbLayerTableRecord
  2
SNAP_POINTS
 70
     1
 62
     1
  6
CONTINUOUS
290
     0
370
    -3
390
458FA
347
464FE
  0
LAYER
  5
46514
102
{ACAD_XDICTIONARY
360
46515
102
}
330
458C1
100
AcDbSymbolTableRecord
100
AcDbLayerTableRecord
  2
WIRES
 70
     0
 62
     7
  6
CONTINUOUS
370
    -3
390
458FA
347
464FE
  0
ENDTAB
  0
TABLE
  2
STYLE
  5
458C2
330
0
100
AcDbSymbolTable
 70
     1
  0
STYLE
  5
458CE
330
458C2
100
AcDbSymbolTableRecord
100
AcDbTextStyleTableRecord
  2
STANDARD
 70
     0
 40
0.0
 41
1.0
 50
0.0
 71
     0
 42
0.12
  3
txt
  4

  0
ENDTAB
  0
TABLE
  2
VIEW
  5
458C5
330
0
100
AcDbSymbolTable
 70
     0
  0
ENDTAB
  0
TABLE
  2
UCS
  5
458C6
330
0
100
AcDbSymbolTable
 70
     0
  0
ENDTAB
  0
TABLE
  2
APPID
  5
458C8
330
0
100
AcDbSymbolTable
 70
     3
  0
APPID
  5
458CF
330
458C8
100
AcDbSymbolTableRecord
100
AcDbRegAppTableRecord
  2
ACAD
 70
     0
  0
APPID
  5
45ABF
330
458C8
100
AcDbSymbolTableRecord
100
AcDbRegAppTableRecord
  2
AVE_RENDER
 70
     0
  0
APPID
  5
46465
330
458C8
100
AcDbSymbolTableRecord
100
AcDbRegAppTableRecord
  2
DCO15
 70
     0
  0
ENDTAB
  0
TABLE
  2
DIMSTYLE
  5
458C9
330
0
100
AcDbSymbolTable
 70
     1
100
AcDbDimStyleTable
 71
     0
  0
DIMSTYLE
105
458F6
102
{ACAD_REACTORS
330
46387
330
46394
102
}
330
458C9
100
AcDbSymbolTableRecord
100
AcDbDimStyleTableRecord
  2
ABECAD_3D
 70
     0
 41
0.09
 43
0.375
 44
0.03
 73
     0
 78
     4
140
0.09
146
1.5
170
     1
271
     6
272
     6
276
     2
277
     5
279
     2
284
     4
285
     4
286
     4
288
     1
289
     2
340
458CE
  0
ENDTAB
  0
TABLE
  2
BLOCK_RECORD
  5
458C0
330
0
100
AcDbSymbolTable
 70
     2
  0
BLOCK_RECORD
  5
458D6
102
{ACAD_XDICTIONARY
360
4592C
102
}
330
458C0
100
AcDbSymbolTableRecord
100
AcDbBlockTableRecord
  2
*MODEL_SPACE
340
458FD
 70
     0
280
     1
281
     0
  0
BLOCK_RECORD
  5
458D3
102
{ACAD_XDICTIONARY
360
4592A
102
}
330
458C0
100
AcDbSymbolTableRecord
100
AcDbBlockTableRecord
  2
*PAPER_SPACE
340
458FE
 70
     0
280
     1
281
     0
  0
BLOCK_RECORD
  5
46388
330
458C0
100
AcDbSymbolTableRecord
100
AcDbBlockTableRecord
  2
*D0
340
0
 70
     0
280
     1
281
     0
  0
BLOCK_RECORD
  5
46395
330
458C0
100
AcDbSymbolTableRecord
100
AcDbBlockTableRecord
  2
*D1
340
0
 70
     0
280
     1
281
     0
  0
ENDTAB
  0
ENDSEC
  0
SECTION
  2
BLOCKS
  0
BLOCK
  5
458DF
330
458D6
100
AcDbEntity
  8
0
100
AcDbBlockBegin
  2
*MODEL_SPACE
 70
     0
 10
0.0
 20
0.0
 30
0.0
  3
*MODEL_SPACE
  1

  0
ENDBLK
  5
458E0
330
458D6
100
AcDbEntity
  8
0
100
AcDbBlockEnd
  0
BLOCK
  5
458DD
330
458D3
100
AcDbEntity
 67
     1
  8
0
100
AcDbBlockBegin
  2
*PAPER_SPACE
 70
     0
 10
0.0
 20
0.0
 30
0.0
  3
*PAPER_SPACE
  1

  0
ENDBLK
  5
458DE
330
458D3
100
AcDbEntity
 67
     1
  8
0
100
AcDbBlockEnd
  0
BLOCK
  5
46392
330
46388
100
AcDbEntity
  8
0
100
AcDbBlockBegin
  2
*D0
 70
     1
 10
0.0
 20
0.0
 30
0.0
  3
*D0
  1

  0
LINE
  5
4645A
330
46388
100
AcDbEntity
  8
AREA1
 62
     0
370
    -2
100
AcDbLine
 10
-0.5875000000000004
 20
0.9903107178902686
 30
0.0
 11
-0.5875000000000004
 21
1.237656332331557
 31
0.0
  0
LINE
  5
4645B
330
46388
100
AcDbEntity
  8
AREA1
 62
     0
370
    -2
100
AcDbLine
 10
0.5875000000000004
 20
0.9903107178902686
 30
0.0
 11
0.5875000000000004
 21
1.237656332331557
 31
0.0
  0
LINE
  5
4645C
330
46388
100
AcDbEntity
  8
AREA1
 62
     0
370
    -2
100
AcDbLine
 10
-0.4975000000000004
 20
1.207656332331557
 30
0.0
 11
0.4975000000000004
 21
1.207656332331557
 31
0.0
  0
MTEXT
  5
4645D
330
46388
100
AcDbEntity
  8
AREA1
 62
     0
100
AcDbMText
 10
-0.0000000096867936
 20
1.37874785562814
 30
0.0
 40
0.09
 41
0.0
 46
0.0
 71
     5
 72
     1
  1
\A1;1 11/64 [29.85]
 73
     1
 44
1.0
  0
SOLID
  5
4645E
330
46388
100
AcDbEntity
  8
AREA1
 62
     0
100
AcDbTrace
 10
-0.4975000000000004
 20
1.222656332331556
 30
0.0
 11
-0.4975000000000004
 21
1.192656332331557
 31
0.0
 12
-0.5875000000000004
 22
1.207656332331557
 32
0.0
 13
-0.5875000000000004
 23
1.207656332331557
 33
0.0
  0
SOLID
  5
4645F
330
46388
100
AcDbEntity
  8
AREA1
 62
     0
100
AcDbTrace
 10
0.4975000000000004
 20
1.222656332331556
 30
0.0
 11
0.4975000000000004
 21
1.192656332331557
 31
0.0
 12
0.5875000000000004
 22
1.207656332331557
 32
0.0
 13
0.5875000000000004
 23
1.207656332331557
 33
0.0
  0
POINT
  5
46460
330
46388
100
AcDbEntity
  8
Defpoints
 62
     0
100
AcDbPoint
 10
-0.5875000000000004
 20
0.9278107178902686
 30
0.0
  0
POINT
  5
46461
330
46388
100
AcDbEntity
  8
Defpoints
 62
     0
100
AcDbPoint
 10
0.5875000000000004
 20
0.9278107178902686
 30
0.0
  0
POINT
  5
46462
330
46388
100
AcDbEntity
  8
Defpoints
 62
     0
100
AcDbPoint
 10
0.5875000000000004
 20
1.207656332331557
 30
0.0
  0
ENDBLK
  5
46393
330
46388
100
AcDbEntity
  8
0
100
AcDbBlockEnd
  0
BLOCK
  5
463A0
330
46395
100
AcDbEntity
  8
0
100
AcDbBlockBegin
  2
*D1
 70
     1
 10
0.0
 20
0.0
 30
0.0
  3
*D1
  1

  0
LINE
  5
46472
330
46395
100
AcDbEntity
  8
AREA1
 62
     0
370
    -2
100
AcDbLine
 10
0.6500000000000004
 20
0.9278107178902686
 30
0.0
 11
0.8132020295222634
 21
0.9278107178902686
 31
0.0
  0
LINE
  5
46473
330
46395
100
AcDbEntity
  8
AREA1
 62
     0
370
    -2
100
AcDbLine
 10
0.062499999999998
 20
-0.5874999999999991
 30
0.0
 11
0.8132020295222631
 21
-0.5874999999999993
 31
0.0
  0
LINE
  5
46474
330
46395
100
AcDbEntity
  8
AREA1
 62
     0
370
    -2
100
AcDbLine
 10
0.7832020295222635
 20
1.017810717890268
 30
0.0
 11
0.7832020295222635
 21
1.107810717890268
 31
0.0
  0
LINE
  5
46475
330
46395
100
AcDbEntity
  8
AREA1
 62
     0
370
    -2
100
AcDbLine
 10
0.7832020295222632
 20
-0.6774999999999993
 30
0.0
 11
0.7832020295222631
 21
-0.7674999999999992
 31
0.0
  0
MTEXT
  5
46476
330
46395
100
AcDbEntity
  8
AREA1
 62
     0
100
AcDbMText
 10
0.7832020295222631
 20
0.18081992722185
 30
0.0
 40
0.09
 41
0.0
 46
0.0
 71
     5
 72
     1
  1
\A1;1 33/64 [38.49]
 11
0.0000000000000001
 21
1.0
 31
0.0
 73
     1
 44
1.0
  0
SOLID
  5
46477
330
46395
100
AcDbEntity
  8
AREA1
 62
     0
100
AcDbTrace
 10
0.7682020295222635
 20
1.017810717890268
 30
0.0
 11
0.7982020295222636
 21
1.017810717890268
 31
0.0
 12
0.7832020295222635
 22
0.9278107178902686
 32
0.0
 13
0.7832020295222635
 23
0.9278107178902686
 33
0.0
  0
SOLID
  5
46478
330
46395
100
AcDbEntity
  8
AREA1
 62
     0
100
AcDbTrace
 10
0.7682020295222632
 20
-0.6774999999999993
 30
0.0
 11
0.7982020295222632
 21
-0.6774999999999993
 31
0.0
 12
0.7832020295222632
 22
-0.5874999999999993
 32
0.0
 13
0.7832020295222632
 23
-0.5874999999999993
 33
0.0
  0
POINT
  5
46479
330
46395
100
AcDbEntity
  8
Defpoints
 62
     0
100
AcDbPoint
 10
0.5875000000000004
 20
0.9278107178902686
 30
0.0
  0
POINT
  5
4647A
330
46395
100
AcDbEntity
  8
Defpoints
 62
     0
100
AcDbPoint
 10
-0.0000000000000021
 20
-0.5874999999999991
 30
0.0
  0
POINT
  5
4647B
330
46395
100
AcDbEntity
  8
Defpoints
 62
     0
100
AcDbPoint
 10
0.7832020295222632
 20
-0.5874999999999993
 30
0.0
  0
ENDBLK
  5
463A1
330
46395
100
AcDbEntity
  8
0
100
AcDbBlockEnd
  0
ENDSEC
  0
SECTION
  2
ENTITIES
  0
ATTDEF
  5
46331
330
458D6
100
AcDbEntity
  8
ATTRIBUTES
100
AcDbText
 10
-0.5396067039724369
 20
0.8366544021741578
 30
0.0
 40
0.0347967844402571
  1
SPRECHER+SCHUH
100
AcDbAttributeDefinition
  3
MANUFACTURER NAME?
  2
AC_VND_LABEL
 70
     0
280
     0
  0
ATTDEF
  5
46332
330
458D6
100
AcDbEntity
  8
ATTRIBUTES
100
AcDbText
 10
-0.5396067039724369
 20
0.7641611012569559
 30
0.0
 40
0.0347967844402571
  1
D7-34_
100
AcDbAttributeDefinition
  3
CATALOG NUMBER?
  2
AC_PART_NO
 70
     0
280
     0
  0
ATTDEF
  5
46333
330
458D6
100
AcDbEntity
  8
ATTRIBUTES
100
AcDbText
 10
-0.5396067039724369
 20
0.691667800339754
 30
0.0
 40
0.0347967844402571
  1
30x40 ONE PIECE LEGEND PLATE
100
AcDbAttributeDefinition
  3
PART DESCRIPTION?
  2
AC_DESCRIPTION
 70
     0
280
     0
  0
ATTDEF
  5
46334
330
458D6
100
AcDbEntity
  8
ATTRIBUTES
100
AcDbText
 10
-0.5396067039724369
 20
0.6191744994225511
 30
0.0
 40
0.0347967844402571
  1

100
AcDbAttributeDefinition
  3
DEVICE ID?
  2
DEVICE_ID
 70
     0
280
     0
  0
ATTDEF
  5
46335
330
458D6
100
AcDbEntity
  8
ATTRIBUTES
100
AcDbText
 10
-0.5396067039724369
 20
0.5466811985053491
 30
0.0
 40
0.0347967844402571
  1

100
AcDbAttributeDefinition
  3
CUSTOMER PART NUMBER?
  2
AC_CPART_NO
 70
     0
280
     0
  0
ATTDEF
  5
46336
330
458D6
100
AcDbEntity
  8
ATTRIBUTES
100
AcDbText
 10
-0.5396067039724369
 20
0.4741878975881461
 30
0.0
 40
0.0347967844402571
  1

100
AcDbAttributeDefinition
  3
CUSTOMER NOTE?
  2
AC_NOTE
 70
     0
280
     0
  0
ATTDEF
  5
46337
330
458D6
100
AcDbEntity
  8
ATTRIBUTES
100
AcDbText
 10
-0.5396067039724369
 20
0.4016945966709442
 30
0.0
 40
0.0347967844402571
  1

100
AcDbAttributeDefinition
  3
FASTENER DATA?
  2
FASTENER
 70
     0
280
     0
  0
ATTDEF
  5
46338
330
458D6
100
AcDbEntity
  8
ATTRIBUTES
100
AcDbText
 10
-0.5396067039724369
 20
0.3292012957537413
 30
0.0
 40
0.0347967844402571
  1

100
AcDbAttributeDefinition
  3
UNIT OF SCALE?
  2
AC_SCALE_UNIT
 70
     0
280
     0
  0
ATTDEF
  5
46339
330
458D6
100
AcDbEntity
  8
ATTRIBUTES
100
AcDbText
 10
-0.5396067039724369
 20
0.256707994836539
 30
0.0
 40
0.0347967844402571
  1

100
AcDbAttributeDefinition
  3
VIEW CODE?
  2
AC_VIEW_CODE
 70
     0
280
     0
  0
LWPOLYLINE
  5
4633C
330
458D6
100
AcDbEntity
  8
SCALE
100
AcDbPolyline
 90
        4
 70
     1
 43
0.0
 10
-1.975436048326017
 20
1.177920498868235
 10
-0.8398072287840443
 20
1.177920498868235
 10
-0.8398072287840443
 20
0.3363109320902207
 10
-1.975436048326017
 20
0.3363109320902207
  0
LINE
  5
4633D
330
458D6
100
AcDbEntity
  8
SCALE
100
AcDbLine
 10
-1.917437384099255
 20
0.7978421801640203
 30
0.0
 11
-0.9174373840992549
 21
0.7978421801640203
 31
0.0
  0
LINE
  5
4633E
330
458D6
100
AcDbEntity
  8
SCALE
100
AcDbLine
 10
-1.917437384099255
 20
0.4978421801640205
 30
0.0
 11
-1.523737384099255
 21
0.4978421801640205
 31
0.0
  0
LINE
  5
4633F
330
458D6
100
AcDbEntity
  8
SCALE
100
AcDbLine
 10
-1.917437384099255
 20
0.6978421801640198
 30
0.0
 11
-1.917437384099255
 21
0.8978421801640209
 31
0.0
  0
TEXT
  5
46340
330
458D6
100
AcDbEntity
  8
SCALE
100
AcDbText
 10
-1.86146140216878
 20
0.5455272699268626
 30
0.0
 40
0.0625
  1
[10mm]
100
AcDbText
  0
LINE
  5
46341
330
458D6
100
AcDbEntity
  8
SCALE
100
AcDbLine
 10
-1.917437384099255
 20
0.3978421801640208
 30
0.0
 11
-1.917437384099255
 21
0.5978421801640202
 31
0.0
  0
TEXT
  5
46342
330
458D6
100
AcDbEntity
  8
SCALE
100
AcDbText
 10
-1.915907118852729
 20
1.072719301437633
 30
0.0
 40
0.0625
  1
SCALE:
100
AcDbText
  0
LINE
  5
46343
330
458D6
100
AcDbEntity
  8
SCALE
100
AcDbLine
 10
-1.523737384099255
 20
0.3978421801640208
 30
0.0
 11
-1.523737384099255
 21
0.5978421801640202
 31
0.0
  0
TEXT
  5
46344
330
458D6
100
AcDbEntity
  8
SCALE
100
AcDbText
 10
-1.554154395615345
 20
0.8668908755372214
 30
0.0
 40
0.0625
  1
1 Inch
100
AcDbText
  0
LINE
  5
46345
330
458D6
100
AcDbEntity
  8
SCALE
100
AcDbLine
 10
-0.9174373840992549
 20
0.7978421801640203
 30
0.0
 11
-0.9174373840992549
 21
0.6978421801640198
 31
0.0
  0
LINE
  5
46346
330
458D6
100
AcDbEntity
  8
SCALE
100
AcDbLine
 10
-0.9174373840992549
 20
0.6978421801640198
 30
0.0
 11
-0.9174373840992549
 21
0.8978421801640209
 31
0.0
  0
POINT
  5
46347
330
458D6
100
AcDbEntity
  8
SNAP_POINTS
100
AcDbPoint
 10
0.0
 20
0.0
 30
0.0
  0
DIMENSION
  5
46387
330
458D6
100
AcDbEntity
  8
AREA1
100
AcDbDimension
  2
*D0
 10
0.5875000000000004
 20
1.207656332331557
 30
0.0
 11
-0.0000000096867936
 21
1.37874785562814
 31
0.0
 70
   160
 71
     5
 42
-1.0
 73
     0
 74
     0
 75
     0
  3
ABECAD_3D
100
AcDbAlignedDimension
 13
-0.5875000000000004
 23
0.9278107178902686
 33
0.0
 14
0.5875000000000004
 24
0.9278107178902686
 34
0.0
100
AcDbRotatedDimension
  0
DIMENSION
  5
46394
330
458D6
100
AcDbEntity
  8
AREA1
100
AcDbDimension
  2
*D1
 10
0.7832020295222632
 20
-0.5874999999999993
 30
0.0
 11
0.7832020295222631
 21
0.18081992722185
 31
0.0
 70
   160
 71
     5
 42
-1.0
 73
     0
 74
     0
 75
     0
  3
ABECAD_3D
100
AcDbAlignedDimension
 13
0.5875000000000004
 23
0.9278107178902686
 33
0.0
 14
-0.0000000000000021
 24
-0.5874999999999991
 34
0.0
 50
90.0
100
AcDbRotatedDimension
  0
3DSOLID
  5
464AE
330
458D6
100
AcDbEntity
  8
0
100
AcDbModelerGeometry
 70
     1
  1
mnmoo nik m mi         
  1
ni ^ *+0;:,4 ^ *+0\^ [ ng ^ LR nmqoqoqjgmm QK o  
  1
mjqlffffffffffffff fqfffffffffffffffj:rooh n:rono 
  1
>,27:>;:- {rn rn _nm mnmqoqoqjgmm |
  1
=0;& {rn rn {rn {m {rn {rn |
  1
3*2/ {rn rn {rn {rn {l {n |
  1
,7:33 {rn rn {rn {rn {rn {k {rn {m |
  1
9><: {rn rn {rn {j {i {l {rn {h -:):-,:; ,6183: |
  1
9><: {rn rn {rn {g {f {l {rn {no -:):-,:; ,6183: |
  1
300/ {rn rn {rn {rn {nn {k |
  1
/3>1:r,*-9><: {rn rn {rn roqoimjoooooooooooggg oqkfnjoooooooooommn rjqjjnnnjnmlnmjhgmh:ronh o n o o o n 90-(>-;@) V V V V |
  1
9><: {rn rn {rn {nm {nl {l {rn {nk -:):-,:; ,6183: |
  1
300/ {rn rn {rn {rn {nj {j |
  1
/3>1:r,*-9><: {rn rn {rn oqoimj oqkfnjoooooooooommn rjqjjnnnjnmlnmjhgmh:ronh n o o o o rn 90-(>-;@) V V V V |
  1
<0:;8: {rn rn {rn {ni {nh {ng {nf -:):-,:; {i {rn |
  1
9><: {rn rn {rn {mo {mn {l {rn {mm -:):-,:; ,6183: |
  1
300/ {rn rn {rn {rn {ml {g |
  1
<01:r,*-9><: {rn rn {rn o o rjqjjnnnjnmlnmjhgmh:ronh o o n jqfigjjgfgolgkgnnk:roni roqkkgoooooooooooof o n V V o n oqkkgoooooooooooof 90-(>-; V V V V |
  1
<0:;8: {rn rn {rn {mk {mj {mi {mh -:):-,:; {f {rn |
  1
<0:;8: {rn rn {rn {mg {nn {mf {lo -:):-,:; {i {rn |
  1
<0:;8: {rn rn {rn {nn {mg {mk {ln 90-(>-; {i {rn |
  1
<0:;8: {rn rn {rn {mi {lm {nn {nf 90-(>-; {ll {rn |
  1
:;8: {rn rn {rn {lk roqolnmjooooooooooggg {lj oqoflhj {ng {li 90-(>-; _h *1410(1 |
  1
9><: {rn rn {rn {lh {lg {l {rn {lf 90-(>-; ,6183: |
  1
300/ {rn rn {rn {rn {ko {nm |
  1
/3>1:r,*-9><: {rn rn {rn roqoimjoooooooooooggg oqkklingfmklolmgnjf rjqjjnnnjnmlnmjhgmh:ronh rn o o o o n 90-(>-;@) V V V V |
  1
<0:;8: {rn rn {rn {kn {km {kl {kk -:):-,:; {nl {rn |
  1
<0:;8: {rn rn {rn {kj {nj {nh {ln -:):-,:; {f {rn |
  1
<0:;8: {rn rn {rn {nj {kj {kn {ki 90-(>-; {f {rn |
  1
<0:;8: {rn rn {rn {kl {ng {nj {mh 90-(>-; {ll {rn |
  1
:;8: {rn rn {rn {lj roqnofjnhkjkikoilhhg {kh roqoinililhgfklfnhlmj {mi {kg 90-(>-; _h *1410(1 |
  1
<0:;8: {rn rn {rn {nh {ni {kf {jo -:):-,:; {i {rn |
  1
<0:;8: {rn rn {rn {ko {jn {ni {lo 90-(>-; {mn {rn |
  1
:;8: {rn rn {rn {jm o {lk oqoigoooooooooooooi {ni {jl 90-(>-; _h *1410(1 |
  1
:;8: {rn rn {rn {jk o {lj oqoigoooooooooooooi {mk {jj 90-(>-; _h *1410(1 |
  1
<0:;8: {rn rn {rn {ng {kl {ko {ji 90-(>-; {ll {rn |
  1
300/ {rn rn {rn {jh {ng {jg |
  1
):-+:' {rn rn {rn {nf m {jf |
  1
):-+:' {rn rn {rn {nf m {io |
  1
,+->687+r<*-): {rn rn {rn roqolnmj oqkfnjoooooooooommn oqoigoooooooooooooi n o o V V |
  1
9><: {rn rn {rn {in {im {l {rn {il 90-(>-; ,6183: |
  1
300/ {rn rn {rn {rn {ik {mo |
  1
/3>1:r,*-9><: {rn rn {rn roqjghjoooooooooooli oqfmhgnohnhgfomignk o o n o o o n 90-(>-;@) V V V V |
  1
<0:;8: {rn rn {rn {ij {mf {lm {ji -:):-,:; {mn {rn |
  1
<0:;8: {rn rn {rn {ii {ml {mj {ki -:):-,:; {nl {rn |
  1
<0:;8: {rn rn {rn {ml {ii {ij {ih 90-(>-; {nl {rn |
  1
<0:;8: {rn rn {rn {lm {mi {ml {kk 90-(>-; {ll {rn |
  1
:;8: {rn rn {rn {kh rlqoonimhnhhlionkii {ig lqoonimhnhhlionkhj {kl {if 90-(>-; _h *1410(1 |
  1
<0:;8: {rn rn {rn {mj {mk {ho {hn -:):-,:; {f {rn |
  1
:;8: {rn rn {rn {hm o {kh oqoigoooooooooooooi {kn {hl 90-(>-; _h *1410(1 |
  1
):-+:' {rn rn {rn {mh m {hk |
  1
,+->687+r<*-): {rn rn {rn oqoimj oqlgnfgmjkjljflikkl oqoigoooooooooooooi o rn o V V |
  1
<0:;8: {rn rn {rn {hj {ho {mg {jo 90-(>-; {hi {rn |
  1
:;8: {rn rn {rn {jk roqoflhj {jm oqolnmjooooooooooggg {kf {hh 90-(>-; _h *1410(1 |
  1
<0:;8: {rn rn {rn {mf {ij {hj {hg -:):-,:; {mn {rn |
  1
):-+:' {rn rn {rn {jo m {hf |
  1
,+->687+r<*-): {rn rn {rn roqoimjoooooooooooggg oqkfnjoooooooooommn rjqjjnnnjnmlnmjhgmh:ronh o o n V V |
  1
):-+:' {rn rn {rn {jo m {go |
  1
,+->687+r<*-): {rn rn {rn oqoimj oqkfnjoooooooooommn rjqjjnnnjnmlnmjhgmh:ronh o o n V V |
  1
:;8: {rn rn {rn {ig oqogjjhifnihfmmhhkif {lk oqnllkjhffmkggffgof {lm {gn 90-(>-; _h *1410(1 |
  1
300/ {rn rn {rn {rn {gm {jg |
  1
9><: {rn rn {rn {gl {ll {l {rn {gk 90-(>-; ,6183: |
  1
/061+ {rn rn {rn roqoimjoooooooooooggg oqkfnjoooooooooommn oqoigooooooooooooooj |
  1
/061+ {rn rn {rn oqoimj oqkfnjoooooooooommn oqoigooooooooooooooj |
  1
9><: {rn rn {rn {gj {gi {l {rn {gh 90-(>-; ,6183: |
  1
300/ {rn rn {rn {rn {gg {lh |
  1
/3>1:r,*-9><: {rn rn {rn oqjghjoooooooooooli oqfmhgnohnhgfomignk o n o o o o rn 90-(>-;@) V V V V |
  1
<0:;8: {rn rn {rn {gf {fo {gm {fn 90-(>-; {lg {rn |
  1
<0:;8: {rn rn {rn {jn {ko {km {ih -:):-,:; {mn {rn |
  1
<0:;8: {rn rn {rn {km {kn {fm {fl -:):-,:; {nl {rn |
  1
:;8: {rn rn {rn {fk o {ig oqoigoooooooooooooi {ij {fj 90-(>-; _h *1410(1 |
  1
):-+:' {rn rn {rn {kk m {fi |
  1
:336/,:r<*-): {rn rn {rn o o oqoigoooooooooooooi o o rn jqfigjjgfgolgkgnnk:roni roqkkgoooooooooooof o n V V |
  1
<0:;8: {rn rn {rn {kf {fm {kj {hn 90-(>-; {hi {rn |
  1
:;8: {rn rn {rn {hm oqoinililhgfklfnhlmj {jk oqnofjnhkjkikoilhhg {ho {fh 90-(>-; _h *1410(1 |
  1
):-+:' {rn rn {rn {hn m {fg |
  1
,+->687+r<*-): {rn rn {rn oqoimj oqkklingfmklolmgnhi rjqjjnnnjnmlnmjhgmh:ronh o o n V V |
  1
/061+ {rn rn {rn oqoimj oqkklingfmklolmgnhi oqoigooooooooooooooj |
  1
<0:;8: {rn rn {rn {fm {kf {jn {hg 90-(>-; {hi {rn |
  1
300/ {rn rn {rn {ff {kf {gl |
  1
,+->687+r<*-): {rn rn {rn roqolnmj oqkfnjoooooooooommn o rn o o V V |
  1
:;8: {rn rn {rn {jm roqnllkjhffmkggffgof {fk roqogjjhifnihfmmhhkif {hj {noo 90-(>-; _h *1410(1 |
  1
/061+ {rn rn {rn roqoimjoooooooooooggg oqkfnjoooooooooommn rjqjjnnnjnmlnmjhgmh:ronh |
  1
/061+ {rn rn {rn oqoimj oqkfnjoooooooooommn rjqjjnnnjnmlnmjhgmh:ronh |
  1
,+->687+r<*-): {rn rn {rn roqoimjoooooooooooggg oqljgokmoohjnnooknm oqoigoooooooooooooi o n o V V |
  1
<0:;8: {rn rn {rn {non {nom {ik {fn -:):-,:; {jh {rn |
  1
9><: {rn rn {rn {rn {hi {l {rn {nol -:):-,:; ,6183: |
  1
/3>1:r,*-9><: {rn rn {rn kqkkogfmofgjooimim:roni oqmhmkijofohnghmiij oqoigoooooooooooooi o o n n o o 90-(>-;@) V V V V |
  1
9><: {rn rn {rn {jg {nok {l {rn {noj 90-(>-; ,6183: |
  1
300/ {rn rn {rn {rn {noi {in |
  1
<01:r,*-9><: {rn rn {rn o rjqlfhhijjihgkfklmg:ronj o o o n o roqjghjoooooooooooli o n V V o n oqjghjoooooooooooli 90-(>-; V V V V |
  1
<0:;8: {rn rn {rn {noh {nog {nom {nof 90-(>-; {im {rn |
  1
<0:;8: {rn rn {rn {nno {ik {nog {nnn -:):-,:; {lg {rn |
  1
<0:;8: {rn rn {rn {ik {nno {nnm {nnl 90-(>-; {lg {rn |
  1
:;8: {rn rn {rn {nnk o {nnj nqnhjooooooooooooh {ik {nni 90-(>-; _h *1410(1 |
  1
<0:;8: {rn rn {rn {ho {hj {ii {fl 90-(>-; {hi {rn |
  1
:;8: {rn rn {rn {fk rlqoonimhnhhlionkhj {hm lqoonimhnhhlionkii {fm {nnh 90-(>-; _h *1410(1 |
  1
):-+:' {rn rn {rn {fl m {nng |
  1
,+->687+r<*-): {rn rn {rn roqoimjoooooooooooggg oqkklingfmklolmgnjf rjqjjnnnjnmlnmjhgmh:ronh o o n V V |
  1
/061+ {rn rn {rn roqoimjoooooooooooggg oqkklingfmklolmgnjf oqoigooooooooooooooj |
  1
,+->687+r<*-): {rn rn {rn oqoimj oqlgnfgmjkjljflikkl o o n o V V |
  1
/061+ {rn rn {rn oqoimj oqkklingfmklolmgnhi rjqjjnnnjnmlnmjhgmh:ronh |
  1
300/ {rn rn {rn {rn {nnf {gl |
  1
,+->687+r<*-): {rn rn {rn roqoimjoooooooooooggg oqljgokmoohjnnooknm o o rn o V V |
  1
<0:;8: {rn rn {rn {nmo {gm {nmn {nmm -:):-,:; {jh {rn |
  1
<0:;8: {rn rn {rn {gm {nmo {gg {nof -:):-,:; {jh {rn |
  1
/3>1:r,*-9><: {rn rn {rn kqkkogfmofgjooimim:roni oqmhmkijofohnghmiij o o o n n o o 90-(>-;@) V V V V |
  1
300/ {rn rn {rn {rn {nmn {gj |
  1
/3>1:r,*-9><: {rn rn {rn roqjghjoooooooooooli rjqkfjiolfhngfkjmkf:ronj o rn o o o o n 90-(>-;@) V V V V |
  1
<0:;8: {rn rn {rn {nml {nmk {nmo {nmj 90-(>-; {gi {rn |
  1
<0:;8: {rn rn {rn {nmi {gg {nmk {nmh -:):-,:; {im {rn |
  1
<0:;8: {rn rn {rn {gg {nmi {gf {nnn 90-(>-; {im {rn |
  1
:;8: {rn rn {rn {nnj o {nmg oqfmhgnohnhgfomhlh {gg {nmf 90-(>-; _h *1410(1 |
  1
<0:;8: {rn rn {rn {fo {gf {nlo {nln -:):-,:; {lg {rn |
  1
:;8: {rn rn {rn {nlm o {nnj oqoigoooooooooooooi {nog {nll 90-(>-; _h *1410(1 |
  1
<0:;8: {rn rn {rn {nlk {nmn {fo {nnl -:):-,:; {nok {rn |
  1
:;8: {rn rn {rn {nlj o {nnk oqoigoooooooooooooi {fo {nli 90-(>-; _h *1410(1 |
  1
):-+:' {rn rn {rn {nnl m {nlh |
  1
):-+:' {rn rn {rn {nnn m {nlg |
  1
,+->687+r<*-): {rn rn {rn roqjghjoooooooooooli oqfmhgnohnhgfomignk oqoigoooooooooooooi n o o V V |
  1
:336/,:r<*-): {rn rn {rn o o o o o n jqfigjjgfgolgkgnnk:roni roqkkgoooooooooooof o n V V |
  1
/061+ {rn rn {rn roqoimjoooooooooooggg oqkklingfmklolmgnjf rjqjjnnnjnmlnmjhgmh:ronh |
  1
<0:;8: {rn rn {rn {nlo {nlf {nlk {nko 90-(>-; {ff {rn |
  1
<0:;8: {rn rn {rn {nom {non {noi {nmj -:):-,:; {jh {rn |
  1
<0:;8: {rn rn {rn {nnm {nkn {non {nmm 90-(>-; {nok {rn |
  1
:;8: {rn rn {rn {nkm o {nnk oqfmhgnohnhgfomhlh {nmn {nkl 90-(>-; _h *1410(1 |
  1
<0:;8: {rn rn {rn {nkk {noi {nkn {nkj -:):-,:; {gi {rn |
  1
<0:;8: {rn rn {rn {noi {nkk {noh {nmh 90-(>-; {gi {rn |
  1
:;8: {rn rn {rn {nmg rnqjhohfilmihfkgfii {nkm nqjhohfilmihfkgfii {noi {nki 90-(>-; _h *1410(1 |
  1
<0:;8: {rn rn {rn {nog {noh {nkh {nkg -:):-,:; {im {rn |
  1
:;8: {rn rn {rn {nkf o {nmg oqoigoooooooooooooi {nmk {njo 90-(>-; _h +>18:1+ |
  1
):-+:' {rn rn {rn {nmh m {njn |
  1
,+->687+r<*-): {rn rn {rn oqjghjoooooooooooli oqfmhgnohnhgfomignk oqoigoooooooooooooi o rn o V V |
  1
<0:;8: {rn rn {rn {nkh {nnf {nno {nln 90-(>-; {ff {rn |
  1
:;8: {rn rn {rn {nlj o {nlm nqnhjooooooooooooh {nlo {njm 90-(>-; _h *1410(1 |
  1
):-+:' {rn rn {rn {nln m {njl |
  1
,+->687+r<*-): {rn rn {rn oqjghjoooooooooooli oqfmhgnohnhgfomignk o o o n V V |
  1
<0:;8: {rn rn {rn {nkn {nnm {nnf {nko -:):-,:; {nok {rn |
  1
):-+:' {rn rn {rn {nko m {njk |
  1
,+->687+r<*-): {rn rn {rn roqjghjoooooooooooli oqfmhgnohnhgfomignk o o o n V V |
  1
/061+ {rn rn {rn roqjghjoooooooooooli oqfmhgnohnhgfomignk oqoigoooooooooooooi |
  1
/061+ {rn rn {rn oqjghjoooooooooooli oqfmhgnohnhgfomignk oqoigoooooooooooooi |
  1
<0:;8: {rn rn {rn {nnf {nkh {nkk {njj 90-(>-; {ff {rn |
  1
:;8: {rn rn {rn {nji o {nlj oqfmhgnohnhgfomhlh {nnf {njh 90-(>-; _h *1410(1 |
  1
<0:;8: {rn rn {rn {nmn {nlk {nml {nkj 90-(>-; {nok {rn |
  1
):-+:' {rn rn {rn {nkj m {njg |
  1
,+->687+r<*-): {rn rn {rn roqjghjoooooooooooli rjqkfjiolfhngfkjmkf:ronj oqoigoooooooooooooi o n o V V |
  1
<0:;8: {rn rn {rn {nmk {nml {nlf {njj -:):-,:; {gi {rn |
  1
:;8: {rn rn {rn {nji o {nkm oqoigoooooooooooooi {nkn {njf 90-(>-; _h +>18:1+ |
  1
:336/,:r<*-): {rn rn {rn o rjqlfhhijjihgkfklmg:ronj oqoigoooooooooooooi o o rn o roqjghjoooooooooooli o n V V |
  1
<0:;8: {rn rn {rn {nlf {nlo {nmi {nkg 90-(>-; {ff {rn |
  1
:;8: {rn rn {rn {nlm o {nkf oqfmhgnohnhgfomhlh {nkh {nio 90-(>-; _h *1410(1 |
  1
):-+:' {rn rn {rn {nkg m {nin |
  1
,+->687+r<*-): {rn rn {rn oqjghjoooooooooooli rjqkfjiolfhngfkjmkf:ronj o o o n V V |
  1
/061+ {rn rn {rn oqjghjoooooooooooli rjqkfjiolfhngfkjmkf:ronj oqoigoooooooooooooi |
  1
,+->687+r<*-): {rn rn {rn roqjghjoooooooooooli oqfmhgnohnhgfomignk o n o o V V |
  1
/061+ {rn rn {rn oqjghjoooooooooooli oqfmhgnohnhgfomignk o |
  1
/061+ {rn rn {rn roqjghjoooooooooooli oqfmhgnohnhgfomignk o |
  1
:;8: {rn rn {rn {nkf rnqjhohfilmihfkgfii {nji nqjhohfilmihfkgfii {nlf {nim 90-(>-; _h *1410(1 |
  1
):-+:' {rn rn {rn {nko m {nil |
  1
,+->687+r<*-): {rn rn {rn roqjghjoooooooooooli rjqkfjiolfhngfkjmkf:ronj o o n o V V |
  1
/061+ {rn rn {rn roqjghjoooooooooooli rjqkfjiolfhngfkjmkf:ronj oqoigoooooooooooooi |
  1
,+->687+r<*-): {rn rn {rn roqjghjoooooooooooli rjqkfjiolfhngfkjmkf:ronj o o o n V V |
  1
,+->687+r<*-): {rn rn {rn oqjghjoooooooooooli oqfmhgnohnhgfomignk o o rn o V V |
  1
/061+ {rn rn {rn oqjghjoooooooooooli rjqkfjiolfhngfkjmkf:ronj o |
  1
:336/,:r<*-): {rn rn {rn o rjqlfhhijjihgkfklmg:ronj o o o rn o roqjghjoooooooooooli o n V V |
  1
/061+ {rn rn {rn roqjghjoooooooooooli rjqkfjiolfhngfkjmkf:ronj o |
100
AcDb3dSolid
350
0
  0
ENDSEC
  0
SECTION
  2
OBJECTS
  0
DICTIONARY
  5
458CB
330
0
100
AcDbDictionary
281
     1
  3
ACAD_COLOR
350
4641D
  3
ACAD_GROUP
350
458CC
  3
ACAD_LAYOUT
350
458FB
  3
ACAD_MATERIAL
350
4641C
  3
ACAD_MLINESTYLE
350
458D9
  3
ACAD_PLOTSETTINGS
350
458FC
  3
ACAD_PLOTSTYLENAME
350
458F9
  3
ACAD_TABLESTYLE
350
46510
  3
ACAD_VISUALSTYLE
350
464FF
  3
ACADE_WIRETYPE
350
46537
  3
ACDBVARIABLEDICTIONARY
350
458E1
  3
ASE_INDEX_DICTIONARY
350
46517
  0
DICTIONARY
  5
46519
330
458C7
100
AcDbDictionary
280
     1
281
     1
  0
DICTIONARY
  5
46515
330
46514
100
AcDbDictionary
280
     1
281
     1
  3
ACADE_WIRETYPE
360
46516
  0
DICTIONARY
  5
4592C
330
458D6
100
AcDbDictionary
280
     1
281
     1
  3
ACAD_LAYOUTSELFREF
360
464F0
  0
DICTIONARY
  5
4592A
330
458D3
100
AcDbDictionary
280
     1
281
     1
  3
ACAD_LAYOUTSELFREF
360
464EF
  0
DICTIONARY
  5
4641D
102
{ACAD_REACTORS
330
458CB
102
}
330
458CB
100
AcDbDictionary
281
     1
  0
DICTIONARY
  5
458CC
102
{ACAD_REACTORS
330
458CB
102
}
330
458CB
100
AcDbDictionary
281
     1
  0
DICTIONARY
  5
458FB
102
{ACAD_REACTORS
330
458CB
102
}
330
458CB
100
AcDbDictionary
281
     1
  3
Layout1
350
458FE
  3
Model
350
458FD
  0
DICTIONARY
  5
4641C
102
{ACAD_REACTORS
330
458CB
102
}
330
458CB
100
AcDbDictionary
281
     1
  3
ByBlock
350
464FD
  3
ByLayer
350
464FC
  3
Global
350
464FE
  0
DICTIONARY
  5
458D9
102
{ACAD_REACTORS
330
458CB
102
}
330
458CB
100
AcDbDictionary
281
     1
  3
STANDARD
350
458DA
  0
DICTIONARY
  5
458FC
102
{ACAD_REACTORS
330
458CB
102
}
330
458CB
100
AcDbDictionary
281
     1
  0
ACDBDICTIONARYWDFLT
  5
458F9
102
{ACAD_REACTORS
330
458CB
102
}
330
458CB
100
AcDbDictionary
281
     1
  3
Normal
350
458FA
100
AcDbDictionaryWithDefault
340
458FA
  0
DICTIONARY
  5
46510
102
{ACAD_REACTORS
330
458CB
102
}
330
458CB
100
AcDbDictionary
281
     1
  3
Standard
350
46511
  0
DICTIONARY
  5
464FF
102
{ACAD_REACTORS
330
458CB
102
}
330
458CB
100
AcDbDictionary
281
     1
  3
2dWireframe
350
46505
  3
3D Hidden
350
46507
  3
3dWireframe
350
46506
  3
Basic
350
46504
  3
Brighten
350
4650B
  3
ColorChange
350
4650F
  3
Conceptual
350
46508
  3
Dim
350
4650A
  3
Facepattern
350
4650E
  3
Flat
350
46500
  3
FlatWithEdges
350
46501
  3
Gouraud
350
46502
  3
GouraudWithEdges
350
46503
  3
Linepattern
350
4650D
  3
Realistic
350
46509
  3
Thicken
350
4650C
  0
DICTIONARY
  5
46537
102
{ACAD_REACTORS
330
458CB
102
}
330
458CB
100
AcDbDictionary
281
     1
  3
CURRENT_WIRELAY
350
46538
  0
DICTIONARY
  5
458E1
102
{ACAD_REACTORS
330
458CB
102
}
330
458CB
100
AcDbDictionary
281
     1
  3
CTABLESTYLE
350
46532
  3
DIMADEC
350
458E2
  3
DIMASSOC
350
46485
  3
PROJECTNAME
350
46486
  0
DICTIONARY
  5
46517
102
{ACAD_REACTORS
330
458CB
102
}
330
458CB
100
AcDbDictionary
281
     1
  3
ASEBlockHierarchyIndexRecord
350
46518
1001
DCO15
1040
1590467187.075
  0
XRECORD
  5
46516
102
{ACAD_REACTORS
330
46515
102
}
330
46515
100
AcDbXrecord
280
     1
  1

  2

  3
WIRE
 90
        0
  0
XRECORD
  5
464F0
102
{ACAD_REACTORS
330
4592C
102
}
330
4592C
100
AcDbXrecord
280
     1
340
458D6
  0
XRECORD
  5
464EF
102
{ACAD_REACTORS
330
4592A
102
}
330
4592A
100
AcDbXrecord
280
     1
340
458D3
  0
LAYOUT
  5
458FE
102
{ACAD_REACTORS
330
458FB
102
}
330
458FB
100
AcDbPlotSettings
  1

  2
HP LaserJet 5000 Series PCL 6
  4

  6

 40
0.0
 41
0.0
 42
0.0
 43
0.0
 44
0.0
 45
0.0
 46
0.0
 47
0.0
 48
0.0
 49
0.0
140
0.0
141
0.0
142
1.0
143
1.0
 70
   688
 72
     0
 73
     0
 74
     5
  7
Default R14 pen assignments.ctb
 75
    16
147
1.0
 76
     0
 77
     2
 78
   300
148
0.0
149
0.0
100
AcDbLayout
  1
Layout1
 70
     1
 71
     1
 10
0.0
 20
0.0
 11
12.0
 21
9.0
 12
0.0
 22
0.0
 32
0.0
 14
1.000000000000000E+20
 24
1.000000000000000E+20
 34
1.000000000000000E+20
 15
-1.000000000000000E+20
 25
-1.000000000000000E+20
 35
-1.000000000000000E+20
146
0.0
 13
0.0
 23
0.0
 33
0.0
 16
1.0
 26
0.0
 36
0.0
 17
0.0
 27
1.0
 37
0.0
 76
     0
330
458D3
  0
LAYOUT
  5
458FD
102
{ACAD_REACTORS
330
458FB
102
}
330
458FB
100
AcDbPlotSettings
  1

  2
HP LaserJet 5000 Series PCL 6
  4

  6

 40
0.0
 41
0.0
 42
0.0
 43
0.0
 44
0.0
 45
0.0
 46
0.0
 47
0.0
 48
0.0
 49
0.0
140
0.0
141
0.0
142
1.0
143
1.0
 70
  1712
 72
     0
 73
     0
 74
     0
  7
Default R14 pen assignments.ctb
 75
     0
147
1.0
 76
     0
 77
     2
 78
   300
148
0.0
149
0.0
100
AcDbLayout
  1
Model
 70
     1
 71
     0
 10
0.0
 20
0.0
 11
12.0
 21
9.0
 12
0.0
 22
0.0
 32
0.0
 14
0.0
 24
0.0
 34
0.0
 15
0.0
 25
0.0
 35
0.0
146
0.0
 13
0.0
 23
0.0
 33
0.0
 16
1.0
 26
0.0
 36
0.0
 17
0.0
 27
1.0
 37
0.0
 76
     0
330
458D6
331
464C9
  0
MATERIAL
  5
464FD
102
{ACAD_REACTORS
330
4641C
102
}
330
4641C
100
AcDbMaterial
  1
ByBlock
  0
MATERIAL
  5
464FC
102
{ACAD_REACTORS
330
4641C
102
}
330
4641C
100
AcDbMaterial
  1
ByLayer
  0
MATERIAL
  5
464FE
102
{ACAD_REACTORS
330
4641C
102
}
330
4641C
100
AcDbMaterial
  1
Global
  0
MLINESTYLE
  5
458DA
102
{ACAD_REACTORS
330
458D9
102
}
330
458D9
100
AcDbMlineStyle
  2
STANDARD
 70
     0
  3

 62
   256
 51
90.0
 52
90.0
 71
     2
 49
0.5
 62
   256
  6
BYLAYER
 49
-0.5
 62
   256
  6
BYLAYER
  0
ACDBPLACEHOLDER
  5
458FA
102
{ACAD_REACTORS
330
458F9
102
}
330
458F9
  0
TABLESTYLE
  5
46511
102
{ACAD_REACTORS
330
46510
102
}
330
46510
100
AcDbTableStyle
  3
Standard
 70
     0
 71
     0
 40
0.06
 41
0.06
280
     0
281
     0
  7
STANDARD
140
0.18
170
     2
 62
     0
 63
     7
283
     0
 90
      512
 91
        0
  1

274
    -2
284
     1
 64
     0
275
    -2
285
     1
 65
     0
276
    -2
286
     1
 66
     0
277
    -2
287
     1
 67
     0
278
    -2
288
     1
 68
     0
279
    -2
289
     1
 69
     0
  7
STANDARD
140
0.25
170
     5
 62
     0
 63
     7
283
     0
 90
      512
 91
        0
  1

274
    -2
284
     1
 64
     0
275
    -2
285
     1
 65
     0
276
    -2
286
     1
 66
     0
277
    -2
287
     1
 67
     0
278
    -2
288
     1
 68
     0
279
    -2
289
     1
 69
     0
  7
STANDARD
140
0.18
170
     5
 62
     0
 63
     7
283
     0
 90
      512
 91
        0
  1

274
    -2
284
     1
 64
     0
275
    -2
285
     1
 65
     0
276
    -2
286
     1
 66
     0
277
    -2
287
     1
 67
     0
278
    -2
288
     1
 68
     0
279
    -2
289
     1
 69
     0
  0
VISUALSTYLE
  5
46505
102
{ACAD_REACTORS
330
464FF
102
}
330
464FF
100
AcDbVisualStyle
  2
2dWireframe
 70
     4
 71
     0
 72
     2
 73
     0
 90
        0
 40
-0.6
 41
-30.0
 62
     5
 63
     7
421
 16777215
 74
     1
 91
        4
 64
     7
 65
   257
 75
     1
175
     1
 42
1.0
 92
        0
 66
   257
 43
1.0
 76
     1
 77
     6
 78
     2
 67
     7
 79
     5
170
     0
171
     0
290
     0
174
     0
 93
        1
 44
0.0
173
     0
291
     0
 45
0.0
  0
VISUALSTYLE
  5
46507
102
{ACAD_REACTORS
330
464FF
102
}
330
464FF
100
AcDbVisualStyle
  2
3D Hidden
 70
     6
 71
     1
 72
     2
 73
     2
 90
        0
 40
-0.6
 41
-30.0
 62
     5
 63
     7
421
 16777215
 74
     2
 91
        2
 64
     7
 65
   257
 75
     2
175
     1
 42
40.0
 92
        0
 66
   257
 43
1.0
 76
     1
 77
     6
 78
     2
 67
     7
 79
     3
170
     0
171
     0
290
     0
174
     0
 93
        1
 44
0.0
173
     0
291
     0
 45
0.0
  0
VISUALSTYLE
  5
46506
102
{ACAD_REACTORS
330
464FF
102
}
330
464FF
100
AcDbVisualStyle
  2
3dWireframe
 70
     5
 71
     0
 72
     2
 73
     0
 90
        0
 40
-0.6
 41
-30.0
 62
     5
 63
     7
421
 16777215
 74
     1
 91
        4
 64
     7
 65
   257
 75
     1
175
     1
 42
1.0
 92
        0
 66
   257
 43
1.0
 76
     1
 77
     6
 78
     2
 67
     7
 79
     5
170
     0
171
     0
290
     0
174
     0
 93
        1
 44
0.0
173
     0
291
     0
 45
0.0
  0
VISUALSTYLE
  5
46504
102
{ACAD_REACTORS
330
464FF
102
}
330
464FF
100
AcDbVisualStyle
  2
Basic
 70
     7
 71
     1
 72
     0
 73
     1
 90
        0
 40
-0.6
 41
-30.0
 62
     5
 63
     7
421
 16777215
 74
     0
 91
        4
 64
     7
 65
   257
 75
     1
175
     1
 42
1.0
 92
        8
 66
     7
 43
1.0
 76
     1
 77
     6
 78
     2
 67
     7
 79
     5
170
     0
171
     0
290
     0
174
     0
 93
        1
 44
0.0
173
     0
291
     1
 45
0.0
  0
VISUALSTYLE
  5
4650B
102
{ACAD_REACTORS
330
464FF
102
}
330
464FF
100
AcDbVisualStyle
  2
Brighten
 70
    12
 71
     2
 72
     2
 73
     0
 90
        0
 40
-0.6
 41
-30.0
 62
     5
 63
     7
421
 16777215
 74
     1
 91
        4
 64
     7
 65
   257
 75
     1
175
     1
 42
1.0
 92
        8
 66
     7
 43
1.0
 76
     1
 77
     6
 78
     2
 67
     7
 79
     5
170
     0
171
     0
290
     0
174
     0
 93
        1
 44
50.0
173
     0
291
     1
 45
0.0
  0
VISUALSTYLE
  5
4650F
102
{ACAD_REACTORS
330
464FF
102
}
330
464FF
100
AcDbVisualStyle
  2
ColorChange
 70
    16
 71
     2
 72
     2
 73
     3
 90
        0
 40
-0.6
 41
-30.0
 62
     5
 63
     8
421
  8421504
 74
     1
 91
        4
 64
     7
 65
   257
 75
     1
175
     1
 42
1.0
 92
        8
 66
     8
424
  8421504
 43
1.0
 76
     1
 77
     6
 78
     2
 67
     7
 79
     5
170
     0
171
     0
290
     0
174
     0
 93
        1
 44
0.0
173
     0
291
     1
 45
0.0
  0
VISUALSTYLE
  5
46508
102
{ACAD_REACTORS
330
464FF
102
}
330
464FF
100
AcDbVisualStyle
  2
Conceptual
 70
     9
 71
     3
 72
     2
 73
     0
 90
        0
 40
-0.6
 41
-30.0
 62
     5
 63
     7
421
 16777215
 74
     2
 91
        2
 64
     7
 65
   257
 75
     1
175
     1
 42
40.0
 92
        8
 66
     7
 43
1.0
 76
     1
 77
     6
 78
     2
 67
     7
 79
     3
170
     0
171
     0
290
     0
174
     0
 93
        1
 44
0.0
173
     0
291
     0
 45
0.0
  0
VISUALSTYLE
  5
4650A
102
{ACAD_REACTORS
330
464FF
102
}
330
464FF
100
AcDbVisualStyle
  2
Dim
 70
    11
 71
     2
 72
     2
 73
     0
 90
        0
 40
-0.6
 41
-30.0
 62
     5
 63
     7
421
 16777215
 74
     1
 91
        4
 64
     7
 65
   257
 75
     1
175
     1
 42
1.0
 92
        8
 66
     7
 43
1.0
 76
     1
 77
     6
 78
     2
 67
     7
 79
     5
170
     0
171
     0
290
     0
174
     0
 93
        1
 44
-50.0
173
     0
291
     1
 45
0.0
  0
VISUALSTYLE
  5
4650E
102
{ACAD_REACTORS
330
464FF
102
}
330
464FF
100
AcDbVisualStyle
  2
Facepattern
 70
    15
 71
     2
 72
     2
 73
     0
 90
        0
 40
-0.6
 41
-30.0
 62
     5
 63
     7
421
 16777215
 74
     1
 91
        4
 64
     7
 65
   257
 75
     1
175
     1
 42
1.0
 92
        8
 66
     7
 43
1.0
 76
     1
 77
     6
 78
     2
 67
     7
 79
     5
170
     0
171
     0
290
     0
174
     0
 93
        1
 44
0.0
173
     0
291
     1
 45
0.0
  0
VISUALSTYLE
  5
46500
102
{ACAD_REACTORS
330
464FF
102
}
330
464FF
100
AcDbVisualStyle
  2
Flat
 70
     0
 71
     2
 72
     1
 73
     1
 90
        2
 40
-0.6
 41
30.0
 62
     5
 63
     7
421
 16777215
 74
     0
 91
        4
 64
     7
 65
   257
 75
     1
175
     1
 42
1.0
 92
        8
 66
     7
 43
1.0
 76
     1
 77
     6
 78
     2
 67
     7
 79
     5
170
     0
171
     0
290
     0
174
     0
 93
       13
 44
0.0
173
     0
291
     1
 45
0.0
  0
VISUALSTYLE
  5
46501
102
{ACAD_REACTORS
330
464FF
102
}
330
464FF
100
AcDbVisualStyle
  2
FlatWithEdges
 70
     1
 71
     2
 72
     1
 73
     1
 90
        2
 40
-0.6
 41
30.0
 62
     5
 63
     7
421
 16777215
 74
     1
 91
        4
 64
     7
 65
   257
 75
     1
175
     1
 42
1.0
 92
        0
 66
   257
 43
1.0
 76
     1
 77
     6
 78
     2
 67
     7
 79
     5
170
     0
171
     0
290
     0
174
     0
 93
       13
 44
0.0
173
     0
291
     1
 45
0.0
  0
VISUALSTYLE
  5
46502
102
{ACAD_REACTORS
330
464FF
102
}
330
464FF
100
AcDbVisualStyle
  2
Gouraud
 70
     2
 71
     2
 72
     2
 73
     1
 90
        2
 40
-0.6
 41
30.0
 62
     5
 63
     7
421
 16777215
 74
     0
 91
        4
 64
     7
 65
   257
 75
     1
175
     1
 42
1.0
 92
        0
 66
     7
 43
1.0
 76
     1
 77
     6
 78
     2
 67
     7
 79
     5
170
     0
171
     0
290
     0
174
     0
 93
       13
 44
0.0
173
     0
291
     1
 45
0.0
  0
VISUALSTYLE
  5
46503
102
{ACAD_REACTORS
330
464FF
102
}
330
464FF
100
AcDbVisualStyle
  2
GouraudWithEdges
 70
     3
 71
     2
 72
     2
 73
     1
 90
        2
 40
-0.6
 41
30.0
 62
     5
 63
     7
421
 16777215
 74
     1
 91
        4
 64
     7
 65
   257
 75
     1
175
     1
 42
1.0
 92
        0
 66
   257
 43
1.0
 76
     1
 77
     6
 78
     2
 67
     7
 79
     5
170
     0
171
     0
290
     0
174
     0
 93
       13
 44
0.0
173
     0
291
     1
 45
0.0
  0
VISUALSTYLE
  5
4650D
102
{ACAD_REACTORS
330
464FF
102
}
330
464FF
100
AcDbVisualStyle
  2
Linepattern
 70
    14
 71
     2
 72
     2
 73
     0
 90
        0
 40
-0.6
 41
-30.0
 62
     5
 63
     7
421
 16777215
 74
     1
 91
        4
 64
     7
 65
   257
 75
     7
175
     7
 42
1.0
 92
        8
 66
     7
 43
1.0
 76
     1
 77
     6
 78
     2
 67
     7
 79
     5
170
     0
171
     0
290
     0
174
     0
 93
        1
 44
0.0
173
     0
291
     1
 45
0.0
  0
VISUALSTYLE
  5
46509
102
{ACAD_REACTORS
330
464FF
102
}
330
464FF
100
AcDbVisualStyle
  2
Realistic
 70
     8
 71
     2
 72
     2
 73
     0
 90
        0
 40
-0.6
 41
-30.0
 62
     5
 63
     7
421
 16777215
 74
     1
 91
        0
 64
     7
 65
   257
 75
     1
175
     1
 42
1.0
 92
        8
 66
     8
424
  7895160
 43
1.0
 76
     1
 77
     6
 78
     2
 67
     7
 79
     5
170
     0
171
     0
290
     0
174
     0
 93
       13
 44
0.0
173
     0
291
     0
 45
0.0
  0
VISUALSTYLE
  5
4650C
102
{ACAD_REACTORS
330
464FF
102
}
330
464FF
100
AcDbVisualStyle
  2
Thicken
 70
    13
 71
     2
 72
     2
 73
     0
 90
        0
 40
-0.6
 41
-30.0
 62
     5
 63
     7
421
 16777215
 74
     1
 91
        4
 64
     7
 65
   257
 75
     1
175
     1
 42
1.0
 92
       12
 66
     7
 43
1.0
 76
     1
 77
     6
 78
     2
 67
     7
 79
     5
170
     0
171
     0
290
     0
174
     0
 93
        1
 44
0.0
173
     0
291
     1
 45
0.0
  0
XRECORD
  5
46538
102
{ACAD_REACTORS
330
46537
102
}
330
46537
100
AcDbXrecord
280
     1
  1
WIRES
  1
WIRES
  1

290
     0
  0
DICTIONARYVAR
  5
46532
102
{ACAD_REACTORS
330
458E1
102
}
330
458E1
100
DictionaryVariables
280
     0
  1
STANDARD
  0
DICTIONARYVAR
  5
458E2
102
{ACAD_REACTORS
330
458E1
102
}
330
458E1
100
DictionaryVariables
280
     0
  1
0
  0
DICTIONARYVAR
  5
46485
102
{ACAD_REACTORS
330
458E1
102
}
330
458E1
100
DictionaryVariables
280
     0
  1
1
  0
DICTIONARYVAR
  5
46486
102
{ACAD_REACTORS
330
458E1
102
}
330
458E1
100
DictionaryVariables
280
     0
  1

  0
XRECORD
  5
46518
102
{ACAD_REACTORS
330
46517
102
}
330
46517
100
AcDbXrecord
280
     1
  0
ENDSEC
  0
EOF
