  0
SECTION
  2
HEADER
  9
$ACADVER
  1
AC1021
  9
$ACADMAINTVER
 70
     1
  9
$DWGCODEPAGE
  3
ANSI_1252
  9
$LASTSAVEDBY
  1
gdseiver
  9
$INSBASE
 10
0.0
 20
0.0
 30
0.0
  9
$EXTMIN
 10
-1.1811023622
 20
-1.1811023622
 30
0.0
  9
$EXTMAX
 10
1.1811023622
 20
1.1811023622
 30
0.0149999999999988
  9
$LIMMIN
 10
0.0
 20
0.0
  9
$LIMMAX
 10
22.0
 20
17.0
  9
$ORTHOMODE
 70
     0
  9
$REGENMODE
 70
     1
  9
$FILLMODE
 70
     1
  9
$QTEXTMODE
 70
     0
  9
$MIRRTEXT
 70
     1
  9
$LTSCALE
 40
1.209999999999999
  9
$ATTMODE
 70
     1
  9
$TEXTSIZE
 40
0.2
  9
$TRACEWID
 40
0.05
  9
$TEXTSTYLE
  7
STANDARD
  9
$CLAYER
  8
0
  9
$CELTYPE
  6
BYLAYER
  9
$CECOLOR
 62
   256
  9
$CELTSCALE
 40
1.0
  9
$DISPSILH
 70
     1
  9
$DIMSCALE
 40
1.0
  9
$DIMASZ
 40
0.18
  9
$DIMEXO
 40
0.1375
  9
$DIMDLI
 40
0.8359999999999999
  9
$DIMRND
 40
0.0
  9
$DIMDLE
 40
0.0
  9
$DIMEXE
 40
0.396
  9
$DIMTP
 40
0.0
  9
$DIMTM
 40
0.0
  9
$DIMTXT
 40
0.125
  9
$DIMCEN
 40
0.198
  9
$DIMTSZ
 40
0.0
  9
$DIMTOL
 70
     0
  9
$DIMLIM
 70
     0
  9
$DIMTIH
 70
     1
  9
$DIMTOH
 70
     1
  9
$DIMSE1
 70
     0
  9
$DIMSE2
 70
     0
  9
$DIMTAD
 70
     0
  9
$DIMZIN
 70
     0
  9
$DIMBLK
  1

  9
$DIMASO
 70
     1
  9
$DIMSHO
 70
     1
  9
$DIMPOST
  1

  9
$DIMAPOST
  1

  9
$DIMALT
 70
     0
  9
$DIMALTD
 70
     2
  9
$DIMALTF
 40
25.4
  9
$DIMLFAC
 40
1.0
  9
$DIMTOFL
 70
     0
  9
$DIMTVP
 40
0.0
  9
$DIMTIX
 70
     0
  9
$DIMSOXD
 70
     0
  9
$DIMSAH
 70
     0
  9
$DIMBLK1
  1

  9
$DIMBLK2
  1

  9
$DIMSTYLE
  2
STANDARD
  9
$DIMCLRD
 70
     0
  9
$DIMCLRE
 70
     0
  9
$DIMCLRT
 70
     0
  9
$DIMTFAC
 40
1.0
  9
$DIMGAP
 40
0.09
  9
$DIMJUST
 70
     0
  9
$DIMSD1
 70
     0
  9
$DIMSD2
 70
     0
  9
$DIMTOLJ
 70
     1
  9
$DIMTZIN
 70
     0
  9
$DIMALTZ
 70
     0
  9
$DIMALTTZ
 70
     0
  9
$DIMUPT
 70
     0
  9
$DIMDEC
 70
     4
  9
$DIMTDEC
 70
     4
  9
$DIMALTU
 70
     2
  9
$DIMALTTD
 70
     2
  9
$DIMTXSTY
  7
STANDARD
  9
$DIMAUNIT
 70
     0
  9
$DIMADEC
 70
     0
  9
$DIMALTRND
 40
0.0
  9
$DIMAZIN
 70
     0
  9
$DIMDSEP
 70
    46
  9
$DIMATFIT
 70
     3
  9
$DIMFRAC
 70
     0
  9
$DIMLDRBLK
  1

  9
$DIMLUNIT
 70
     2
  9
$DIMLWD
 70
    -2
  9
$DIMLWE
 70
    -2
  9
$DIMTMOVE
 70
     0
  9
$DIMFXL
 40
1.0
  9
$DIMFXLON
 70
     0
  9
$DIMJOGANG
 40
0.7853981633974483
  9
$DIMTFILL
 70
     0
  9
$DIMTFILLCLR
 70
     0
  9
$DIMARCSYM
 70
     0
  9
$DIMLTYPE
  6

  9
$DIMLTEX1
  6

  9
$DIMLTEX2
  6

  9
$LUNITS
 70
     2
  9
$LUPREC
 70
     4
  9
$SKETCHINC
 40
0.1
  9
$FILLETRAD
 40
0.125
  9
$AUNITS
 70
     0
  9
$AUPREC
 70
     0
  9
$MENU
  1
acad
  9
$ELEVATION
 40
0.0
  9
$PELEVATION
 40
0.0
  9
$THICKNESS
 40
0.0
  9
$LIMCHECK
 70
     0
  9
$CHAMFERA
 40
0.0
  9
$CHAMFERB
 40
0.0
  9
$CHAMFERC
 40
0.0
  9
$CHAMFERD
 40
0.0
  9
$SKPOLY
 70
     0
  9
$TDCREATE
 40
2444971.791666667
  9
$TDUCREATE
 40
2444972.000000000
  9
$TDUPDATE
 40
2454229.411279433
  9
$TDUUPDATE
 40
2454229.619612767
  9
$TDINDWG
 40
0.3548921875
  9
$TDUSRTIMER
 40
0.3548921875
  9
$USRTIMER
 70
     1
  9
$ANGBASE
 50
0.0
  9
$ANGDIR
 70
     0
  9
$PDMODE
 70
     3
  9
$PDSIZE
 40
0.075
  9
$PLINEWID
 40
0.0
  9
$SPLFRAME
 70
     0
  9
$SPLINETYPE
 70
     6
  9
$SPLINESEGS
 70
     8
  9
$HANDSEED
  5
2F14
  9
$SURFTAB1
 70
     6
  9
$SURFTAB2
 70
     6
  9
$SURFTYPE
 70
     6
  9
$SURFU
 70
     6
  9
$SURFV
 70
     6
  9
$UCSBASE
  2

  9
$UCSNAME
  2

  9
$UCSORG
 10
0.0
 20
0.0
 30
0.0
  9
$UCSXDIR
 10
1.0
 20
0.0
 30
0.0
  9
$UCSYDIR
 10
0.0
 20
1.0
 30
0.0
  9
$UCSORTHOREF
  2

  9
$UCSORTHOVIEW
 70
     1
  9
$UCSORGTOP
 10
0.0
 20
0.0
 30
0.0
  9
$UCSORGBOTTOM
 10
0.0
 20
0.0
 30
0.0
  9
$UCSORGLEFT
 10
0.0
 20
0.0
 30
0.0
  9
$UCSORGRIGHT
 10
0.0
 20
0.0
 30
0.0
  9
$UCSORGFRONT
 10
0.0
 20
0.0
 30
0.0
  9
$UCSORGBACK
 10
0.0
 20
0.0
 30
0.0
  9
$PUCSBASE
  2

  9
$PUCSNAME
  2

  9
$PUCSORG
 10
0.0
 20
0.0
 30
0.0
  9
$PUCSXDIR
 10
1.0
 20
0.0
 30
0.0
  9
$PUCSYDIR
 10
0.0
 20
1.0
 30
0.0
  9
$PUCSORTHOREF
  2

  9
$PUCSORTHOVIEW
 70
     0
  9
$PUCSORGTOP
 10
0.0
 20
0.0
 30
0.0
  9
$PUCSORGBOTTOM
 10
0.0
 20
0.0
 30
0.0
  9
$PUCSORGLEFT
 10
0.0
 20
0.0
 30
0.0
  9
$PUCSORGRIGHT
 10
0.0
 20
0.0
 30
0.0
  9
$PUCSORGFRONT
 10
0.0
 20
0.0
 30
0.0
  9
$PUCSORGBACK
 10
0.0
 20
0.0
 30
0.0
  9
$USERI1
 70
     0
  9
$USERI2
 70
     0
  9
$USERI3
 70
     0
  9
$USERI4
 70
     0
  9
$USERI5
 70
     0
  9
$USERR1
 40
0.0
  9
$USERR2
 40
0.0
  9
$USERR3
 40
0.0
  9
$USERR4
 40
0.0
  9
$USERR5
 40
0.0
  9
$WORLDVIEW
 70
     1
  9
$SHADEDGE
 70
     3
  9
$SHADEDIF
 70
    70
  9
$TILEMODE
 70
     1
  9
$MAXACTVP
 70
    16
  9
$PINSBASE
 10
0.0
 20
0.0
 30
0.0
  9
$PLIMCHECK
 70
     0
  9
$PEXTMIN
 10
1.000000000000000E+20
 20
1.000000000000000E+20
 30
1.000000000000000E+20
  9
$PEXTMAX
 10
-1.000000000000000E+20
 20
-1.000000000000000E+20
 30
-1.000000000000000E+20
  9
$PLIMMIN
 10
0.0
 20
0.0
  9
$PLIMMAX
 10
12.0
 20
9.0
  9
$UNITMODE
 70
     0
  9
$VISRETAIN
 70
     0
  9
$PLINEGEN
 70
     1
  9
$PSLTSCALE
 70
     0
  9
$TREEDEPTH
 70
  3020
  9
$CMLSTYLE
  2
STANDARD
  9
$CMLJUST
 70
     0
  9
$CMLSCALE
 40
1.0
  9
$PROXYGRAPHICS
 70
     1
  9
$MEASUREMENT
 70
     0
  9
$CELWEIGHT
370
    -1
  9
$ENDCAPS
280
     0
  9
$JOINSTYLE
280
     0
  9
$LWDISPLAY
290
     0
  9
$INSUNITS
 70
     0
  9
$HYPERLINKBASE
  1

  9
$STYLESHEET
  1
STANDARD.ctb
  9
$XEDIT
290
     1
  9
$CEPSNTYPE
380
     0
  9
$PSTYLEMODE
290
     1
  9
$FINGERPRINTGUID
  2
{06B59665-270B-11D7-BDCA-000629EE37FA}
  9
$VERSIONGUID
  2
{CB7628CB-1288-4296-A2BB-0EE26DB66C02}
  9
$EXTNAMES
290
     1
  9
$PSVPSCALE
 40
0.0
  9
$OLESTARTUP
290
     0
  9
$SORTENTS
280
   127
  9
$INDEXCTL
280
     0
  9
$HIDETEXT
280
     0
  9
$XCLIPFRAME
290
     0
  9
$HALOGAP
280
     0
  9
$OBSCOLOR
 70
   257
  9
$OBSLTYPE
280
     0
  9
$INTERSECTIONDISPLAY
280
     0
  9
$INTERSECTIONCOLOR
 70
   257
  9
$DIMASSOC
280
     1
  9
$PROJECTNAME
  1

  9
$CAMERADISPLAY
290
     0
  9
$LENSLENGTH
 40
50.0
  9
$CAMERAHEIGHT
 40
0.0
  9
$STEPSPERSEC
 40
2.0
  9
$STEPSIZE
 40
6.0
  9
$3DDWFPREC
 40
2.0
  9
$PSOLWIDTH
 40
0.25
  9
$PSOLHEIGHT
 40
4.0
  9
$LOFTANG1
 40
1.570796326794896
  9
$LOFTANG2
 40
1.570796326794896
  9
$LOFTMAG1
 40
0.0
  9
$LOFTMAG2
 40
0.0
  9
$LOFTPARAM
 70
     7
  9
$LOFTNORMALS
280
     1
  9
$LATITUDE
 40
37.795
  9
$LONGITUDE
 40
-122.394
  9
$NORTHDIRECTION
 40
0.0
  9
$TIMEZONE
 70
 -8000
  9
$LIGHTGLYPHDISPLAY
280
     1
  9
$TILEMODELIGHTSYNCH
280
     1
  9
$CMATERIAL
347
2ED6
  9
$SOLIDHIST
280
     1
  9
$SHOWHIST
280
     1
  9
$DWFFRAME
280
     2
  9
$DGNFRAME
280
     0
  9
$REALWORLDSCALE
290
     1
  9
$INTERFERECOLOR
 62
     1
  9
$INTERFEREOBJVS
345
2EE3
  9
$INTERFEREVPVS
346
2EE0
  9
$CSHADOW
280
     0
  9
$SHADOWPLANELOCATION
 40
0.0
  0
ENDSEC
  0
SECTION
  2
CLASSES
  0
CLASS
  1
IMAGE
  2
AcDbRasterImage
  3
ISM
 90
     2175
 91
        0
280
     0
281
     1
  0
CLASS
  1
DICTIONARYVAR
  2
AcDbDictionaryVar
  3
ObjectDBX Classes
 90
        0
 91
        3
280
     0
281
     0
  0
CLASS
  1
RASTERVARIABLES
  2
AcDbRasterVariables
  3
ISM
 90
        0
 91
        0
280
     0
281
     0
  0
CLASS
  1
IMAGEDEF
  2
AcDbRasterImageDef
  3
ISM
 90
        0
 91
        0
280
     0
281
     0
  0
CLASS
  1
IMAGEDEF_REACTOR
  2
AcDbRasterImageDefReactor
  3
ISM
 90
        1
 91
        0
280
     0
281
     0
  0
CLASS
  1
IDBUFFER
  2
AcDbIdBuffer
  3
ObjectDBX Classes
 90
        0
 91
        0
280
     0
281
     0
  0
CLASS
  1
SPATIAL_FILTER
  2
AcDbSpatialFilter
  3
ObjectDBX Classes
 90
        0
 91
        0
280
     0
281
     0
  0
CLASS
  1
SORTENTSTABLE
  2
AcDbSortentsTable
  3
ObjectDBX Classes
 90
        0
 91
        0
280
     0
281
     0
  0
CLASS
  1
LAYER_INDEX
  2
AcDbLayerIndex
  3
ObjectDBX Classes
 90
        0
 91
        0
280
     0
281
     0
  0
CLASS
  1
SPATIAL_INDEX
  2
AcDbSpatialIndex
  3
ObjectDBX Classes
 90
        0
 91
        0
280
     0
281
     0
  0
CLASS
  1
OBJECT_PTR
  2
CAseDLPNTableRecord
  3
ASE-LPNTableRecord
 90
        1
 91
        0
280
     0
281
     0
  0
CLASS
  1
PLOTSETTINGS
  2
AcDbPlotSettings
  3
ObjectDBX Classes
 90
        0
 91
        0
280
     0
281
     0
  0
CLASS
  1
ACDBDICTIONARYWDFLT
  2
AcDbDictionaryWithDefault
  3
ObjectDBX Classes
 90
        0
 91
        1
280
     0
281
     0
  0
CLASS
  1
WIPEOUT
  2
AcDbWipeout
  3
"WipeOut|Product Desc: Object Enabler for WipeOut entity                        |Company: Autodesk, Inc.                        |WEB Address: www.autodesk.com"
 90
     2175
 91
        0
280
     0
281
     1
  0
CLASS
  1
WIPEOUTVARIABLES
  2
AcDbWipeoutVariables
  3
"WipeOut|Product Desc:     WipeOut Dbx Application|Company:          Autodesk, Inc.|WEB Address:      www.autodesk.com"
 90
        0
 91
        0
280
     0
281
     0
  0
CLASS
  1
RTEXT
  2
RText
  3
RText|AutoCAD Express Tool|expresstools@autodesk.com
 90
     3071
 91
        0
280
     0
281
     1
  0
CLASS
  1
ARCALIGNEDTEXT
  2
AcDbArcAlignedText
  3
ATEXT|AutoCAD Express Tool|expresstools@autodesk.com
 90
        0
 91
        0
280
     0
281
     1
  0
CLASS
  1
MATERIAL
  2
AcDbMaterial
  3
ObjectDBX Classes
 90
     1024
 91
        3
280
     0
281
     0
  0
CLASS
  1
VISUALSTYLE
  2
AcDbVisualStyle
  3
ObjectDBX Classes
 90
     4095
 91
       16
280
     0
281
     0
  0
CLASS
  1
TABLESTYLE
  2
AcDbTableStyle
  3
ObjectDBX Classes
 90
     4095
 91
        1
280
     0
281
     0
  0
ENDSEC
  0
SECTION
  2
TABLES
  0
TABLE
  2
VPORT
  5
8
102
{ACAD_XDICTIONARY
360
2EF4
102
}
330
0
100
AcDbSymbolTable
 70
     1
  0
VPORT
  5
2EA6
330
8
100
AcDbSymbolTableRecord
100
AcDbViewportTableRecord
  2
*Active
 70
     0
 10
0.0
 20
0.0
 11
1.0
 21
1.0
 12
-0.4356663555647531
 22
-0.7276365895959156
 13
0.0
 23
0.0
 14
1.0
 24
1.0
 15
0.0
 25
0.0
 16
0.0
 26
0.0
 36
1.0
 17
0.4359384451066511
 27
0.7272767039080624
 37
0.898045439061571
 40
2.381118560086441
 41
1.421818181818181
 42
50.0
 43
0.0
 44
0.0
 50
0.0
 51
0.0
 71
     0
 72
 20000
 73
     1
 74
     1
 75
     0
 76
     0
 77
     0
 78
     0
281
     0
 65
     1
110
0.0
120
0.0
130
0.0
111
1.0
121
0.0
131
0.0
112
0.0
122
1.0
132
0.0
 79
     0
146
0.0
348
2EDF
 60
     3
 61
     5
292
     1
282
     1
141
0.0
142
0.0
 63
   250
421
  3355443
  0
ENDTAB
  0
TABLE
  2
LTYPE
  5
5
330
0
100
AcDbSymbolTable
 70
     1
  0
LTYPE
  5
14
330
5
100
AcDbSymbolTableRecord
100
AcDbLinetypeTableRecord
  2
BYBLOCK
 70
     0
  3

 72
    65
 73
     0
 40
0.0
  0
LTYPE
  5
15
330
5
100
AcDbSymbolTableRecord
100
AcDbLinetypeTableRecord
  2
BYLAYER
 70
     0
  3

 72
    65
 73
     0
 40
0.0
  0
LTYPE
  5
16
330
5
100
AcDbSymbolTableRecord
100
AcDbLinetypeTableRecord
  2
CONTINUOUS
 70
     0
  3
Solid line
 72
    65
 73
     0
 40
0.0
  0
ENDTAB
  0
TABLE
  2
LAYER
  5
2
330
0
100
AcDbSymbolTable
 70
     8
  0
LAYER
  5
10
330
2
100
AcDbSymbolTableRecord
100
AcDbLayerTableRecord
  2
0
 70
     0
 62
     7
  6
CONTINUOUS
370
    -3
390
DB5
347
2ED8
  0
LAYER
  5
13C4
330
2
100
AcDbSymbolTableRecord
100
AcDbLayerTableRecord
  2
ATTRIBUTES
 70
     0
 62
     7
  6
CONTINUOUS
370
    -3
390
DB5
347
2ED8
  0
LAYER
  5
13C5
330
2
100
AcDbSymbolTableRecord
100
AcDbLayerTableRecord
  2
DEFPOINTS
 70
     1
 62
     7
  6
CONTINUOUS
290
     0
370
    -3
390
DB5
347
2ED8
  0
LAYER
  5
13C6
330
2
100
AcDbSymbolTableRecord
100
AcDbLayerTableRecord
  2
AREA1
 70
     1
 62
     7
  6
CONTINUOUS
290
     0
370
    -3
390
DB5
347
2ED8
  0
LAYER
  5
13C7
330
2
100
AcDbSymbolTableRecord
100
AcDbLayerTableRecord
  2
SCALE
 70
     1
 62
     7
  6
CONTINUOUS
370
    -3
390
DB5
347
2ED8
  0
LAYER
  5
13C8
330
2
100
AcDbSymbolTableRecord
100
AcDbLayerTableRecord
  2
SNAP_POINTS
 70
     1
 62
     1
  6
CONTINUOUS
370
    -3
390
DB5
347
2ED8
  0
LAYER
  5
149D
330
2
100
AcDbSymbolTableRecord
100
AcDbLayerTableRecord
  2
DIMS-MTG-HOLES
 70
     0
 62
     1
  6
CONTINUOUS
370
    -3
390
DB5
347
2ED8
  0
LAYER
  5
2EEE
102
{ACAD_XDICTIONARY
360
2EEF
102
}
330
2
100
AcDbSymbolTableRecord
100
AcDbLayerTableRecord
  2
WIRES
 70
     0
 62
     7
  6
CONTINUOUS
370
    -3
390
DB5
347
2ED8
  0
ENDTAB
  0
TABLE
  2
STYLE
  5
3
330
0
100
AcDbSymbolTable
 70
     1
  0
STYLE
  5
11
330
3
100
AcDbSymbolTableRecord
100
AcDbTextStyleTableRecord
  2
STANDARD
 70
     0
 40
0.0
 41
0.8
 50
0.0
 71
     0
 42
0.2
  3
txt
  4

  0
ENDTAB
  0
TABLE
  2
VIEW
  5
6
330
0
100
AcDbSymbolTable
 70
     0
  0
ENDTAB
  0
TABLE
  2
UCS
  5
7
330
0
100
AcDbSymbolTable
 70
     0
  0
ENDTAB
  0
TABLE
  2
APPID
  5
9
330
0
100
AcDbSymbolTable
 70
     2
  0
APPID
  5
201
330
9
100
AcDbSymbolTableRecord
100
AcDbRegAppTableRecord
  2
ACAD
 70
     0
  0
APPID
  5
28A0
330
9
100
AcDbSymbolTableRecord
100
AcDbRegAppTableRecord
  2
DCO15
 70
     0
  0
ENDTAB
  0
TABLE
  2
DIMSTYLE
  5
A
330
0
100
AcDbSymbolTable
 70
     2
100
AcDbDimStyleTable
 71
     0
  0
DIMSTYLE
105
202
330
A
100
AcDbSymbolTableRecord
100
AcDbDimStyleTableRecord
  2
STANDARD
 70
     0
 47
0.01
 48
0.01
 78
     4
140
0.125
271
     3
272
     3
284
     4
340
11
  0
DIMSTYLE
105
13C9
102
{ACAD_REACTORS
330
13F0
102
}
330
A
100
AcDbSymbolTableRecord
100
AcDbDimStyleTableRecord
  2
ABECAD_3D
 70
     0
 41
0.09
 43
0.375
 44
0.05
 73
     0
 78
     4
140
0.09
146
1.5
170
     1
271
     6
272
     6
276
     2
277
     5
279
     2
284
     4
285
     4
286
     4
289
     2
340
11
  0
ENDTAB
  0
TABLE
  2
BLOCK_RECORD
  5
1
330
0
100
AcDbSymbolTable
 70
     1
  0
BLOCK_RECORD
  5
1B
102
{ACAD_XDICTIONARY
360
14F7
102
}
330
1
100
AcDbSymbolTableRecord
100
AcDbBlockTableRecord
  2
*MODEL_SPACE
340
DB8
 70
     0
280
     1
281
     0
  0
BLOCK_RECORD
  5
1C
102
{ACAD_XDICTIONARY
360
14F9
102
}
330
1
100
AcDbSymbolTableRecord
100
AcDbBlockTableRecord
  2
*PAPER_SPACE
340
DB9
 70
     0
280
     1
281
     0
  0
BLOCK_RECORD
  5
1406
330
1
100
AcDbSymbolTableRecord
100
AcDbBlockTableRecord
  2
*D0
340
0
 70
     0
280
     1
281
     0
  0
ENDTAB
  0
ENDSEC
  0
SECTION
  2
BLOCKS
  0
BLOCK
  5
1E
330
1B
100
AcDbEntity
  8
0
100
AcDbBlockBegin
  2
*MODEL_SPACE
 70
     0
 10
0.0
 20
0.0
 30
0.0
  3
*MODEL_SPACE
  1

  0
ENDBLK
  5
1F
330
1B
100
AcDbEntity
  8
0
100
AcDbBlockEnd
  0
BLOCK
  5
20
330
1C
100
AcDbEntity
 67
     1
  8
0
100
AcDbBlockBegin
  2
*PAPER_SPACE
 70
     0
 10
0.0
 20
0.0
 30
0.0
  3
*PAPER_SPACE
  1

  0
ENDBLK
  5
21
330
1C
100
AcDbEntity
 67
     1
  8
0
100
AcDbBlockEnd
  0
BLOCK
  5
1411
330
1406
100
AcDbEntity
  8
0
100
AcDbBlockBegin
  2
*D0
 70
     1
 10
0.0
 20
0.0
 30
0.0
  3
*D0
  1

  0
LINE
  5
2E88
330
1406
100
AcDbEntity
  8
AREA1
 62
     0
370
    -2
100
AcDbLine
 10
-1.1811023622
 20
0.0625000000000002
 30
0.0
 11
-1.1811023622
 21
1.530990997539845
 31
0.0
  0
LINE
  5
2E89
330
1406
100
AcDbEntity
  8
AREA1
 62
     0
370
    -2
100
AcDbLine
 10
1.1811023622
 20
0.0625
 30
0.0
 11
1.1811023622
 21
1.530990997539845
 31
0.0
  0
LINE
  5
2E8A
330
1406
100
AcDbEntity
  8
AREA1
 62
     0
370
    -2
100
AcDbLine
 10
-1.0911023622
 20
1.480990997539845
 30
0.0
 11
-0.5519999999897967
 21
1.480990997539845
 31
0.0
  0
LINE
  5
2E8B
330
1406
100
AcDbEntity
  8
AREA1
 62
     0
370
    -2
100
AcDbLine
 10
1.0911023622
 20
1.480990997539845
 30
0.0
 11
0.5520000000102035
 21
1.480990997539845
 31
0.0
  0
MTEXT
  5
2E8C
330
1406
100
AcDbEntity
  8
AREA1
 62
     0
100
AcDbMText
 10
0.0000000000102034
 20
1.480990997539845
 30
0.0
 40
0.09
 41
0.0
 46
0.0
 71
     5
 72
     1
  1
\A1;2 23/64 [60.00]
 73
     1
 44
1.0
  0
SOLID
  5
2E8D
330
1406
100
AcDbEntity
  8
AREA1
 62
     0
100
AcDbTrace
 10
-1.0911023622
 20
1.495990997539845
 30
0.0
 11
-1.0911023622
 21
1.465990997539845
 31
0.0
 12
-1.1811023622
 22
1.480990997539845
 32
0.0
 13
-1.1811023622
 23
1.480990997539845
 33
0.0
  0
SOLID
  5
2E8E
330
1406
100
AcDbEntity
  8
AREA1
 62
     0
100
AcDbTrace
 10
1.0911023622
 20
1.495990997539845
 30
0.0
 11
1.0911023622
 21
1.465990997539845
 31
0.0
 12
1.1811023622
 22
1.480990997539845
 32
0.0
 13
1.1811023622
 23
1.480990997539845
 33
0.0
  0
POINT
  5
2E8F
330
1406
100
AcDbEntity
  8
DEFPOINTS
 62
     0
100
AcDbPoint
 10
-1.1811023622
 20
0.0000000000000002
 30
0.0
  0
POINT
  5
2E90
330
1406
100
AcDbEntity
  8
DEFPOINTS
 62
     0
100
AcDbPoint
 10
1.1811023622
 20
0.0
 30
0.0
  0
POINT
  5
2E91
330
1406
100
AcDbEntity
  8
DEFPOINTS
 62
     0
100
AcDbPoint
 10
1.1811023622
 20
1.480990997539845
 30
0.0
  0
ENDBLK
  5
1412
330
1406
100
AcDbEntity
  8
0
100
AcDbBlockEnd
  0
ENDSEC
  0
SECTION
  2
ENTITIES
  0
POINT
  5
13EF
330
1B
100
AcDbEntity
  8
SNAP_POINTS
100
AcDbPoint
 10
0.0
 20
0.0
 30
0.0
 50
90.0
  0
DIMENSION
  5
13F0
330
1B
100
AcDbEntity
  8
AREA1
100
AcDbDimension
  2
*D0
 10
1.1811023622
 20
1.480990997539845
 30
0.0
 11
0.0000000000102034
 21
1.480990997539845
 31
0.0
 70
   160
 71
     5
 42
-1.0
 73
     0
 74
     0
 75
     0
  3
ABECAD_3D
100
AcDbAlignedDimension
 13
-1.1811023622
 23
0.0000000000000002
 33
0.0
 14
1.1811023622
 24
0.0
 34
0.0
100
AcDbRotatedDimension
  0
TEXT
  5
13F1
330
1B
100
AcDbEntity
  8
SCALE
100
AcDbText
 10
-2.287880214325334
 20
1.05340478668752
 30
0.0
 40
0.0625
  1
1 Inch
100
AcDbText
  0
LWPOLYLINE
  5
13F2
330
1B
100
AcDbEntity
  8
SCALE
100
AcDbPolyline
 90
        4
 70
     1
 43
0.0
 10
-2.709161867036006
 20
1.364434410018535
 10
-1.573533047494034
 20
1.364434410018535
 10
-1.573533047494034
 20
0.522824843240521
 10
-2.709161867036006
 20
0.522824843240521
  0
LINE
  5
13F3
330
1B
100
AcDbEntity
  8
SCALE
100
AcDbLine
 10
-2.651163202809244
 20
0.9843560913143196
 30
0.0
 11
-1.651163202809244
 21
0.9843560913143196
 31
0.0
  0
LINE
  5
13F4
330
1B
100
AcDbEntity
  8
SCALE
100
AcDbLine
 10
-2.651163202809244
 20
0.88435609131432
 30
0.0
 11
-2.651163202809244
 21
1.084356091314321
 31
0.0
  0
LINE
  5
13F5
330
1B
100
AcDbEntity
  8
SCALE
100
AcDbLine
 10
-2.257463202809244
 20
0.5843560913143211
 30
0.0
 11
-2.257463202809244
 21
0.7843560913143204
 31
0.0
  0
LINE
  5
13F6
330
1B
100
AcDbEntity
  8
SCALE
100
AcDbLine
 10
-2.651163202809244
 20
0.5843560913143211
 30
0.0
 11
-2.651163202809244
 21
0.7843560913143204
 31
0.0
  0
LINE
  5
13F7
330
1B
100
AcDbEntity
  8
SCALE
100
AcDbLine
 10
-2.651163202809244
 20
0.6843560913143208
 30
0.0
 11
-2.257463202809244
 21
0.6843560913143208
 31
0.0
  0
TEXT
  5
13F8
330
1B
100
AcDbEntity
  8
SCALE
100
AcDbText
 10
-2.591741047660667
 20
0.7300957365884351
 30
0.0
 40
0.0625
  1
[10mm]
100
AcDbText
  0
TEXT
  5
13F9
330
1B
100
AcDbEntity
  8
SCALE
100
AcDbText
 10
-2.649632937562718
 20
1.259233212587933
 30
0.0
 40
0.0625
  1
SCALE:
100
AcDbText
  0
LINE
  5
13FA
330
1B
100
AcDbEntity
  8
SCALE
100
AcDbLine
 10
-1.651163202809244
 20
0.88435609131432
 30
0.0
 11
-1.651163202809244
 21
1.084356091314321
 31
0.0
  0
LINE
  5
13FB
330
1B
100
AcDbEntity
  8
SCALE
100
AcDbLine
 10
-1.651163202809244
 20
0.9843560913143196
 30
0.0
 11
-1.651163202809244
 21
0.88435609131432
 31
0.0
  0
ATTDEF
  5
13FD
330
1B
100
AcDbEntity
  8
ATTRIBUTES
100
AcDbText
 10
-0.9809228467975977
 20
-0.2694649371443202
 30
0.0
 40
0.024
  1
0
100
AcDbAttributeDefinition
  3
VIEW CODE?
  2
AC_VIEW_CODE
 70
     1
280
     0
  0
ATTDEF
  5
13FE
330
1B
100
AcDbEntity
  8
ATTRIBUTES
100
AcDbText
 10
-0.9809228467975977
 20
-0.2194649371443199
 30
0.0
 40
0.024
  1
INCH
100
AcDbAttributeDefinition
  3
UNIT OF SCALE?
  2
AC_SCALE_UNIT
 70
     1
280
     0
  0
ATTDEF
  5
13FF
330
1B
100
AcDbEntity
  8
ATTRIBUTES
100
AcDbText
 10
-0.9809228467975977
 20
-0.1694649371443201
 30
0.0
 40
0.024
  1

100
AcDbAttributeDefinition
  3
FASTENER DATA?
  2
FASTENER
 70
     1
280
     0
  0
ATTDEF
  5
1400
330
1B
100
AcDbEntity
  8
ATTRIBUTES
100
AcDbText
 10
-0.9809228467975977
 20
-0.1194649371443203
 30
0.0
 40
0.024
  1

100
AcDbAttributeDefinition
  3
CUSTOMER NOTE?
  2
AC_NOTE
 70
     1
280
     0
  0
ATTDEF
  5
1401
330
1B
100
AcDbEntity
  8
ATTRIBUTES
100
AcDbText
 10
-0.9809228467975977
 20
-0.0694649371443205
 30
0.0
 40
0.024
  1

100
AcDbAttributeDefinition
  3
CUSTOMER PART NUMBER?
  2
AC_CPART_NO
 70
     1
280
     0
  0
ATTDEF
  5
1402
330
1B
100
AcDbEntity
  8
ATTRIBUTES
100
AcDbText
 10
-0.9809228467975977
 20
-0.0194649371443203
 30
0.0
 40
0.024
  1

100
AcDbAttributeDefinition
  3
DEVICE ID?
  2
DEVICE_ID
 70
     1
280
     0
  0
ATTDEF
  5
1403
330
1B
100
AcDbEntity
  8
ATTRIBUTES
100
AcDbText
 10
-0.9809228467975977
 20
0.0305350628556801
 30
0.0
 40
0.024
  1
60mm EMERGENCY STOP ROUND LEGEND PLATE
100
AcDbAttributeDefinition
  3
PART DESCRIPTION?
  2
AC_DESCRIPTION
 70
     1
280
     0
  0
ATTDEF
  5
1404
330
1B
100
AcDbEntity
  8
ATTRIBUTES
100
AcDbText
 10
-0.9809228467975977
 20
0.0805350628556799
 30
0.0
 40
0.024
  1
D7-15Y
100
AcDbAttributeDefinition
  3
CATALOG NUMBER?
  2
AC_PART_NO
 70
     1
280
     0
  0
ATTDEF
  5
1405
330
1B
100
AcDbEntity
  8
ATTRIBUTES
100
AcDbText
 10
-0.9809228467975977
 20
0.1305350628556797
 30
0.0
 40
0.024
  1
SPRECHER+SCHUH
100
AcDbAttributeDefinition
  3
MANUFACTURER NAME?
  2
AC_VND_LABEL
 70
     1
280
     0
  0
3DSOLID
  5
2E6B
330
1B
100
AcDbEntity
  8
0
100
AcDbModelerGeometry
 70
     1
  1
mnmoo in m mi          
  1
ni ^ *+0;:,4 ^ *+0\^ [ ng ^ LR nmqoqoqjgmm QK o  
  1
mjqlffffffffffffff fqfffffffffffffffj:rooh n:rono 
  1
>,27:>;:- {rn rn _nm mnmqoqoqjgmm |
  1
=0;& {m rn {rn {l {rn {rn |
  1
-:9@)+r:&:r>++-6= {rn rn {rn {rn {n {k {j |
  1
3*2/ {i rn {rn {rn {h {n |
  1
:&:@-:961:2:1+ {rn rn _j 8-6;  n _l +-6 n _k ,*-9 o _l >;5 o _k 8->; o _f /0,+<7:<4 o _k ,+03 oqoonoooooookhkfhkjnl _k 1+03 lo _k ;,63 o _g 93>+1:,, o _h /6'>-:> o _k 72>' o _i 8-6;>- o _j 28-6; jnm _j *8-6; o _j )8-6; o _no :1;@96:3;, o |
  1
):-+:'@+:2/3>+: {rn rn l o n g |
  1
-:9@)+r:&:r>++-6= {rn rn {rn {rn {l {k {j |
  1
,7:33 {g rn {rn {rn {rn {f {rn {l |
  1
-:9@)+r:&:r>++-6= {rn rn {rn {rn {h {k {j |
  1
9><: {no rn {rn {nn {nm {h {rn {nl -:):-,:; ,6183: |
  1
92:,7r:&:r>++-6= {rn rn {nk {rn {f |
  1
9><: {nj rn {rn {ni {nh {h {rn {ng 90-(>-; ,6183: |
  1
300/ {rn rn {rn {nf {mo {f |
  1
<01:r,*-9><: {rn rn {rn o o o o o n oqjfojjnngnnooooook o o n V V o n oqjfojjnngnnooooook 90-(>-; V V V V |
  1
-:9@)+r:&:r>++-6= {rn rn {rn {no {f {k {j |
  1
92:,7r:&:r>++-6= {rn rn {mn {rn {nn |
  1
9><: {mm rn {rn {ml {mk {h {rn {mj 90-(>-; ,6183: |
  1
300/ {rn rn {rn {mi {mh {nn |
  1
<01:r,*-9><: {rn rn {rn o o o o o n nqngnnomlimmooooon o o n V V o n nqngnnomlimmooooon 90-(>-; V V V V |
  1
300/ {rn rn {rn {rn {mg {f |
  1
<0:;8: {rn rn {rn {mo {mo {mf {lo -:):-,:; {nm {rn |
  1
-:9@)+r:&:r>++-6= {rn rn {rn {nj {nn {k {j |
  1
92:,7r:&:r>++-6= {rn rn {ln {rn {ni |
  1
9><: {lm rn {rn {rn {ll {h {rn {lk -:):-,:; ,6183: |
  1
300/ {rn rn {rn {lj {mf {ni |
  1
/3>1:r,*-9><: {rn rn {rn o o oqonkfffffffffffghfm o o n n o o 90-(>-;@) V V V V |
  1
300/ {rn rn {rn {rn {li {nn |
  1
<0:;8: {rn rn {rn {mh {mh {lh {lg 90-(>-; {nh {rn |
  1
<0:;8: {rn rn {rn {mg {mg {lf {ko -:):-,:; {nf {rn |
  1
<0:;8: {rn rn {rn {mf {mf {mo {lo 90-(>-; {mk {rn |
  1
:;8: {kn rn {rn {km o {km iqmglngjlohnhfjgim {mf {kl 90-(>-; _h *1410(1 |
  1
-:9@)+r:&:r>++-6= {rn rn {rn {mm {ni {k {j |
  1
92:,7r:&:r>++-6= {rn rn {kk {rn {ml |
  1
300/ {rn rn {rn {kj {lf {ml |
  1
/3>1:r,*-9><: {rn rn {rn o o o o o n n o o 90-(>-;@) V V V V |
  1
300/ {rn rn {rn {rn {lh {ni |
  1
<0:;8: {rn rn {rn {li {li {ki {kh 90-(>-; {mi {rn |
  1
<0:;8: {rn rn {rn {lh {lh {mh {lg -:):-,:; {lj {rn |
  1
:;8: {kg rn {rn {kf o {kf iqmglngjlohnhfjgim {mh {jo 90-(>-; _h *1410(1 |
  1
<0:;8: {rn rn {rn {lf {lf {mg {ko 90-(>-; {ll {rn |
  1
:;8: {jn rn {rn {jm o {jm iqmglngjlohnhfjgim {lf {jl 90-(>-; _h *1410(1 |
  1
/+36,+r:&:r>++-6= {rn rn {rn {rn {lo |
  1
):-+:' {rn rn {rn {lo m {jk |
  1
:336/,:r<*-): {rn rn {rn o o oqonkfffffffffffghfm o o rn oqjfojjnngnnooooook o o n V V |
  1
-:9@)+r:&:r>++-6= {rn rn {rn {lm {ml {k {j |
  1
300/ {rn rn {rn {rn {ki {ml |
  1
<0:;8: {rn rn {rn {ki {ki {li {kh -:):-,:; {kj {rn |
  1
:;8: {jj rn {rn {ji o {ji iqmglngjlohnhfjgim {ki {jh 90-(>-; _h *1410(1 |
  1
/+36,+r:&:r>++-6= {rn rn {rn {rn {lg |
  1
):-+:' {rn rn {rn {lg m {jg |
  1
:336/,:r<*-): {rn rn {rn o o oqonkfffffffffffghfm o o rn nqngnnomlimmooooon o o n V V |
  1
/+36,+r:&:r>++-6= {rn rn {rn {rn {ko |
  1
):-+:' {rn rn {rn {ko m {jf |
  1
:336/,:r<*-): {rn rn {rn o o o o o n oqjfojjnngnnooooook o o n V V |
  1
/061+ {rn rn {rn oqjfojjnngnnooooolg o oqonkfffffffffffghfm |
  1
/+36,+r:&:r>++-6= {rn rn {rn {rn {kh |
  1
):-+:' {rn rn {rn {kh m {io |
  1
:336/,:r<*-): {rn rn {rn o o o o o n nqngnnomlimmooooon o o n V V |
  1
/061+ {rn rn {rn nqngnnomlimmooooog o oqonkfffffffffffghfm |
  1
/061+ {rn rn {rn oqjfojjnngnnooooolg o o |
  1
/061+ {rn rn {rn nqngnnomlimmooooog o o |
100
AcDb3dSolid
350
0
  0
ENDSEC
  0
SECTION
  2
OBJECTS
  0
DICTIONARY
  5
B4A
330
0
100
AcDbDictionary
281
     1
  3
ACAD_COLOR
350
2895
  3
ACAD_GROUP
350
B4B
  3
ACAD_LAYOUT
350
DB6
  3
ACAD_MATERIAL
350
2894
  3
ACAD_MLINESTYLE
350
B4C
  3
ACAD_PLOTSETTINGS
350
DB7
  3
ACAD_PLOTSTYLENAME
350
DB4
  3
ACAD_TABLESTYLE
350
2EEA
  3
ACAD_VISUALSTYLE
350
2ED9
  3
ACADE_WIRETYPE
350
2F12
  3
AcDbVariableDictionary
350
1503
  3
ASE_INDEX_DICTIONARY
350
2EF2
  0
DICTIONARY
  5
2EF4
330
8
100
AcDbDictionary
280
     1
281
     1
  0
DICTIONARY
  5
2EEF
330
2EEE
100
AcDbDictionary
280
     1
281
     1
  3
ACADE_WIRETYPE
360
2EF0
  0
DICTIONARY
  5
14F7
330
1B
100
AcDbDictionary
280
     1
281
     1
  3
ACAD_LAYOUTSELFREF
360
2EC9
  0
DICTIONARY
  5
14F9
330
1C
100
AcDbDictionary
280
     1
281
     1
  3
ACAD_LAYOUTSELFREF
360
2ECA
  0
DICTIONARY
  5
2895
102
{ACAD_REACTORS
330
B4A
102
}
330
B4A
100
AcDbDictionary
281
     1
  0
DICTIONARY
  5
B4B
102
{ACAD_REACTORS
330
B4A
102
}
330
B4A
100
AcDbDictionary
281
     1
  0
DICTIONARY
  5
DB6
102
{ACAD_REACTORS
330
B4A
102
}
330
B4A
100
AcDbDictionary
281
     1
  3
Layout1
350
DB9
  3
Model
350
DB8
  0
DICTIONARY
  5
2894
102
{ACAD_REACTORS
330
B4A
102
}
330
B4A
100
AcDbDictionary
281
     1
  3
ByBlock
350
2ED7
  3
ByLayer
350
2ED6
  3
Global
350
2ED8
  0
DICTIONARY
  5
B4C
102
{ACAD_REACTORS
330
B4A
102
}
330
B4A
100
AcDbDictionary
281
     1
  3
STANDARD
350
B4D
  0
DICTIONARY
  5
DB7
102
{ACAD_REACTORS
330
B4A
102
}
330
B4A
100
AcDbDictionary
281
     1
  0
ACDBDICTIONARYWDFLT
  5
DB4
102
{ACAD_REACTORS
330
B4A
102
}
330
B4A
100
AcDbDictionary
281
     1
  3
Normal
350
DB5
100
AcDbDictionaryWithDefault
340
DB5
  0
DICTIONARY
  5
2EEA
102
{ACAD_REACTORS
330
B4A
102
}
330
B4A
100
AcDbDictionary
281
     1
  3
Standard
350
2EEB
  0
DICTIONARY
  5
2ED9
102
{ACAD_REACTORS
330
B4A
102
}
330
B4A
100
AcDbDictionary
281
     1
  3
2dWireframe
350
2EDF
  3
3D Hidden
350
2EE1
  3
3dWireframe
350
2EE0
  3
Basic
350
2EDE
  3
Brighten
350
2EE5
  3
ColorChange
350
2EE9
  3
Conceptual
350
2EE2
  3
Dim
350
2EE4
  3
Facepattern
350
2EE8
  3
Flat
350
2EDA
  3
FlatWithEdges
350
2EDB
  3
Gouraud
350
2EDC
  3
GouraudWithEdges
350
2EDD
  3
Linepattern
350
2EE7
  3
Realistic
350
2EE3
  3
Thicken
350
2EE6
  0
DICTIONARY
  5
2F12
102
{ACAD_REACTORS
330
B4A
102
}
330
B4A
100
AcDbDictionary
281
     1
  3
CURRENT_WIRELAY
350
2F13
  0
DICTIONARY
  5
1503
102
{ACAD_REACTORS
330
B4A
102
}
330
B4A
100
AcDbDictionary
281
     1
  3
CTABLESTYLE
350
2F0D
  3
DIMASSOC
350
1504
  3
PROJECTNAME
350
28D1
  0
DICTIONARY
  5
2EF2
102
{ACAD_REACTORS
330
B4A
102
}
330
B4A
100
AcDbDictionary
281
     1
  3
ASEBlockHierarchyIndexRecord
350
2EF3
1001
DCO15
1040
1590466963.727
  0
XRECORD
  5
2EF0
102
{ACAD_REACTORS
330
2EEF
102
}
330
2EEF
100
AcDbXrecord
280
     1
  1

  2

  3
WIRE
 90
        0
  0
XRECORD
  5
2EC9
102
{ACAD_REACTORS
330
14F7
102
}
330
14F7
100
AcDbXrecord
280
     1
340
1B
  0
XRECORD
  5
2ECA
102
{ACAD_REACTORS
330
14F9
102
}
330
14F9
100
AcDbXrecord
280
     1
340
1C
  0
LAYOUT
  5
DB9
102
{ACAD_REACTORS
330
DB6
102
}
330
DB6
100
AcDbPlotSettings
  1

  2
\\BTS_SERVER\HP LaserJet 4V
  4

  6

 40
0.0
 41
0.0
 42
0.0
 43
0.0
 44
0.0
 45
0.0
 46
0.0
 47
0.0
 48
0.0
 49
0.0
140
0.0
141
0.0
142
1.0
143
1.0
 70
   688
 72
     0
 73
     0
 74
     5
  7
STANDARD.ctb
 75
    16
147
1.0
 76
     0
 77
     2
 78
   300
148
0.0
149
0.0
100
AcDbLayout
  1
Layout1
 70
     0
 71
     1
 10
0.0
 20
0.0
 11
12.0
 21
9.0
 12
0.0
 22
0.0
 32
0.0
 14
1.000000000000000E+20
 24
1.000000000000000E+20
 34
1.000000000000000E+20
 15
-1.000000000000000E+20
 25
-1.000000000000000E+20
 35
-1.000000000000000E+20
146
0.0
 13
0.0
 23
0.0
 33
0.0
 16
1.0
 26
0.0
 36
0.0
 17
0.0
 27
1.0
 37
0.0
 76
     0
330
1C
  0
LAYOUT
  5
DB8
102
{ACAD_REACTORS
330
DB6
102
}
330
DB6
100
AcDbPlotSettings
  1

  2
\\BTS_SERVER\HP LaserJet 4V
  4
Letter
  6

 40
7.143749713897705
 41
6.720414161682128
 42
7.14373779296875
 43
5.027069091796875
 44
215.8999938964844
 45
279.3999938964844
 46
0.0
 47
35.05199999999999
 48
0.0
 49
0.0
140
0.0
141
0.0
142
1.0
143
0.537415915414992
 70
 11956
 72
     0
 73
     0
 74
     1
  7
STANDARD.ctb
 75
     0
147
1.860756206350533
 76
     0
 77
     2
 78
   300
148
79.51488197159209
149
48.17630320751558
100
AcDbLayout
  1
Model
 70
     1
 71
     0
 10
0.0
 20
0.0
 11
12.0
 21
9.0
 12
0.0
 22
0.0
 32
0.0
 14
0.0
 24
0.0
 34
0.0
 15
0.0
 25
0.0
 35
0.0
146
0.0
 13
0.0
 23
0.0
 33
0.0
 16
1.0
 26
0.0
 36
0.0
 17
0.0
 27
1.0
 37
0.0
 76
     0
330
1B
331
2EA6
  0
MATERIAL
  5
2ED7
102
{ACAD_REACTORS
330
2894
102
}
330
2894
100
AcDbMaterial
  1
ByBlock
  0
MATERIAL
  5
2ED6
102
{ACAD_REACTORS
330
2894
102
}
330
2894
100
AcDbMaterial
  1
ByLayer
  0
MATERIAL
  5
2ED8
102
{ACAD_REACTORS
330
2894
102
}
330
2894
100
AcDbMaterial
  1
Global
  0
MLINESTYLE
  5
B4D
102
{ACAD_REACTORS
330
B4C
102
}
330
B4C
100
AcDbMlineStyle
  2
STANDARD
 70
     0
  3

 62
   256
 51
90.00000000000019
 52
90.00000000000019
 71
     2
 49
0.5
 62
   256
  6
BYLAYER
 49
-0.5
 62
   256
  6
BYLAYER
  0
ACDBPLACEHOLDER
  5
DB5
102
{ACAD_REACTORS
330
DB4
102
}
330
DB4
  0
TABLESTYLE
  5
2EEB
102
{ACAD_REACTORS
330
2EEA
102
}
330
2EEA
100
AcDbTableStyle
  3
Standard
 70
     0
 71
     0
 40
0.06
 41
0.06
280
     0
281
     0
  7
STANDARD
140
0.18
170
     2
 62
     0
 63
     7
283
     0
 90
      512
 91
        0
  1

274
    -2
284
     1
 64
     0
275
    -2
285
     1
 65
     0
276
    -2
286
     1
 66
     0
277
    -2
287
     1
 67
     0
278
    -2
288
     1
 68
     0
279
    -2
289
     1
 69
     0
  7
STANDARD
140
0.25
170
     5
 62
     0
 63
     7
283
     0
 90
      512
 91
        0
  1

274
    -2
284
     1
 64
     0
275
    -2
285
     1
 65
     0
276
    -2
286
     1
 66
     0
277
    -2
287
     1
 67
     0
278
    -2
288
     1
 68
     0
279
    -2
289
     1
 69
     0
  7
STANDARD
140
0.18
170
     5
 62
     0
 63
     7
283
     0
 90
      512
 91
        0
  1

274
    -2
284
     1
 64
     0
275
    -2
285
     1
 65
     0
276
    -2
286
     1
 66
     0
277
    -2
287
     1
 67
     0
278
    -2
288
     1
 68
     0
279
    -2
289
     1
 69
     0
  0
VISUALSTYLE
  5
2EDF
102
{ACAD_REACTORS
330
2ED9
102
}
330
2ED9
100
AcDbVisualStyle
  2
2dWireframe
 70
     4
 71
     0
 72
     2
 73
     0
 90
        0
 40
-0.6
 41
-30.0
 62
     5
 63
     7
421
 16777215
 74
     1
 91
        4
 64
     7
 65
   257
 75
     1
175
     1
 42
1.0
 92
        0
 66
   257
 43
1.0
 76
     1
 77
     6
 78
     2
 67
     7
 79
     5
170
     0
171
     0
290
     0
174
     0
 93
        1
 44
0.0
173
     0
291
     0
 45
0.0
  0
VISUALSTYLE
  5
2EE1
102
{ACAD_REACTORS
330
2ED9
102
}
330
2ED9
100
AcDbVisualStyle
  2
3D Hidden
 70
     6
 71
     1
 72
     2
 73
     2
 90
        0
 40
-0.6
 41
-30.0
 62
     5
 63
     7
421
 16777215
 74
     2
 91
        2
 64
     7
 65
   257
 75
     2
175
     1
 42
40.0
 92
        0
 66
   257
 43
1.0
 76
     1
 77
     6
 78
     2
 67
     7
 79
     3
170
     0
171
     0
290
     0
174
     0
 93
        1
 44
0.0
173
     0
291
     0
 45
0.0
  0
VISUALSTYLE
  5
2EE0
102
{ACAD_REACTORS
330
2ED9
102
}
330
2ED9
100
AcDbVisualStyle
  2
3dWireframe
 70
     5
 71
     0
 72
     2
 73
     0
 90
        0
 40
-0.6
 41
-30.0
 62
     5
 63
     7
421
 16777215
 74
     1
 91
        4
 64
     7
 65
   257
 75
     1
175
     1
 42
1.0
 92
        0
 66
   257
 43
1.0
 76
     1
 77
     6
 78
     2
 67
     7
 79
     5
170
     0
171
     0
290
     0
174
     0
 93
        1
 44
0.0
173
     0
291
     0
 45
0.0
  0
VISUALSTYLE
  5
2EDE
102
{ACAD_REACTORS
330
2ED9
102
}
330
2ED9
100
AcDbVisualStyle
  2
Basic
 70
     7
 71
     1
 72
     0
 73
     1
 90
        0
 40
-0.6
 41
-30.0
 62
     5
 63
     7
421
 16777215
 74
     0
 91
        4
 64
     7
 65
   257
 75
     1
175
     1
 42
1.0
 92
        8
 66
     7
 43
1.0
 76
     1
 77
     6
 78
     2
 67
     7
 79
     5
170
     0
171
     0
290
     0
174
     0
 93
        1
 44
0.0
173
     0
291
     1
 45
0.0
  0
VISUALSTYLE
  5
2EE5
102
{ACAD_REACTORS
330
2ED9
102
}
330
2ED9
100
AcDbVisualStyle
  2
Brighten
 70
    12
 71
     2
 72
     2
 73
     0
 90
        0
 40
-0.6
 41
-30.0
 62
     5
 63
     7
421
 16777215
 74
     1
 91
        4
 64
     7
 65
   257
 75
     1
175
     1
 42
1.0
 92
        8
 66
     7
 43
1.0
 76
     1
 77
     6
 78
     2
 67
     7
 79
     5
170
     0
171
     0
290
     0
174
     0
 93
        1
 44
50.0
173
     0
291
     1
 45
0.0
  0
VISUALSTYLE
  5
2EE9
102
{ACAD_REACTORS
330
2ED9
102
}
330
2ED9
100
AcDbVisualStyle
  2
ColorChange
 70
    16
 71
     2
 72
     2
 73
     3
 90
        0
 40
-0.6
 41
-30.0
 62
     5
 63
     8
421
  8421504
 74
     1
 91
        4
 64
     7
 65
   257
 75
     1
175
     1
 42
1.0
 92
        8
 66
     8
424
  8421504
 43
1.0
 76
     1
 77
     6
 78
     2
 67
     7
 79
     5
170
     0
171
     0
290
     0
174
     0
 93
        1
 44
0.0
173
     0
291
     1
 45
0.0
  0
VISUALSTYLE
  5
2EE2
102
{ACAD_REACTORS
330
2ED9
102
}
330
2ED9
100
AcDbVisualStyle
  2
Conceptual
 70
     9
 71
     3
 72
     2
 73
     0
 90
        0
 40
-0.6
 41
-30.0
 62
     5
 63
     7
421
 16777215
 74
     2
 91
        2
 64
     7
 65
   257
 75
     1
175
     1
 42
40.0
 92
        8
 66
     7
 43
1.0
 76
     1
 77
     6
 78
     2
 67
     7
 79
     3
170
     0
171
     0
290
     0
174
     0
 93
        1
 44
0.0
173
     0
291
     0
 45
0.0
  0
VISUALSTYLE
  5
2EE4
102
{ACAD_REACTORS
330
2ED9
102
}
330
2ED9
100
AcDbVisualStyle
  2
Dim
 70
    11
 71
     2
 72
     2
 73
     0
 90
        0
 40
-0.6
 41
-30.0
 62
     5
 63
     7
421
 16777215
 74
     1
 91
        4
 64
     7
 65
   257
 75
     1
175
     1
 42
1.0
 92
        8
 66
     7
 43
1.0
 76
     1
 77
     6
 78
     2
 67
     7
 79
     5
170
     0
171
     0
290
     0
174
     0
 93
        1
 44
-50.0
173
     0
291
     1
 45
0.0
  0
VISUALSTYLE
  5
2EE8
102
{ACAD_REACTORS
330
2ED9
102
}
330
2ED9
100
AcDbVisualStyle
  2
Facepattern
 70
    15
 71
     2
 72
     2
 73
     0
 90
        0
 40
-0.6
 41
-30.0
 62
     5
 63
     7
421
 16777215
 74
     1
 91
        4
 64
     7
 65
   257
 75
     1
175
     1
 42
1.0
 92
        8
 66
     7
 43
1.0
 76
     1
 77
     6
 78
     2
 67
     7
 79
     5
170
     0
171
     0
290
     0
174
     0
 93
        1
 44
0.0
173
     0
291
     1
 45
0.0
  0
VISUALSTYLE
  5
2EDA
102
{ACAD_REACTORS
330
2ED9
102
}
330
2ED9
100
AcDbVisualStyle
  2
Flat
 70
     0
 71
     2
 72
     1
 73
     1
 90
        2
 40
-0.6
 41
30.0
 62
     5
 63
     7
421
 16777215
 74
     0
 91
        4
 64
     7
 65
   257
 75
     1
175
     1
 42
1.0
 92
        8
 66
     7
 43
1.0
 76
     1
 77
     6
 78
     2
 67
     7
 79
     5
170
     0
171
     0
290
     0
174
     0
 93
       13
 44
0.0
173
     0
291
     1
 45
0.0
  0
VISUALSTYLE
  5
2EDB
102
{ACAD_REACTORS
330
2ED9
102
}
330
2ED9
100
AcDbVisualStyle
  2
FlatWithEdges
 70
     1
 71
     2
 72
     1
 73
     1
 90
        2
 40
-0.6
 41
30.0
 62
     5
 63
     7
421
 16777215
 74
     1
 91
        4
 64
     7
 65
   257
 75
     1
175
     1
 42
1.0
 92
        0
 66
   257
 43
1.0
 76
     1
 77
     6
 78
     2
 67
     7
 79
     5
170
     0
171
     0
290
     0
174
     0
 93
       13
 44
0.0
173
     0
291
     1
 45
0.0
  0
VISUALSTYLE
  5
2EDC
102
{ACAD_REACTORS
330
2ED9
102
}
330
2ED9
100
AcDbVisualStyle
  2
Gouraud
 70
     2
 71
     2
 72
     2
 73
     1
 90
        2
 40
-0.6
 41
30.0
 62
     5
 63
     7
421
 16777215
 74
     0
 91
        4
 64
     7
 65
   257
 75
     1
175
     1
 42
1.0
 92
        0
 66
     7
 43
1.0
 76
     1
 77
     6
 78
     2
 67
     7
 79
     5
170
     0
171
     0
290
     0
174
     0
 93
       13
 44
0.0
173
     0
291
     1
 45
0.0
  0
VISUALSTYLE
  5
2EDD
102
{ACAD_REACTORS
330
2ED9
102
}
330
2ED9
100
AcDbVisualStyle
  2
GouraudWithEdges
 70
     3
 71
     2
 72
     2
 73
     1
 90
        2
 40
-0.6
 41
30.0
 62
     5
 63
     7
421
 16777215
 74
     1
 91
        4
 64
     7
 65
   257
 75
     1
175
     1
 42
1.0
 92
        0
 66
   257
 43
1.0
 76
     1
 77
     6
 78
     2
 67
     7
 79
     5
170
     0
171
     0
290
     0
174
     0
 93
       13
 44
0.0
173
     0
291
     1
 45
0.0
  0
VISUALSTYLE
  5
2EE7
102
{ACAD_REACTORS
330
2ED9
102
}
330
2ED9
100
AcDbVisualStyle
  2
Linepattern
 70
    14
 71
     2
 72
     2
 73
     0
 90
        0
 40
-0.6
 41
-30.0
 62
     5
 63
     7
421
 16777215
 74
     1
 91
        4
 64
     7
 65
   257
 75
     7
175
     7
 42
1.0
 92
        8
 66
     7
 43
1.0
 76
     1
 77
     6
 78
     2
 67
     7
 79
     5
170
     0
171
     0
290
     0
174
     0
 93
        1
 44
0.0
173
     0
291
     1
 45
0.0
  0
VISUALSTYLE
  5
2EE3
102
{ACAD_REACTORS
330
2ED9
102
}
330
2ED9
100
AcDbVisualStyle
  2
Realistic
 70
     8
 71
     2
 72
     2
 73
     0
 90
        0
 40
-0.6
 41
-30.0
 62
     5
 63
     7
421
 16777215
 74
     1
 91
        0
 64
     7
 65
   257
 75
     1
175
     1
 42
1.0
 92
        8
 66
     8
424
  7895160
 43
1.0
 76
     1
 77
     6
 78
     2
 67
     7
 79
     5
170
     0
171
     0
290
     0
174
     0
 93
       13
 44
0.0
173
     0
291
     0
 45
0.0
  0
VISUALSTYLE
  5
2EE6
102
{ACAD_REACTORS
330
2ED9
102
}
330
2ED9
100
AcDbVisualStyle
  2
Thicken
 70
    13
 71
     2
 72
     2
 73
     0
 90
        0
 40
-0.6
 41
-30.0
 62
     5
 63
     7
421
 16777215
 74
     1
 91
        4
 64
     7
 65
   257
 75
     1
175
     1
 42
1.0
 92
       12
 66
     7
 43
1.0
 76
     1
 77
     6
 78
     2
 67
     7
 79
     5
170
     0
171
     0
290
     0
174
     0
 93
        1
 44
0.0
173
     0
291
     1
 45
0.0
  0
XRECORD
  5
2F13
102
{ACAD_REACTORS
330
2F12
102
}
330
2F12
100
AcDbXrecord
280
     1
  1
WIRES
  1
WIRES
  1

290
     0
  0
DICTIONARYVAR
  5
2F0D
102
{ACAD_REACTORS
330
1503
102
}
330
1503
100
DictionaryVariables
280
     0
  1
STANDARD
  0
DICTIONARYVAR
  5
1504
102
{ACAD_REACTORS
330
1503
102
}
330
1503
100
DictionaryVariables
280
     0
  1
1
  0
DICTIONARYVAR
  5
28D1
102
{ACAD_REACTORS
330
1503
102
}
330
1503
100
DictionaryVariables
280
     0
  1

  0
XRECORD
  5
2EF3
102
{ACAD_REACTORS
330
2EF2
102
}
330
2EF2
100
AcDbXrecord
280
     1
  0
ENDSEC
  0
EOF
