  0
SECTION
  2
HEADER
  9
$ACADVER
  1
AC1021
  9
$ACADMAINTVER
 70
    25
  9
$DWGCODEPAGE
  3
ANSI_1252
  9
$LASTSAVEDBY
  1
gdseiver
  9
$INSBASE
 10
0.0
 20
0.0
 30
0.0
  9
$EXTMIN
 10
-32.375
 20
-32.375
 30
-5.349999999999999
  9
$EXTMAX
 10
32.375
 20
32.375
 30
59.25
  9
$LIMMIN
 10
0.0
 20
0.0
  9
$LIMMAX
 10
12.0
 20
9.0
  9
$ORTHOMODE
 70
     0
  9
$REGENMODE
 70
     1
  9
$FILLMODE
 70
     1
  9
$QTEXTMODE
 70
     0
  9
$MIRRTEXT
 70
     1
  9
$LTSCALE
 40
1.0
  9
$ATTMODE
 70
     1
  9
$TEXTSIZE
 40
1.0
  9
$TRACEWID
 40
0.05
  9
$TEXTSTYLE
  7
STANDARD
  9
$CLAYER
  8
0
  9
$CELTYPE
  6
BYLAYER
  9
$CECOLOR
 62
   256
  9
$CELTSCALE
 40
1.0
  9
$DISPSILH
 70
     0
  9
$DIMSCALE
 40
1.0
  9
$DIMASZ
 40
4.572
  9
$DIMEXO
 40
1.587499999999999
  9
$DIMDLI
 40
9.525
  9
$DIMRND
 40
0.0
  9
$DIMDLE
 40
0.0
  9
$DIMEXE
 40
4.572
  9
$DIMTP
 40
0.0
  9
$DIMTM
 40
0.0
  9
$DIMTXT
 40
2.859999999999999
  9
$DIMCEN
 40
2.286
  9
$DIMTSZ
 40
0.0
  9
$DIMTOL
 70
     0
  9
$DIMLIM
 70
     0
  9
$DIMTIH
 70
     0
  9
$DIMTOH
 70
     1
  9
$DIMSE1
 70
     0
  9
$DIMSE2
 70
     0
  9
$DIMTAD
 70
     0
  9
$DIMZIN
 70
     4
  9
$DIMBLK
  1

  9
$DIMASO
 70
     1
  9
$DIMSHO
 70
     1
  9
$DIMPOST
  1

  9
$DIMAPOST
  1

  9
$DIMALT
 70
     1
  9
$DIMALTD
 70
     6
  9
$DIMALTF
 40
0.03937
  9
$DIMLFAC
 40
1.0
  9
$DIMTOFL
 70
     0
  9
$DIMTVP
 40
0.0
  9
$DIMTIX
 70
     0
  9
$DIMSOXD
 70
     0
  9
$DIMSAH
 70
     0
  9
$DIMBLK1
  1

  9
$DIMBLK2
  1

  9
$DIMSTYLE
  2
ABECAD_3D
  9
$DIMCLRD
 70
     0
  9
$DIMCLRE
 70
     0
  9
$DIMCLRT
 70
     0
  9
$DIMTFAC
 40
1.5
  9
$DIMGAP
 40
2.286
  9
$DIMJUST
 70
     0
  9
$DIMSD1
 70
     0
  9
$DIMSD2
 70
     0
  9
$DIMTOLJ
 70
     1
  9
$DIMTZIN
 70
     4
  9
$DIMALTZ
 70
     4
  9
$DIMALTTZ
 70
     4
  9
$DIMUPT
 70
     1
  9
$DIMDEC
 70
     2
  9
$DIMTDEC
 70
     2
  9
$DIMALTU
 70
     7
  9
$DIMALTTD
 70
     6
  9
$DIMTXSTY
  7
STANDARD
  9
$DIMAUNIT
 70
     0
  9
$DIMADEC
 70
     0
  9
$DIMALTRND
 40
0.0
  9
$DIMAZIN
 70
     0
  9
$DIMDSEP
 70
    46
  9
$DIMATFIT
 70
     2
  9
$DIMFRAC
 70
     2
  9
$DIMLDRBLK
  1

  9
$DIMLUNIT
 70
     2
  9
$DIMLWD
 70
    -2
  9
$DIMLWE
 70
    -2
  9
$DIMTMOVE
 70
     2
  9
$DIMFXL
 40
1.0
  9
$DIMFXLON
 70
     0
  9
$DIMJOGANG
 40
0.7853981633974483
  9
$DIMTFILL
 70
     0
  9
$DIMTFILLCLR
 70
     0
  9
$DIMARCSYM
 70
     0
  9
$DIMLTYPE
  6

  9
$DIMLTEX1
  6

  9
$DIMLTEX2
  6

  9
$LUNITS
 70
     2
  9
$LUPREC
 70
     4
  9
$SKETCHINC
 40
0.1
  9
$FILLETRAD
 40
0.0
  9
$AUNITS
 70
     0
  9
$AUPREC
 70
     0
  9
$MENU
  1
ACAD
  9
$ELEVATION
 40
0.0
  9
$PELEVATION
 40
0.0
  9
$THICKNESS
 40
0.0
  9
$LIMCHECK
 70
     0
  9
$CHAMFERA
 40
0.0
  9
$CHAMFERB
 40
0.0
  9
$CHAMFERC
 40
0.0
  9
$CHAMFERD
 40
0.0
  9
$SKPOLY
 70
     0
  9
$TDCREATE
 40
2451760.428845718
  9
$TDUCREATE
 40
2451760.637179051
  9
$TDUPDATE
 40
2454617.698009792
  9
$TDUUPDATE
 40
2454617.906343125
  9
$TDINDWG
 40
0.0795921181
  9
$TDUSRTIMER
 40
0.0795921181
  9
$USRTIMER
 70
     1
  9
$ANGBASE
 50
0.0
  9
$ANGDIR
 70
     0
  9
$PDMODE
 70
     3
  9
$PDSIZE
 40
2.286
  9
$PLINEWID
 40
0.0
  9
$SPLFRAME
 70
     1
  9
$SPLINETYPE
 70
     6
  9
$SPLINESEGS
 70
     8
  9
$HANDSEED
  5
45C8E
  9
$SURFTAB1
 70
     6
  9
$SURFTAB2
 70
     6
  9
$SURFTYPE
 70
     6
  9
$SURFU
 70
     6
  9
$SURFV
 70
     6
  9
$UCSBASE
  2

  9
$UCSNAME
  2

  9
$UCSORG
 10
0.0
 20
0.0
 30
0.0
  9
$UCSXDIR
 10
1.0
 20
0.0
 30
0.0
  9
$UCSYDIR
 10
0.0
 20
1.0
 30
0.0
  9
$UCSORTHOREF
  2

  9
$UCSORTHOVIEW
 70
     1
  9
$UCSORGTOP
 10
0.0
 20
0.0
 30
0.0
  9
$UCSORGBOTTOM
 10
0.0
 20
0.0
 30
0.0
  9
$UCSORGLEFT
 10
0.0
 20
0.0
 30
0.0
  9
$UCSORGRIGHT
 10
0.0
 20
0.0
 30
0.0
  9
$UCSORGFRONT
 10
0.0
 20
0.0
 30
0.0
  9
$UCSORGBACK
 10
0.0
 20
0.0
 30
0.0
  9
$PUCSBASE
  2

  9
$PUCSNAME
  2

  9
$PUCSORG
 10
0.0
 20
0.0
 30
0.0
  9
$PUCSXDIR
 10
1.0
 20
0.0
 30
0.0
  9
$PUCSYDIR
 10
0.0
 20
1.0
 30
0.0
  9
$PUCSORTHOREF
  2

  9
$PUCSORTHOVIEW
 70
     0
  9
$PUCSORGTOP
 10
0.0
 20
0.0
 30
0.0
  9
$PUCSORGBOTTOM
 10
0.0
 20
0.0
 30
0.0
  9
$PUCSORGLEFT
 10
0.0
 20
0.0
 30
0.0
  9
$PUCSORGRIGHT
 10
0.0
 20
0.0
 30
0.0
  9
$PUCSORGFRONT
 10
0.0
 20
0.0
 30
0.0
  9
$PUCSORGBACK
 10
0.0
 20
0.0
 30
0.0
  9
$USERI1
 70
     0
  9
$USERI2
 70
     0
  9
$USERI3
 70
     0
  9
$USERI4
 70
     0
  9
$USERI5
 70
     0
  9
$USERR1
 40
0.0
  9
$USERR2
 40
0.0
  9
$USERR3
 40
0.0
  9
$USERR4
 40
0.0
  9
$USERR5
 40
0.0
  9
$WORLDVIEW
 70
     1
  9
$SHADEDGE
 70
     3
  9
$SHADEDIF
 70
    70
  9
$TILEMODE
 70
     1
  9
$MAXACTVP
 70
    16
  9
$PINSBASE
 10
0.0
 20
0.0
 30
0.0
  9
$PLIMCHECK
 70
     0
  9
$PEXTMIN
 10
1.000000000000000E+20
 20
1.000000000000000E+20
 30
1.000000000000000E+20
  9
$PEXTMAX
 10
-1.000000000000000E+20
 20
-1.000000000000000E+20
 30
-1.000000000000000E+20
  9
$PLIMMIN
 10
0.0
 20
0.0
  9
$PLIMMAX
 10
12.0
 20
9.0
  9
$UNITMODE
 70
     0
  9
$VISRETAIN
 70
     0
  9
$PLINEGEN
 70
     0
  9
$PSLTSCALE
 70
     1
  9
$TREEDEPTH
 70
  3020
  9
$CMLSTYLE
  2
STANDARD
  9
$CMLJUST
 70
     0
  9
$CMLSCALE
 40
1.0
  9
$PROXYGRAPHICS
 70
     1
  9
$MEASUREMENT
 70
     1
  9
$CELWEIGHT
370
    -1
  9
$ENDCAPS
280
     0
  9
$JOINSTYLE
280
     0
  9
$LWDISPLAY
290
     0
  9
$INSUNITS
 70
     0
  9
$HYPERLINKBASE
  1

  9
$STYLESHEET
  1

  9
$XEDIT
290
     1
  9
$CEPSNTYPE
380
     0
  9
$PSTYLEMODE
290
     1
  9
$FINGERPRINTGUID
  2
{6E0CF4B8-225E-11D4-A150-00A0CC3303EC}
  9
$VERSIONGUID
  2
{DAD9B910-E520-40C4-BF1F-9DFFE8D3F8D5}
  9
$EXTNAMES
290
     1
  9
$PSVPSCALE
 40
0.0
  9
$OLESTARTUP
290
     0
  9
$SORTENTS
280
   127
  9
$INDEXCTL
280
     0
  9
$HIDETEXT
280
     0
  9
$XCLIPFRAME
290
     0
  9
$HALOGAP
280
     0
  9
$OBSCOLOR
 70
   257
  9
$OBSLTYPE
280
     0
  9
$INTERSECTIONDISPLAY
280
     0
  9
$INTERSECTIONCOLOR
 70
   257
  9
$DIMASSOC
280
     1
  9
$PROJECTNAME
  1

  9
$CAMERADISPLAY
290
     0
  9
$LENSLENGTH
 40
50.0
  9
$CAMERAHEIGHT
 40
0.0
  9
$STEPSPERSEC
 40
2.0
  9
$STEPSIZE
 40
6.0
  9
$3DDWFPREC
 40
2.0
  9
$PSOLWIDTH
 40
0.25
  9
$PSOLHEIGHT
 40
4.0
  9
$LOFTANG1
 40
1.570796326794896
  9
$LOFTANG2
 40
1.570796326794896
  9
$LOFTMAG1
 40
0.0
  9
$LOFTMAG2
 40
0.0
  9
$LOFTPARAM
 70
     7
  9
$LOFTNORMALS
280
     1
  9
$LATITUDE
 40
37.795
  9
$LONGITUDE
 40
-122.394
  9
$NORTHDIRECTION
 40
0.0
  9
$TIMEZONE
 70
 -8000
  9
$LIGHTGLYPHDISPLAY
280
     1
  9
$TILEMODELIGHTSYNCH
280
     1
  9
$CMATERIAL
347
45C21
  9
$SOLIDHIST
280
     1
  9
$SHOWHIST
280
     1
  9
$DWFFRAME
280
     2
  9
$DGNFRAME
280
     0
  9
$REALWORLDSCALE
290
     1
  9
$INTERFERECOLOR
 62
     1
  9
$INTERFEREOBJVS
345
45C43
  9
$INTERFEREVPVS
346
45C40
  9
$CSHADOW
280
     0
  9
$SHADOWPLANELOCATION
 40
0.0
  0
ENDSEC
  0
SECTION
  2
CLASSES
  0
CLASS
  1
DICTIONARYVAR
  2
AcDbDictionaryVar
  3
ObjectDBX Classes
 90
        0
 91
        8
280
     0
281
     0
  0
CLASS
  1
ACDBDICTIONARYWDFLT
  2
AcDbDictionaryWithDefault
  3
ObjectDBX Classes
 90
        0
 91
        1
280
     0
281
     0
  0
CLASS
  1
MATERIAL
  2
AcDbMaterial
  3
ObjectDBX Classes
 90
     1153
 91
        3
280
     0
281
     0
  0
CLASS
  1
VISUALSTYLE
  2
AcDbVisualStyle
  3
ObjectDBX Classes
 90
     4095
 91
       16
280
     0
281
     0
  0
CLASS
  1
TABLESTYLE
  2
AcDbTableStyle
  3
ObjectDBX Classes
 90
     4095
 91
        1
280
     0
281
     0
  0
CLASS
  1
SCALE
  2
AcDbScale
  3
ObjectDBX Classes
 90
     1153
 91
       33
280
     0
281
     0
  0
CLASS
  1
MLEADERSTYLE
  2
AcDbMLeaderStyle
  3
ACDB_MLEADERSTYLE_CLASS
 90
     4095
 91
        1
280
     0
281
     0
  0
CLASS
  1
CELLSTYLEMAP
  2
AcDbCellStyleMap
  3
ObjectDBX Classes
 90
     1152
 91
        2
280
     0
281
     0
  0
ENDSEC
  0
SECTION
  2
TABLES
  0
TABLE
  2
VPORT
  5
458C7
330
0
100
AcDbSymbolTable
 70
     1
  0
VPORT
  5
45BD6
330
458C7
100
AcDbSymbolTableRecord
100
AcDbViewportTableRecord
  2
*Active
 70
     0
 10
0.0
 20
0.0
 11
1.0
 21
1.0
 12
20.9310485278071
 22
1.884862205922342
 13
0.0
 23
0.0
 14
0.25
 24
0.25
 15
0.25
 25
0.25
 16
0.0
 26
0.0
 36
1.0
 17
-20.93405988926282
 27
-1.885102344421689
 37
-16.21552803409054
 40
65.25366745915818
 41
1.469938650306748
 42
50.0
 43
0.0
 44
0.0
 50
0.0
 51
0.0
 71
     0
 72
 20000
 73
     1
 74
     1
 75
     0
 76
     0
 77
     0
 78
     0
281
     0
 65
     1
110
0.0
120
0.0
130
0.0
111
1.0
121
0.0
131
0.0
112
0.0
122
1.0
132
0.0
 79
     0
146
0.0
348
45C3F
 60
     3
 61
     5
292
     1
282
     1
141
0.0
142
0.0
 63
   250
421
  3355443
  0
ENDTAB
  0
TABLE
  2
LTYPE
  5
458C4
330
0
100
AcDbSymbolTable
 70
     1
  0
LTYPE
  5
458D0
330
458C4
100
AcDbSymbolTableRecord
100
AcDbLinetypeTableRecord
  2
BYBLOCK
 70
     0
  3

 72
    65
 73
     0
 40
0.0
  0
LTYPE
  5
458D1
330
458C4
100
AcDbSymbolTableRecord
100
AcDbLinetypeTableRecord
  2
BYLAYER
 70
     0
  3

 72
    65
 73
     0
 40
0.0
  0
LTYPE
  5
458D2
330
458C4
100
AcDbSymbolTableRecord
100
AcDbLinetypeTableRecord
  2
CONTINUOUS
 70
     0
  3
Solid line
 72
    65
 73
     0
 40
0.0
  0
ENDTAB
  0
TABLE
  2
LAYER
  5
458C1
330
0
100
AcDbSymbolTable
 70
     8
  0
LAYER
  5
458CD
102
{ACAD_XDICTIONARY
360
45C73
102
}
330
458C1
100
AcDbSymbolTableRecord
100
AcDbLayerTableRecord
  2
0
 70
     0
 62
     7
  6
CONTINUOUS
370
    -3
390
458FA
347
45C31
  0
LAYER
  5
458EA
102
{ACAD_XDICTIONARY
360
45C75
102
}
330
458C1
100
AcDbSymbolTableRecord
100
AcDbLayerTableRecord
  2
DIMS-MTG-HOLES
 70
     0
 62
     1
  6
CONTINUOUS
370
    -3
390
458FA
347
45C31
  0
LAYER
  5
458EB
102
{ACAD_XDICTIONARY
360
45C77
102
}
330
458C1
100
AcDbSymbolTableRecord
100
AcDbLayerTableRecord
  2
ATTRIBUTES
 70
     0
 62
     7
  6
CONTINUOUS
370
    -3
390
458FA
347
45C31
  0
LAYER
  5
4593F
102
{ACAD_XDICTIONARY
360
45C79
102
}
330
458C1
100
AcDbSymbolTableRecord
100
AcDbLayerTableRecord
  2
AREA1
 70
     1
 62
     7
  6
CONTINUOUS
290
     0
370
    -3
390
458FA
347
45C31
  0
LAYER
  5
45946
330
458C1
100
AcDbSymbolTableRecord
100
AcDbLayerTableRecord
  2
Defpoints
 70
     1
 62
     7
  6
CONTINUOUS
290
     0
370
    -3
390
458FA
347
45C31
  0
LAYER
  5
45972
102
{ACAD_XDICTIONARY
360
45C7B
102
}
330
458C1
100
AcDbSymbolTableRecord
100
AcDbLayerTableRecord
  2
SCALE
 70
     1
 62
     7
  6
CONTINUOUS
370
    -3
390
458FA
347
45C31
  0
LAYER
  5
4597A
102
{ACAD_XDICTIONARY
360
45C7D
102
}
330
458C1
100
AcDbSymbolTableRecord
100
AcDbLayerTableRecord
  2
SNAP_POINTS
 70
     1
 62
     1
  6
CONTINUOUS
370
    -3
390
458FA
347
45C31
  0
LAYER
  5
45BB7
102
{ACAD_XDICTIONARY
360
45C7F
102
}
330
458C1
100
AcDbSymbolTableRecord
100
AcDbLayerTableRecord
  2
AREA2
 70
     1
 62
     7
  6
CONTINUOUS
370
    -3
390
458FA
347
45C31
  0
ENDTAB
  0
TABLE
  2
STYLE
  5
458C2
330
0
100
AcDbSymbolTable
 70
     1
  0
STYLE
  5
458CE
330
458C2
100
AcDbSymbolTableRecord
100
AcDbTextStyleTableRecord
  2
STANDARD
 70
     0
 40
0.0
 41
1.0
 50
0.0
 71
     0
 42
1.0
  3
txt
  4

  0
ENDTAB
  0
TABLE
  2
VIEW
  5
458C5
330
0
100
AcDbSymbolTable
 70
     0
  0
ENDTAB
  0
TABLE
  2
UCS
  5
458C6
330
0
100
AcDbSymbolTable
 70
     0
  0
ENDTAB
  0
TABLE
  2
APPID
  5
458C8
330
0
100
AcDbSymbolTable
 70
     2
  0
APPID
  5
458CF
330
458C8
100
AcDbSymbolTableRecord
100
AcDbRegAppTableRecord
  2
ACAD
 70
     0
  0
APPID
  5
45C70
330
458C8
100
AcDbSymbolTableRecord
100
AcDbRegAppTableRecord
  2
ACAD_MLEADERVER
 70
     0
  0
ENDTAB
  0
TABLE
  2
DIMSTYLE
  5
458C9
330
0
100
AcDbSymbolTable
 70
     1
100
AcDbDimStyleTable
 71
     0
  0
DIMSTYLE
105
458F6
102
{ACAD_REACTORS
330
45A95
330
45AA2
330
45B9F
102
}
330
458C9
100
AcDbSymbolTableRecord
100
AcDbDimStyleTableRecord
  2
ABECAD_3D
 70
     0
 41
4.572
 42
1.587499999999999
 43
9.525
 44
4.572
 73
     0
 78
     4
140
2.859999999999999
141
2.286
143
0.03937
146
1.5
147
2.286
170
     1
171
     6
271
     2
272
     2
273
     7
274
     6
276
     2
279
     2
284
     4
285
     4
286
     4
288
     1
289
     2
340
458CE
  0
ENDTAB
  0
TABLE
  2
BLOCK_RECORD
  5
458C0
330
0
100
AcDbSymbolTable
 70
     3
  0
BLOCK_RECORD
  5
458D6
102
{ACAD_XDICTIONARY
360
45930
102
}
330
458C0
100
AcDbSymbolTableRecord
100
AcDbBlockTableRecord
  2
*MODEL_SPACE
340
458FD
 70
     0
280
     1
281
     0
  0
BLOCK_RECORD
  5
458D3
102
{ACAD_XDICTIONARY
360
4592E
102
}
330
458C0
100
AcDbSymbolTableRecord
100
AcDbBlockTableRecord
  2
*PAPER_SPACE
340
458FE
 70
     0
280
     1
281
     0
  0
BLOCK_RECORD
  5
45A96
330
458C0
100
AcDbSymbolTableRecord
100
AcDbBlockTableRecord
  2
*D0
340
0
 70
     0
280
     1
281
     0
  0
BLOCK_RECORD
  5
45AA3
330
458C0
100
AcDbSymbolTableRecord
100
AcDbBlockTableRecord
  2
*D1
340
0
 70
     0
280
     1
281
     0
  0
BLOCK_RECORD
  5
45BA0
330
458C0
100
AcDbSymbolTableRecord
100
AcDbBlockTableRecord
  2
*D2
340
0
 70
     0
280
     1
281
     0
  0
ENDTAB
  0
ENDSEC
  0
SECTION
  2
BLOCKS
  0
BLOCK
  5
458DF
330
458D6
100
AcDbEntity
  8
0
100
AcDbBlockBegin
  2
*MODEL_SPACE
 70
     0
 10
0.0
 20
0.0
 30
0.0
  3
*MODEL_SPACE
  1

  0
ENDBLK
  5
458E0
330
458D6
100
AcDbEntity
  8
0
100
AcDbBlockEnd
  0
BLOCK
  5
458DD
330
458D3
100
AcDbEntity
 67
     1
  8
0
100
AcDbBlockBegin
  2
*PAPER_SPACE
 70
     0
 10
0.0
 20
0.0
 30
0.0
  3
*PAPER_SPACE
  1

  0
ENDBLK
  5
458DE
330
458D3
100
AcDbEntity
 67
     1
  8
0
100
AcDbBlockEnd
  0
BLOCK
  5
45AA0
330
45A96
100
AcDbEntity
  8
0
100
AcDbBlockBegin
  2
*D0
 70
     1
 10
0.0
 20
0.0
 30
0.0
  3
*D0
  1

  0
LINE
  5
45AAF
330
45A96
100
AcDbEntity
  8
AREA1
 62
     0
370
    -2
100
AcDbLine
 10
-32.375
 20
33.9625
 30
0.0
 11
-32.375
 21
42.27181910399383
 31
0.0
  0
LINE
  5
45AB0
330
45A96
100
AcDbEntity
  8
AREA1
 62
     0
370
    -2
100
AcDbLine
 10
32.375
 20
33.9625
 30
0.0
 11
32.375
 21
42.27181910399383
 31
0.0
  0
LINE
  5
45AB1
330
45A96
100
AcDbEntity
  8
AREA1
 62
     0
370
    -2
100
AcDbLine
 10
-27.803
 20
37.69981910399383
 30
0.0
 11
-20.97889898832409
 21
37.69981910399383
 31
0.0
  0
LINE
  5
45AB2
330
45A96
100
AcDbEntity
  8
AREA1
 62
     0
370
    -2
100
AcDbLine
 10
27.803
 20
37.69981910399383
 30
0.0
 11
21.72643434500924
 21
37.69981910399383
 31
0.0
  0
MTEXT
  5
45AB3
330
45A96
100
AcDbEntity
  8
AREA1
 62
     0
100
AcDbMText
 10
0.3737676783425741
 20
37.69981910399383
 30
0.0
 40
2.859999999999999
 41
0.0
 46
0.0
 71
     5
 72
     1
  1
\A1;64.75 [2 35/64]
 73
     1
 44
1.0
  0
SOLID
  5
45AB4
330
45A96
100
AcDbEntity
  8
AREA1
 62
     0
100
AcDbTrace
 10
-27.803
 20
38.46181910399383
 30
0.0
 11
-27.803
 21
36.93781910399383
 31
0.0
 12
-32.375
 22
37.69981910399383
 32
0.0
 13
-32.375
 23
37.69981910399383
 33
0.0
  0
SOLID
  5
45AB5
330
45A96
100
AcDbEntity
  8
AREA1
 62
     0
100
AcDbTrace
 10
27.803
 20
38.46181910399383
 30
0.0
 11
27.803
 21
36.93781910399383
 31
0.0
 12
32.375
 22
37.69981910399383
 32
0.0
 13
32.375
 23
37.69981910399383
 33
0.0
  0
POINT
  5
45AB6
330
45A96
100
AcDbEntity
  8
Defpoints
 62
     0
100
AcDbPoint
 10
-32.375
 20
32.375
 30
0.0
  0
POINT
  5
45AB7
330
45A96
100
AcDbEntity
  8
Defpoints
 62
     0
100
AcDbPoint
 10
32.375
 20
32.375
 30
0.0
  0
POINT
  5
45AB8
330
45A96
100
AcDbEntity
  8
Defpoints
 62
     0
100
AcDbPoint
 10
32.375
 20
37.69981910399383
 30
0.0
  0
ENDBLK
  5
45AA1
330
45A96
100
AcDbEntity
  8
0
100
AcDbBlockEnd
  0
BLOCK
  5
45AAD
330
45AA3
100
AcDbEntity
  8
0
100
AcDbBlockBegin
  2
*D1
 70
     1
 10
0.0
 20
0.0
 30
0.0
  3
*D1
  1

  0
LINE
  5
45AB9
330
45AA3
100
AcDbEntity
  8
AREA1
 62
     0
370
    -2
100
AcDbLine
 10
33.9625
 20
32.375
 30
0.0
 11
42.0332751663778
 21
32.375
 31
0.0
  0
LINE
  5
45ABA
330
45AA3
100
AcDbEntity
  8
AREA1
 62
     0
370
    -2
100
AcDbLine
 10
33.9625
 20
-32.375
 30
0.0
 11
42.03327516637778
 21
-32.375
 31
0.0
  0
LINE
  5
45ABB
330
45AA3
100
AcDbEntity
  8
AREA1
 62
     0
370
    -2
100
AcDbLine
 10
37.4612751663778
 20
27.803
 30
0.0
 11
37.4612751663778
 21
21.51309138667418
 31
0.0
  0
LINE
  5
45ABC
330
45AA3
100
AcDbEntity
  8
AREA1
 62
     0
370
    -2
100
AcDbLine
 10
37.46127516637778
 20
-27.803
 30
0.0
 11
37.46127516637778
 21
-21.19224194665916
 31
0.0
  0
MTEXT
  5
45ABD
330
45AA3
100
AcDbEntity
  8
AREA1
 62
     0
100
AcDbMText
 10
37.46127516637779
 20
0.1604247200075122
 30
0.0
 40
2.859999999999999
 41
0.0
 46
0.0
 71
     5
 72
     1
  1
\A1;64.75 [2 35/64]
 11
0.0000000000000001
 21
1.0
 31
0.0
 73
     1
 44
1.0
  0
SOLID
  5
45ABE
330
45AA3
100
AcDbEntity
  8
AREA1
 62
     0
100
AcDbTrace
 10
36.6992751663778
 20
27.803
 30
0.0
 11
38.2232751663778
 21
27.803
 31
0.0
 12
37.4612751663778
 22
32.375
 32
0.0
 13
37.4612751663778
 23
32.375
 33
0.0
  0
SOLID
  5
45ABF
330
45AA3
100
AcDbEntity
  8
AREA1
 62
     0
100
AcDbTrace
 10
36.69927516637778
 20
-27.803
 30
0.0
 11
38.22327516637778
 21
-27.803
 31
0.0
 12
37.46127516637778
 22
-32.375
 32
0.0
 13
37.46127516637778
 23
-32.375
 33
0.0
  0
POINT
  5
45AC0
330
45AA3
100
AcDbEntity
  8
Defpoints
 62
     0
100
AcDbPoint
 10
32.375
 20
32.375
 30
0.0
  0
POINT
  5
45AC1
330
45AA3
100
AcDbEntity
  8
Defpoints
 62
     0
100
AcDbPoint
 10
32.375
 20
-32.375
 30
0.0
  0
POINT
  5
45AC2
330
45AA3
100
AcDbEntity
  8
Defpoints
 62
     0
100
AcDbPoint
 10
37.46127516637778
 20
-32.375
 30
0.0
  0
ENDBLK
  5
45AAE
330
45AA3
100
AcDbEntity
  8
0
100
AcDbBlockEnd
  0
BLOCK
  5
45BAB
330
45BA0
100
AcDbEntity
  8
0
100
AcDbBlockBegin
  2
*D2
 70
     1
 10
0.0
 20
0.0
 30
0.0
  3
*D2
  1

  0
LINE
  5
45BCC
330
45BA0
100
AcDbEntity
  8
AREA2
 62
     0
370
    -2
100
AcDbLine
 10
9.4625
 20
59.25
 30
0.0
 11
51.07256226407439
 21
59.24999999999998
 31
0.0
  0
LINE
  5
45BCD
330
45BA0
100
AcDbEntity
  8
AREA2
 62
     0
370
    -2
100
AcDbLine
 10
18.8875
 20
-5.35
 30
0.0
 11
51.07256226407436
 21
-5.350000000000009
 31
0.0
  0
LINE
  5
45BCE
330
45BA0
100
AcDbEntity
  8
AREA2
 62
     0
370
    -2
100
AcDbLine
 10
46.50056226407438
 20
54.67799999999999
 30
0.0
 11
46.50056226407437
 21
45.66984231899807
 31
0.0
  0
LINE
  5
45BCF
330
45BA0
100
AcDbEntity
  8
AREA2
 62
     0
370
    -2
100
AcDbLine
 10
46.50056226407436
 20
-0.7780000000000081
 30
0.0
 11
46.50056226407436
 21
3.441175652331402
 31
0.0
  0
MTEXT
  5
45BD0
330
45BA0
100
AcDbEntity
  8
AREA2
 62
     0
100
AcDbMText
 10
46.50056226407437
 20
24.55550898566474
 30
0.0
 40
2.859999999999999
 41
0.0
 46
0.0
 71
     5
 72
     1
  1
\A1;64.60 [2 35/64]
 11
0.0000000000000001
 21
1.0
 31
0.0
 73
     1
 44
1.0
  0
SOLID
  5
45BD1
330
45BA0
100
AcDbEntity
  8
AREA2
 62
     0
100
AcDbTrace
 10
45.73856226407438
 20
54.67799999999999
 30
0.0
 11
47.26256226407438
 21
54.67799999999999
 31
0.0
 12
46.50056226407438
 22
59.24999999999999
 32
0.0
 13
46.50056226407438
 23
59.24999999999999
 33
0.0
  0
SOLID
  5
45BD2
330
45BA0
100
AcDbEntity
  8
AREA2
 62
     0
100
AcDbTrace
 10
45.73856226407436
 20
-0.778000000000008
 30
0.0
 11
47.26256226407437
 21
-0.7780000000000084
 31
0.0
 12
46.50056226407436
 22
-5.350000000000008
 32
0.0
 13
46.50056226407436
 23
-5.350000000000008
 33
0.0
  0
POINT
  5
45BD3
330
45BA0
100
AcDbEntity
  8
Defpoints
 62
     0
100
AcDbPoint
 10
7.875
 20
59.25
 30
-21.0
  0
POINT
  5
45BD4
330
45BA0
100
AcDbEntity
  8
Defpoints
 62
     0
100
AcDbPoint
 10
17.3
 20
-5.349999999999999
 30
0.0
  0
POINT
  5
45BD5
330
45BA0
100
AcDbEntity
  8
Defpoints
 62
     0
100
AcDbPoint
 10
46.50056226407436
 20
-5.350000000000008
 30
0.0
  0
ENDBLK
  5
45BAC
330
45BA0
100
AcDbEntity
  8
0
100
AcDbBlockEnd
  0
ENDSEC
  0
SECTION
  2
ENTITIES
  0
LINE
  5
45967
330
458D6
100
AcDbEntity
  8
SCALE
100
AcDbLine
 10
-67.89669114049832
 20
11.96180316237539
 30
0.0
 11
-42.49669114049831
 21
11.96180316237539
 31
0.0
  0
LINE
  5
45969
330
458D6
100
AcDbEntity
  8
SCALE
100
AcDbLine
 10
-42.49669114049831
 20
9.421803162375404
 30
0.0
 11
-42.49669114049831
 21
14.50180316237543
 31
0.0
  0
LINE
  5
4596A
330
458D6
100
AcDbEntity
  8
SCALE
100
AcDbLine
 10
-67.89669114049832
 20
9.421803162375404
 30
0.0
 11
-67.89669114049832
 21
14.50180316237543
 31
0.0
  0
LINE
  5
4596B
330
458D6
100
AcDbEntity
  8
SCALE
100
AcDbLine
 10
-67.89669114049823
 20
17.14822689966863
 30
0.0
 11
-67.89669114049823
 21
22.22822689966862
 31
0.0
  0
LINE
  5
4596C
330
458D6
100
AcDbEntity
  8
SCALE
100
AcDbLine
 10
-57.89671114049824
 20
17.14822689966863
 30
0.0
 11
-57.89671114049824
 21
22.22822689966862
 31
0.0
  0
LINE
  5
4596D
330
458D6
100
AcDbEntity
  8
SCALE
100
AcDbLine
 10
-67.89669114049823
 20
19.68822689966863
 30
0.0
 11
-57.89671114049824
 21
19.68822689966863
 31
0.0
  0
TEXT
  5
4596E
330
458D6
100
AcDbEntity
  8
SCALE
100
AcDbText
 10
-66.38736839972438
 20
20.85001388963113
 30
0.0
 40
1.587499999999999
  1
10 mm
100
AcDbText
  0
TEXT
  5
4596F
330
458D6
100
AcDbEntity
  8
SCALE
100
AcDbText
 10
-60.29879840741031
 20
13.7156400248547
 30
0.0
 40
1.587499999999999
  1
[1 Inch]
100
AcDbText
  0
TEXT
  5
45970
330
458D6
100
AcDbEntity
  8
SCALE
100
AcDbText
 10
-68.09060706036897
 20
25.22176451452051
 30
0.0
 40
1.587499999999999
  1
SCALE:
100
AcDbText
  0
LWPOLYLINE
  5
45971
330
458D6
100
AcDbEntity
  8
SCALE
100
AcDbPolyline
 90
        4
 70
     1
 43
0.0
 10
-69.60264186899047
 20
27.89387492925781
 10
-40.75766985262437
 20
27.89387492925781
 10
-40.75766985262437
 20
6.516991933096235
 10
-69.60264186899047
 20
6.516991933096235
  0
3DSOLID
  5
459DD
330
458D6
100
AcDbEntity
  8
0
100
AcDbModelerGeometry
 70
     1
  1
mnmoo lnh m mi         
  1
ni ^ *+0;:,4 ^ *+0\^ [ nh ^ LR nmqoqnqgmo QK o  
  1
n fqfffffffffffffffj:rooh n:rono 
  1
>,27:>;:- {rn rn _nn mnmqoqnqgmo |
  1
=0;& {m rn {rn {l {rn {rn |
  1
-:9@)+r:&:r>++-6= {rn rn {rn {rn {n {k {j |
  1
3*2/ {i rn {rn {rn {h {n |
  1
:&:@-:961:2:1+ {rn rn _j 8-6;  n _l +-6 l _k ,*-9 o _l >;5 o _k 8->; o _f /0,+<7:<4 o _k ,+03 oqnmoijnhhlhkkknii _k 1+03 lo _k ;,63 o _g 93>+1:,, o _h /6'>-:> o _k 72>' o _i 8-6;>- o _j 28-6; jnm _j *8-6; o _j )8-6; o _no :1;@96:3;, o o o o |
  1
):-+:'@+:2/3>+: {rn rn l o n g |
  1
-:9@)+r:&:r>++-6= {rn rn {rn {rn {l {k {j |
  1
,7:33 {g rn {rn {rn {rn {f {rn {l |
  1
-:9@)+r:&:r>++-6= {rn rn {rn {rn {h {k {j |
  1
9><: {no rn {rn {nn {nm {h {rn {nl -:):-,:; ,6183: |
  1
92:,7r:&:r>++-6= {rn rn {nk {rn {f |
  1
9><: {nj rn {rn {ni {nh {h {rn {ng -:):-,:; ,6183: |
  1
300/ {rn rn {rn {nf {mo {f |
  1
/3>1:r,*-9><: {rn rn {rn lmqlhj rlmqlhj ni o o rn riqnmlolnhifnnnggil:ronh rn o 90-(>-;@) V V V V |
  1
-:9@)+r:&:r>++-6= {rn rn {rn {no {f {k {j |
  1
92:,7r:&:r>++-6= {rn rn {mn {rn {nn |
  1
9><: {mm rn {rn {ml {mk {h {rn {mj -:):-,:; ,6183: |
  1
300/ {rn rn {rn {mi {mh {nn |
  1
<01:r,*-9><: {rn rn {rn o o rjqlkfffffffffffffi o o n fqgmhkijfgfkmkjhgh:roni niqojoooooooooooon o n V V o n niqojoooooooooooon 90-(>-; V V V V |
  1
300/ {rn rn {rn {rn {mg {f |
  1
<0:;8: {rn rn {rn {mf {lo {ln {lm -:):-,:; {nm {rn |
  1
-:9@)+r:&:r>++-6= {rn rn {rn {nj {nn {k {j |
  1
92:,7r:&:r>++-6= {rn rn {ll {rn {ni |
  1
9><: {lk rn {rn {lj {li {h {rn {lh 90-(>-; ,6183: |
  1
300/ {rn rn {rn {rn {lg {ni |
  1
/3>1:r,*-9><: {rn rn {rn fqgmhkijfgfkmkjhgh:roni niqojoooooooooooon jqfjoooooooooooonn o o n iqnmlolnhifnnnggil:ronh n o 90-(>-;@) V V V V |
  1
300/ {rn rn {rn {rn {lf {nn |
  1
<0:;8: {rn rn {rn {mh {mh {lg {ko -:):-,:; {nh {rn |
  1
<0:;8: {rn rn {rn {kn {km {kl {kk -:):-,:; {nf {rn |
  1
<0:;8: {rn rn {rn {kj {mo {ki {kh -:):-,:; {nm {rn |
  1
<0:;8: {rn rn {rn {mo {kj {kg {kf -:):-,:; {nm {rn |
  1
<0:;8: {rn rn {rn {jo {jn {mo {lm 90-(>-; {jm {rn |
  1
:;8: {jl rn {rn {jk rikqhj {jj o {ln {ji 90-(>-; _h *1410(1 |
  1
-:9@)+r:&:r>++-6= {rn rn {rn {mm {ni {k {j |
  1
92:,7r:&:r>++-6= {rn rn {jh {rn {ml |
  1
9><: {jg rn {rn {jf {io {h {rn {in -:):-,:; ,6183: |
  1
300/ {rn rn {rn {im {il {ml |
  1
<01:r,*-9><: {rn rn {rn o o rjqlkfffffffffffffi o o n nqojfmgkkfiojiljik:ronj nhqlooooooooooooon o n V V o n nhqlooooooooooooon 90-(>-; V V V V |
  1
<0:;8: {rn rn {rn {lg {lg {mh {ko 90-(>-; {mk {rn |
  1
<0:;8: {rn rn {rn {lf {lf {ik {ij -:):-,:; {mi {rn |
  1
:;8: {ii rn {rn {ih o {ih iqmglngjlohnhfjgim {mh {ig 90-(>-; _h *1410(1 |
  1
<0:;8: {rn rn {rn {if {mg {ho {hn -:):-,:; {nf {rn |
  1
<0:;8: {rn rn {rn {mg {if {hm {hl -:):-,:; {nf {rn |
  1
<0:;8: {rn rn {rn {hk {hj {mg {kk 90-(>-; {hi {rn |
  1
:;8: {hh rn {rn {hg rmqhgkomnjkffkkmgln {hf mqhgkomnjkffkkmgln {kl {go 90-(>-; _h *1410(1 |
  1
<0:;8: {rn rn {rn {lo {mf {gn {gm -:):-,:; {nm {rn |
  1
<0:;8: {rn rn {rn {gl {gk {mf {kh 90-(>-; {gj {rn |
  1
:;8: {gi rn {rn {gh rikqhj {jk o {ki {gg 90-(>-; _h *1410(1 |
  1
<0:;8: {rn rn {rn {gf {fo {lo {kf 90-(>-; {fn {rn |
  1
:;8: {fm rn {rn {jj rikqhj {fl o {kg {fk 90-(>-; _h *1410(1 |
  1
<0:;8: {rn rn {rn {fj {ln {fo {fi -:):-,:; {jm {rn |
  1
<0:;8: {rn rn {rn {ln {fj {gl {fh 90-(>-; {jm {rn |
  1
300/ {rn rn {rn {rn {ln {jf |
  1
/+36,+r:&:r>++-6= {rn rn {rn {rn {lm |
  1
):-+:' {rn rn {rn {fh m {fg |
  1
):-+:' {rn rn {rn {fi m {ff |
  1
,+->687+r<*-): {rn rn {rn rlmqlhj rlmqlhj ni rn iqnmlolnhifnnnggil:ronh o V V |
  1
-:9@)+r:&:r>++-6= {rn rn {rn {lk {ml {k {j |
  1
92:,7r:&:r>++-6= {rn rn {noo {rn {lj |
  1
9><: {non rn {rn {nom {jm {h {rn {nol 90-(>-; ,6183: |
  1
300/ {rn rn {rn {nok {ik {lj |
  1
/3>1:r,*-9><: {rn rn {rn kqomikoggljfhlfooi:ronk mqlofmilgfnmmolmjl:ronk rjqlkfffffffffffffi o o n iqnmlolnhifnnnggil:ronh n o 90-(>-;@) V V V V |
  1
300/ {rn rn {rn {rn {noj {ml |
  1
<0:;8: {rn rn {rn {il {il {noi {noh -:):-,:; {li {rn |
  1
<0:;8: {rn rn {rn {ik {ik {lf {ij 90-(>-; {io {rn |
  1
:;8: {nog rn {rn {nof o {nof iqmglngjlohnhfjgim {ik {nno 90-(>-; _h *1410(1 |
  1
/+36,+r:&:r>++-6= {rn rn {rn {rn {ko |
  1
):-+:' {rn rn {rn {ko m {nnn |
  1
:336/,:r<*-): {rn rn {rn o o jqfjoooooooooooonn o o rn fqgmhkijfgfkmkjhgh:roni niqojoooooooooooon o n V V |
  1
<0:;8: {rn rn {rn {km {kn {nnm {nnl -:):-,:; {nf {rn |
  1
<0:;8: {rn rn {rn {nnk {nnj {kn {hn 90-(>-; {nni {rn |
  1
:;8: {nnh rn {rn {nng o {hg jqnhlnlnhjjkojkohl {ho {nnf 90-(>-; _h *1410(1 |
  1
<0:;8: {rn rn {rn {nmo {nmn {km {hl 90-(>-; {nmm {rn |
  1
:;8: {nml rn {rn {hf kmqohigigmkkjfkjfl {nmk khqmj {hm {nmj 90-(>-; _h *1410(1 |
  1
<0:;8: {rn rn {rn {nmi {kl {nmn {nmh -:):-,:; {hi {rn |
  1
<0:;8: {rn rn {rn {kl {nmi {nnk {nmg -:):-,:; {hi {rn |
  1
300/ {rn rn {rn {rn {hk {nmf |
  1
/+36,+r:&:r>++-6= {rn rn {rn {rn {kk |
  1
):-+:' {rn rn {rn {hn m {nlo |
  1
):-+:' {rn rn {rn {hl m {nln |
  1
:336/,:r<*-): {rn rn {rn o o ni o o n nqlhhigmnkgojonhkk:ronj mmqj o n V V |
  1
<0:;8: {rn rn {rn {nlm {nll {kj {gm 90-(>-; {nlk {rn |
  1
:;8: {nlj rn {rn {fl rikqhj {gh o {gn {nli 90-(>-; _h *1410(1 |
  1
<0:;8: {rn rn {rn {nlh {ki {jn {fh -:):-,:; {gj {rn |
  1
<0:;8: {rn rn {rn {ki {nlh {nlm {nlg 90-(>-; {gj {rn |
  1
300/ {rn rn {rn {rn {ki {nlf |
  1
/+36,+r:&:r>++-6= {rn rn {rn {rn {kh |
  1
):-+:' {rn rn {rn {nlg m {nko |
  1
,+->687+r<*-): {rn rn {rn lmqlhj rlmqlhj ni riqnmlolnhifnnnggil:ronh rn o V V |
  1
<0:;8: {rn rn {rn {nkn {kg {nll {nkm -:):-,:; {fn {rn |
  1
<0:;8: {rn rn {rn {kg {nkn {jo {fi 90-(>-; {fn {rn |
  1
300/ {rn rn {rn {rn {kg {nom |
  1
/+36,+r:&:r>++-6= {rn rn {rn {rn {kf |
  1
):-+:' {rn rn {rn {nkm m {nkl |
  1
,+->687+r<*-): {rn rn {rn rlmqlhj lmqlhj ni iqnmlolnhifnnnggil:ronh n o V V |
  1
<0:;8: {rn rn {rn {jn {jo {nkk {nkj 90-(>-; {jm {rn |
  1
:;8: {nki rn {rn {nkh o {jj ni {fo {nkg 90-(>-; _h *1410(1 |
  1
:;8: {nkf rn {rn {njo o {jk ni {jn {njn 90-(>-; _h *1410(1 |
  1
/061+ {rn rn {rn lmqlhj rlmqlhj ni |
  1
/061+ {rn rn {rn rlmqlhj rlmqlhj ni |
  1
-:9@)+r:&:r>++-6= {rn rn {rn {jg {lj {k {j |
  1
92:,7r:&:r>++-6= {rn rn {njm {rn {jf |
  1
9><: {njl rn {rn {njk {fn {h {rn {njj 90-(>-; ,6183: |
  1
/3>1:r,*-9><: {rn rn {rn lmqlhj rlmqlhj o riqnmlolnhifnnnggil:ronh rn o o o n 90-(>-;@) V V V V |
  1
300/ {rn rn {rn {rn {nji {lj |
  1
<0:;8: {rn rn {rn {noj {noj {nji {njh 90-(>-; {im {rn |
  1
<0:;8: {rn rn {rn {noi {noi {il {noh 90-(>-; {njg {rn |
  1
:;8: {njf rn {rn {nio o {nio iqmglngjlohnhfjgim {noi {nin 90-(>-; _h *1410(1 |
  1
/+36,+r:&:r>++-6= {rn rn {rn {rn {ij |
  1
):-+:' {rn rn {rn {ij m {nim |
  1
:336/,:r<*-): {rn rn {rn o o rjqlkfffffffffffffi o o n fqgmhkijfgfkmkjhgh:roni niqojoooooooooooon o n V V |
  1
/061+ {rn rn {rn fqgmhkijfgfkmkjhgh:roni niqojoooooooooooon jqfjoooooooooooonn |
  1
<0:;8: {rn rn {rn {nil {nik {if {nnl 90-(>-; {nij {rn |
  1
:;8: {nii rn {rn {nmk o {nng njqhj {nnm {nih 90-(>-; _h *1410(1 |
  1
<0:;8: {rn rn {rn {nig {ho {hj {nmg 90-(>-; {nni {rn |
  1
<0:;8: {rn rn {rn {ho {nif {nil {nho -:):-,:; {nni {rn |
  1
300/ {rn rn {rn {rn {nig {nhn |
  1
/+36,+r:&:r>++-6= {rn rn {rn {rn {hn |
  1
):-+:' {rn rn {rn {hn m {nhm |
  1
,+->687+r<*-): {rn rn {rn hqghkfffffffffffgm rmiqmj ni iqnmlolnhifnnnggil:ronh n o V V |
  1
<0:;8: {rn rn {rn {nhl {hm {nik {nhk 90-(>-; {nmm {rn |
  1
<0:;8: {rn rn {rn {hm {nhj {hk {nmh 90-(>-; {nmm {rn |
  1
300/ {rn rn {rn {rn {nhj {nhi |
  1
/+36,+r:&:r>++-6= {rn rn {rn {rn {hl |
  1
):-+:' {rn rn {rn {hl m {nhh |
  1
,+->687+r<*-): {rn rn {rn rhqghkffffffffffffn mn ni riqnmlolnhifnnnggil:ronh rn o V V |
  1
<0:;8: {rn rn {rn {hj {hk {nhg {nhf 90-(>-; {hi {rn |
  1
:;8: {ngo rn {rn {ngn rnjqgoooooooooooook {hf o {nmn {ngm 90-(>-; _h *1410(1 |
  1
:;8: {ngl rn {rn {hg o {ngk njqgoooooooooooook {nnk {ngj 90-(>-; _h *1410(1 |
  1
9><: {ngi rn {rn {nhi {hi {h {rn {ngh 90-(>-; ,6183: |
  1
/061+ {rn rn {rn hqghkffffffffffffn rmnqohigigmkkjfkjfl ni |
  1
/061+ {rn rn {rn rhqghjoooooooooooof rmnqohigigmkkjfkjfl ni |
  1
<0:;8: {rn rn {rn {ngg {gn {gk {nlg -:):-,:; {nlk {rn |
  1
<0:;8: {rn rn {rn {gn {ngg {gf {nkm 90-(>-; {nlk {rn |
  1
300/ {rn rn {rn {rn {gn {njk |
  1
/+36,+r:&:r>++-6= {rn rn {rn {rn {gm |
  1
,+->687+r<*-): {rn rn {rn lmqlhj lmqlhj ni n riqnmlolnhifnnnggil:ronh o V V |
  1
<0:;8: {rn rn {rn {gk {gl {ngf {nfo 90-(>-; {gj {rn |
  1
:;8: {nfn rn {rn {nfm o {gh ni {gk {nfl 90-(>-; _h *1410(1 |
  1
9><: {nfk rn {rn {nfj {gj {h {rn {nfi 90-(>-; ,6183: |
  1
/061+ {rn rn {rn lmqlhj lmqlhj ni |
  1
<0:;8: {rn rn {rn {fo {gf {nfh {nfg 90-(>-; {fn {rn |
  1
:;8: {nff rn {rn {moo o {fl ni {nll {mon 90-(>-; _h *1410(1 |
  1
/061+ {rn rn {rn rlmqlhj lmqlhj ni |
  1
<0:;8: {rn rn {rn {nfh {ngf {fj {nkj -:):-,:; {mom {rn |
  1
:;8: {mol rn {rn {nkh o {njo ikqhj {fj {mok 90-(>-; _h *1410(1 |
  1
/+36,+r:&:r>++-6= {rn rn {rn {rn {fi |
  1
):-+:' {rn rn {rn {nfg m {moj |
  1
,+->687+r<*-): {rn rn {rn rlmqlhj rlmqlhj o o o n V V |
  1
/+36,+r:&:r>++-6= {rn rn {rn {rn {fh |
  1
):-+:' {rn rn {rn {nfo m {moi |
  1
,+->687+r<*-): {rn rn {rn lmqlhj rlmqlhj o o o n V V |
  1
-:9@)+r:&:r>++-6= {rn rn {rn {non {jf {k {j |
  1
92:,7r:&:r>++-6= {rn rn {moh {rn {nom |
  1
9><: {mog rn {rn {nlf {nlk {h {rn {mof 90-(>-; ,6183: |
  1
/3>1:r,*-9><: {rn rn {rn rlmqlhj rlmqlhj o rn iqnmlolnhifnnnggil:ronh o o o n 90-(>-;@) V V V V |
  1
<0:;8: {rn rn {rn {nji {nji {noj {njh -:):-,:; {nok {rn |
  1
:;8: {mno rn {rn {mnn o {mnn iqmglngjlohnhfjgim {noj {mnm 90-(>-; _h *1410(1 |
  1
300/ {rn rn {rn {mom {noi {nfj |
  1
/+36,+r:&:r>++-6= {rn rn {rn {rn {noh |
  1
):-+:' {rn rn {rn {noh m {mnl |
  1
:336/,:r<*-): {rn rn {rn o o o o o n nqojfmgkkfiojiljik:ronj nhqlooooooooooooon o n V V |
  1
/061+ {rn rn {rn fqgmhkijfgfkmkjhgh:roni niqojoooooooooooon rjqlkfffffffffffffi |
  1
<0:;8: {rn rn {rn {mnk {nnm {nnj {nho 90-(>-; {nij {rn |
  1
<0:;8: {rn rn {rn {nnm {mnk {nmo {nhk -:):-,:; {nij {rn |
  1
300/ {rn rn {rn {rn {mnk {mnj |
  1
/+36,+r:&:r>++-6= {rn rn {rn {rn {nnl |
  1
,+->687+r<*-): {rn rn {rn rhqghjooooooooooong rmiqmj ni n riqnmlolnhifnnnggil:ronh o V V |
  1
<0:;8: {rn rn {rn {mni {nnk {mnh {mng 90-(>-; {nni {rn |
  1
<0:;8: {rn rn {rn {nnj {mni {mnf {mmo 90-(>-; {nni {rn |
  1
:;8: {mmn rn {rn {nng o {mmm klqmj {nil {mml 90-(>-; _h *1410(1 |
  1
9><: {mmk rn {rn {mmj {nni {h {rn {mmi 90-(>-; ,6183: |
  1
/061+ {rn rn {rn hqghkfffffffffffgm rmiqmj ni |
  1
<0:;8: {rn rn {rn {mmh {nmo {mmg {mmf 90-(>-; {nmm {rn |
  1
:;8: {mlo rn {rn {nmk o {mln klqmj {nmo {mlm 90-(>-; _h *1410(1 |
  1
<0:;8: {rn rn {rn {nmn {mmh {mll {mlk 90-(>-; {nmm {rn |
  1
9><: {mlj rn {rn {mnj {nmm {h {rn {mli 90-(>-; ,6183: |
  1
/061+ {rn rn {rn rhqghjooooooooooong rmiqmj ni |
  1
<0:;8: {rn rn {rn {mll {mnh {nmi {nhf -:):-,:; {mlh {rn |
  1
:;8: {mlg rn {rn {ngn rmqhgkomnjkffkkmgln {ngk mqhgkomnjkffkkmgln {nmi {mlf 90-(>-; _h *1410(1 |
  1
/+36,+r:&:r>++-6= {rn rn {rn {rn {nmh |
  1
):-+:' {rn rn {rn {nmh m {mko |
  1
,+->687+r<*-): {rn rn {rn rhqghjoooooooooooof rmnqohigigmkkjfkjfl ni o o rn V V |
  1
/+36,+r:&:r>++-6= {rn rn {rn {rn {nmg |
  1
):-+:' {rn rn {rn {nmg m {mkn |
  1
,+->687+r<*-): {rn rn {rn hqghkffffffffffffn rmnqohigigmkkjfkjfl ni o o n V V |
  1
92:,7r:&:r>++-6= {rn rn {mkm {rn {nmf |
  1
<01:r,*-9><: {rn rn {rn o o ni o o n nqlhhigmnkgojonhkk:ronj mmqj o n V V o n mmqj 90-(>-; V V V V |
  1
<0:;8: {rn rn {rn {nll {nlm {mkl {mkk 90-(>-; {nlk {rn |
  1
<0:;8: {rn rn {rn {nkk {mkl {nlh {nfo -:):-,:; {mom {rn |
  1
:;8: {mkj rn {rn {njo o {nfm ikqhj {nlh {mki 90-(>-; _h *1410(1 |
  1
/+36,+r:&:r>++-6= {rn rn {rn {rn {nlg |
  1
):-+:' {rn rn {rn {nfo m {mkh |
  1
,+->687+r<*-): {rn rn {rn lmqlhj lmqlhj o o o n V V |
  1
92:,7r:&:r>++-6= {rn rn {mkg {rn {nlf |
  1
9><: {mkf rn {rn {mjo {njg {h {rn {mjn 90-(>-; ,6183: |
  1
/3>1:r,*-9><: {rn rn {rn lmqlhj lmqlhj o n riqnmlolnhifnnnggil:ronh o o o rn 90-(>-;@) V V V V |
  1
<0:;8: {rn rn {rn {mkl {nkk {nkn {nfg -:):-,:; {mom {rn |
  1
:;8: {mjm rn {rn {moo o {nkh ikqhj {nkn {mjl 90-(>-; _h *1410(1 |
  1
/+36,+r:&:r>++-6= {rn rn {rn {rn {nkm |
  1
):-+:' {rn rn {rn {mkk m {mjk |
  1
,+->687+r<*-): {rn rn {rn rlmqlhj lmqlhj o o o n V V |
  1
300/ {rn rn {rn {rn {ngf {nfj |
  1
/+36,+r:&:r>++-6= {rn rn {rn {rn {nkj |
  1
,+->687+r<*-): {rn rn {rn rlmqlhj rlmqlhj o n riqnmlolnhifnnnggil:ronh o V V |
  1
/061+ {rn rn {rn rlmqlhj rlmqlhj o |
  1
/061+ {rn rn {rn lmqlhj rlmqlhj o |
  1
-:9@)+r:&:r>++-6= {rn rn {rn {njl {nom {k {j |
  1
92:,7r:&:r>++-6= {rn rn {mjj {rn {njk |
  1
/3>1:r,*-9><: {rn rn {rn rlmqlhj lmqlhj o iqnmlolnhifnnnggil:ronh n o o o rn 90-(>-;@) V V V V |
  1
/+36,+r:&:r>++-6= {rn rn {rn {rn {njh |
  1
):-+:' {rn rn {rn {njh m {mji |
  1
:336/,:r<*-): {rn rn {rn o o rjqlkfffffffffffffi o o n nqojfmgkkfiojiljik:ronj nhqlooooooooooooon o n V V |
  1
/061+ {rn rn {rn nqojfmgkkfiojiljik:ronj nhqlooooooooooooon o |
  1
<0:;8: {rn rn {rn {nik {nil {mjh {mjg 90-(>-; {nij {rn |
  1
9><: {mjf rn {rn {mio {nij {h {rn {min 90-(>-; ,6183: |
  1
<0:;8: {rn rn {rn {nif {nig {mim {mil 90-(>-; {nni {rn |
  1
<0:;8: {rn rn {rn {nhg {mik {nig {mng -:):-,:; {mlh {rn |
  1
:;8: {mij rn {rn {ngk rkmqgmigigmkkjfkjfl {mii roqhj {nig {mih 90-(>-; _h *1410(1 |
  1
<0:;8: {rn rn {rn {mig {mjh {nif {mmo -:):-,:; {mif {rn |
  1
:;8: {mho rn {rn {mhn rkhqmj {mmm o {nif {mhm 90-(>-; _h *1410(1 |
  1
/+36,+r:&:r>++-6= {rn rn {rn {rn {nho |
  1
):-+:' {rn rn {rn {nho m {mhl |
  1
,+->687+r<*-): {rn rn {rn hqghkfffffffffffgm rmiqmj ni o o n V V |
  1
92:,7r:&:r>++-6= {rn rn {mhk {rn {nhn |
  1
9><: {mhj rn {rn {rn {mif {h {rn {mhi -:):-,:; ,6183: |
  1
/3>1:r,*-9><: {rn rn {rn hqghjoooooooooooof mn ni n riqnmlolnhifnnnggil:ronh o o o rn 90-(>-;@) V V V V |
  1
<0:;8: {rn rn {rn {nhj {nhl {mhh {mhg -:):-,:; {nmm {rn |
  1
<0:;8: {rn rn {rn {mjh {mig {nhl {mmf -:):-,:; {mif {rn |
  1
:;8: {mhf rn {rn {mln rkhqmj {mgo o {nhl {mgn 90-(>-; _h *1410(1 |
  1
/+36,+r:&:r>++-6= {rn rn {rn {rn {nhk |
  1
):-+:' {rn rn {rn {nhk m {mgm |
  1
,+->687+r<*-): {rn rn {rn rhqghjooooooooooong rmiqmj ni o o n V V |
  1
<0:;8: {rn rn {rn {mik {nhg {nhj {mlk -:):-,:; {mlh {rn |
  1
:;8: {mgl rn {rn {mgk rmmqghj {ngn nfqmongigmkkjfkjfl {nhj {mgj 90-(>-; _h *1410(1 |
  1
92:,7r:&:r>++-6= {rn rn {mgi {rn {nhi |
  1
/3>1:r,*-9><: {rn rn {rn rhqghjooooooooooong rmiqmj ni rn iqnmlolnhifnnnggil:ronh o o o n 90-(>-;@) V V V V |
  1
300/ {rn rn {rn {rn {mll {mjo |
  1
/+36,+r:&:r>++-6= {rn rn {rn {rn {nhf |
  1
:336/,:r<*-): {rn rn {rn o o lnqgoooooooooooook o o rn nqlhhigmnkgojonhkk:ronj mmqj o n V V |
  1
/061+ {rn rn {rn rhqghjoooooooooooof rmnqohigigmkkjfkjfl lnqgoooooooooooook |
  1
/061+ {rn rn {rn hqghkffffffffffffn rmnqohigigmkkjfkjfl lnqgoooooooooooook |
  1
-:9@)+r:&:r>++-6= {rn rn {rn {ngi {nmf {k {j |
  1
<0:;8: {rn rn {rn {ngf {nfh {ngg {mkk -:):-,:; {mom {rn |
  1
:;8: {mgh rn {rn {nfm o {moo ikqhj {ngg {mgg 90-(>-; _h *1410(1 |
  1
/+36,+r:&:r>++-6= {rn rn {rn {rn {nfo |
  1
,+->687+r<*-): {rn rn {rn lmqlhj rlmqlhj o iqnmlolnhifnnnggil:ronh n o V V |
  1
/061+ {rn rn {rn lmqlhj lmqlhj o |
  1
-:9@)+r:&:r>++-6= {rn rn {rn {nfk {nlf {k {j |
  1
92:,7r:&:r>++-6= {rn rn {mgf {rn {nfj |
  1
9><: {mfo rn {rn {nmf {mlh {h {rn {mfn 90-(>-; ,6183: |
  1
/3>1:r,*-9><: {rn rn {rn o o o o o rn riqnmlolnhifnnnggil:ronh rn o 90-(>-;@) V V V V |
  1
/+36,+r:&:r>++-6= {rn rn {rn {rn {nfg |
  1
,+->687+r<*-): {rn rn {rn rlmqlhj lmqlhj o riqnmlolnhifnnnggil:ronh rn o V V |
  1
/061+ {rn rn {rn rlmqlhj lmqlhj o |
  1
-:9@)+r:&:r>++-6= {rn rn {rn {mog {njk {k {j |
  1
/061+ {rn rn {rn nqojfmgkkfiojiljik:ronj nhqlooooooooooooon rjqlkfffffffffffffi |
  1
<0:;8: {rn rn {rn {mnf {mmg {mnk {mjg -:):-,:; {mif {rn |
  1
:;8: {mfm rn {rn {mmm rnjqhj {mln o {mnk {mfl 90-(>-; _h *1410(1 |
  1
92:,7r:&:r>++-6= {rn rn {mfk {rn {mnj |
  1
9><: {mfj rn {rn {nhn {mfi {h {rn {mfh 90-(>-; ,6183: |
  1
/3>1:r,*-9><: {rn rn {rn hqghkfffffffffffgm rmiqmj ni riqnmlolnhifnnnggil:ronh rn o o o n 90-(>-;@) V V V V |
  1
<0:;8: {rn rn {rn {mfg {mff {mni {mil -:):-,:; {mfi {rn |
  1
:;8: {loo rn {rn {mii njqgoooooooooooook {mhn klqmj {mni {lon 90-(>-; _h *1410(1 |
  1
<0:;8: {rn rn {rn {mnh {mll {mfg {lom -:):-,:; {mlh {rn |
  1
/+36,+r:&:r>++-6= {rn rn {rn {rn {mng |
  1
):-+:' {rn rn {rn {mil m {lol |
  1
,+->687+r<*-): {rn rn {rn hqghjoooooooooooof mnqhj lnqgoooooooooooook iqnmlolnhifnnnggil:ronh n o V V |
  1
<0:;8: {rn rn {rn {mmg {mnf {mff {lok -:):-,:; {mif {rn |
  1
300/ {rn rn {rn {rn {mjh {mmj |
  1
/+36,+r:&:r>++-6= {rn rn {rn {rn {mmo |
  1
):-+:' {rn rn {rn {mil m {loj |
  1
,+->687+r<*-): {rn rn {rn hqghkfffffffffffgm rmiqmj jfqmj riqnmlolnhifnnnggil:ronh rn o V V |
  1
/061+ {rn rn {rn hqghkfffffffffffgm rmiqmj jfqmj |
  1
-:9@)+r:&:r>++-6= {rn rn {rn {mmk {nhn {k {j |
  1
92:,7r:&:r>++-6= {rn rn {loi {rn {mmj |
  1
/3>1:r,*-9><: {rn rn {rn hqghkfffffffffffgm rmiqmj jfqmj o o rn riqnmlolnhifnnnggil:ronh rn o 90-(>-;@) V V V V |
  1
<0:;8: {rn rn {rn {mff {mfg {mmh {mhg 90-(>-; {mfi {rn |
  1
:;8: {loh rn {rn {mgk njqgoooooooooooook {mgo klqmj {mhh {log 90-(>-; _h *1410(1 |
  1
/+36,+r:&:r>++-6= {rn rn {rn {rn {mmf |
  1
):-+:' {rn rn {rn {mhg m {lof |
  1
,+->687+r<*-): {rn rn {rn rhqghkffffffffffffn mn jfqmj iqnmlolnhifnnnggil:ronh n o V V |
  1
/061+ {rn rn {rn rhqghjooooooooooong rmiqmj jfqmj |
  1
/+36,+r:&:r>++-6= {rn rn {rn {rn {mlk |
  1
):-+:' {rn rn {rn {mhg m {lno |
  1
,+->687+r<*-): {rn rn {rn rhqghj rnqghkffffffffffffi lnqgoooooooooooook riqnmlolnhifnnnggil:ronh rn o V V |
  1
-:9@)+r:&:r>++-6= {rn rn {rn {mlj {nhi {k {j |
  1
/+36,+r:&:r>++-6= {rn rn {rn {rn {mkk |
  1
,+->687+r<*-): {rn rn {rn lmqlhj lmqlhj o rn iqnmlolnhifnnnggil:ronh o V V |
  1
-:9@)+r:&:r>++-6= {rn rn {rn {mkf {nfj {k {j |
  1
92:,7r:&:r>++-6= {rn rn {lnn {rn {mjo |
  1
/3>1:r,*-9><: {rn rn {rn nqlhhigmnkgojonhkk:ronj mmqj lnqgoooooooooooook o o n iqnmlolnhifnnnggil:ronh n o 90-(>-;@) V V V V |
  1
/+36,+r:&:r>++-6= {rn rn {rn {rn {mjg |
  1
,+->687+r<*-): {rn rn {rn rhqghjooooooooooong rmiqmj jfqmj rn iqnmlolnhifnnnggil:ronh o V V |
  1
-:9@)+r:&:r>++-6= {rn rn {rn {mjf {mnj {k {j |
  1
92:,7r:&:r>++-6= {rn rn {lnm {rn {mio |
  1
300/ {rn rn {rn {rn {mfg {mio |
  1
/3>1:r,*-9><: {rn rn {rn rhqghkffffffffffffn mn ni iqnmlolnhifnnnggil:ronh n o o o rn 90-(>-;@) V V V V |
  1
<0:;8: {rn rn {rn {mhh {mim {mik {lom 90-(>-; {mfi {rn |
  1
<0:;8: {rn rn {rn {mim {mhh {mig {lok 90-(>-; {mfi {rn |
  1
/+36,+r:&:r>++-6= {rn rn {rn {rn {mil |
  1
,+->687+r<*-): {rn rn {rn hqghjoooooooooooof mn ni o o n V V |
  1
:;8: {lnl rn {rn {mii rnnqgnmj {mgk lqflhjoooooooooook {mfg {lnk 90-(>-; _h *1410(1 |
  1
/061+ {rn rn {rn hqghjoooooooooooof mn lnqgoooooooooooook |
  1
:;8: {lnj rn {rn {mgo rnjqhj {mhn o {mff {lni 90-(>-; _h *1410(1 |
  1
/061+ {rn rn {rn hqghjoooooooooooof mn jfqmj |
  1
-:9@)+r:&:r>++-6= {rn rn {rn {mhj {mmj {k {j |
  1
/+36,+r:&:r>++-6= {rn rn {rn {rn {mhg |
  1
,+->687+r<*-): {rn rn {rn rhqghkffffffffffffn mn ni o o n V V |
  1
/061+ {rn rn {rn rhqghkffffffffffffn mn jfqmj |
  1
/061+ {rn rn {rn rhqghkffffffffffffn mn lnqgoooooooooooook |
  1
-:9@)+r:&:r>++-6= {rn rn {rn {mfo {mjo {k {j |
  1
-:9@)+r:&:r>++-6= {rn rn {rn {mfj {mio {k {j |
  1
/+36,+r:&:r>++-6= {rn rn {rn {rn {lom |
  1
,+->687+r<*-): {rn rn {rn rlqflhkffffffffffgh mn lnqgoooooooooooook rn iqnmlolnhifnnnggil:ronh o V V |
  1
/+36,+r:&:r>++-6= {rn rn {rn {rn {lok |
  1
,+->687+r<*-): {rn rn {rn hqghjoooooooooooof mn jfqmj n riqnmlolnhifnnnggil:ronh o V V |
100
AcDb3dSolid
350
0
  0
LWPOLYLINE
  5
459DF
330
458D6
100
AcDbEntity
  8
0
100
AcDbPolyline
 90
        4
 70
     1
 43
0.0
 38
59.25
 10
0.9000000000000007
 20
13.0
 10
0.9000000000000012
 20
20.5
 10
-0.8999999999999987
 20
20.5
 10
-0.8999999999999992
 20
13.0
  0
LWPOLYLINE
  5
459E2
330
458D6
100
AcDbEntity
  8
0
100
AcDbPolyline
 90
        4
 70
     1
 43
0.0
 38
16.0
 10
-0.4999999999999984
 20
25.4560984551849
 10
0.5000000000000016
 20
25.4560984551849
 10
0.5000000000000016
 20
29.9560984551849
 10
-0.4999999999999984
 20
29.9560984551849
  0
CIRCLE
  5
459E3
330
458D6
100
AcDbEntity
  8
0
100
AcDbCircle
 10
-27.78495167955256
 20
0.0000000000000034
 30
16.0
 40
2.25
  0
CIRCLE
  5
459E4
330
458D6
100
AcDbEntity
  8
0
100
AcDbCircle
 10
-27.78495167955256
 20
0.0000000000000034
 30
16.0
 40
1.75
  0
LWPOLYLINE
  5
45A4B
330
458D6
100
AcDbEntity
  8
0
100
AcDbPolyline
 90
        8
 70
     1
 43
0.0
 38
16.0
 10
-13.46608228887203
 20
22.47585866405723
 10
-13.46608228887203
 20
25.85085866405723
 10
-12.06892731278094
 20
25.85085866405723
 10
-12.06892731278094
 20
26.60085866405723
 10
-15.44392731278094
 20
26.60085866405723
 10
-15.44392731278094
 20
25.85085866405723
 10
-14.21608228887203
 20
25.85085866405723
 10
-14.21608228887203
 20
22.47585866405723
  0
LWPOLYLINE
  5
45A56
330
458D6
100
AcDbEntity
  8
0
100
AcDbPolyline
 90
        5
 70
     0
 43
0.0
 38
16.0
 10
-19.75429835855377
 20
18.68357255371663
 10
-20.75429835855377
 20
19.68357255371663
 10
-20.75429835855377
 20
16.68357255371663
 10
-17.75429835855377
 20
16.68357255371663
 10
-18.75429835855377
 20
17.68357255371663
  0
ARC
  5
45A57
330
458D6
100
AcDbEntity
  8
0
100
AcDbCircle
 10
-2.121376706886614
 20
4.707518961011437
 30
16.0
 40
22.5
100
AcDbArc
 50
128.3553271684267
 51
141.5992574057401
  0
ARC
  5
45A58
330
458D6
100
AcDbEntity
  8
0
100
AcDbCircle
 10
-1.106135997404784
 20
3.726769005821999
 30
16.0
 40
22.5
100
AcDbArc
 50
131.7328531590065
 51
141.6617807802051
  0
ATTDEF
  5
45A81
330
458D6
100
AcDbEntity
  8
ATTRIBUTES
100
AcDbText
 10
-31.09322427109527
 20
-10.60756856458401
 30
0.0
 40
1.26014404603307
  1
SPRECHER+SCHUH
100
AcDbAttributeDefinition
  3
MANUFACTURER NAME?
  2
AC_VND_LABEL
 70
     1
280
     0
  0
ATTDEF
  5
45A82
330
458D6
100
AcDbEntity
  8
ATTRIBUTES
100
AcDbText
 10
-31.09322427109527
 20
-13.23286866048624
 30
0.0
 40
1.26014404603307
  1
KT7-HTN
100
AcDbAttributeDefinition
  3
CATALOG NUMBER?
  2
AC_PART_NO
 70
     1
280
     0
  0
ATTDEF
  5
45A83
330
458D6
100
AcDbEntity
  8
ATTRIBUTES
100
AcDbText
 10
-31.09322427109527
 20
-15.85816875638847
 30
0.0
 40
1.26014404603307
  1
DOOR COUPLING HANDLE FOR KT7
100
AcDbAttributeDefinition
  3
PART DESCRIPTION?
  2
AC_DESCRIPTION
 70
     1
280
     0
  0
ATTDEF
  5
45A84
330
458D6
100
AcDbEntity
  8
ATTRIBUTES
100
AcDbText
 10
-31.09322427109527
 20
-18.4834688522907
 30
0.0
 40
1.26014404603307
  1

100
AcDbAttributeDefinition
  3
DEVICE ID?
  2
DEVICE_ID
 70
     1
280
     0
  0
ATTDEF
  5
45A85
330
458D6
100
AcDbEntity
  8
ATTRIBUTES
100
AcDbText
 10
-31.09322427109527
 20
-21.10876894819293
 30
0.0
 40
1.26014404603307
  1

100
AcDbAttributeDefinition
  3
CUSTOMER PART NUMBER?
  2
AC_CPART_NO
 70
     1
280
     0
  0
ATTDEF
  5
45A86
330
458D6
100
AcDbEntity
  8
ATTRIBUTES
100
AcDbText
 10
-31.09322427109527
 20
-23.73406904409516
 30
0.0
 40
1.26014404603307
  1

100
AcDbAttributeDefinition
  3
CUSTOMER NOTE?
  2
AC_NOTE
 70
     1
280
     0
  0
ATTDEF
  5
45A87
330
458D6
100
AcDbEntity
  8
ATTRIBUTES
100
AcDbText
 10
-31.09322427109527
 20
-26.35936913999739
 30
0.0
 40
1.26014404603307
  1

100
AcDbAttributeDefinition
  3
FASTENER DATA?
  2
FASTENER
 70
     1
280
     0
  0
ATTDEF
  5
45A88
330
458D6
100
AcDbEntity
  8
ATTRIBUTES
100
AcDbText
 10
-31.09322427109527
 20
-28.98466923589963
 30
0.0
 40
1.26014404603307
  1
MM
100
AcDbAttributeDefinition
  3
UNIT OF SCALE?
  2
AC_SCALE_UNIT
 70
     1
280
     0
  0
ATTDEF
  5
45A89
330
458D6
100
AcDbEntity
  8
ATTRIBUTES
100
AcDbText
 10
-31.09322427109527
 20
-31.60996933180186
 30
0.0
 40
1.26014404603307
  1
0
100
AcDbAttributeDefinition
  3
VIEW CODE?
  2
AC_VIEW_CODE
 70
     1
280
     0
  0
DIMENSION
  5
45A95
330
458D6
100
AcDbEntity
  8
AREA1
100
AcDbDimension
  2
*D0
 10
32.375
 20
37.69981910399383
 30
0.0
 11
0.3737676783425741
 21
37.69981910399383
 31
0.0
 70
   160
 71
     5
 42
-1.0
 73
     0
 74
     0
 75
     0
  3
ABECAD_3D
100
AcDbAlignedDimension
 13
-32.375
 23
32.375
 33
0.0
 14
32.375
 24
32.375
 34
0.0
100
AcDbRotatedDimension
  0
DIMENSION
  5
45AA2
330
458D6
100
AcDbEntity
  8
AREA1
100
AcDbDimension
  2
*D1
 10
37.46127516637778
 20
-32.375
 30
0.0
 11
37.46127516637779
 21
0.1604247200075122
 31
0.0
 70
   160
 71
     5
 42
-1.0
 73
     0
 74
     0
 75
     0
  3
ABECAD_3D
100
AcDbAlignedDimension
 13
32.375
 23
32.375
 33
0.0
 14
32.375
 24
-32.375
 34
0.0
 50
90.0
100
AcDbRotatedDimension
  0
POINT
  5
45AC3
330
458D6
100
AcDbEntity
  8
SNAP_POINTS
100
AcDbPoint
 10
0.0
 20
0.0
 30
0.0000000000000009
  0
DIMENSION
  5
45B9F
330
458D6
100
AcDbEntity
  8
AREA2
100
AcDbDimension
  2
*D2
 10
46.50056226407436
 20
32.375
 30
-5.350000000000008
 11
46.50056226407437
 21
24.55550898566474
 31
-32.375
 70
   160
 71
     5
 42
-1.0
 73
     0
 74
     0
 75
     0
210
0.0
220
-1.0
230
0.0
  3
ABECAD_3D
100
AcDbAlignedDimension
 13
7.875
 23
53.375
 33
59.25
 14
17.3
 24
32.375
 34
-5.349999999999999
 50
90.0
100
AcDbRotatedDimension
  0
ENDSEC
  0
SECTION
  2
OBJECTS
  0
DICTIONARY
  5
458CB
330
0
100
AcDbDictionary
281
     1
  3
ACAD_COLOR
350
45B84
  3
ACAD_GROUP
350
458CC
  3
ACAD_LAYOUT
350
458FB
  3
ACAD_MATERIAL
350
45B83
  3
ACAD_MLEADERSTYLE
350
45C6E
  3
ACAD_MLINESTYLE
350
458D9
  3
ACAD_PLOTSETTINGS
350
458FC
  3
ACAD_PLOTSTYLENAME
350
458F9
  3
ACAD_SCALELIST
350
45C4C
  3
ACAD_TABLESTYLE
350
45C4A
  3
ACAD_VISUALSTYLE
350
45C39
  3
ACDB_RECOMPOSE_DATA
350
45C83
  3
ACDBVARIABLEDICTIONARY
350
458E1
  0
DICTIONARY
  5
45C73
330
458CD
100
AcDbDictionary
280
     1
281
     1
  3
ADSK_XREC_LAYER_RECONCILED
360
45C74
  0
DICTIONARY
  5
45C75
330
458EA
100
AcDbDictionary
280
     1
281
     1
  3
ADSK_XREC_LAYER_RECONCILED
360
45C76
  0
DICTIONARY
  5
45C77
330
458EB
100
AcDbDictionary
280
     1
281
     1
  3
ADSK_XREC_LAYER_RECONCILED
360
45C78
  0
DICTIONARY
  5
45C79
330
4593F
100
AcDbDictionary
280
     1
281
     1
  3
ADSK_XREC_LAYER_RECONCILED
360
45C7A
  0
DICTIONARY
  5
45C7B
330
45972
100
AcDbDictionary
280
     1
281
     1
  3
ADSK_XREC_LAYER_RECONCILED
360
45C7C
  0
DICTIONARY
  5
45C7D
330
4597A
100
AcDbDictionary
280
     1
281
     1
  3
ADSK_XREC_LAYER_RECONCILED
360
45C7E
  0
DICTIONARY
  5
45C7F
330
45BB7
100
AcDbDictionary
280
     1
281
     1
  3
ADSK_XREC_LAYER_RECONCILED
360
45C80
  0
DICTIONARY
  5
45930
330
458D6
100
AcDbDictionary
280
     1
281
     1
  3
ACAD_LAYOUTSELFREF
360
45C0C
  0
DICTIONARY
  5
4592E
330
458D3
100
AcDbDictionary
280
     1
281
     1
  3
ACAD_LAYOUTSELFREF
360
45C0B
  0
DICTIONARY
  5
45B84
102
{ACAD_REACTORS
330
458CB
102
}
330
458CB
100
AcDbDictionary
281
     1
  0
DICTIONARY
  5
458CC
102
{ACAD_REACTORS
330
458CB
102
}
330
458CB
100
AcDbDictionary
281
     1
  0
DICTIONARY
  5
458FB
102
{ACAD_REACTORS
330
458CB
102
}
330
458CB
100
AcDbDictionary
281
     1
  3
Layout1
350
458FE
  3
Model
350
458FD
  0
DICTIONARY
  5
45B83
102
{ACAD_REACTORS
330
458CB
102
}
330
458CB
100
AcDbDictionary
281
     1
  3
ByBlock
350
45C29
  3
ByLayer
350
45C21
  3
Global
350
45C31
  0
DICTIONARY
  5
45C6E
102
{ACAD_REACTORS
330
458CB
102
}
330
458CB
100
AcDbDictionary
281
     1
  3
Standard
350
45C6F
  0
DICTIONARY
  5
458D9
102
{ACAD_REACTORS
330
458CB
102
}
330
458CB
100
AcDbDictionary
281
     1
  3
STANDARD
350
458DA
  0
DICTIONARY
  5
458FC
102
{ACAD_REACTORS
330
458CB
102
}
330
458CB
100
AcDbDictionary
281
     1
  0
ACDBDICTIONARYWDFLT
  5
458F9
102
{ACAD_REACTORS
330
458CB
102
}
330
458CB
100
AcDbDictionary
281
     1
  3
Normal
350
458FA
100
AcDbDictionaryWithDefault
340
458FA
  0
DICTIONARY
  5
45C4C
102
{ACAD_REACTORS
330
458CB
102
}
330
458CB
100
AcDbDictionary
281
     1
  3
A0
350
45C4D
  3
A1
350
45C4E
  3
A2
350
45C4F
  3
A3
350
45C50
  3
A4
350
45C51
  3
A5
350
45C52
  3
A6
350
45C53
  3
A7
350
45C54
  3
A8
350
45C55
  3
A9
350
45C56
  3
B0
350
45C57
  3
B1
350
45C58
  3
B2
350
45C59
  3
B3
350
45C5A
  3
B4
350
45C5B
  3
B5
350
45C5C
  3
B6
350
45C5D
  3
B7
350
45C5E
  3
B8
350
45C5F
  3
B9
350
45C60
  3
C0
350
45C61
  3
C1
350
45C62
  3
C2
350
45C63
  3
C3
350
45C64
  3
C4
350
45C65
  3
C5
350
45C66
  3
C6
350
45C67
  3
C7
350
45C68
  3
C8
350
45C69
  3
C9
350
45C6A
  3
D0
350
45C6B
  3
D1
350
45C6C
  3
D2
350
45C6D
  0
DICTIONARY
  5
45C4A
102
{ACAD_REACTORS
330
458CB
102
}
330
458CB
100
AcDbDictionary
281
     1
  3
Standard
350
45C4B
  0
DICTIONARY
  5
45C39
102
{ACAD_REACTORS
330
458CB
102
}
330
458CB
100
AcDbDictionary
281
     1
  3
2dWireframe
350
45C3F
  3
3D Hidden
350
45C41
  3
3dWireframe
350
45C40
  3
Basic
350
45C3E
  3
Brighten
350
45C45
  3
ColorChange
350
45C49
  3
Conceptual
350
45C42
  3
Dim
350
45C44
  3
Facepattern
350
45C48
  3
Flat
350
45C3A
  3
FlatWithEdges
350
45C3B
  3
Gouraud
350
45C3C
  3
GouraudWithEdges
350
45C3D
  3
Linepattern
350
45C47
  3
Realistic
350
45C43
  3
Thicken
350
45C46
  0
XRECORD
  5
45C83
102
{ACAD_REACTORS
330
458CB
102
}
330
458CB
100
AcDbXrecord
280
     1
 90
        1
330
45C4B
  0
DICTIONARY
  5
458E1
102
{ACAD_REACTORS
330
458CB
102
}
330
458CB
100
AcDbDictionary
281
     1
  3
CANNOSCALE
350
45C87
  3
CMLEADERSTYLE
350
45C85
  3
CTABLESTYLE
350
45C84
  3
DIMADEC
350
458E2
  3
DIMASSOC
350
45B90
  3
LIGHTINGUNITS
350
45C88
  3
MSLTSCALE
350
45C86
  3
PROJECTNAME
350
45B91
  0
XRECORD
  5
45C74
102
{ACAD_REACTORS
330
45C73
102
}
330
45C73
100
AcDbXrecord
280
     1
290
     1
  0
XRECORD
  5
45C76
102
{ACAD_REACTORS
330
45C75
102
}
330
45C75
100
AcDbXrecord
280
     1
290
     1
  0
XRECORD
  5
45C78
102
{ACAD_REACTORS
330
45C77
102
}
330
45C77
100
AcDbXrecord
280
     1
290
     1
  0
XRECORD
  5
45C7A
102
{ACAD_REACTORS
330
45C79
102
}
330
45C79
100
AcDbXrecord
280
     1
290
     1
  0
XRECORD
  5
45C7C
102
{ACAD_REACTORS
330
45C7B
102
}
330
45C7B
100
AcDbXrecord
280
     1
290
     1
  0
XRECORD
  5
45C7E
102
{ACAD_REACTORS
330
45C7D
102
}
330
45C7D
100
AcDbXrecord
280
     1
290
     1
  0
XRECORD
  5
45C80
102
{ACAD_REACTORS
330
45C7F
102
}
330
45C7F
100
AcDbXrecord
280
     1
290
     1
  0
XRECORD
  5
45C0C
102
{ACAD_REACTORS
330
45930
102
}
330
45930
100
AcDbXrecord
280
     1
340
458D6
  0
XRECORD
  5
45C0B
102
{ACAD_REACTORS
330
4592E
102
}
330
4592E
100
AcDbXrecord
280
     1
340
458D3
  0
LAYOUT
  5
458FE
102
{ACAD_REACTORS
330
458FB
102
}
330
458FB
100
AcDbPlotSettings
  1

  2
HP LaserJet 5000 Series PCL 6
  4

  6

 40
0.0
 41
0.0
 42
0.0
 43
0.0
 44
0.0
 45
0.0
 46
0.0
 47
0.0
 48
0.0
 49
0.0
140
0.0
141
0.0
142
1.0
143
1.0
 70
   688
 72
     0
 73
     0
 74
     5
  7
Default R14 pen assignments.ctb
 75
    16
147
1.0
 76
     0
 77
     2
 78
   300
148
0.0
149
0.0
100
AcDbLayout
  1
Layout1
 70
     1
 71
     1
 10
0.0
 20
0.0
 11
12.0
 21
9.0
 12
0.0
 22
0.0
 32
0.0
 14
1.000000000000000E+20
 24
1.000000000000000E+20
 34
1.000000000000000E+20
 15
-1.000000000000000E+20
 25
-1.000000000000000E+20
 35
-1.000000000000000E+20
146
0.0
 13
0.0
 23
0.0
 33
0.0
 16
1.0
 26
0.0
 36
0.0
 17
0.0
 27
1.0
 37
0.0
 76
     0
330
458D3
  0
LAYOUT
  5
458FD
102
{ACAD_REACTORS
330
458FB
102
}
330
458FB
100
AcDbPlotSettings
  1

  2
HP LaserJet 5000 Series PCL 6
  4

  6

 40
0.0
 41
0.0
 42
0.0
 43
0.0
 44
0.0
 45
0.0
 46
0.0
 47
0.0
 48
0.0
 49
0.0
140
0.0
141
0.0
142
1.0
143
1.0
 70
  1712
 72
     0
 73
     0
 74
     0
  7
Default R14 pen assignments.ctb
 75
     0
147
1.0
 76
     0
 77
     2
 78
   300
148
0.0
149
0.0
100
AcDbLayout
  1
Model
 70
     1
 71
     0
 10
0.0
 20
0.0
 11
12.0
 21
9.0
 12
0.0
 22
0.0
 32
0.0
 14
0.0
 24
0.0
 34
0.0
 15
0.0
 25
0.0
 35
0.0
146
0.0
 13
0.0
 23
0.0
 33
0.0
 16
1.0
 26
0.0
 36
0.0
 17
0.0
 27
1.0
 37
0.0
 76
     0
330
458D6
331
45BD6
  0
MATERIAL
  5
45C29
102
{ACAD_XDICTIONARY
360
45C2A
102
}
102
{ACAD_REACTORS
330
45B83
102
}
330
45B83
100
AcDbMaterial
  1
ByBlock
 72
     0
 43
0.0208333333333333
 43
0.0
 43
0.0
 43
0.0
 43
0.0
 43
0.0208333333333333
 43
0.0
 43
0.0
 43
0.0
 43
0.0
 43
1.0
 43
0.0
 43
0.0
 43
0.0
 43
0.0
 43
1.0
 77
     0
 47
0.0208333333333333
 47
0.0
 47
0.0
 47
0.0
 47
0.0
 47
0.0208333333333333
 47
0.0
 47
0.0
 47
0.0
 47
0.0
 47
1.0
 47
0.0
 47
0.0
 47
0.0
 47
0.0
 47
1.0
171
     0
 49
0.0208333333333333
 49
0.0
 49
0.0
 49
0.0
 49
0.0
 49
0.0208333333333333
 49
0.0
 49
0.0
 49
0.0
 49
0.0
 49
1.0
 49
0.0
 49
0.0
 49
0.0
 49
0.0
 49
1.0
175
     0
142
0.0208333333333333
142
0.0
142
0.0
142
0.0
142
0.0
142
0.0208333333333333
142
0.0
142
0.0
142
0.0
142
0.0
142
1.0
142
0.0
142
0.0
142
0.0
142
0.0
142
1.0
179
     0
144
0.0208333333333333
144
0.0
144
0.0
144
0.0
144
0.0
144
0.0208333333333333
144
0.0
144
0.0
144
0.0
144
0.0
144
1.0
144
0.0
144
0.0
144
0.0
144
0.0
144
1.0
147
0.0208333333333333
147
0.0
147
0.0
147
0.0
147
0.0
147
0.0208333333333333
147
0.0
147
0.0
147
0.0
147
0.0
147
1.0
147
0.0
147
0.0
147
0.0
147
0.0
147
1.0
  0
MATERIAL
  5
45C21
102
{ACAD_XDICTIONARY
360
45C22
102
}
102
{ACAD_REACTORS
330
45B83
102
}
330
45B83
100
AcDbMaterial
  1
ByLayer
 72
     0
 43
0.0208333333333333
 43
0.0
 43
0.0
 43
0.0
 43
0.0
 43
0.0208333333333333
 43
0.0
 43
0.0
 43
0.0
 43
0.0
 43
1.0
 43
0.0
 43
0.0
 43
0.0
 43
0.0
 43
1.0
 77
     0
 47
0.0208333333333333
 47
0.0
 47
0.0
 47
0.0
 47
0.0
 47
0.0208333333333333
 47
0.0
 47
0.0
 47
0.0
 47
0.0
 47
1.0
 47
0.0
 47
0.0
 47
0.0
 47
0.0
 47
1.0
171
     0
 49
0.0208333333333333
 49
0.0
 49
0.0
 49
0.0
 49
0.0
 49
0.0208333333333333
 49
0.0
 49
0.0
 49
0.0
 49
0.0
 49
1.0
 49
0.0
 49
0.0
 49
0.0
 49
0.0
 49
1.0
175
     0
142
0.0208333333333333
142
0.0
142
0.0
142
0.0
142
0.0
142
0.0208333333333333
142
0.0
142
0.0
142
0.0
142
0.0
142
1.0
142
0.0
142
0.0
142
0.0
142
0.0
142
1.0
179
     0
144
0.0208333333333333
144
0.0
144
0.0
144
0.0
144
0.0
144
0.0208333333333333
144
0.0
144
0.0
144
0.0
144
0.0
144
1.0
144
0.0
144
0.0
144
0.0
144
0.0
144
1.0
147
0.0208333333333333
147
0.0
147
0.0
147
0.0
147
0.0
147
0.0208333333333333
147
0.0
147
0.0
147
0.0
147
0.0
147
1.0
147
0.0
147
0.0
147
0.0
147
0.0
147
1.0
  0
MATERIAL
  5
45C31
102
{ACAD_XDICTIONARY
360
45C32
102
}
102
{ACAD_REACTORS
330
45B83
102
}
330
45B83
100
AcDbMaterial
  1
Global
 72
     0
 43
0.0208333333333333
 43
0.0
 43
0.0
 43
0.0
 43
0.0
 43
0.0208333333333333
 43
0.0
 43
0.0
 43
0.0
 43
0.0
 43
1.0
 43
0.0
 43
0.0
 43
0.0
 43
0.0
 43
1.0
 77
     0
 47
0.0208333333333333
 47
0.0
 47
0.0
 47
0.0
 47
0.0
 47
0.0208333333333333
 47
0.0
 47
0.0
 47
0.0
 47
0.0
 47
1.0
 47
0.0
 47
0.0
 47
0.0
 47
0.0
 47
1.0
171
     0
 49
0.0208333333333333
 49
0.0
 49
0.0
 49
0.0
 49
0.0
 49
0.0208333333333333
 49
0.0
 49
0.0
 49
0.0
 49
0.0
 49
1.0
 49
0.0
 49
0.0
 49
0.0
 49
0.0
 49
1.0
175
     0
142
0.0208333333333333
142
0.0
142
0.0
142
0.0
142
0.0
142
0.0208333333333333
142
0.0
142
0.0
142
0.0
142
0.0
142
1.0
142
0.0
142
0.0
142
0.0
142
0.0
142
1.0
179
     0
144
0.0208333333333333
144
0.0
144
0.0
144
0.0
144
0.0
144
0.0208333333333333
144
0.0
144
0.0
144
0.0
144
0.0
144
1.0
144
0.0
144
0.0
144
0.0
144
0.0
144
1.0
147
0.0208333333333333
147
0.0
147
0.0
147
0.0
147
0.0
147
0.0208333333333333
147
0.0
147
0.0
147
0.0
147
0.0
147
1.0
147
0.0
147
0.0
147
0.0
147
0.0
147
1.0
  0
MLEADERSTYLE
  5
45C6F
102
{ACAD_REACTORS
330
45C6E
102
}
330
45C6E
100
AcDbMLeaderStyle
170
     2
171
     1
172
     0
 90
        2
 40
0.0
 41
0.0
173
     1
 91
-1056964608
340
458D0
 92
       -2
290
     1
 42
2.0
291
     1
 43
0.36
  3
Standard
 44
4.0
300

342
458CE
174
     1
178
     6
175
     1
176
     0
 93
-1056964608
 45
4.0
292
     0
297
     0
 46
4.0
 94
-1056964608
 47
1.0
 49
1.0
140
1.0
293
     1
141
0.0
294
     1
177
     0
142
1.0
295
     1
296
     0
143
0.125
1001
ACAD_MLEADERVER
1070
     2
  0
MLINESTYLE
  5
458DA
102
{ACAD_REACTORS
330
458D9
102
}
330
458D9
100
AcDbMlineStyle
  2
STANDARD
 70
     0
  3

 62
   256
 51
90.0
 52
90.0
 71
     2
 49
0.5
 62
   256
  6
BYLAYER
 49
-0.5
 62
   256
  6
BYLAYER
  0
ACDBPLACEHOLDER
  5
458FA
102
{ACAD_REACTORS
330
458F9
102
}
330
458F9
  0
SCALE
  5
45C4D
102
{ACAD_REACTORS
330
45C4C
102
}
330
45C4C
100
AcDbScale
 70
     0
300
1:1
140
1.0
141
1.0
290
     1
  0
SCALE
  5
45C4E
102
{ACAD_REACTORS
330
45C4C
102
}
330
45C4C
100
AcDbScale
 70
     0
300
1:2
140
1.0
141
2.0
290
     0
  0
SCALE
  5
45C4F
102
{ACAD_REACTORS
330
45C4C
102
}
330
45C4C
100
AcDbScale
 70
     0
300
1:4
140
1.0
141
4.0
290
     0
  0
SCALE
  5
45C50
102
{ACAD_REACTORS
330
45C4C
102
}
330
45C4C
100
AcDbScale
 70
     0
300
1:5
140
1.0
141
5.0
290
     0
  0
SCALE
  5
45C51
102
{ACAD_REACTORS
330
45C4C
102
}
330
45C4C
100
AcDbScale
 70
     0
300
1:8
140
1.0
141
8.0
290
     0
  0
SCALE
  5
45C52
102
{ACAD_REACTORS
330
45C4C
102
}
330
45C4C
100
AcDbScale
 70
     0
300
1:10
140
1.0
141
10.0
290
     0
  0
SCALE
  5
45C53
102
{ACAD_REACTORS
330
45C4C
102
}
330
45C4C
100
AcDbScale
 70
     0
300
1:16
140
1.0
141
16.0
290
     0
  0
SCALE
  5
45C54
102
{ACAD_REACTORS
330
45C4C
102
}
330
45C4C
100
AcDbScale
 70
     0
300
1:20
140
1.0
141
20.0
290
     0
  0
SCALE
  5
45C55
102
{ACAD_REACTORS
330
45C4C
102
}
330
45C4C
100
AcDbScale
 70
     0
300
1:30
140
1.0
141
30.0
290
     0
  0
SCALE
  5
45C56
102
{ACAD_REACTORS
330
45C4C
102
}
330
45C4C
100
AcDbScale
 70
     0
300
1:40
140
1.0
141
40.0
290
     0
  0
SCALE
  5
45C57
102
{ACAD_REACTORS
330
45C4C
102
}
330
45C4C
100
AcDbScale
 70
     0
300
1:50
140
1.0
141
50.0
290
     0
  0
SCALE
  5
45C58
102
{ACAD_REACTORS
330
45C4C
102
}
330
45C4C
100
AcDbScale
 70
     0
300
1:100
140
1.0
141
100.0
290
     0
  0
SCALE
  5
45C59
102
{ACAD_REACTORS
330
45C4C
102
}
330
45C4C
100
AcDbScale
 70
     0
300
2:1
140
2.0
141
1.0
290
     0
  0
SCALE
  5
45C5A
102
{ACAD_REACTORS
330
45C4C
102
}
330
45C4C
100
AcDbScale
 70
     0
300
4:1
140
4.0
141
1.0
290
     0
  0
SCALE
  5
45C5B
102
{ACAD_REACTORS
330
45C4C
102
}
330
45C4C
100
AcDbScale
 70
     0
300
8:1
140
8.0
141
1.0
290
     0
  0
SCALE
  5
45C5C
102
{ACAD_REACTORS
330
45C4C
102
}
330
45C4C
100
AcDbScale
 70
     0
300
10:1
140
10.0
141
1.0
290
     0
  0
SCALE
  5
45C5D
102
{ACAD_REACTORS
330
45C4C
102
}
330
45C4C
100
AcDbScale
 70
     0
300
100:1
140
100.0
141
1.0
290
     0
  0
SCALE
  5
45C5E
102
{ACAD_REACTORS
330
45C4C
102
}
330
45C4C
100
AcDbScale
 70
     0
300
1/128" = 1'-0"
140
0.0078125
141
12.0
290
     0
  0
SCALE
  5
45C5F
102
{ACAD_REACTORS
330
45C4C
102
}
330
45C4C
100
AcDbScale
 70
     0
300
1/64" = 1'-0"
140
0.015625
141
12.0
290
     0
  0
SCALE
  5
45C60
102
{ACAD_REACTORS
330
45C4C
102
}
330
45C4C
100
AcDbScale
 70
     0
300
1/32" = 1'-0"
140
0.03125
141
12.0
290
     0
  0
SCALE
  5
45C61
102
{ACAD_REACTORS
330
45C4C
102
}
330
45C4C
100
AcDbScale
 70
     0
300
1/16" = 1'-0"
140
0.0625
141
12.0
290
     0
  0
SCALE
  5
45C62
102
{ACAD_REACTORS
330
45C4C
102
}
330
45C4C
100
AcDbScale
 70
     0
300
3/32" = 1'-0"
140
0.09375
141
12.0
290
     0
  0
SCALE
  5
45C63
102
{ACAD_REACTORS
330
45C4C
102
}
330
45C4C
100
AcDbScale
 70
     0
300
1/8" = 1'-0"
140
0.125
141
12.0
290
     0
  0
SCALE
  5
45C64
102
{ACAD_REACTORS
330
45C4C
102
}
330
45C4C
100
AcDbScale
 70
     0
300
3/16" = 1'-0"
140
0.1875
141
12.0
290
     0
  0
SCALE
  5
45C65
102
{ACAD_REACTORS
330
45C4C
102
}
330
45C4C
100
AcDbScale
 70
     0
300
1/4" = 1'-0"
140
0.25
141
12.0
290
     0
  0
SCALE
  5
45C66
102
{ACAD_REACTORS
330
45C4C
102
}
330
45C4C
100
AcDbScale
 70
     0
300
3/8" = 1'-0"
140
0.375
141
12.0
290
     0
  0
SCALE
  5
45C67
102
{ACAD_REACTORS
330
45C4C
102
}
330
45C4C
100
AcDbScale
 70
     0
300
1/2" = 1'-0"
140
0.5
141
12.0
290
     0
  0
SCALE
  5
45C68
102
{ACAD_REACTORS
330
45C4C
102
}
330
45C4C
100
AcDbScale
 70
     0
300
3/4" = 1'-0"
140
0.75
141
12.0
290
     0
  0
SCALE
  5
45C69
102
{ACAD_REACTORS
330
45C4C
102
}
330
45C4C
100
AcDbScale
 70
     0
300
1" = 1'-0"
140
1.0
141
12.0
290
     0
  0
SCALE
  5
45C6A
102
{ACAD_REACTORS
330
45C4C
102
}
330
45C4C
100
AcDbScale
 70
     0
300
1-1/2" = 1'-0"
140
1.5
141
12.0
290
     0
  0
SCALE
  5
45C6B
102
{ACAD_REACTORS
330
45C4C
102
}
330
45C4C
100
AcDbScale
 70
     0
300
3" = 1'-0"
140
3.0
141
12.0
290
     0
  0
SCALE
  5
45C6C
102
{ACAD_REACTORS
330
45C4C
102
}
330
45C4C
100
AcDbScale
 70
     0
300
6" = 1'-0"
140
6.0
141
12.0
290
     0
  0
SCALE
  5
45C6D
102
{ACAD_REACTORS
330
45C4C
102
}
330
45C4C
100
AcDbScale
 70
     0
300
1'-0" = 1'-0"
140
12.0
141
12.0
290
     0
  0
TABLESTYLE
  5
45C4B
102
{ACAD_XDICTIONARY
360
45C81
102
}
102
{ACAD_REACTORS
330
45C4A
102
}
330
45C4A
100
AcDbTableStyle
  3
Standard
 70
     0
 71
     0
 40
1.5
 41
1.5
280
     0
281
     0
  7
STANDARD
140
4.5
170
     2
 62
     0
 63
     7
283
     0
 90
      512
 91
        0
  1

274
    -2
284
     1
 64
     0
275
    -2
285
     1
 65
     0
276
    -2
286
     1
 66
     0
277
    -2
287
     1
 67
     0
278
    -2
288
     1
 68
     0
279
    -2
289
     1
 69
     0
  7
STANDARD
140
6.0
170
     5
 62
     0
 63
     7
283
     0
 90
      512
 91
        0
  1

274
    -2
284
     1
 64
     0
275
    -2
285
     1
 65
     0
276
    -2
286
     1
 66
     0
277
    -2
287
     1
 67
     0
278
    -2
288
     1
 68
     0
279
    -2
289
     1
 69
     0
  7
STANDARD
140
4.5
170
     5
 62
     0
 63
     7
283
     0
 90
      512
 91
        0
  1

274
    -2
284
     1
 64
     0
275
    -2
285
     1
 65
     0
276
    -2
286
     1
 66
     0
277
    -2
287
     1
 67
     0
278
    -2
288
     1
 68
     0
279
    -2
289
     1
 69
     0
  0
VISUALSTYLE
  5
45C3F
102
{ACAD_REACTORS
330
45C39
102
}
330
45C39
100
AcDbVisualStyle
  2
2dWireframe
 70
     4
 71
     0
 72
     2
 73
     0
 90
        0
 40
-0.6
 41
-30.0
 62
     5
 63
     7
421
 16777215
 74
     1
 91
        4
 64
     7
 65
   257
 75
     1
175
     1
 42
1.0
 92
        0
 66
   257
 43
1.0
 76
     1
 77
     6
 78
     2
 67
     7
 79
     5
170
     0
171
     0
290
     0
174
     0
 93
        1
 44
0.0
173
     0
291
     0
 45
0.0
  0
VISUALSTYLE
  5
45C41
102
{ACAD_REACTORS
330
45C39
102
}
330
45C39
100
AcDbVisualStyle
  2
3D Hidden
 70
     6
 71
     1
 72
     2
 73
     2
 90
        0
 40
-0.6
 41
-30.0
 62
     5
 63
     7
421
 16777215
 74
     2
 91
        2
 64
     7
 65
   257
 75
     2
175
     1
 42
40.0
 92
        0
 66
   257
 43
1.0
 76
     1
 77
     6
 78
     2
 67
     7
 79
     3
170
     0
171
     0
290
     0
174
     0
 93
        1
 44
0.0
173
     0
291
     0
 45
0.0
  0
VISUALSTYLE
  5
45C40
102
{ACAD_REACTORS
330
45C39
102
}
330
45C39
100
AcDbVisualStyle
  2
3dWireframe
 70
     5
 71
     0
 72
     2
 73
     0
 90
        0
 40
-0.6
 41
-30.0
 62
     5
 63
     7
421
 16777215
 74
     1
 91
        4
 64
     7
 65
   257
 75
     1
175
     1
 42
1.0
 92
        0
 66
   257
 43
1.0
 76
     1
 77
     6
 78
     2
 67
     7
 79
     5
170
     0
171
     0
290
     0
174
     0
 93
        1
 44
0.0
173
     0
291
     0
 45
0.0
  0
VISUALSTYLE
  5
45C3E
102
{ACAD_REACTORS
330
45C39
102
}
330
45C39
100
AcDbVisualStyle
  2
Basic
 70
     7
 71
     1
 72
     0
 73
     1
 90
        0
 40
-0.6
 41
-30.0
 62
     5
 63
     7
421
 16777215
 74
     0
 91
        4
 64
     7
 65
   257
 75
     1
175
     1
 42
1.0
 92
        8
 66
     7
 43
1.0
 76
     1
 77
     6
 78
     2
 67
     7
 79
     5
170
     0
171
     0
290
     0
174
     0
 93
        1
 44
0.0
173
     0
291
     1
 45
0.0
  0
VISUALSTYLE
  5
45C45
102
{ACAD_REACTORS
330
45C39
102
}
330
45C39
100
AcDbVisualStyle
  2
Brighten
 70
    12
 71
     2
 72
     2
 73
     0
 90
        0
 40
-0.6
 41
-30.0
 62
     5
 63
     7
421
 16777215
 74
     1
 91
        4
 64
     7
 65
   257
 75
     1
175
     1
 42
1.0
 92
        8
 66
     7
 43
1.0
 76
     1
 77
     6
 78
     2
 67
     7
 79
     5
170
     0
171
     0
290
     0
174
     0
 93
        1
 44
50.0
173
     0
291
     1
 45
0.0
  0
VISUALSTYLE
  5
45C49
102
{ACAD_REACTORS
330
45C39
102
}
330
45C39
100
AcDbVisualStyle
  2
ColorChange
 70
    16
 71
     2
 72
     2
 73
     3
 90
        0
 40
-0.6
 41
-30.0
 62
     5
 63
     8
421
  8421504
 74
     1
 91
        4
 64
     7
 65
   257
 75
     1
175
     1
 42
1.0
 92
        8
 66
     8
424
  8421504
 43
1.0
 76
     1
 77
     6
 78
     2
 67
     7
 79
     5
170
     0
171
     0
290
     0
174
     0
 93
        1
 44
0.0
173
     0
291
     1
 45
0.0
  0
VISUALSTYLE
  5
45C42
102
{ACAD_REACTORS
330
45C39
102
}
330
45C39
100
AcDbVisualStyle
  2
Conceptual
 70
     9
 71
     3
 72
     2
 73
     0
 90
        0
 40
-0.6
 41
-30.0
 62
     5
 63
     7
421
 16777215
 74
     2
 91
        2
 64
     7
 65
   257
 75
     1
175
     1
 42
40.0
 92
        8
 66
     7
 43
1.0
 76
     1
 77
     6
 78
     2
 67
     7
 79
     3
170
     0
171
     0
290
     0
174
     0
 93
        1
 44
0.0
173
     0
291
     0
 45
0.0
  0
VISUALSTYLE
  5
45C44
102
{ACAD_REACTORS
330
45C39
102
}
330
45C39
100
AcDbVisualStyle
  2
Dim
 70
    11
 71
     2
 72
     2
 73
     0
 90
        0
 40
-0.6
 41
-30.0
 62
     5
 63
     7
421
 16777215
 74
     1
 91
        4
 64
     7
 65
   257
 75
     1
175
     1
 42
1.0
 92
        8
 66
     7
 43
1.0
 76
     1
 77
     6
 78
     2
 67
     7
 79
     5
170
     0
171
     0
290
     0
174
     0
 93
        1
 44
-50.0
173
     0
291
     1
 45
0.0
  0
VISUALSTYLE
  5
45C48
102
{ACAD_REACTORS
330
45C39
102
}
330
45C39
100
AcDbVisualStyle
  2
Facepattern
 70
    15
 71
     2
 72
     2
 73
     0
 90
        0
 40
-0.6
 41
-30.0
 62
     5
 63
     7
421
 16777215
 74
     1
 91
        4
 64
     7
 65
   257
 75
     1
175
     1
 42
1.0
 92
        8
 66
     7
 43
1.0
 76
     1
 77
     6
 78
     2
 67
     7
 79
     5
170
     0
171
     0
290
     0
174
     0
 93
        1
 44
0.0
173
     0
291
     1
 45
0.0
  0
VISUALSTYLE
  5
45C3A
102
{ACAD_REACTORS
330
45C39
102
}
330
45C39
100
AcDbVisualStyle
  2
Flat
 70
     0
 71
     2
 72
     1
 73
     1
 90
        2
 40
-0.6
 41
30.0
 62
     5
 63
     7
421
 16777215
 74
     0
 91
        4
 64
     7
 65
   257
 75
     1
175
     1
 42
1.0
 92
        8
 66
     7
 43
1.0
 76
     1
 77
     6
 78
     2
 67
     7
 79
     5
170
     0
171
     0
290
     0
174
     0
 93
       13
 44
0.0
173
     0
291
     1
 45
0.0
  0
VISUALSTYLE
  5
45C3B
102
{ACAD_REACTORS
330
45C39
102
}
330
45C39
100
AcDbVisualStyle
  2
FlatWithEdges
 70
     1
 71
     2
 72
     1
 73
     1
 90
        2
 40
-0.6
 41
30.0
 62
     5
 63
     7
421
 16777215
 74
     1
 91
        4
 64
     7
 65
   257
 75
     1
175
     1
 42
1.0
 92
        0
 66
   257
 43
1.0
 76
     1
 77
     6
 78
     2
 67
     7
 79
     5
170
     0
171
     0
290
     0
174
     0
 93
       13
 44
0.0
173
     0
291
     1
 45
0.0
  0
VISUALSTYLE
  5
45C3C
102
{ACAD_REACTORS
330
45C39
102
}
330
45C39
100
AcDbVisualStyle
  2
Gouraud
 70
     2
 71
     2
 72
     2
 73
     1
 90
        2
 40
-0.6
 41
30.0
 62
     5
 63
     7
421
 16777215
 74
     0
 91
        4
 64
     7
 65
   257
 75
     1
175
     1
 42
1.0
 92
        0
 66
     7
 43
1.0
 76
     1
 77
     6
 78
     2
 67
     7
 79
     5
170
     0
171
     0
290
     0
174
     0
 93
       13
 44
0.0
173
     0
291
     1
 45
0.0
  0
VISUALSTYLE
  5
45C3D
102
{ACAD_REACTORS
330
45C39
102
}
330
45C39
100
AcDbVisualStyle
  2
GouraudWithEdges
 70
     3
 71
     2
 72
     2
 73
     1
 90
        2
 40
-0.6
 41
30.0
 62
     5
 63
     7
421
 16777215
 74
     1
 91
        4
 64
     7
 65
   257
 75
     1
175
     1
 42
1.0
 92
        0
 66
   257
 43
1.0
 76
     1
 77
     6
 78
     2
 67
     7
 79
     5
170
     0
171
     0
290
     0
174
     0
 93
       13
 44
0.0
173
     0
291
     1
 45
0.0
  0
VISUALSTYLE
  5
45C47
102
{ACAD_REACTORS
330
45C39
102
}
330
45C39
100
AcDbVisualStyle
  2
Linepattern
 70
    14
 71
     2
 72
     2
 73
     0
 90
        0
 40
-0.6
 41
-30.0
 62
     5
 63
     7
421
 16777215
 74
     1
 91
        4
 64
     7
 65
   257
 75
     7
175
     7
 42
1.0
 92
        8
 66
     7
 43
1.0
 76
     1
 77
     6
 78
     2
 67
     7
 79
     5
170
     0
171
     0
290
     0
174
     0
 93
        1
 44
0.0
173
     0
291
     1
 45
0.0
  0
VISUALSTYLE
  5
45C43
102
{ACAD_REACTORS
330
45C39
102
}
330
45C39
100
AcDbVisualStyle
  2
Realistic
 70
     8
 71
     2
 72
     2
 73
     0
 90
        0
 40
-0.6
 41
-30.0
 62
     5
 63
     7
421
 16777215
 74
     1
 91
        0
 64
     7
 65
   257
 75
     1
175
     1
 42
1.0
 92
        8
 66
     8
424
  7895160
 43
1.0
 76
     1
 77
     6
 78
     2
 67
     7
 79
     5
170
     0
171
     0
290
     0
174
     0
 93
       13
 44
0.0
173
     0
291
     0
 45
0.0
  0
VISUALSTYLE
  5
45C46
102
{ACAD_REACTORS
330
45C39
102
}
330
45C39
100
AcDbVisualStyle
  2
Thicken
 70
    13
 71
     2
 72
     2
 73
     0
 90
        0
 40
-0.6
 41
-30.0
 62
     5
 63
     7
421
 16777215
 74
     1
 91
        4
 64
     7
 65
   257
 75
     1
175
     1
 42
1.0
 92
       12
 66
     7
 43
1.0
 76
     1
 77
     6
 78
     2
 67
     7
 79
     5
170
     0
171
     0
290
     0
174
     0
 93
        1
 44
0.0
173
     0
291
     1
 45
0.0
  0
DICTIONARYVAR
  5
45C87
102
{ACAD_REACTORS
330
458E1
102
}
330
458E1
100
DictionaryVariables
280
     0
  1
1:1
  0
DICTIONARYVAR
  5
45C85
102
{ACAD_REACTORS
330
458E1
102
}
330
458E1
100
DictionaryVariables
280
     0
  1
STANDARD
  0
DICTIONARYVAR
  5
45C84
102
{ACAD_REACTORS
330
458E1
102
}
330
458E1
100
DictionaryVariables
280
     0
  1
STANDARD
  0
DICTIONARYVAR
  5
458E2
102
{ACAD_REACTORS
330
458E1
102
}
330
458E1
100
DictionaryVariables
280
     0
  1
0
  0
DICTIONARYVAR
  5
45B90
102
{ACAD_REACTORS
330
458E1
102
}
330
458E1
100
DictionaryVariables
280
     0
  1
1
  0
DICTIONARYVAR
  5
45C88
102
{ACAD_REACTORS
330
458E1
102
}
330
458E1
100
DictionaryVariables
280
     0
  1
0
  0
DICTIONARYVAR
  5
45C86
102
{ACAD_REACTORS
330
458E1
102
}
330
458E1
100
DictionaryVariables
280
     0
  1
0
  0
DICTIONARYVAR
  5
45B91
102
{ACAD_REACTORS
330
458E1
102
}
330
458E1
100
DictionaryVariables
280
     0
  1

  0
DICTIONARY
  5
45C2A
330
45C29
100
AcDbDictionary
280
     1
281
     1
  3
BUMPTILE
360
45C2C
  3
DIFFUSETILE
360
45C2B
  3
OPACITYTILE
360
45C2F
  3
REFLECTIONTILE
360
45C2E
  3
REFRACTIONTILE
360
45C30
  3
SPECULARTILE
360
45C2D
  0
DICTIONARY
  5
45C22
330
45C21
100
AcDbDictionary
280
     1
281
     1
  3
BUMPTILE
360
45C24
  3
DIFFUSETILE
360
45C23
  3
OPACITYTILE
360
45C27
  3
REFLECTIONTILE
360
45C26
  3
REFRACTIONTILE
360
45C28
  3
SPECULARTILE
360
45C25
  0
DICTIONARY
  5
45C32
330
45C31
100
AcDbDictionary
280
     1
281
     1
  3
BUMPTILE
360
45C34
  3
DIFFUSETILE
360
45C33
  3
OPACITYTILE
360
45C37
  3
REFLECTIONTILE
360
45C36
  3
REFRACTIONTILE
360
45C38
  3
SPECULARTILE
360
45C35
  0
DICTIONARY
  5
45C81
330
45C4B
100
AcDbDictionary
280
     1
281
     1
  3
ACAD_ROUNDTRIP_2008_TABLESTYLE_CELLSTYLEMAP
360
45C8D
  0
XRECORD
  5
45C2C
102
{ACAD_REACTORS
330
45C2A
102
}
330
45C2A
100
AcDbXrecord
280
     1
270
     1
271
     1
  0
XRECORD
  5
45C2B
102
{ACAD_REACTORS
330
45C2A
102
}
330
45C2A
100
AcDbXrecord
280
     1
270
     1
271
     1
  0
XRECORD
  5
45C2F
102
{ACAD_REACTORS
330
45C2A
102
}
330
45C2A
100
AcDbXrecord
280
     1
270
     1
271
     1
  0
XRECORD
  5
45C2E
102
{ACAD_REACTORS
330
45C2A
102
}
330
45C2A
100
AcDbXrecord
280
     1
270
     1
271
     1
  0
XRECORD
  5
45C30
102
{ACAD_REACTORS
330
45C2A
102
}
330
45C2A
100
AcDbXrecord
280
     1
270
     1
271
     1
  0
XRECORD
  5
45C2D
102
{ACAD_REACTORS
330
45C2A
102
}
330
45C2A
100
AcDbXrecord
280
     1
270
     1
271
     1
  0
XRECORD
  5
45C24
102
{ACAD_REACTORS
330
45C22
102
}
330
45C22
100
AcDbXrecord
280
     1
270
     1
271
     1
  0
XRECORD
  5
45C23
102
{ACAD_REACTORS
330
45C22
102
}
330
45C22
100
AcDbXrecord
280
     1
270
     1
271
     1
  0
XRECORD
  5
45C27
102
{ACAD_REACTORS
330
45C22
102
}
330
45C22
100
AcDbXrecord
280
     1
270
     1
271
     1
  0
XRECORD
  5
45C26
102
{ACAD_REACTORS
330
45C22
102
}
330
45C22
100
AcDbXrecord
280
     1
270
     1
271
     1
  0
XRECORD
  5
45C28
102
{ACAD_REACTORS
330
45C22
102
}
330
45C22
100
AcDbXrecord
280
     1
270
     1
271
     1
  0
XRECORD
  5
45C25
102
{ACAD_REACTORS
330
45C22
102
}
330
45C22
100
AcDbXrecord
280
     1
270
     1
271
     1
  0
XRECORD
  5
45C34
102
{ACAD_REACTORS
330
45C32
102
}
330
45C32
100
AcDbXrecord
280
     1
270
     1
271
     1
  0
XRECORD
  5
45C33
102
{ACAD_REACTORS
330
45C32
102
}
330
45C32
100
AcDbXrecord
280
     1
270
     1
271
     1
  0
XRECORD
  5
45C37
102
{ACAD_REACTORS
330
45C32
102
}
330
45C32
100
AcDbXrecord
280
     1
270
     1
271
     1
  0
XRECORD
  5
45C36
102
{ACAD_REACTORS
330
45C32
102
}
330
45C32
100
AcDbXrecord
280
     1
270
     1
271
     1
  0
XRECORD
  5
45C38
102
{ACAD_REACTORS
330
45C32
102
}
330
45C32
100
AcDbXrecord
280
     1
270
     1
271
     1
  0
XRECORD
  5
45C35
102
{ACAD_REACTORS
330
45C32
102
}
330
45C32
100
AcDbXrecord
280
     1
270
     1
271
     1
  0
CELLSTYLEMAP
  5
45C8D
102
{ACAD_REACTORS
330
45C81
102
}
330
45C81
100
AcDbCellStyleMap
 90
        3
300
CELLSTYLE
  1
TABLEFORMAT_BEGIN
 90
        5
170
     1
 91
        0
 92
    32768
 62
   257
 93
        1
300
CONTENTFORMAT
  1
CONTENTFORMAT_BEGIN
 90
        0
 91
        0
 92
      512
 93
        0
300

 40
0.0
140
1.0
 94
        5
 62
     0
340
458CE
144
6.0
309
CONTENTFORMAT_END
171
     1
301
MARGIN
  1
CELLMARGIN_BEGIN
 40
1.5
 40
1.5
 40
1.5
 40
1.5
 40
4.5
 40
4.5
309
CELLMARGIN_END
 94
        6
 95
        1
302
GRIDFORMAT
  1
GRIDFORMAT_BEGIN
 90
        0
 91
        1
 62
     0
 92
       -2
340
0
 93
        0
 40
1.125
309
GRIDFORMAT_END
 95
        2
302
GRIDFORMAT
  1
GRIDFORMAT_BEGIN
 90
        0
 91
        1
 62
     0
 92
       -2
340
0
 93
        0
 40
1.125
309
GRIDFORMAT_END
 95
        4
302
GRIDFORMAT
  1
GRIDFORMAT_BEGIN
 90
        0
 91
        1
 62
     0
 92
       -2
340
0
 93
        0
 40
1.125
309
GRIDFORMAT_END
 95
        8
302
GRIDFORMAT
  1
GRIDFORMAT_BEGIN
 90
        0
 91
        1
 62
     0
 92
       -2
340
0
 93
        0
 40
1.125
309
GRIDFORMAT_END
 95
       16
302
GRIDFORMAT
  1
GRIDFORMAT_BEGIN
 90
        0
 91
        1
 62
     0
 92
       -2
340
0
 93
        0
 40
1.125
309
GRIDFORMAT_END
 95
       32
302
GRIDFORMAT
  1
GRIDFORMAT_BEGIN
 90
        0
 91
        1
 62
     0
 92
       -2
340
0
 93
        0
 40
1.125
309
GRIDFORMAT_END
309
TABLEFORMAT_END
  1
CELLSTYLE_BEGIN
 90
        1
 91
        1
300
_TITLE
309
CELLSTYLE_END
300
CELLSTYLE
  1
TABLEFORMAT_BEGIN
 90
        5
170
     1
 91
        0
 92
        0
 62
   257
 93
        1
300
CONTENTFORMAT
  1
CONTENTFORMAT_BEGIN
 90
        0
 91
        0
 92
      512
 93
        0
300

 40
0.0
140
1.0
 94
        5
 62
     0
340
458CE
144
4.5
309
CONTENTFORMAT_END
171
     1
301
MARGIN
  1
CELLMARGIN_BEGIN
 40
1.5
 40
1.5
 40
1.5
 40
1.5
 40
4.5
 40
4.5
309
CELLMARGIN_END
 94
        6
 95
        1
302
GRIDFORMAT
  1
GRIDFORMAT_BEGIN
 90
        0
 91
        1
 62
     0
 92
       -2
340
0
 93
        0
 40
1.125
309
GRIDFORMAT_END
 95
        2
302
GRIDFORMAT
  1
GRIDFORMAT_BEGIN
 90
        0
 91
        1
 62
     0
 92
       -2
340
0
 93
        0
 40
1.125
309
GRIDFORMAT_END
 95
        4
302
GRIDFORMAT
  1
GRIDFORMAT_BEGIN
 90
        0
 91
        1
 62
     0
 92
       -2
340
0
 93
        0
 40
1.125
309
GRIDFORMAT_END
 95
        8
302
GRIDFORMAT
  1
GRIDFORMAT_BEGIN
 90
        0
 91
        1
 62
     0
 92
       -2
340
0
 93
        0
 40
1.125
309
GRIDFORMAT_END
 95
       16
302
GRIDFORMAT
  1
GRIDFORMAT_BEGIN
 90
        0
 91
        1
 62
     0
 92
       -2
340
0
 93
        0
 40
1.125
309
GRIDFORMAT_END
 95
       32
302
GRIDFORMAT
  1
GRIDFORMAT_BEGIN
 90
        0
 91
        1
 62
     0
 92
       -2
340
0
 93
        0
 40
1.125
309
GRIDFORMAT_END
309
TABLEFORMAT_END
  1
CELLSTYLE_BEGIN
 90
        2
 91
        1
300
_HEADER
309
CELLSTYLE_END
300
CELLSTYLE
  1
TABLEFORMAT_BEGIN
 90
        5
170
     1
 91
        0
 92
        0
 62
   257
 93
        1
300
CONTENTFORMAT
  1
CONTENTFORMAT_BEGIN
 90
        0
 91
        0
 92
      512
 93
        0
300

 40
0.0
140
1.0
 94
        2
 62
     0
340
458CE
144
4.5
309
CONTENTFORMAT_END
171
     1
301
MARGIN
  1
CELLMARGIN_BEGIN
 40
1.5
 40
1.5
 40
1.5
 40
1.5
 40
4.5
 40
4.5
309
CELLMARGIN_END
 94
        6
 95
        1
302
GRIDFORMAT
  1
GRIDFORMAT_BEGIN
 90
        0
 91
        1
 62
     0
 92
       -2
340
0
 93
        0
 40
1.125
309
GRIDFORMAT_END
 95
        2
302
GRIDFORMAT
  1
GRIDFORMAT_BEGIN
 90
        0
 91
        1
 62
     0
 92
       -2
340
0
 93
        0
 40
1.125
309
GRIDFORMAT_END
 95
        4
302
GRIDFORMAT
  1
GRIDFORMAT_BEGIN
 90
        0
 91
        1
 62
     0
 92
       -2
340
0
 93
        0
 40
1.125
309
GRIDFORMAT_END
 95
        8
302
GRIDFORMAT
  1
GRIDFORMAT_BEGIN
 90
        0
 91
        1
 62
     0
 92
       -2
340
0
 93
        0
 40
1.125
309
GRIDFORMAT_END
 95
       16
302
GRIDFORMAT
  1
GRIDFORMAT_BEGIN
 90
        0
 91
        1
 62
     0
 92
       -2
340
0
 93
        0
 40
1.125
309
GRIDFORMAT_END
 95
       32
302
GRIDFORMAT
  1
GRIDFORMAT_BEGIN
 90
        0
 91
        1
 62
     0
 92
       -2
340
0
 93
        0
 40
1.125
309
GRIDFORMAT_END
309
TABLEFORMAT_END
  1
CELLSTYLE_BEGIN
 90
        3
 91
        2
300
_DATA
309
CELLSTYLE_END
  0
ENDSEC
  0
EOF
