  0
SECTION
  2
HEADER
  9
$ACADVER
  1
AC1021
  9
$ACADMAINTVER
 70
    25
  9
$DWGCODEPAGE
  3
ANSI_1252
  9
$LASTSAVEDBY
  1
gdseiver
  9
$INSBASE
 10
0.0
 20
0.0
 30
0.0
  9
$EXTMIN
 10
0.0
 20
-2.446874999999999
 30
0.0
  9
$EXTMAX
 10
1.78125
 20
1.021875
 30
2.625
  9
$LIMMIN
 10
2.165995196747794
 20
0.3811475363332151
  9
$LIMMAX
 10
3.947245196747794
 20
3.849897536333214
  9
$ORTHOMODE
 70
     1
  9
$REGENMODE
 70
     1
  9
$FILLMODE
 70
     1
  9
$QTEXTMODE
 70
     0
  9
$MIRRTEXT
 70
     1
  9
$LTSCALE
 40
1.0
  9
$ATTMODE
 70
     1
  9
$TEXTSIZE
 40
0.12
  9
$TRACEWID
 40
0.05
  9
$TEXTSTYLE
  7
STANDARD
  9
$CLAYER
  8
0
  9
$CELTYPE
  6
ByLayer
  9
$CECOLOR
 62
   256
  9
$CELTSCALE
 40
1.0
  9
$DISPSILH
 70
     0
  9
$DIMSCALE
 40
1.0
  9
$DIMASZ
 40
0.18
  9
$DIMEXO
 40
0.0625
  9
$DIMDLI
 40
0.38
  9
$DIMRND
 40
0.0
  9
$DIMDLE
 40
0.0
  9
$DIMEXE
 40
0.18
  9
$DIMTP
 40
0.0
  9
$DIMTM
 40
0.0
  9
$DIMTXT
 40
0.18
  9
$DIMCEN
 40
0.09
  9
$DIMTSZ
 40
0.0
  9
$DIMTOL
 70
     0
  9
$DIMLIM
 70
     0
  9
$DIMTIH
 70
     1
  9
$DIMTOH
 70
     1
  9
$DIMSE1
 70
     0
  9
$DIMSE2
 70
     0
  9
$DIMTAD
 70
     0
  9
$DIMZIN
 70
     0
  9
$DIMBLK
  1

  9
$DIMASO
 70
     1
  9
$DIMSHO
 70
     1
  9
$DIMPOST
  1

  9
$DIMAPOST
  1

  9
$DIMALT
 70
     1
  9
$DIMALTD
 70
     2
  9
$DIMALTF
 40
25.4
  9
$DIMLFAC
 40
1.0
  9
$DIMTOFL
 70
     0
  9
$DIMTVP
 40
0.0
  9
$DIMTIX
 70
     0
  9
$DIMSOXD
 70
     0
  9
$DIMSAH
 70
     0
  9
$DIMBLK1
  1

  9
$DIMBLK2
  1

  9
$DIMSTYLE
  2
Standard
  9
$DIMCLRD
 70
     0
  9
$DIMCLRE
 70
     0
  9
$DIMCLRT
 70
     0
  9
$DIMTFAC
 40
1.0
  9
$DIMGAP
 40
0.09
  9
$DIMJUST
 70
     0
  9
$DIMSD1
 70
     0
  9
$DIMSD2
 70
     0
  9
$DIMTOLJ
 70
     1
  9
$DIMTZIN
 70
     0
  9
$DIMALTZ
 70
     0
  9
$DIMALTTZ
 70
     0
  9
$DIMUPT
 70
     0
  9
$DIMDEC
 70
     6
  9
$DIMTDEC
 70
     6
  9
$DIMALTU
 70
     2
  9
$DIMALTTD
 70
     2
  9
$DIMTXSTY
  7
STANDARD
  9
$DIMAUNIT
 70
     0
  9
$DIMADEC
 70
     0
  9
$DIMALTRND
 40
0.0
  9
$DIMAZIN
 70
     0
  9
$DIMDSEP
 70
    46
  9
$DIMATFIT
 70
     3
  9
$DIMFRAC
 70
     2
  9
$DIMLDRBLK
  1

  9
$DIMLUNIT
 70
     5
  9
$DIMLWD
 70
    -2
  9
$DIMLWE
 70
    -2
  9
$DIMTMOVE
 70
     2
  9
$DIMFXL
 40
1.0
  9
$DIMFXLON
 70
     0
  9
$DIMJOGANG
 40
0.7853981633974483
  9
$DIMTFILL
 70
     0
  9
$DIMTFILLCLR
 70
     0
  9
$DIMARCSYM
 70
     0
  9
$DIMLTYPE
  6

  9
$DIMLTEX1
  6

  9
$DIMLTEX2
  6

  9
$LUNITS
 70
     2
  9
$LUPREC
 70
     2
  9
$SKETCHINC
 40
0.1
  9
$FILLETRAD
 40
0.0
  9
$AUNITS
 70
     0
  9
$AUPREC
 70
     0
  9
$MENU
  1

  9
$ELEVATION
 40
0.0
  9
$PELEVATION
 40
0.0
  9
$THICKNESS
 40
0.0
  9
$LIMCHECK
 70
     0
  9
$CHAMFERA
 40
0.0
  9
$CHAMFERB
 40
0.0
  9
$CHAMFERC
 40
0.0
  9
$CHAMFERD
 40
0.0
  9
$SKPOLY
 70
     0
  9
$TDCREATE
 40
2449741.364309838
  9
$TDUCREATE
 40
2449741.572643171
  9
$TDUPDATE
 40
2454617.686505405
  9
$TDUUPDATE
 40
2454617.894838738
  9
$TDINDWG
 40
0.6887433102
  9
$TDUSRTIMER
 40
0.6887433102
  9
$USRTIMER
 70
     1
  9
$ANGBASE
 50
0.0
  9
$ANGDIR
 70
     0
  9
$PDMODE
 70
     3
  9
$PDSIZE
 40
0.09
  9
$PLINEWID
 40
0.0
  9
$SPLFRAME
 70
     1
  9
$SPLINETYPE
 70
     6
  9
$SPLINESEGS
 70
     8
  9
$HANDSEED
  5
F526
  9
$SURFTAB1
 70
     6
  9
$SURFTAB2
 70
     6
  9
$SURFTYPE
 70
     6
  9
$SURFU
 70
     6
  9
$SURFV
 70
     6
  9
$UCSBASE
  2

  9
$UCSNAME
  2

  9
$UCSORG
 10
0.0
 20
0.0
 30
0.0
  9
$UCSXDIR
 10
1.0
 20
0.0
 30
0.0
  9
$UCSYDIR
 10
0.0
 20
1.0
 30
0.0
  9
$UCSORTHOREF
  2

  9
$UCSORTHOVIEW
 70
     1
  9
$UCSORGTOP
 10
0.0
 20
0.0
 30
0.0
  9
$UCSORGBOTTOM
 10
0.0
 20
0.0
 30
0.0
  9
$UCSORGLEFT
 10
0.0
 20
0.0
 30
0.0
  9
$UCSORGRIGHT
 10
0.0
 20
0.0
 30
0.0
  9
$UCSORGFRONT
 10
0.0
 20
0.0
 30
0.0
  9
$UCSORGBACK
 10
0.0
 20
0.0
 30
0.0
  9
$PUCSBASE
  2

  9
$PUCSNAME
  2

  9
$PUCSORG
 10
0.0
 20
0.0
 30
0.0
  9
$PUCSXDIR
 10
1.0
 20
0.0
 30
0.0
  9
$PUCSYDIR
 10
0.0
 20
1.0
 30
0.0
  9
$PUCSORTHOREF
  2

  9
$PUCSORTHOVIEW
 70
     0
  9
$PUCSORGTOP
 10
0.0
 20
0.0
 30
0.0
  9
$PUCSORGBOTTOM
 10
0.0
 20
0.0
 30
0.0
  9
$PUCSORGLEFT
 10
0.0
 20
0.0
 30
0.0
  9
$PUCSORGRIGHT
 10
0.0
 20
0.0
 30
0.0
  9
$PUCSORGFRONT
 10
0.0
 20
0.0
 30
0.0
  9
$PUCSORGBACK
 10
0.0
 20
0.0
 30
0.0
  9
$USERI1
 70
     0
  9
$USERI2
 70
     0
  9
$USERI3
 70
     0
  9
$USERI4
 70
     0
  9
$USERI5
 70
     0
  9
$USERR1
 40
0.0
  9
$USERR2
 40
0.0
  9
$USERR3
 40
0.0
  9
$USERR4
 40
0.0
  9
$USERR5
 40
0.0
  9
$WORLDVIEW
 70
     1
  9
$SHADEDGE
 70
     3
  9
$SHADEDIF
 70
    70
  9
$TILEMODE
 70
     1
  9
$MAXACTVP
 70
    16
  9
$PINSBASE
 10
0.0
 20
0.0
 30
0.0
  9
$PLIMCHECK
 70
     0
  9
$PEXTMIN
 10
1.000000000000000E+20
 20
1.000000000000000E+20
 30
1.000000000000000E+20
  9
$PEXTMAX
 10
-1.000000000000000E+20
 20
-1.000000000000000E+20
 30
-1.000000000000000E+20
  9
$PLIMMIN
 10
0.0
 20
0.0
  9
$PLIMMAX
 10
12.0
 20
9.0
  9
$UNITMODE
 70
     0
  9
$VISRETAIN
 70
     0
  9
$PLINEGEN
 70
     0
  9
$PSLTSCALE
 70
     1
  9
$TREEDEPTH
 70
  3020
  9
$CMLSTYLE
  2
Standard
  9
$CMLJUST
 70
     0
  9
$CMLSCALE
 40
1.0
  9
$PROXYGRAPHICS
 70
     1
  9
$MEASUREMENT
 70
     0
  9
$CELWEIGHT
370
    -1
  9
$ENDCAPS
280
     0
  9
$JOINSTYLE
280
     0
  9
$LWDISPLAY
290
     0
  9
$INSUNITS
 70
     0
  9
$HYPERLINKBASE
  1

  9
$STYLESHEET
  1

  9
$XEDIT
290
     1
  9
$CEPSNTYPE
380
     0
  9
$PSTYLEMODE
290
     1
  9
$FINGERPRINTGUID
  2
{BEC118C2-5918-11D4-9F02-444553540000}
  9
$VERSIONGUID
  2
{1C37CE2D-8662-4BD8-B3C6-F1C9D8574374}
  9
$EXTNAMES
290
     1
  9
$PSVPSCALE
 40
0.0
  9
$OLESTARTUP
290
     0
  9
$SORTENTS
280
   127
  9
$INDEXCTL
280
     0
  9
$HIDETEXT
280
     0
  9
$XCLIPFRAME
290
     0
  9
$HALOGAP
280
     0
  9
$OBSCOLOR
 70
   257
  9
$OBSLTYPE
280
     0
  9
$INTERSECTIONDISPLAY
280
     0
  9
$INTERSECTIONCOLOR
 70
   257
  9
$DIMASSOC
280
     1
  9
$PROJECTNAME
  1

  9
$CAMERADISPLAY
290
     0
  9
$LENSLENGTH
 40
50.0
  9
$CAMERAHEIGHT
 40
0.0
  9
$STEPSPERSEC
 40
2.0
  9
$STEPSIZE
 40
6.0
  9
$3DDWFPREC
 40
2.0
  9
$PSOLWIDTH
 40
0.25
  9
$PSOLHEIGHT
 40
4.0
  9
$LOFTANG1
 40
1.570796326794896
  9
$LOFTANG2
 40
1.570796326794896
  9
$LOFTMAG1
 40
0.0
  9
$LOFTMAG2
 40
0.0
  9
$LOFTPARAM
 70
     7
  9
$LOFTNORMALS
280
     1
  9
$LATITUDE
 40
37.795
  9
$LONGITUDE
 40
-122.394
  9
$NORTHDIRECTION
 40
0.0
  9
$TIMEZONE
 70
 -8000
  9
$LIGHTGLYPHDISPLAY
280
     1
  9
$TILEMODELIGHTSYNCH
280
     1
  9
$CMATERIAL
347
F2F8
  9
$SOLIDHIST
280
     1
  9
$SHOWHIST
280
     1
  9
$DWFFRAME
280
     2
  9
$DGNFRAME
280
     0
  9
$REALWORLDSCALE
290
     1
  9
$INTERFERECOLOR
 62
     1
  9
$INTERFEREOBJVS
345
F31A
  9
$INTERFEREVPVS
346
F317
  9
$CSHADOW
280
     0
  9
$SHADOWPLANELOCATION
 40
0.0
  0
ENDSEC
  0
SECTION
  2
CLASSES
  0
CLASS
  1
ACDBDICTIONARYWDFLT
  2
AcDbDictionaryWithDefault
  3
ObjectDBX Classes
 90
        0
 91
        1
280
     0
281
     0
  0
CLASS
  1
MATERIAL
  2
AcDbMaterial
  3
ObjectDBX Classes
 90
     1153
 91
        3
280
     0
281
     0
  0
CLASS
  1
VISUALSTYLE
  2
AcDbVisualStyle
  3
ObjectDBX Classes
 90
     4095
 91
       16
280
     0
281
     0
  0
CLASS
  1
TABLESTYLE
  2
AcDbTableStyle
  3
ObjectDBX Classes
 90
     4095
 91
        1
280
     0
281
     0
  0
CLASS
  1
SCALE
  2
AcDbScale
  3
ObjectDBX Classes
 90
     1153
 91
       33
280
     0
281
     0
  0
CLASS
  1
MLEADERSTYLE
  2
AcDbMLeaderStyle
  3
ACDB_MLEADERSTYLE_CLASS
 90
     4095
 91
        1
280
     0
281
     0
  0
CLASS
  1
SOLID_BACKGROUND
  2
AcDbSolidBackground
  3
SCENEOE
 90
     4095
 91
        1
280
     0
281
     0
  0
CLASS
  1
NPOCOLLECTION
  2
AcDbImpNonPersistentObjectsCollection
  3
ObjectDBX Classes
 90
     1153
 91
        1
280
     0
281
     0
  0
CLASS
  1
CELLSTYLEMAP
  2
AcDbCellStyleMap
  3
ObjectDBX Classes
 90
     1152
 91
        2
280
     0
281
     0
  0
CLASS
  1
DICTIONARYVAR
  2
AcDbDictionaryVar
  3
ObjectDBX Classes
 90
        0
 91
        5
280
     0
281
     0
  0
CLASS
  1
SORTENTSTABLE
  2
AcDbSortentsTable
  3
ObjectDBX Classes
 90
        0
 91
        1
280
     0
281
     0
  0
CLASS
  1
ACSH_EXTRUSION_CLASS
  2
AcDbShExtrusion
  3
ObjectDBX Classes
 90
     1153
 91
        5
280
     0
281
     0
  0
CLASS
  1
ACAD_EVALUATION_GRAPH
  2
AcDbEvalGraph
  3
ObjectDBX Classes
 90
     1153
 91
        1
280
     0
281
     0
  0
CLASS
  1
ACSH_HISTORY_CLASS
  2
AcDbShHistory
  3
ObjectDBX Classes
 90
     1153
 91
        1
280
     0
281
     0
  0
CLASS
  1
ACDBPERSSUBENTMANAGER
  2
AcDbPersSubentManager
  3
AcDbPersSubentManager
 90
     1024
 91
        1
280
     0
281
     0
  0
CLASS
  1
ACSH_BOOLEAN_CLASS
  2
AcDbShBoolean
  3
ObjectDBX Classes
 90
     1153
 91
        4
280
     0
281
     0
  0
ENDSEC
  0
SECTION
  2
TABLES
  0
TABLE
  2
VPORT
  5
F018
330
0
100
AcDbSymbolTable
 70
     1
  0
VPORT
  5
F2AC
330
F018
100
AcDbSymbolTableRecord
100
AcDbViewportTableRecord
  2
*Active
 70
     0
 10
0.0
 20
0.0
 11
1.0
 21
1.0
 12
-2.392325192938613
 22
0.1534599493757764
 13
0.0
 23
0.0
 14
0.1799
 24
0.1799
 15
0.0
 25
0.0
 16
0.0
 26
0.0
 36
10.8578753421076
 17
3.282950192938613
 27
-0.8659599493757763
 37
266.5754515860463
 40
3.494475114960891
 41
1.469938650306748
 42
50.0
 43
0.0
 44
0.0
 50
0.0
 51
0.0
 71
     0
 72
   100
 73
     1
 74
     1
 75
     0
 76
     0
 77
     0
 78
     0
281
     1
 65
     1
110
0.0
120
0.0
130
0.0
111
1.0
121
0.0
131
0.0
112
0.0
122
1.0
132
0.0
 79
     0
146
0.0
348
F317
 60
     3
 61
     5
292
     1
282
     1
141
0.0
142
0.0
 63
   250
421
  3355443
  0
ENDTAB
  0
TABLE
  2
LTYPE
  5
F015
330
0
100
AcDbSymbolTable
 70
     1
  0
LTYPE
  5
F023
330
F015
100
AcDbSymbolTableRecord
100
AcDbLinetypeTableRecord
  2
ByBlock
 70
     0
  3

 72
    65
 73
     0
 40
0.0
  0
LTYPE
  5
F024
330
F015
100
AcDbSymbolTableRecord
100
AcDbLinetypeTableRecord
  2
ByLayer
 70
     0
  3

 72
    65
 73
     0
 40
0.0
  0
LTYPE
  5
F025
330
F015
100
AcDbSymbolTableRecord
100
AcDbLinetypeTableRecord
  2
CONTINUOUS
 70
     0
  3
Solid line
 72
    65
 73
     0
 40
0.0
  0
ENDTAB
  0
TABLE
  2
LAYER
  5
F012
330
0
100
AcDbSymbolTable
 70
     6
  0
LAYER
  5
F020
102
{ACAD_XDICTIONARY
360
F356
102
}
330
F012
100
AcDbSymbolTableRecord
100
AcDbLayerTableRecord
  2
0
 70
     0
 62
     7
  6
CONTINUOUS
370
    -3
390
F01F
347
F308
  0
LAYER
  5
F034
102
{ACAD_XDICTIONARY
360
F358
102
}
330
F012
100
AcDbSymbolTableRecord
100
AcDbLayerTableRecord
  2
DIMS-MTG-HOLES
 70
     0
 62
     1
  6
CONTINUOUS
370
    -3
390
F01F
347
F308
  0
LAYER
  5
F03C
330
F012
100
AcDbSymbolTableRecord
100
AcDbLayerTableRecord
  2
Defpoints
 70
     1
 62
     7
  6
CONTINUOUS
290
     0
370
    -3
390
F01F
347
F308
  0
LAYER
  5
F06C
102
{ACAD_XDICTIONARY
360
F35A
102
}
330
F012
100
AcDbSymbolTableRecord
100
AcDbLayerTableRecord
  2
ATTRIBUTES
 70
     0
 62
     7
  6
CONTINUOUS
370
    -3
390
F01F
347
F308
  0
LAYER
  5
F06D
102
{ACAD_XDICTIONARY
360
F35C
102
}
330
F012
100
AcDbSymbolTableRecord
100
AcDbLayerTableRecord
  2
AREA1
 70
     1
 62
     7
  6
CONTINUOUS
370
    -3
390
F01F
347
F308
  0
LAYER
  5
F06E
102
{ACAD_XDICTIONARY
360
F35E
102
}
330
F012
100
AcDbSymbolTableRecord
100
AcDbLayerTableRecord
  2
SCALE
 70
     1
 62
     7
  6
CONTINUOUS
370
    -3
390
F01F
347
F308
  0
ENDTAB
  0
TABLE
  2
STYLE
  5
F013
330
0
100
AcDbSymbolTable
 70
     1
  0
STYLE
  5
F021
330
F013
100
AcDbSymbolTableRecord
100
AcDbTextStyleTableRecord
  2
STANDARD
 70
     0
 40
0.12
 41
0.9
 50
0.0
 71
     0
 42
0.12
  3
simplex
  4

  0
ENDTAB
  0
TABLE
  2
VIEW
  5
F016
330
0
100
AcDbSymbolTable
 70
     0
  0
ENDTAB
  0
TABLE
  2
UCS
  5
F017
330
0
100
AcDbSymbolTable
 70
     0
  0
ENDTAB
  0
TABLE
  2
APPID
  5
F019
330
0
100
AcDbSymbolTable
 70
     3
  0
APPID
  5
F022
330
F019
100
AcDbSymbolTableRecord
100
AcDbRegAppTableRecord
  2
ACAD
 70
     0
  0
APPID
  5
F348
330
F019
100
AcDbSymbolTableRecord
100
AcDbRegAppTableRecord
  2
ACAD_MLEADERVER
 70
     0
  0
APPID
  5
F37C
330
F019
100
AcDbSymbolTableRecord
100
AcDbRegAppTableRecord
  2
ACAD_EXEMPT_FROM_CAD_STANDARDS
 70
     0
  0
ENDTAB
  0
TABLE
  2
DIMSTYLE
  5
F01A
330
0
100
AcDbSymbolTable
 70
     2
100
AcDbDimStyleTable
 71
     1
340
F03A
  0
DIMSTYLE
105
F03A
102
{ACAD_REACTORS
330
F03B
330
F04A
102
}
330
F01A
100
AcDbSymbolTableRecord
100
AcDbDimStyleTableRecord
  2
Standard
 70
     0
340
F021
  0
DIMSTYLE
105
F469
330
F01A
100
AcDbSymbolTableRecord
100
AcDbDimStyleTableRecord
  2
ABECAD_3D
 70
     0
 43
0.375
 73
     0
 78
     4
140
0.14
146
1.5
170
     1
271
     6
272
     6
276
     2
277
     5
279
     2
284
     4
285
     4
286
     4
288
     1
289
     2
340
F021
  0
ENDTAB
  0
TABLE
  2
BLOCK_RECORD
  5
F011
330
0
100
AcDbSymbolTable
 70
     3
  0
BLOCK_RECORD
  5
F02E
102
{ACAD_XDICTIONARY
360
F0A7
102
}
330
F011
100
AcDbSymbolTableRecord
100
AcDbBlockTableRecord
  2
*Model_Space
340
F031
 70
     0
280
     1
281
     0
  0
BLOCK_RECORD
  5
F02A
102
{ACAD_XDICTIONARY
360
F0A9
102
}
330
F011
100
AcDbSymbolTableRecord
100
AcDbBlockTableRecord
  2
*Paper_Space
340
F02D
 70
     0
280
     1
281
     0
  0
BLOCK_RECORD
  5
F03D
330
F011
100
AcDbSymbolTableRecord
100
AcDbBlockTableRecord
  2
*D0
340
0
 70
     0
280
     1
281
     0
  0
BLOCK_RECORD
  5
F04B
330
F011
100
AcDbSymbolTableRecord
100
AcDbBlockTableRecord
  2
*D1
340
0
 70
     0
280
     1
281
     0
  0
BLOCK_RECORD
  5
F06F
330
F011
100
AcDbSymbolTableRecord
100
AcDbBlockTableRecord
  2
scaleinch
340
0
102
{BLKREFS
331
F07D
102
}
 70
     0
280
     1
281
     0
  0
ENDTAB
  0
ENDSEC
  0
SECTION
  2
BLOCKS
  0
BLOCK
  5
F037
330
F02E
100
AcDbEntity
  8
0
100
AcDbBlockBegin
  2
*Model_Space
 70
     0
 10
0.0
 20
0.0
 30
0.0
  3
*Model_Space
  1

  0
ENDBLK
  5
F038
330
F02E
100
AcDbEntity
  8
0
100
AcDbBlockEnd
  0
BLOCK
  5
F035
330
F02A
100
AcDbEntity
 67
     1
  8
0
100
AcDbBlockBegin
  2
*Paper_Space
 70
     0
 10
0.0
 20
0.0
 30
0.0
  3
*Paper_Space
  1

  0
ENDBLK
  5
F036
330
F02A
100
AcDbEntity
 67
     1
  8
0
100
AcDbBlockEnd
  0
BLOCK
  5
F048
330
F03D
100
AcDbEntity
  8
0
100
AcDbBlockBegin
  2
*D0
 70
     1
 10
0.0
 20
0.0
 30
0.0
  3
*D0
  1

  0
LINE
  5
F2E2
330
F03D
100
AcDbEntity
  8
AREA1
 62
     0
100
AcDbLine
 10
0.0
 20
1.084375
 30
0.0
 11
0.0
 21
1.622424396404616
 31
0.0
  0
LINE
  5
F2E3
330
F03D
100
AcDbEntity
  8
AREA1
 62
     0
100
AcDbLine
 10
1.78125
 20
1.084375
 30
0.0
 11
1.78125
 21
1.622424396404616
 31
0.0
  0
LINE
  5
F2E4
330
F03D
100
AcDbEntity
  8
AREA1
 62
     0
100
AcDbLine
 10
-0.18
 20
1.442424396404616
 30
0.0
 11
-0.36
 21
1.442424396404616
 31
0.0
  0
LINE
  5
F2E5
330
F03D
100
AcDbEntity
  8
AREA1
 62
     0
100
AcDbLine
 10
1.961249999999999
 20
1.442424396404616
 30
0.0
 11
2.141249999999999
 21
1.442424396404616
 31
0.0
  0
SOLID
  5
F2E6
330
F03D
100
AcDbEntity
  8
AREA1
 62
     0
100
AcDbTrace
 10
-0.18
 20
1.472424396404616
 30
0.0
 11
-0.18
 21
1.412424396404616
 31
0.0
 12
0.0
 22
1.442424396404616
 32
0.0
 13
0.0
 23
1.442424396404616
 33
0.0
  0
SOLID
  5
F2E7
330
F03D
100
AcDbEntity
  8
AREA1
 62
     0
100
AcDbTrace
 10
1.961249999999999
 20
1.472424396404616
 30
0.0
 11
1.961249999999999
 21
1.412424396404616
 31
0.0
 12
1.78125
 22
1.442424396404616
 32
0.0
 13
1.78125
 23
1.442424396404616
 33
0.0
  0
MTEXT
  5
F2E8
330
F03D
100
AcDbEntity
  8
AREA1
 62
     0
100
AcDbMText
 10
0.890625
 20
1.442424396404616
 30
0.0
 40
0.12
 41
0.0
 46
0.0
 71
     5
 72
     1
  1
\A1;1 25/32 [45.24]
 73
     1
 44
1.0
  0
POINT
  5
F2E9
330
F03D
100
AcDbEntity
  8
Defpoints
 62
     0
100
AcDbPoint
 10
0.0
 20
1.021875
 30
0.0
  0
POINT
  5
F2EA
330
F03D
100
AcDbEntity
  8
Defpoints
 62
     0
100
AcDbPoint
 10
1.78125
 20
1.021875
 30
0.0
  0
POINT
  5
F2EB
330
F03D
100
AcDbEntity
  8
Defpoints
 62
     0
100
AcDbPoint
 10
1.78125
 20
1.442424396404616
 30
0.0
  0
ENDBLK
  5
F049
330
F03D
100
AcDbEntity
  8
0
100
AcDbBlockEnd
  0
BLOCK
  5
F056
330
F04B
100
AcDbEntity
  8
0
100
AcDbBlockBegin
  2
*D1
 70
     1
 10
0.0
 20
0.0
 30
0.0
  3
*D1
  1

  0
LINE
  5
F2EC
330
F04B
100
AcDbEntity
  8
AREA1
 62
     0
100
AcDbLine
 10
1.84375
 20
1.021875
 30
0.0
 11
2.773809726884309
 21
1.021874999999999
 31
0.0
  0
LINE
  5
F2ED
330
F04B
100
AcDbEntity
  8
AREA1
 62
     0
100
AcDbLine
 10
1.84375
 20
-2.446874999999999
 30
0.0
 11
2.773809726884308
 21
-2.446874999999999
 31
0.0
  0
LINE
  5
F2EE
330
F04B
100
AcDbEntity
  8
AREA1
 62
     0
100
AcDbLine
 10
2.593809726884309
 20
0.8418750000000001
 30
0.0
 11
2.593809726884309
 21
0.0460714285714284
 31
0.0
  0
LINE
  5
F2EF
330
F04B
100
AcDbEntity
  8
AREA1
 62
     0
100
AcDbLine
 10
2.593809726884308
 20
-2.266874999999999
 30
0.0
 11
2.593809726884308
 21
-1.471071428571428
 31
0.0
  0
SOLID
  5
F2F0
330
F04B
100
AcDbEntity
  8
AREA1
 62
     0
100
AcDbTrace
 10
2.563809726884309
 20
0.8418750000000001
 30
0.0
 11
2.623809726884309
 21
0.8418750000000001
 31
0.0
 12
2.593809726884309
 22
1.021874999999999
 32
0.0
 13
2.593809726884309
 23
1.021874999999999
 33
0.0
  0
SOLID
  5
F2F1
330
F04B
100
AcDbEntity
  8
AREA1
 62
     0
100
AcDbTrace
 10
2.563809726884309
 20
-2.266874999999999
 30
0.0
 11
2.623809726884308
 21
-2.266874999999999
 31
0.0
 12
2.593809726884308
 22
-2.446874999999999
 32
0.0
 13
2.593809726884308
 23
-2.446874999999999
 33
0.0
  0
MTEXT
  5
F2F2
330
F04B
100
AcDbEntity
  8
AREA1
 62
     0
100
AcDbMText
 10
2.593809726884309
 20
-0.7124999999999995
 30
0.0
 40
0.12
 41
0.0
 46
0.0
 71
     5
 72
     1
  1
\A1;3 15/32 [88.11]
 11
0.0000000000000001
 21
1.0
 31
0.0
 73
     1
 44
1.0
  0
POINT
  5
F2F3
330
F04B
100
AcDbEntity
  8
Defpoints
 62
     0
100
AcDbPoint
 10
1.78125
 20
1.021875
 30
0.0
  0
POINT
  5
F2F4
330
F04B
100
AcDbEntity
  8
Defpoints
 62
     0
100
AcDbPoint
 10
1.78125
 20
-2.446874999999999
 30
0.0
  0
POINT
  5
F2F5
330
F04B
100
AcDbEntity
  8
Defpoints
 62
     0
100
AcDbPoint
 10
2.593809726884308
 20
-2.446874999999999
 30
0.0
  0
ENDBLK
  5
F057
330
F04B
100
AcDbEntity
  8
0
100
AcDbBlockEnd
  0
BLOCK
  5
F07B
330
F06F
100
AcDbEntity
  8
0
100
AcDbBlockBegin
  2
scaleinch
 70
     0
 10
0.0
 20
0.0
 30
0.0
  3
scaleinch
  1

  0
LINE
  5
F070
330
F06F
100
AcDbEntity
  8
SCALE
100
AcDbLine
 10
0.0606232467511401
 20
-2.404402599235495
 30
0.0
 11
1.06062324675114
 21
-2.404402599235495
 31
0.0
  0
LINE
  5
F071
330
F06F
100
AcDbEntity
  8
SCALE
100
AcDbLine
 10
1.06062324675114
 20
-2.404402599235495
 30
0.0
 11
1.06062324675114
 21
-2.504402599235495
 31
0.0
  0
LINE
  5
F072
330
F06F
100
AcDbEntity
  8
SCALE
100
AcDbLine
 10
1.06062324675114
 20
-2.504402599235495
 30
0.0
 11
1.06062324675114
 21
-2.304402599235494
 31
0.0
  0
LINE
  5
F073
330
F06F
100
AcDbEntity
  8
SCALE
100
AcDbLine
 10
0.0606232467511401
 20
-2.504402599235495
 30
0.0
 11
0.0606232467511401
 21
-2.304402599235494
 31
0.0
  0
LINE
  5
F074
330
F06F
100
AcDbEntity
  8
SCALE
100
AcDbLine
 10
0.0636661345613443
 20
-2.798543064684971
 30
0.0
 11
0.0636661345613443
 21
-2.598543064684972
 31
0.0
  0
LINE
  5
F075
330
F06F
100
AcDbEntity
  8
SCALE
100
AcDbLine
 10
0.4573661345613443
 20
-2.798543064684971
 30
0.0
 11
0.4573661345613443
 21
-2.598543064684972
 31
0.0
  0
LINE
  5
F076
330
F06F
100
AcDbEntity
  8
SCALE
100
AcDbLine
 10
0.0636661345613443
 20
-2.698543064684971
 30
0.0
 11
0.4573661345613443
 21
-2.698543064684971
 31
0.0
  0
TEXT
  5
F077
330
F06F
100
AcDbEntity
  8
SCALE
100
AcDbText
 10
0.089541676579342
 20
-2.656526717296251
 30
0.0
 40
0.0625
  1
[10 mm]
100
AcDbText
  0
TEXT
  5
F078
330
F06F
100
AcDbEntity
  8
SCALE
100
AcDbText
 10
0.359752881912085
 20
-2.335353903862293
 30
0.0
 40
0.0625
  1
1 Inch
100
AcDbText
  0
TEXT
  5
F079
330
F06F
100
AcDbEntity
  8
SCALE
100
AcDbText
 10
0.052988761716863
 20
-2.167919074482353
 30
0.0
 40
0.0625
  1
SCALE:
100
AcDbText
  0
LWPOLYLINE
  5
F07A
330
F06F
100
AcDbEntity
  8
SCALE
100
AcDbPolyline
 90
        4
 70
     1
 43
0.0
 10
-0.006540167756425
 20
-2.062717877051751
 10
1.129088651785547
 20
-2.062717877051751
 10
1.129088651785547
 20
-2.904327443829766
 10
-0.006540167756425
 20
-2.904327443829766
  0
ENDBLK
  5
F07C
330
F06F
100
AcDbEntity
  8
0
100
AcDbBlockEnd
  0
ENDSEC
  0
SECTION
  2
ENTITIES
  0
CIRCLE
  5
1600
330
F02E
100
AcDbEntity
  8
0
100
AcDbCircle
 10
0.7999999999999999
 20
-2.002999999999999
 30
1.79375
 40
0.145
  0
CIRCLE
  5
1603
330
F02E
100
AcDbEntity
  8
0
100
AcDbCircle
 10
0.7999999999999999
 20
0.5780000000000003
 30
1.79375
 40
0.145
  0
LINE
  5
15FA
330
F02E
100
AcDbEntity
  8
0
100
AcDbLine
 10
0.0
 20
-2.191875
 30
0.0
 11
0.0
 21
-2.191875
 31
0.0
  0
LINE
  5
15F9
330
F02E
100
AcDbEntity
  8
0
100
AcDbLine
 10
0.0
 20
-2.191875
 30
0.0
 11
0.0
 21
-2.191875
 31
0.0
  0
LINE
  5
15F8
330
F02E
100
AcDbEntity
  8
0
100
AcDbLine
 10
0.0
 20
-2.191875
 30
0.0
 11
0.0
 21
-2.191875
 31
0.0
  0
LINE
  5
15F7
330
F02E
100
AcDbEntity
  8
0
100
AcDbLine
 10
0.0
 20
-2.191875
 30
0.0
 11
0.0
 21
-2.191875
 31
0.0
  0
CIRCLE
  5
1601
330
F02E
100
AcDbEntity
  8
0
100
AcDbCircle
 10
0.2999999999999998
 20
-2.002999999999999
 30
1.79375
 40
0.145
  0
CIRCLE
  5
1604
330
F02E
100
AcDbEntity
  8
0
100
AcDbCircle
 10
0.2999999999999998
 20
0.5780000000000003
 30
1.79375
 40
0.145
  0
CIRCLE
  5
15FF
330
F02E
100
AcDbEntity
  8
0
100
AcDbCircle
 10
1.299999999999999
 20
-2.002999999999999
 30
1.79375
 40
0.145
  0
CIRCLE
  5
1605
330
F02E
100
AcDbEntity
  8
0
100
AcDbCircle
 10
1.299999999999999
 20
0.5780000000000003
 30
1.79375
 40
0.145
  0
TEXT
  5
8366
330
F02E
100
AcDbEntity
  8
0
100
AcDbText
 10
0.2711936044603052
 20
0.8030519929083785
 30
1.75
 40
0.12
  1
1
 41
0.9
100
AcDbText
  0
TEXT
  5
8367
330
F02E
100
AcDbEntity
  8
0
100
AcDbText
 10
0.2603822520300079
 20
-2.309496405876864
 30
1.75
 40
0.12
  1
2
 41
0.9
100
AcDbText
  0
TEXT
  5
8368
330
F02E
100
AcDbEntity
  8
0
100
AcDbText
 10
0.768514911785347
 20
0.8022542624696736
 30
1.75
 40
0.12
  1
3
 41
0.9
100
AcDbText
  0
TEXT
  5
8369
330
F02E
100
AcDbEntity
  8
0
100
AcDbText
 10
0.7522979087380702
 20
-2.310294136315569
 30
1.75
 40
0.12
  1
4
 41
0.9
100
AcDbText
  0
TEXT
  5
836A
330
F02E
100
AcDbEntity
  8
0
100
AcDbText
 10
1.260430551427961
 20
0.8014565320309682
 30
1.75
 40
0.12
  1
5
 41
0.9
100
AcDbText
  0
TEXT
  5
836B
330
F02E
100
AcDbEntity
  8
0
100
AcDbText
 10
1.265836219110387
 20
-2.311091878491347
 30
1.75
 40
0.12
  1
6
 41
0.9
100
AcDbText
  0
TEXT
  5
836C
330
F02E
100
AcDbEntity
  8
0
100
AcDbText
 10
0.2171369276360484
 20
-1.792799148914515
 30
1.75
 40
0.12
  1
T1
 41
0.9
100
AcDbText
  0
TEXT
  5
836D
330
F02E
100
AcDbEntity
  8
0
100
AcDbText
 10
0.7036469166616848
 20
-1.793198014133868
 30
1.75
 40
0.12
  1
T2
 41
0.9
100
AcDbText
  0
TEXT
  5
836E
330
F02E
100
AcDbEntity
  8
0
100
AcDbText
 10
1.217185227034002
 20
-1.79359687935322
 30
1.75
 40
0.12
  1
T3
 41
0.9
100
AcDbText
  0
TEXT
  5
836F
330
F02E
100
AcDbEntity
  8
0
100
AcDbText
 10
0.244165266048177
 20
0.2699645592315312
 30
1.75
 40
0.12
  1
L1
 41
0.9
100
AcDbText
  0
TEXT
  5
8370
330
F02E
100
AcDbEntity
  8
0
100
AcDbText
 10
0.7360809056907929
 20
0.2695656940121784
 30
1.75
 40
0.12
  1
L2
 41
0.9
100
AcDbText
  0
TEXT
  5
8371
330
F02E
100
AcDbEntity
  8
0
100
AcDbText
 10
1.222590877650982
 20
0.2691668287928262
 30
1.75
 40
0.12
  1
L3
 41
0.9
100
AcDbText
  0
ATTDEF
  5
F007
330
F02E
100
AcDbEntity
  8
ATTRIBUTES
100
AcDbText
 10
0.011468759252562
 20
-0.0997092094630925
 30
0.0
 40
0.0783821799723449
  1
SPRECHER+SCHUH
100
AcDbAttributeDefinition
  3
MANUFACTURER NAME?
  2
AC_VND_LABEL
 70
     0
280
     0
  0
ATTDEF
  5
F008
330
F02E
100
AcDbEntity
  8
ATTRIBUTES
100
AcDbText
 10
0.011468759252562
 20
-0.2630054177388108
 30
0.0
 40
0.0783821799723449
  1
KT4-C24-_
100
AcDbAttributeDefinition
  3
CATALOG NUMBER?
  2
AC_PART_NO
 70
     0
280
     0
  0
ATTDEF
  5
F009
330
F02E
100
AcDbEntity
  8
ATTRIBUTES
100
AcDbText
 10
0.011468759252562
 20
-0.4263016260145292
 30
0.0
 40
0.0783821799723449
  1
KT4: MANUAL STARTER/PROTECTOR
100
AcDbAttributeDefinition
  3
PART DESCRIPTION?
  2
AC_DESCRIPTION
 70
     0
280
     0
  0
ATTDEF
  5
F00A
330
F02E
100
AcDbEntity
  8
ATTRIBUTES
100
AcDbText
 10
0.011468759252562
 20
-0.589597834290248
 30
0.0
 40
0.0783821799723449
  1

100
AcDbAttributeDefinition
  3
DEVICE ID?
  2
DEVICE_ID
 70
     0
280
     0
  0
ATTDEF
  5
F00B
330
F02E
100
AcDbEntity
  8
ATTRIBUTES
100
AcDbText
 10
0.011468759252562
 20
-0.7528940425659663
 30
0.0
 40
0.0783821799723449
  1

100
AcDbAttributeDefinition
  3
CUSTOMER PART NUMBER?
  2
AC_CPART_NO
 70
     0
280
     0
  0
ATTDEF
  5
F00C
330
F02E
100
AcDbEntity
  8
ATTRIBUTES
100
AcDbText
 10
0.011468759252562
 20
-0.9161902508416851
 30
0.0
 40
0.0783821799723449
  1

100
AcDbAttributeDefinition
  3
CUSTOMER NOTE?
  2
AC_NOTE
 70
     0
280
     0
  0
ATTDEF
  5
F00D
330
F02E
100
AcDbEntity
  8
ATTRIBUTES
100
AcDbText
 10
0.011468759252562
 20
-1.079486459117403
 30
0.0
 40
0.0783821799723449
  1

100
AcDbAttributeDefinition
  3
FASTENER DATA?
  2
FASTENER
 70
     0
280
     0
  0
ATTDEF
  5
F00E
330
F02E
100
AcDbEntity
  8
ATTRIBUTES
100
AcDbText
 10
0.011468759252562
 20
-1.242782667393122
 30
0.0
 40
0.0783821799723449
  1
INCH
100
AcDbAttributeDefinition
  3
UNIT OF SCALE?
  2
AC_SCALE_UNIT
 70
     0
280
     0
  0
ATTDEF
  5
F00F
330
F02E
100
AcDbEntity
  8
ATTRIBUTES
100
AcDbText
 10
0.011468759252562
 20
-1.40607887566884
 30
0.0
 40
0.0783821799723449
  1
0
100
AcDbAttributeDefinition
  3
VIEW CODE?
  2
AC_VIEW_CODE
 70
     0
280
     0
  0
POINT
  5
F010
330
F02E
100
AcDbEntity
  8
DIMS-MTG-HOLES
100
AcDbPoint
 10
0.0
 20
0.0
 30
0.0
  0
DIMENSION
  5
F03B
330
F02E
100
AcDbEntity
  8
AREA1
100
AcDbDimension
  2
*D0
 10
1.78125
 20
1.442424396404616
 30
0.0
 11
0.890625
 21
1.442424396404616
 31
0.0
 70
    32
 71
     5
 42
-1.0
 73
     0
 74
     0
 75
     0
  3
Standard
100
AcDbAlignedDimension
 13
0.0
 23
1.021875
 33
0.0
 14
1.78125
 24
1.021875
 34
0.0
100
AcDbRotatedDimension
1001
ACAD
1000
DSTYLE
1002
{
1070
   287
1070
     5
1070
   270
1070
     7
1070
   287
1070
     5
1070
   270
1070
     7
1070
   287
1070
     5
1070
   270
1070
     7
1070
   170
1070
     1
1070
   271
1070
     6
1070
   272
1070
     6
1070
   276
1070
     2
1070
   277
1070
     5
1070
   279
1070
     2
1002
}
  0
DIMENSION
  5
F04A
330
F02E
100
AcDbEntity
  8
AREA1
100
AcDbDimension
  2
*D1
 10
2.593809726884308
 20
-2.446874999999999
 30
0.0
 11
2.593809726884309
 21
-0.7124999999999995
 31
0.0
 70
    32
 71
     5
 42
-1.0
 73
     0
 74
     0
 75
     0
 53
90.0
  3
Standard
100
AcDbAlignedDimension
 13
1.78125
 23
1.021875
 33
0.0
 14
1.78125
 24
-2.446874999999999
 34
0.0
 50
90.0
100
AcDbRotatedDimension
1001
ACAD
1000
DSTYLE
1002
{
1070
   287
1070
     5
1070
   270
1070
     7
1070
   287
1070
     5
1070
   270
1070
     7
1070
   287
1070
     5
1070
   270
1070
     7
1070
   170
1070
     1
1070
   271
1070
     6
1070
   272
1070
     6
1070
   276
1070
     2
1070
   277
1070
     5
1070
   279
1070
     2
1002
}
  0
INSERT
  5
F07D
330
F02E
100
AcDbEntity
  8
SCALE
100
AcDbBlockReference
  2
scaleinch
 10
0.006540167756425
 20
-0.5659645501952993
 30
0.0
  0
3DFACE
  5
F371
330
F02E
100
AcDbEntity
  8
0
100
AcDbFace
 10
1.78125
 20
-2.446874999999999
 30
0.0
 11
1.78125
 21
-2.446874999999999
 31
0.0
 12
0.0
 22
-2.446874999999999
 32
0.0
 13
0.0
 23
-2.446874999999999
 33
0.0
  0
3DSOLID
  5
F382
330
F02E
100
AcDbEntity
  8
0
100
AcDbModelerGeometry
 70
     1
  1
mnmoo jln m mi         
  1
ni ^ *+0;:,4 ^ *+0\^ [ nh ^ LR nmqoqnqgmo QK o  
  1
mjqlffffffffffffff fqfffffffffffffffj:rooh n:rono 
  1
>,27:>;:- {rn rn _nn mnmqoqnqgmo |
  1
=0;& {m rn {rn {l {rn {rn |
  1
-:9@)+r:&:r>++-6= {rn rn {rn {rn {n {k {j |
  1
3*2/ {i rn {rn {rn {h {n |
  1
:&:@-:961:2:1+ {rn rn _j 8-6;  n _l +-6 n _k ,*-9 o _l >;5 o _k 8->; o _f /0,+<7:<4 o _k ,+03 oqooiljfkgmngkojmkihl _k 1+03 lo _k ;,63 o _g 93>+1:,, o _h /6'>-:> o _k 72>' o _i 8-6;>- o _j 28-6; looo _j *8-6; o _j )8-6; o _no :1;@96:3;, |
  1
):-+:'@+:2/3>+: {rn rn l o n g |
  1
-:9@)+r:&:r>++-6= {rn rn {rn {rn {l {k {j |
  1
,7:33 {g rn {rn {rn {rn {f {rn {l |
  1
-:9@)+r:&:r>++-6= {rn rn {rn {rn {h {k {j |
  1
9><: {no rn {rn {nn {nm {h {rn {nl 90-(>-; ,6183: |
  1
92:,7r:&:r>++-6= {rn rn {nk {rn {f |
  1
9><: {nj rn {rn {ni {nh {h {rn {ng 90-(>-; ,6183: |
  1
300/ {rn rn {rn {rn {nf {f |
  1
<01:r,*-9><: {rn rn {rn nqjfhglnimohjlojhi rnqlgfhhmomfigmjhjh mqimj o o rn o roqnlfffffffffffffig o n V V o n oqnlfffffffffffffig 90-(>-; V V V V |
  1
-:9@)+r:&:r>++-6= {rn rn {mo {no {f {k {j |
  1
92:,7r:&:r>++-6= {rn rn {mn {rn {nn |
  1
9><: {mm rn {rn {ml {mk {h {rn {mj 90-(>-; ,6183: |
  1
300/ {rn rn {rn {rn {mi {nn |
  1
/3>1:r,*-9><: {rn rn {rn nqhlhglnimohjlojhl rnqlgfhhmomfigmjhjh mqimj n o o o o rn 90-(>-;@) V V V V |
  1
<0:;8: {rn rn {rn {mh {mg {mf {lo -:):-,:; {nm {rn |
  1
/:-,*=:1+r><>;L036;W6,+0-&r>++-6= {rn rn {rn {nk {f n j m o |
  1
-:9@)+r:&:r>++-6= {rn rn {ln {nj {nn {k {j |
  1
92:,7r:&:r>++-6= {rn rn {lm {rn {ni |
  1
9><: {ll rn {rn {lk {lj {h {rn {li 90-(>-; ,6183: |
  1
300/ {rn rn {rn {rn {lh {ni |
  1
<01:r,*-9><: {rn rn {rn nqjfhglnimohjlojhi rnqngkhhmomfigmjhjh mqimj o o rn o oqnlfffffffffffffig o n V V o n oqnlfffffffffffffig 90-(>-; V V V V |
  1
<0:;8: {rn rn {rn {lg {lf {ko {kn -:):-,:; {nh {rn |
  1
<0:;8: {rn rn {rn {km {nf {lf {kl -:):-,:; {nm {rn |
  1
<0:;8: {rn rn {rn {nf {km {kk {kj 90-(>-; {nm {rn |
  1
<0:;8: {rn rn {rn {ki {ko {nf {lo 90-(>-; {kh {rn |
  1
:;8: {kg rn {rn {kf rnqjhohfilmihfkgfii {jo nqjhohfilmihfkgfii {mf {jn 90-(>-; _h *1410(1 |
  1
/:-,*=:1+r><>;L036;W6,+0-&r>++-6= {rn rn {rn {mn {nn n j l o |
  1
-:9@)+r:&:r>++-6= {rn rn {jm {mm {ni {k {j |
  1
92:,7r:&:r>++-6= {rn rn {jl {rn {ml |
  1
9><: {jk rn {rn {jj {ji {h {rn {jh 90-(>-; ,6183: |
  1
300/ {rn rn {rn {rn {jg {ml |
  1
/3>1:r,*-9><: {rn rn {rn nqkjhglnimohjlojhf rnqngkhhmomfigmjhjh mqimj rn o o o o n 90-(>-;@) V V V V |
  1
<0:;8: {rn rn {rn {jf {io {in {im -:):-,:; {mk {rn |
  1
<0:;8: {rn rn {rn {il {mi {io {ik -:):-,:; {nh {rn |
  1
<0:;8: {rn rn {rn {mi {il {mh {kl 90-(>-; {nh {rn |
  1
<0:;8: {rn rn {rn {mf {in {mi {kn 90-(>-; {kh {rn |
  1
:;8: {ij rn {rn {ii roqlolgilfgjnjghnmni {kf roqofggilfgjnjghnmogh {ko {ih 90-(>-; _h *1410(1 |
  1
<0:;8: {rn rn {rn {mg {mh {ig {if 90-(>-; {nm {rn |
  1
:;8: {ho rn {rn {hn o {kf oqmjoooooooooooookk {lf {hm 90-(>-; _h *1410(1 |
  1
<0:;8: {rn rn {rn {hl {jg {mg {kj -:):-,:; {lj {rn |
  1
:;8: {hk rn {rn {hj o {jo oqmjoooooooooooookk {mg {hi 90-(>-; _h *1410(1 |
  1
<0:;8: {rn rn {rn {in {mf {jg {hh 90-(>-; {kh {rn |
  1
300/ {rn rn {rn {hg {mf {hf |
  1
/+36,+r:&:r>++-6= {rn rn {rn {rn {lo |
  1
):-+:' {rn rn {rn {lo o {go |
  1
):-+:' {rn rn {rn {lo n {gn |
  1
:336/,:r<*-): {rn rn {rn nqjfhglnimohjlojhi rnqlgfhhmomfigmjhjh mqlhj o ro rn o roqnlfffffffffffffig o n V V |
  1
/:-,*=:1+r><>;L036;W6,+0-&r>++-6= {rn rn {rn {lm {ni n j k o |
  1
-:9@)+r:&:r>++-6= {rn rn {gm {ll {ml {k {j |
  1
92:,7r:&:r>++-6= {rn rn {gl {rn {lk |
  1
9><: {gk rn {rn {gj {gi {h {rn {gh 90-(>-; ,6183: |
  1
300/ {rn rn {rn {rn {gg {lk |
  1
/3>1:r,*-9><: {rn rn {rn nqjfhglnimohjlojhm rnqmghmhmomfigmjhjj mqimkffffffffffffi o o n n o o 90-(>-;@) V V V V |
  1
<0:;8: {rn rn {rn {kk {gf {ki {hh -:):-,:; {lj {rn |
  1
<0:;8: {rn rn {rn {fo {lh {gf {fn -:):-,:; {mk {rn |
  1
<0:;8: {rn rn {rn {lh {fo {lg {ik 90-(>-; {mk {rn |
  1
<0:;8: {rn rn {rn {ko {ki {lh {im 90-(>-; {kh {rn |
  1
:;8: {fm rn {rn {fl rnqjhohfilmihfkgfii {ii nqjhohfilmihfkgfii {in {fk 90-(>-; _h *1410(1 |
  1
<0:;8: {rn rn {rn {lf {lg {fj {fi 90-(>-; {nh {rn |
  1
:;8: {fh rn {rn {fg o {ii oqmjoooooooooooookk {io {ff 90-(>-; _h *1410(1 |
  1
/+36,+r:&:r>++-6= {rn rn {rn {rn {kn |
  1
):-+:' {rn rn {rn {kn o {noo |
  1
,+->687+r<*-): {rn rn {rn nqhlhglnimohjlojhl rnqkggilionkgknmghg mqlhj o rn o V V |
  1
<0:;8: {rn rn {rn {fj {gg {km {if -:):-,:; {ji {rn |
  1
:;8: {non rn {rn {hn rnqjhohfilmihfkgfii {hj nqjhohfilmihfkgfii {km {nom 90-(>-; _h *1410(1 |
  1
/+36,+r:&:r>++-6= {rn rn {rn {rn {kl |
  1
):-+:' {rn rn {rn {fi n {nol |
  1
,+->687+r<*-): {rn rn {rn nqhlhglnimohjlojhl rnqlgfhhmomfigmjhjh mqimj o o rn V V |
  1
<0:;8: {rn rn {rn {gf {kk {gg {nok 90-(>-; {lj {rn |
  1
/+36,+r:&:r>++-6= {rn rn {rn {rn {kj |
  1
):-+:' {rn rn {rn {nok o {noj |
  1
,+->687+r<*-): {rn rn {rn nqkjhglnimohjlojhf rnqlgfhhmomfigmjhjh mqimj o o rn V V |
  1
:;8: {noi rn {rn {jo roqoolilionkgknmghfkgf {fl oqmonlilfgjnjghnmnm {ki {noh 90-(>-; _h *1410(1 |
  1
300/ {rn rn {rn {nog {nof {hf |
  1
9><: {nno rn {rn {nnn {kh {h {rn {nnm 90-(>-; ,6183: |
  1
/061+ {rn rn {rn nqhlhglnimohjlojhl rnqlgfhhmomfigmjhjh mqlhkffffffffffffi |
  1
/061+ {rn rn {rn nqkjhglnimohjlojhf rnqlgfhhmomfigmjhjh mqlhkffffffffffffi |
  1
/:-,*=:1+r><>;L036;W6,+0-&r>++-6= {rn rn {rn {jl {ml n j n o |
  1
-:9@)+r:&:r>++-6= {rn rn {nnl {jk {lk {k {j |
  1
92:,7r:&:r>++-6= {rn rn {nnk {rn {jj |
  1
9><: {nnj rn {rn {nni {nnh {h {rn {nng 90-(>-; ,6183: |
  1
300/ {rn rn {rn {rn {nnf {jj |
  1
<01:r,*-9><: {rn rn {rn nqjfhglnimohjlojhi roqmmkhhmomfigmjhjmi mqimj o o rn o roqnlfffffffffffffig o n V V o n oqnlfffffffffffffig 90-(>-; V V V V |
  1
<0:;8: {rn rn {rn {ig {nmo {hl {nok -:):-,:; {ji {rn |
  1
<0:;8: {rn rn {rn {jg {hl {jf {fn 90-(>-; {lj {rn |
  1
<0:;8: {rn rn {rn {io {jf {nmo {nmn 90-(>-; {mk {rn |
  1
:;8: {nmm rn {rn {nml o {fl oqmjoooooooooooookk {gf {nmk 90-(>-; _h *1410(1 |
  1
/+36,+r:&:r>++-6= {rn rn {rn {rn {im |
  1
):-+:' {rn rn {rn {im o {nmj |
  1
:336/,:r<*-): {rn rn {rn nqjfhglnimohjlojhi rnqngkhhmomfigmjhjh mqlhj o ro rn o oqnlfffffffffffffig o n V V |
  1
<0:;8: {rn rn {rn {nmo {ig {il {fi -:):-,:; {ji {rn |
  1
:;8: {nmi rn {rn {fg o {hn oqmojoooooooooooooh {il {nmh 90-(>-; _h *1410(1 |
  1
/+36,+r:&:r>++-6= {rn rn {rn {rn {ik |
  1
):-+:' {rn rn {rn {nmn n {nmg |
  1
,+->687+r<*-): {rn rn {rn nqhlhglnimohjlojhl rnqngkhhmomfigmjhjh mqimj o o rn V V |
  1
/061+ {rn rn {rn nqhlhglnimohjlojhl rnqngkhhmomfigmjhjh mqlhkffffffffffffi |
  1
/+36,+r:&:r>++-6= {rn rn {rn {rn {if |
  1
:336/,:r<*-): {rn rn {rn nqjfhglnimohjlojhi rnqlgfhhmomfigmjhjh mqimj ro ro rn o roqnlfffffffffffffig o n V V |
  1
/061+ {rn rn {rn nqhlhglnimohjlojhl rnqlgfhhmomfigmjhjh mqimj |
  1
:;8: {nmf rn {rn {hj o {nml oqmojoooooooooooooh {hl {nlo 90-(>-; _h *1410(1 |
  1
/061+ {rn rn {rn nqkjhglnimohjlojhf rnqlgfhhmomfigmjhjh mqimj |
  1
/+36,+r:&:r>++-6= {rn rn {rn {rn {hh |
  1
,+->687+r<*-): {rn rn {rn nqkjhglnimohjlojhf rnqlginlionkgknmghg mqlhj o n o V V |
  1
300/ {rn rn {rn {rn {nln {hf |
  1
<0:;8: {rn rn {rn {nlm {nll {nnf {nlk 90-(>-; {hg {rn |
  1
92:,7r:&:r>++-6= {rn rn {nlj {rn {hf |
  1
9><: {nli rn {rn {nlh {nlg {h {rn {nlf 90-(>-; ,6183: |
  1
/3>1:r,*-9><: {rn rn {rn o rnqjghkffffffffffff mqlhj ro o n n ro o 90-(>-;@) V V V V |
  1
/:-,*=:1+r><>;L036;W6,+0-&r>++-6= {rn rn {nko {gl {lk n j nooooooooo n |
  1
-:9@)+r:&:r>++-6= {rn rn {nkn {gk {jj {k {j |
  1
92:,7r:&:r>++-6= {rn rn {nkm {rn {gj |
  1
9><: {nkl rn {rn {nkk {nkj {h {rn {nki 90-(>-; ,6183: |
  1
300/ {rn rn {rn {rn {nkh {gj |
  1
/3>1:r,*-9><: {rn rn {rn nqhlhglnimohjlojhl roqmmkhhmomfigmjhjmi mqimj n o o o o rn 90-(>-;@) V V V V |
  1
<0:;8: {rn rn {rn {nkg {nkf {nof {nlk -:):-,:; {gi {rn |
  1
<0:;8: {rn rn {rn {gg {fj {fo {nmn -:):-,:; {ji {rn |
  1
:;8: {njo rn {rn {nml rnqjhohfilmihfkgfii {fg nqjhohfilmihfkgfii {fo {njn 90-(>-; _h *1410(1 |
  1
/+36,+r:&:r>++-6= {rn rn {rn {rn {fn |
  1
):-+:' {rn rn {rn {nok n {njm |
  1
,+->687+r<*-): {rn rn {rn nqkjhglnimohjlojhf rnqngkhhmomfigmjhjh mqimj o o rn V V |
  1
/061+ {rn rn {rn nqkjhglnimohjlojhf rnqngkhhmomfigmjhjh mqlhkffffffffffffi |
  1
/+36,+r:&:r>++-6= {rn rn {rn {rn {fi |
  1
,+->687+r<*-): {rn rn {rn nqhlhglnimohjlojhl rnqngkhhmomfigmjhjh mqimj o rn o V V |
  1
/061+ {rn rn {rn nqhlhglnimohjlojhl rnqngkhhmomfigmjhjh mqimj |
  1
/+36,+r:&:r>++-6= {rn rn {rn {rn {nok |
  1
,+->687+r<*-): {rn rn {rn nqkjhglnimohjlojhf rnqlgfhhmomfigmjhjh mqimj o n o V V |
  1
<0:;8: {rn rn {rn {njl {njk {njj {nji 90-(>-; {nog {rn |
  1
<0:;8: {rn rn {rn {njh {nof {njg {njf 90-(>-; {hg {rn |
  1
<0:;8: {rn rn {rn {nof {njh {nkh {nio 90-(>-; {hg {rn |
  1
:;8: {nin rn {rn {nim rnqjhohfilmihfkgfii {nil nqjhohfilmihfkgfii {nof {nik 90-(>-; _h *1410(1 |
  1
-:9@)+r:&:r>++-6= {rn rn {nij {nno {hf {k {j |
  1
92:,7r:&:r>++-6= {rn rn {nii {rn {nnn |
  1
9><: {nih rn {rn {nig {nif {h {rn {nho 90-(>-; ,6183: |
  1
300/ {rn rn {rn {rn {nhn {nnn |
  1
/3>1:r,*-9><: {rn rn {rn o oqnimjoooooooooooof mqlhj o n o o o n 90-(>-;@) V V V V |
  1
1>2:@>++-6=r8:1r>++-6= {rn rn {rn {nnl {lk 30,: 30,: >//3& <0/& _ni ,(::/@,+>-+@9><: |
  1
/:-,*=:1+r><>;L036;W6,+0-&r>++-6= {rn rn {rn {nnk {jj n k m o |
  1
-:9@)+r:&:r>++-6= {rn rn {nhm {nnj {gj {k {j |
  1
92:,7r:&:r>++-6= {rn rn {nhl {rn {nni |
  1
9><: {nhk rn {rn {nhj {nhi {h {rn {nhh 90-(>-; ,6183: |
  1
300/ {rn rn {rn {rn {nhg {nni |
  1
<01:r,*-9><: {rn rn {rn nqjfhglnimohjlojhi roqonfhhmomfigmjhjngh mqimj o o rn o oqnlfffffffffffffig o n V V o n oqnlfffffffffffffig 90-(>-; V V V V |
  1
<0:;8: {rn rn {rn {nhf {ngo {nll {nio -:):-,:; {nnh {rn |
  1
<0:;8: {rn rn {rn {ngn {nnf {ngo {ngm -:):-,:; {gi {rn |
  1
<0:;8: {rn rn {rn {nnf {ngn {ngl {ngk 90-(>-; {gi {rn |
  1
/+36,+r:&:r>++-6= {rn rn {rn {rn {nmn |
  1
:336/,:r<*-): {rn rn {rn nqjfhglnimohjlojhi rnqngkhhmomfigmjhjh mqimj ro ro rn o oqnlfffffffffffffig o n V V |
  1
/061+ {rn rn {rn nqkjhglnimohjlojhf rnqngkhhmomfigmjhjh mqimj |
  1
<0:;8: {rn rn {rn {ngj {nln {ngi {ngh -:):-,:; {nog {rn |
  1
<0:;8: {rn rn {rn {nln {ngj {ngg {ngf 90-(>-; {nog {rn |
  1
<0:;8: {rn rn {rn {nfo {nfn {nln {nji -:):-,:; {nfm {rn |
  1
:;8: {nfl rn {rn {nfk rnqhj {nfj o {nln {nfi 90-(>-; _h *1410(1 |
  1
<0:;8: {rn rn {rn {nll {nlm {nhg {nfh 90-(>-; {hg {rn |
  1
<0:;8: {rn rn {rn {ngl {nfg {nlm {njf -:):-,:; {nhi {rn |
  1
:;8: {nff rn {rn {nil oqjhggilfgjnjghnmmf {moo oqhglgilfgjnjghnmli {nlm {mon 90-(>-; _h *1410(1 |
  1
:;8: {mom rn {rn {mol roqggililfgjnjghnmk {nim roqignlilfgjnjghnmll {nll {mok 90-(>-; _h *1410(1 |
  1
/+36,+r:&:r>++-6= {rn rn {rn {rn {nlk |
  1
):-+:' {rn rn {rn {nlk o {moj |
  1
):-+:' {rn rn {rn {nlk n {moi |
  1
:336/,:r<*-): {rn rn {rn nqjfhglnimohjlojhi roqmmkhhmomfigmjhjmi mqlhj o ro rn o roqnlfffffffffffffig o n V V |
  1
/:-,*=:1+r><>;L036;W6,+0-&r>++-6= {rn rn {rn {nlj {hf n l k o |
  1
-:9@)+r:&:r>++-6= {rn rn {moh {nli {nnn {k {j |
  1
92:,7r:&:r>++-6= {rn rn {mog {rn {nlh |
  1
9><: {mof rn {rn {mno {mnn {h {rn {mnm 90-(>-; ,6183: |
  1
300/ {rn rn {rn {rn {mnl {nlh |
  1
/3>1:r,*-9><: {rn rn {rn o rnqjghkffffffffffff nqhj o rn o o o rn 90-(>-;@) V V V V |
  1
<0:;8: {rn rn {rn {mnk {ngi {nfn {mnj 90-(>-; {nlg {rn |
  1
/:-,*=:1+r><>;L036;W6,+0-&r>++-6= {rn rn {rn {nkm {gj n k l o |
  1
-:9@)+r:&:r>++-6= {rn rn {mni {nkl {nni {k {j |
  1
92:,7r:&:r>++-6= {rn rn {mnh {rn {nkk |
  1
9><: {mng rn {rn {hf {mnf {h {rn {mmo 90-(>-; ,6183: |
  1
300/ {rn rn {rn {rn {njg {nkk |
  1
/3>1:r,*-9><: {rn rn {rn nqkjhglnimohjlojhf roqonfhhmomfigmjhjngh mqimj rn o o o o n 90-(>-;@) V V V V |
  1
<0:;8: {rn rn {rn {mmn {mmm {njh {nfh -:):-,:; {nkj {rn |
  1
<0:;8: {rn rn {rn {mml {nkh {mmm {mmk -:):-,:; {nnh {rn |
  1
<0:;8: {rn rn {rn {nkh {mml {nkg {ngm 90-(>-; {nnh {rn |
  1
<0:;8: {rn rn {rn {nkf {nkg {mmj {mmi 90-(>-; {gi {rn |
  1
:;8: {mmh rn {rn {mmg o {nim oqmjoooooooooooookk {ngo {mmf 90-(>-; _h *1410(1 |
  1
<0:;8: {rn rn {rn {mlo {njg {nkf {ngk -:):-,:; {nhi {rn |
  1
:;8: {mln rn {rn {mlm o {nil oqmjoooooooooooookk {nkf {mll 90-(>-; _h *1410(1 |
  1
<0:;8: {rn rn {rn {njk {njl {mlk {mlj 90-(>-; {nog {rn |
  1
<0:;8: {rn rn {rn {nhn {mli {njl {ngh 90-(>-; {nlg {rn |
  1
:;8: {mlh rn {rn {mlg o {nfj nqhgnmj {ngi {mlf 90-(>-; _h *1410(1 |
  1
<0:;8: {rn rn {rn {mko {mnl {njk {ngf -:):-,:; {nif {rn |
  1
:;8: {mkn rn {rn {mkm o {nfk nqhgnmj {njk {mkl 90-(>-; _h *1410(1 |
  1
<0:;8: {rn rn {rn {mkk {njj {mnl {mkj -:):-,:; {nfm {rn |
  1
<0:;8: {rn rn {rn {njj {mki {nhn {mnj -:):-,:; {nfm {rn |
  1
300/ {rn rn {rn {rn {mkh {mkg |
  1
/+36,+r:&:r>++-6= {rn rn {rn {rn {nji |
  1
):-+:' {rn rn {rn {ngf n {mkf |
  1
):-+:' {rn rn {rn {ngh n {mjo |
  1
,+->687+r<*-): {rn rn {rn nqhgnmj oqnimjoooooooooooof mqlhj o n o V V |
  1
:;8: {mjn rn {rn {moo rnqjhohfilmihfkgfii {mol nqjhohfilmihfkgfii {njh {mjm 90-(>-; _h *1410(1 |
  1
<0:;8: {rn rn {rn {njg {mlo {mmn {mjl 90-(>-; {nhi {rn |
  1
/+36,+r:&:r>++-6= {rn rn {rn {rn {njf |
  1
):-+:' {rn rn {rn {nfh o {mjk |
  1
,+->687+r<*-): {rn rn {rn nqkjhglnimohjlojhf roqgolilionkgknmghjj mqlhj o n o V V |
  1
/+36,+r:&:r>++-6= {rn rn {rn {rn {nio |
  1
):-+:' {rn rn {rn {nio o {mjj |
  1
,+->687+r<*-): {rn rn {rn nqhlhglnimohjlojhl roqfoinlionkgknmghjg mqlhj o rn o V V |
  1
/061+ {rn rn {rn nqhlhglnimohjlojhl roqmmkhhmomfigmjhjmi mqlhkffffffffffffi |
  1
/061+ {rn rn {rn nqkjhglnimohjlojhf roqmmkhhmomfigmjhjmi mqlhkffffffffffffi |
  1
/:-,*=:1+r><>;L036;W6,+0-&r>++-6= {rn rn {rn {nii {nnn n l l o |
  1
-:9@)+r:&:r>++-6= {rn rn {mji {nih {nlh {k {j |
  1
92:,7r:&:r>++-6= {rn rn {mjh {rn {nig |
  1
9><: {mjg rn {rn {mjf {mio {h {rn {mnm 90-(>-; ,6183: |
  1
300/ {rn rn {rn {rn {min {nig |
  1
/3>1:r,*-9><: {rn rn {rn o rmqkkighkffffffffff nqhj ro o n n ro o 90-(>-;@) V V V V |
  1
<0:;8: {rn rn {rn {ngg {mim {nfo {mkj 90-(>-; {nif {rn |
  1
<0:;8: {rn rn {rn {mli {nhn {min {mil -:):-,:; {nlg {rn |
  1
:;8: {mik rn {rn {nfj roqimj {mij ro {nhn {mii 90-(>-; _h *1410(1 |
  1
/:-,*=:1+r><>;L036;W6,+0-&r>++-6= {rn rn {rn {nhl {nni n k k o |
  1
-:9@)+r:&:r>++-6= {rn rn {mih {nhk {nkk {k {j |
  1
92:,7r:&:r>++-6= {rn rn {mig {rn {nhj |
  1
300/ {rn rn {rn {rn {mif {nhj |
  1
/3>1:r,*-9><: {rn rn {rn nqjfhglnimohjlojhm roqnmmmhmomfigmjhj mqimkffffffffffffi o o n n o o 90-(>-;@) V V V V |
  1
<0:;8: {rn rn {rn {mho {nhg {nfg {mjl -:):-,:; {nkj {rn |
  1
<0:;8: {rn rn {rn {nhg {mho {nhf {mmk 90-(>-; {nkj {rn |
  1
<0:;8: {rn rn {rn {ngo {nhf {mhn {mhm 90-(>-; {nnh {rn |
  1
:;8: {mhl rn {rn {mhk o {mol oqmjoooooooooooookk {mmm {mhj 90-(>-; _h *1410(1 |
  1
<0:;8: {rn rn {rn {mhn {mif {ngn {mmi -:):-,:; {mnf {rn |
  1
:;8: {mhi rn {rn {mmg rnqjhohfilmihfkgfii {mlm nqjhohfilmihfkgfii {ngn {mhh 90-(>-; _h *1410(1 |
  1
/+36,+r:&:r>++-6= {rn rn {rn {rn {ngm |
  1
):-+:' {rn rn {rn {mhm n {mhg |
  1
,+->687+r<*-): {rn rn {rn nqhlhglnimohjlojhl roqmmkhhmomfigmjhjmi mqimj o o rn V V |
  1
<0:;8: {rn rn {rn {nfg {ngl {mif {mhf 90-(>-; {nhi {rn |
  1
/+36,+r:&:r>++-6= {rn rn {rn {rn {ngk |
  1
):-+:' {rn rn {rn {mhf o {mgo |
  1
,+->687+r<*-): {rn rn {rn nqkjhglnimohjlojhf roqmmkhhmomfigmjhjmi mqimj o o rn V V |
  1
<0:;8: {rn rn {rn {mgn {mgm {ngj {mlj -:):-,:; {mgl {rn |
  1
:;8: {mgk rn {rn {mlg o {mkm nqhj {ngj {mgj 90-(>-; _h *1410(1 |
  1
<0:;8: {rn rn {rn {ngi {mnk {mgn {mgi 90-(>-; {nlg {rn |
  1
/+36,+r:&:r>++-6= {rn rn {rn {rn {ngh |
  1
):-+:' {rn rn {rn {mgi n {mgh |
  1
,+->687+r<*-): {rn rn {rn o oqnimjoooooooooooof mqlhj n o o V V |
  1
<0:;8: {rn rn {rn {mim {ngg {mgm {mgg 90-(>-; {nif {rn |
  1
/+36,+r:&:r>++-6= {rn rn {rn {rn {ngf |
  1
):-+:' {rn rn {rn {mgg o {mgf |
  1
,+->687+r<*-): {rn rn {rn o rnqjghkffffffffffff mqlhj n o o V V |
  1
<0:;8: {rn rn {rn {mfo {nfo {mfn {mfm -:):-,:; {nfm {rn |
  1
:;8: {mfl rn {rn {mfk roqimj {nfk o {mnl {mfj 90-(>-; _h *1410(1 |
  1
<0:;8: {rn rn {rn {nfn {mfi {mfh {mfg -:):-,:; {nfm {rn |
  1
<0:;8: {rn rn {rn {mff {loo {lon {lom 90-(>-; {nfm {rn |
  1
9><: {lol rn {rn {lok {nfm {h {rn {loj 90-(>-; ,6183: |
  1
/061+ {rn rn {rn nqhgnmj rnqjghkffffffffffff mqlhj |
  1
/061+ {rn rn {rn nqhgnmj oqnimjoooooooooooof mqlhj |
  1
/+36,+r:&:r>++-6= {rn rn {rn {rn {nfh |
  1
:336/,:r<*-): {rn rn {rn nqjfhglnimohjlojhi roqonfhhmomfigmjhjngh mqlhj o ro rn o oqnlfffffffffffffig o n V V |
  1
:;8: {loi rn {rn {loh o {moo oqmjoooooooooooookk {nfg {log 90-(>-; _h *1410(1 |
  1
/061+ {rn rn {rn nqkjhglnimohjlojhf roqonfhhmomfigmjhjngh mqlhkffffffffffffi |
  1
/061+ {rn rn {rn nqhlhglnimohjlojhl roqonfhhmomfigmjhjngh mqlhkffffffffffffi |
  1
/:-,*=:1+r><>;L036;W6,+0-&r>++-6= {rn rn {rn {mog {nlh n l n o |
  1
-:9@)+r:&:r>++-6= {rn rn {lof {mof {nig {k {j |
  1
92:,7r:&:r>++-6= {rn rn {lno {rn {mno |
  1
9><: {lnn rn {rn {lnm {lnl {h {rn {lnk -:):-,:; ,6183: |
  1
300/ {rn rn {rn {rn {lnj {mno |
  1
<0:;8: {rn rn {rn {mfh {lni {mnk {mil 90-(>-; {mnn {rn |
  1
<0:;8: {rn rn {rn {mnl {mko {lnj {lnh -:):-,:; {nif {rn |
  1
:;8: {lng rn {rn {lnf o {mij nqhgnmj {min {lmo 90-(>-; _h *1410(1 |
  1
/+36,+r:&:r>++-6= {rn rn {rn {rn {mnj |
  1
):-+:' {rn rn {rn {mfg o {lmn |
  1
,+->687+r<*-): {rn rn {rn nqhgnmj oqnimjoooooooooooof nqhj ro ro rn V V |
  1
/:-,*=:1+r><>;L036;W6,+0-&r>++-6= {rn rn {rn {mnh {nkk n k n o |
  1
-:9@)+r:&:r>++-6= {rn rn {lmm {mng {nhj {k {j |
  1
<0:;8: {rn rn {rn {mmj {lml {mlo {mhf -:):-,:; {mnf {rn |
  1
<0:;8: {rn rn {rn {mmm {mmn {lml {lmk 90-(>-; {nkj {rn |
  1
<0:;8: {rn rn {rn {lml {mmj {mml {mhm -:):-,:; {mnf {rn |
  1
:;8: {lmj rn {rn {mhk o {mmg oqmojoooooooooooooh {mml {lmi 90-(>-; _h *1410(1 |
  1
/+36,+r:&:r>++-6= {rn rn {rn {rn {mmk |
  1
):-+:' {rn rn {rn {lmk n {lmh |
  1
,+->687+r<*-): {rn rn {rn nqhlhglnimohjlojhl roqonfhhmomfigmjhjngh mqimj o o rn V V |
  1
/+36,+r:&:r>++-6= {rn rn {rn {rn {mmi |
  1
:336/,:r<*-): {rn rn {rn nqjfhglnimohjlojhi roqmmkhhmomfigmjhjmi mqimj ro ro rn o roqnlfffffffffffffig o n V V |
  1
/061+ {rn rn {rn nqhlhglnimohjlojhl roqmmkhhmomfigmjhjmi mqimj |
  1
:;8: {lmg rn {rn {mlm o {loh oqmojoooooooooooooh {mlo {lmf 90-(>-; _h *1410(1 |
  1
/061+ {rn rn {rn nqkjhglnimohjlojhf roqmmkhhmomfigmjhjmi mqimj |
  1
<0:;8: {rn rn {rn {llo {mlk {mli {mgi -:):-,:; {mgl {rn |
  1
<0:;8: {rn rn {rn {mlk {lln {mko {mgg -:):-,:; {mgl {rn |
  1
300/ {rn rn {rn {rn {llm {lll |
  1
/+36,+r:&:r>++-6= {rn rn {rn {rn {mlj |
  1
,+->687+r<*-): {rn rn {rn o oqnimjoooooooooooof mqlhj o rn o V V |
  1
:;8: {llk rn {rn {lnf o {mlg oqimj {mli {llj 90-(>-; _h *1410(1 |
  1
/061+ {rn rn {rn o oqnimjoooooooooooof mqlhj |
  1
:;8: {lli rn {rn {mkm o {llh oqimj {mko {llg 90-(>-; _h *1410(1 |
  1
/061+ {rn rn {rn o rnqjghkffffffffffff mqlhj |
  1
<0:;8: {rn rn {rn {loo {mkk {llf {lko -:):-,:; {nfm {rn |
  1
<0:;8: {rn rn {rn {lnj {lkn {mkk {mfm 90-(>-; {mio {rn |
  1
:;8: {lkm rn {rn {lkl rlqkighj {mfk rmqioflhj {mfn {lkk 90-(>-; _h *1410(1 |
  1
/+36,+r:&:r>++-6= {rn rn {rn {rn {mkj |
  1
):-+:' {rn rn {rn {mfm n {lkj |
  1
,+->687+r<*-): {rn rn {rn nqhgnmj rnqjghkffffffffffff mqlhj o o n V V |
  1
<0:;8: {rn rn {rn {mki {lki {lkh {lkg -:):-,:; {nfm {rn |
  1
<0:;8: {rn rn {rn {lkf {min {mki {mfg 90-(>-; {mnn {rn |
  1
:;8: {ljo rn {rn {mij roqgjflhj {ljn o {mfh {lkk 90-(>-; _h *1410(1 |
  1
<0:;8: {rn rn {rn {ljm {mkh {ljl {ljk 90-(>-; {nfm {rn |
  1
<0:;8: {rn rn {rn {mkh {mfo {ljj {lji -:):-,:; {nfm {rn |
  1
<0:;8: {rn rn {rn {ljh {ljg {mkh {lom -:):-,:; {ljf {rn |
  1
:;8: {lio rn {rn {lin roqklhj {lim roqmgnmj {mkh {lil 90-(>-; _h *1410(1 |
  1
92:,7r:&:r>++-6= {rn rn {lik {rn {mkg |
  1
9><: {lij rn {rn {lii {lih {h {rn {lig 90-(>-; ,6183: |
  1
/3>1:r,*-9><: {rn rn {rn nqhgnmj roqhnmjoooooooooooom oqghj n o o o o rn 90-(>-;@) V V V V |
  1
/+36,+r:&:r>++-6= {rn rn {rn {rn {mjl |
  1
):-+:' {rn rn {rn {mhf n {lif |
  1
,+->687+r<*-): {rn rn {rn nqkjhglnimohjlojhf roqonfhhmomfigmjhjngh mqimj o o rn V V |
  1
/:-,*=:1+r><>;L036;W6,+0-&r>++-6= {rn rn {rn {mjh {nig n n k o |
  1
-:9@)+r:&:r>++-6= {rn rn {lho {mjg {mno {k {j |
  1
92:,7r:&:r>++-6= {rn rn {lhn {rn {mjf |
  1
9><: {lhm rn {rn {lhl {lhk {h {rn {lhj -:):-,:; ,6183: |
  1
300/ {rn rn {rn {rn {ljl {mjf |
  1
/3>1:r,*-9><: {rn rn {rn o rnqkmjooooooooooool oqnjimj ro o n n ro o 90-(>-;@) V V V V |
  1
<0:;8: {rn rn {rn {lhi {mfn {mim {lnh 90-(>-; {mio {rn |
  1
<0:;8: {rn rn {rn {min {lkf {llo {lhh 90-(>-; {mnn {rn |
  1
:;8: {lhg rn {rn {mfk rnqhgnmj {llh o {lnj {lhf 90-(>-; _h *1410(1 |
  1
/+36,+r:&:r>++-6= {rn rn {rn {rn {mil |
  1
):-+:' {rn rn {rn {lhh n {lgo |
  1
,+->687+r<*-): {rn rn {rn o oqnimjoooooooooooof nqhj n ro o V V |
  1
/061+ {rn rn {rn nqhgnmj oqnimjoooooooooooof nqhj |
  1
/:-,*=:1+r><>;L036;W6,+0-&r>++-6= {rn rn {lgn {mig {nhj n k nooooooooo n |
  1
<0:;8: {rn rn {rn {mif {mhn {mho {lmk -:):-,:; {mnf {rn |
  1
:;8: {lgm rn {rn {loh rnqjhohfilmihfkgfii {mhk nqjhohfilmihfkgfii {mho {lgl 90-(>-; _h *1410(1 |
  1
/+36,+r:&:r>++-6= {rn rn {rn {rn {mhm |
  1
,+->687+r<*-): {rn rn {rn nqhlhglnimohjlojhl roqonfhhmomfigmjhjngh mqimj o rn o V V |
  1
/061+ {rn rn {rn nqhlhglnimohjlojhl roqonfhhmomfigmjhjngh mqimj |
  1
/+36,+r:&:r>++-6= {rn rn {rn {rn {mhf |
  1
,+->687+r<*-): {rn rn {rn nqkjhglnimohjlojhf roqmmkhhmomfigmjhjmi mqimj o n o V V |
  1
<0:;8: {rn rn {rn {lgk {mgn {lni {lhh -:):-,:; {mgl {rn |
  1
<0:;8: {rn rn {rn {mgm {lgj {lhi {lgi -:):-,:; {mgl {rn |
  1
<0:;8: {rn rn {rn {lgh {lgg {lgf {lfo 90-(>-; {mgl {rn |
  1
9><: {lfn rn {rn {rn {mgl {h {rn {lfm -:):-,:; ,6183: |
  1
/+36,+r:&:r>++-6= {rn rn {rn {rn {mgi |
  1
,+->687+r<*-): {rn rn {rn o oqnimjoooooooooooof nqhj o o n V V |
  1
/+36,+r:&:r>++-6= {rn rn {rn {rn {mgg |
  1
):-+:' {rn rn {rn {lgi o {lfl |
  1
,+->687+r<*-): {rn rn {rn o rnqjghkffffffffffff mqlhj o o rn V V |
  1
<0:;8: {rn rn {rn {lfk {lfj {mfo {lko 90-(>-; {lfi {rn |
  1
:;8: {lfh rn {rn {lfg rnqhj {lkl o {llf {lff 90-(>-; _h *1410(1 |
  1
<0:;8: {rn rn {rn {mfn {lhi {lfk {koo 90-(>-; {mio {rn |
  1
/+36,+r:&:r>++-6= {rn rn {rn {rn {mfm |
  1
):-+:' {rn rn {rn {koo n {kon |
  1
,+->687+r<*-): {rn rn {rn nqhgnmj nqomnghjooooooooon nqhj o n o V V |
  1
/061+ {rn rn {rn nqhgnmj rnqjghkffffffffffff nqhj |
  1
<0:;8: {rn rn {rn {mfi {ljm {kom {kol -:):-,:; {nfm {rn |
  1
<0:;8: {rn rn {rn {kok {koj {mfi {lkg 90-(>-; {koi {rn |
  1
:;8: {koh rn {rn {ljn rnqhj {kog ro {lkh {kof 90-(>-; _h *1410(1 |
  1
<0:;8: {rn rn {rn {lni {mfh {koj {kno -:):-,:; {mnn {rn |
  1
/+36,+r:&:r>++-6= {rn rn {rn {rn {mfg |
  1
):-+:' {rn rn {rn {kno n {knn |
  1
<0:;8: {rn rn {rn {lki {mff {knm {knl 90-(>-; {nfm {rn |
  1
<0:;8: {rn rn {rn {knk {knj {mff {ljk -:):-,:; {lnl {rn |
  1
:;8: {kni rn {rn {lim roqljimjoooooooooong {knh nqoighjoooooooooon {mff {kng 90-(>-; _h *1410(1 |
  1
<0:;8: {rn rn {rn {knf {kmo {loo {lji 90-(>-; {kmn {rn |
  1
:;8: {kmm rn {rn {lin rnqomnghkfffffffffi {lfg ro {ljj {kml 90-(>-; _h *1410(1 |
  1
<0:;8: {rn rn {rn {lgf {lon {kmo {kmk -:):-,:; {ljf {rn |
  1
<0:;8: {rn rn {rn {lon {lgf {knk {kmj 90-(>-; {ljf {rn |
  1
300/ {rn rn {rn {rn {lon {lhl |
  1
/+36,+r:&:r>++-6= {rn rn {rn {rn {lom |
  1
):-+:' {rn rn {rn {lji o {kmi |
  1
):-+:' {rn rn {rn {ljk o {kmh |
  1
,+->687+r<*-): {rn rn {rn nqhgnmj rnqkmjooooooooooool oqklhj ro o n V V |
  1
-:9@)+r:&:r>++-6= {rn rn {kmg {lol {mkg {k {j |
  1
92:,7r:&:r>++-6= {rn rn {kmf {rn {lok |
  1
9><: {klo rn {rn {kln {koi {h {rn {klm 90-(>-; ,6183: |
  1
300/ {rn rn {rn {rn {kll {lok |
  1
/3>1:r,*-9><: {rn rn {rn o nqomnghjooooooooon o o o rn rn o o 90-(>-;@) V V V V |
  1
/061+ {rn rn {rn nqkjhglnimohjlojhf roqonfhhmomfigmjhjngh mqimj |
  1
/:-,*=:1+r><>;L036;W6,+0-&r>++-6= {rn rn {rn {lno {mno n n k o |
  1
-:9@)+r:&:r>++-6= {rn rn {klk {lnn {mjf {k {j |
  1
92:,7r:&:r>++-6= {rn rn {klj {rn {lnm |
  1
9><: {kli rn {rn {mkg {ljf {h {rn {klh -:):-,:; ,6183: |
  1
300/ {rn rn {rn {rn {knm {lnm |
  1
/3>1:r,*-9><: {rn rn {rn o o oqnjimj o n o o o n 90-(>-;@) V V V V |
  1
<0:;8: {rn rn {rn {lkn {lnj {lln {lgi 90-(>-; {mio {rn |
  1
:;8: {klg rn {rn {klf o {lnf oqgjflhj {lni {kko 90-(>-; _h *1410(1 |
  1
/+36,+r:&:r>++-6= {rn rn {rn {rn {lnh |
  1
,+->687+r<*-): {rn rn {rn o rnqjghkffffffffffff nqhj rn ro o V V |
  1
/061+ {rn rn {rn o oqnimjoooooooooooof nqhj |
  1
1>2:@>++-6=r8:1r>++-6= {rn rn {rn {lmm {nhj 30,: 30,: >//3& <0/& _ni ,(::/@,+>-+@9><: |
  1
/+36,+r:&:r>++-6= {rn rn {rn {rn {lmk |
  1
:336/,:r<*-): {rn rn {rn nqjfhglnimohjlojhi roqonfhhmomfigmjhjngh mqimj ro ro rn o oqnlfffffffffffffig o n V V |
  1
<0:;8: {rn rn {rn {kkn {llo {kkm {kkl -:):-,:; {mgl {rn |
  1
<0:;8: {rn rn {rn {lln {lgh {kkk {kkj -:):-,:; {mgl {rn |
  1
:;8: {kki rn {rn {llh mqioflhj {kkh lqkighj {lhi {kko 90-(>-; _h *1410(1 |
  1
<0:;8: {rn rn {rn {lgj {llm {kkg {kkf -:):-,:; {mgl {rn |
  1
<0:;8: {rn rn {rn {llm {kjo {kjn {kjm 90-(>-; {mgl {rn |
  1
<0:;8: {rn rn {rn {ljg {ljh {llm {lfo -:):-,:; {ljf {rn |
  1
:;8: {kjl rn {rn {kjk oqmgnmj {kjj oqklhj {llm {kji 90-(>-; _h *1410(1 |
  1
92:,7r:&:r>++-6= {rn rn {kjh {rn {lll |
  1
/3>1:r,*-9><: {rn rn {rn o roqhnmjoooooooooooom oqghj n o o o o rn 90-(>-;@) V V V V |
  1
/061+ {rn rn {rn o rnqjghkffffffffffff nqhj |
  1
<0:;8: {rn rn {rn {kkk {llf {lkn {koo -:):-,:; {lfi {rn |
  1
<0:;8: {rn rn {rn {llf {kkk {knf {kjg 90-(>-; {lfi {rn |
  1
300/ {rn rn {rn {rn {llf {kjf |
  1
/+36,+r:&:r>++-6= {rn rn {rn {rn {lko |
  1
):-+:' {rn rn {rn {kjg n {kio |
  1
,+->687+r<*-): {rn rn {rn nqhgnmj rmqkkighkffffffffff nqhj o o n V V |
  1
:;8: {kin rn {rn {kkh o {lkl nqhgnmj {lkn {kim 90-(>-; _h *1410(1 |
  1
/061+ {rn rn {rn nqhgnmj rmqkkighkffffffffff nqhj |
  1
<0:;8: {rn rn {rn {kll {kil {lki {kol 90-(>-; {lih {rn |
  1
:;8: {kik rn {rn {kog rlqkighj {kij rmqkkighkffffffffff {kom {kml 90-(>-; _h *1410(1 |
  1
<0:;8: {rn rn {rn {kkm {lkh {kil {kii -:):-,:; {koi {rn |
  1
<0:;8: {rn rn {rn {lkh {kkm {lkf {kno 90-(>-; {koi {rn |
  1
300/ {rn rn {rn {rn {lkh {lii |
  1
/+36,+r:&:r>++-6= {rn rn {rn {rn {lkg |
  1
):-+:' {rn rn {rn {kii n {kih |
  1
,+->687+r<*-): {rn rn {rn nqhgnmj nqomnghjooooooooon o ro ro rn V V |
  1
:;8: {kig rn {rn {klf o {ljn nqhgnmj {koj {kif 90-(>-; _h *1410(1 |
  1
/061+ {rn rn {rn nqhgnmj nqomnghjooooooooon nqhj |
  1
<0:;8: {rn rn {rn {kho {khn {ljm {knl -:):-,:; {lhk {rn |
  1
:;8: {khm rn {rn {knh oqljflhj {kij oqjnjimj {ljm {khl 90-(>-; _h *1410(1 |
  1
<0:;8: {rn rn {rn {kjn {ljl {ljg {kmj -:):-,:; {lnl {rn |
  1
<0:;8: {rn rn {rn {ljl {kjn {kho {khk 90-(>-; {lnl {rn |
  1
/+36,+r:&:r>++-6= {rn rn {rn {rn {ljk |
  1
):-+:' {rn rn {rn {ljk n {khj |
  1
,+->687+r<*-): {rn rn {rn nqhgnmj rnqoighjoooooooooon oqnjimj o n ro V V |
  1
<0:;8: {rn rn {rn {kkg {ljj {lfj {kjg -:):-,:; {kmn {rn |
  1
<0:;8: {rn rn {rn {ljj {kkg {ljh {kmk 90-(>-; {kmn {rn |
  1
300/ {rn rn {rn {rn {kmo {kln |
  1
/+36,+r:&:r>++-6= {rn rn {rn {rn {lji |
  1
,+->687+r<*-): {rn rn {rn nqhgnmj rmqkkighkffffffffff o ro rn ro V V |
  1
:;8: {khi rn {rn {kjj o {lin nqhgnmj {kmo {khh 90-(>-; _h *1410(1 |
  1
:;8: {khg rn {rn {kjk o {lim nqhgnmj {knk {khf 90-(>-; _h *1410(1 |
  1
/061+ {rn rn {rn nqhgnmj rnqkmjooooooooooool o |
  1
/061+ {rn rn {rn nqhgnmj rnqkmjooooooooooool oqnjimj |
  1
/:-,*=:1+r><>;L036;W6,+0-&r>++-6= {rn rn {rn {lik {mkg m n nooooooooo m l nooooooooo m |
  1
-:9@)+r:&:r>++-6= {rn rn {kgo {lij {lok {k {j |
  1
92:,7r:&:r>++-6= {rn rn {kgn {rn {lii |
  1
9><: {kgm rn {rn {kjf {kmn {h {rn {lig 90-(>-; ,6183: |
  1
/3>1:r,*-9><: {rn rn {rn o nqomnghjooooooooon nqhj o n o o o n 90-(>-;@) V V V V |
  1
<0:;8: {rn rn {rn {kgl {kom {khn {kgk 90-(>-; {lih {rn |
  1
/:-,*=:1+r><>;L036;W6,+0-&r>++-6= {rn rn {rn {lhn {mjf n m k o |
  1
-:9@)+r:&:r>++-6= {rn rn {kgj {lhm {lnm {k {j |
  1
92:,7r:&:r>++-6= {rn rn {kgi {rn {lhl |
  1
/3>1:r,*-9><: {rn rn {rn o rnqkmjooooooooooool o o rn o o o rn 90-(>-;@) V V V V |
  1
/+36,+r:&:r>++-6= {rn rn {rn {rn {lhh |
  1
):-+:' {rn rn {rn {kkl n {kgh |
  1
,+->687+r<*-): {rn rn {rn o nqomnghjooooooooon nqhj o rn o V V |
  1
<0:;8: {rn rn {rn {kjo {lgk {kgl {kgg -:):-,:; {mgl {rn |
  1
<0:;8: {rn rn {rn {koj {kok {lgk {kkl 90-(>-; {koi {rn |
  1
:;8: {kgf rn {rn {kfo o {klf nqhj {kkm {kfn 90-(>-; _h *1410(1 |
  1
<0:;8: {rn rn {rn {lfj {lfk {lgj {kkj 90-(>-; {lfi {rn |
  1
:;8: {kfm rn {rn {kkh o {kfl nqhj {kkk {kfk 90-(>-; _h *1410(1 |
  1
/+36,+r:&:r>++-6= {rn rn {rn {rn {lgi |
  1
):-+:' {rn rn {rn {kkj o {kfj |
  1
<0:;8: {rn rn {rn {kmo {knf {lgh {kkf 90-(>-; {kmn {rn |
  1
:;8: {kfi rn {rn {kfl o {kjj nqomnghkfffffffffi {kkg {kfh 90-(>-; _h *1410(1 |
  1
<0:;8: {rn rn {rn {lgg {kkn {kfg {kff 90-(>-; {mgl {rn |
  1
<0:;8: {rn rn {rn {knj {knk {lgg {kjm -:):-,:; {lnl {rn |
  1
:;8: {joo rn {rn {jon rnqoighjoooooooooon {kjk oqljimjoooooooooong {lgg {jom 90-(>-; _h *1410(1 |
  1
/+36,+r:&:r>++-6= {rn rn {rn {rn {lfo |
  1
):-+:' {rn rn {rn {kjm n {jol |
  1
):-+:' {rn rn {rn {kmk o {jok |
  1
,+->687+r<*-): {rn rn {rn o rnqkmjooooooooooool oqklhj o o rn V V |
  1
-:9@)+r:&:r>++-6= {rn rn {joj {lfn {lll {k {j |
  1
:;8: {joi rn {rn {kfl o {lfg nqhgnmj {lfj {joh 90-(>-; _h *1410(1 |
  1
9><: {jog rn {rn {lll {lfi {h {rn {jof 90-(>-; ,6183: |
  1
/061+ {rn rn {rn nqhgnmj rmqkkighkffffffffff o |
  1
/+36,+r:&:r>++-6= {rn rn {rn {rn {koo |
  1
,+->687+r<*-): {rn rn {rn o rmqkkighkffffffffff nqhj n o o V V |
  1
<0:;8: {rn rn {rn {kom {kgl {kok {kii 90-(>-; {lih {rn |
  1
/+36,+r:&:r>++-6= {rn rn {rn {rn {kol |
  1
):-+:' {rn rn {rn {kgk o {jno |
  1
:;8: {jnn rn {rn {kfo o {kog nqhgnmj {kil {jnm 90-(>-; _h *1410(1 |
  1
/061+ {rn rn {rn nqhgnmj nqomnghjooooooooon o |
  1
/+36,+r:&:r>++-6= {rn rn {rn {rn {kno |
  1
,+->687+r<*-): {rn rn {rn o nqomnghjooooooooon nqhj n o o V V |
  1
<0:;8: {rn rn {rn {kfg {knm {knj {khk -:):-,:; {lhk {rn |
  1
<0:;8: {rn rn {rn {knm {kfg {kll {kgk -:):-,:; {lhk {rn |
  1
/+36,+r:&:r>++-6= {rn rn {rn {rn {knl |
  1
,+->687+r<*-): {rn rn {rn nqhgnmj o oqjnjimj o o rn V V |
  1
:;8: {jnl rn {rn {jon o {knh nqhgnmj {kho {jnk 90-(>-; _h *1410(1 |
  1
/061+ {rn rn {rn nqhgnmj o oqnjimj |
  1
/+36,+r:&:r>++-6= {rn rn {rn {rn {kmk |
  1
,+->687+r<*-): {rn rn {rn o rnqkmjooooooooooool o n o o V V |
  1
/+36,+r:&:r>++-6= {rn rn {rn {rn {kmj |
  1
,+->687+r<*-): {rn rn {rn o rnqkmjooooooooooool oqnjimj n o o V V |
  1
/:-,*=:1+r><>;L036;W6,+0-&r>++-6= {rn rn {rn {kmf {lok n n m o |
  1
-:9@)+r:&:r>++-6= {rn rn {jnj {klo {lii {k {j |
  1
92:,7r:&:r>++-6= {rn rn {jni {rn {kln |
  1
<0:;8: {rn rn {rn {kil {kll {kkn {kgg 90-(>-; {lih {rn |
  1
:;8: {jnh rn {rn {kij rnqhgnmj {jng o {kll {jnf 90-(>-; _h *1410(1 |
  1
/:-,*=:1+r><>;L036;W6,+0-&r>++-6= {rn rn {rn {klj {lnm n m l o |
  1
-:9@)+r:&:r>++-6= {rn rn {jmo {kli {lhl {k {j |
  1
/061+ {rn rn {rn o nqomnghjooooooooon nqhj |
  1
:;8: {jmn rn {rn {jng mqkkighkffffffffff {kfo lqkighj {kgl {kfh 90-(>-; _h *1410(1 |
  1
/+36,+r:&:r>++-6= {rn rn {rn {rn {kkl |
  1
):-+:' {rn rn {rn {kgg n {jmm |
  1
,+->687+r<*-): {rn rn {rn o nqomnghjooooooooon o o o n V V |
  1
/+36,+r:&:r>++-6= {rn rn {rn {rn {kkj |
  1
):-+:' {rn rn {rn {kkj n {jml |
  1
,+->687+r<*-): {rn rn {rn o rmqkkighkffffffffff nqhj o o rn V V |
  1
/061+ {rn rn {rn o rmqkkighkffffffffff nqhj |
  1
/+36,+r:&:r>++-6= {rn rn {rn {rn {kkf |
  1
,+->687+r<*-): {rn rn {rn o rmqkkighkffffffffff o o n o V V |
  1
<0:;8: {rn rn {rn {khn {kho {kjo {kff -:):-,:; {lhk {rn |
  1
:;8: {jmk rn {rn {jng roqjnjimj {jon roqljflhj {kjo {jmj 90-(>-; _h *1410(1 |
  1
/+36,+r:&:r>++-6= {rn rn {rn {rn {kjm |
  1
):-+:' {rn rn {rn {kjm o {jmi |
  1
,+->687+r<*-): {rn rn {rn o rnqoighjoooooooooon oqnjimj o rn o V V |
  1
/061+ {rn rn {rn o rnqkmjooooooooooool oqnjimj |
  1
/061+ {rn rn {rn o rnqkmjooooooooooool o |
  1
/:-,*=:1+r><>;L036;W6,+0-&r>++-6= {rn rn {rn {kjh {lll m n nooooooooo n l nooooooooo n |
  1
/+36,+r:&:r>++-6= {rn rn {rn {rn {kjg |
  1
,+->687+r<*-): {rn rn {rn o rmqkkighkffffffffff o n o o V V |
  1
92:,7r:&:r>++-6= {rn rn {jmh {rn {kjf |
  1
/3>1:r,*-9><: {rn rn {rn o rmqkkighkffffffffff o o rn o o o rn 90-(>-;@) V V V V |
  1
/061+ {rn rn {rn nqhgnmj o o |
  1
/+36,+r:&:r>++-6= {rn rn {rn {rn {kii |
  1
,+->687+r<*-): {rn rn {rn o nqomnghjooooooooon o n o o V V |
  1
/+36,+r:&:r>++-6= {rn rn {rn {rn {khk |
  1
,+->687+r<*-): {rn rn {rn o o oqnjimj n o o V V |
  1
/:-,*=:1+r><>;L036;W6,+0-&r>++-6= {rn rn {rn {kgn {lii n n l o |
  1
-:9@)+r:&:r>++-6= {rn rn {jmg {kgm {kln {k {j |
  1
/+36,+r:&:r>++-6= {rn rn {rn {rn {kgk |
  1
):-+:' {rn rn {rn {kgg o {jmf |
  1
,+->687+r<*-): {rn rn {rn o o o rn o o V V |
  1
/:-,*=:1+r><>;L036;W6,+0-&r>++-6= {rn rn {rn {kgi {lhl n m n o |
  1
/+36,+r:&:r>++-6= {rn rn {rn {rn {kgg |
  1
/061+ {rn rn {rn o nqomnghjooooooooon o |
  1
/061+ {rn rn {rn o rmqkkighkffffffffff o |
  1
/+36,+r:&:r>++-6= {rn rn {rn {rn {kff |
  1
,+->687+r<*-): {rn rn {rn o o oqjnjimj o o n V V |
  1
/061+ {rn rn {rn o o oqnjimj |
  1
-:9@)+r:&:r>++-6= {rn rn {jlo {jog {kjf {k {j |
  1
/:-,*=:1+r><>;L036;W6,+0-&r>++-6= {rn rn {rn {jni {kln n n m o |
  1
/061+ {rn rn {rn o o o |
  1
/:-,*=:1+r><>;L036;W6,+0-&r>++-6= {rn rn {rn {jmh {kjf n n n o |
100
AcDb3dSolid
350
F385
  0
3DFACE
  5
F397
330
F02E
100
AcDbEntity
  8
0
100
AcDbFace
 10
1.78125
 20
-1.587499999999999
 30
1.75
 11
1.78125
 21
-1.587499999999999
 31
1.75
 12
0.0
 22
-1.587499999999999
 32
1.75
 13
0.0
 23
-1.587499999999999
 33
1.75
  0
LWPOLYLINE
  5
F512
330
F02E
100
AcDbEntity
  8
0
100
AcDbPolyline
 90
        6
 70
     0
 43
0.0
 38
1.79375
 10
0.3199999999999998
 20
0.7145430335095871
 10
0.3199999999999998
 20
0.5980000000000001
 10
0.3799999999999999
 20
0.5980000000000003
 10
0.3799999999999999
 20
0.558
 10
0.3199999999999998
 20
0.5580000000000006
 10
0.3199999999999998
 20
0.4414569664904136
  0
LWPOLYLINE
  5
F513
330
F02E
100
AcDbEntity
  8
0
100
AcDbPolyline
 90
        6
 70
     0
 43
0.0
 38
1.79375
 10
0.2799999999999998
 20
0.7145430335095871
 10
0.2799999999999998
 20
0.5980000000000001
 10
0.2199999999999997
 20
0.5980000000000003
 10
0.2199999999999997
 20
0.558
 10
0.2799999999999998
 20
0.5580000000000006
 10
0.2799999999999998
 20
0.4414569664904136
  0
LWPOLYLINE
  5
F514
330
F02E
100
AcDbEntity
  8
0
100
AcDbPolyline
 90
        6
 70
     0
 43
0.0
 38
1.79375
 10
0.8199999999999999
 20
0.7145430335095871
 10
0.8199999999999999
 20
0.5980000000000001
 10
0.8799999999999998
 20
0.5980000000000003
 10
0.8799999999999998
 20
0.558
 10
0.8199999999999999
 20
0.5580000000000006
 10
0.8199999999999999
 20
0.4414569664904136
  0
LWPOLYLINE
  5
F515
330
F02E
100
AcDbEntity
  8
0
100
AcDbPolyline
 90
        6
 70
     0
 43
0.0
 38
1.79375
 10
0.7799999999999998
 20
0.7145430335095871
 10
0.7799999999999998
 20
0.5980000000000001
 10
0.7199999999999998
 20
0.5980000000000003
 10
0.7199999999999998
 20
0.558
 10
0.7799999999999998
 20
0.5580000000000006
 10
0.7799999999999998
 20
0.4414569664904136
  0
LWPOLYLINE
  5
F516
330
F02E
100
AcDbEntity
  8
0
100
AcDbPolyline
 90
        6
 70
     0
 43
0.0
 38
1.79375
 10
1.319999999999999
 20
0.7145430335095871
 10
1.319999999999999
 20
0.5980000000000001
 10
1.379999999999999
 20
0.5980000000000003
 10
1.379999999999999
 20
0.558
 10
1.319999999999999
 20
0.5580000000000006
 10
1.319999999999999
 20
0.4414569664904136
  0
LWPOLYLINE
  5
F517
330
F02E
100
AcDbEntity
  8
0
100
AcDbPolyline
 90
        6
 70
     0
 43
0.0
 38
1.79375
 10
1.279999999999999
 20
0.7145430335095871
 10
1.279999999999999
 20
0.5980000000000001
 10
1.219999999999999
 20
0.5980000000000003
 10
1.219999999999999
 20
0.558
 10
1.279999999999999
 20
0.5580000000000006
 10
1.279999999999999
 20
0.4414569664904136
  0
LWPOLYLINE
  5
F518
330
F02E
100
AcDbEntity
  8
0
100
AcDbPolyline
 90
        6
 70
     0
 43
0.0
 38
1.79375
 10
0.3199999999999998
 20
-1.866456966490412
 10
0.3199999999999998
 20
-1.982999999999999
 10
0.3799999999999999
 20
-1.982999999999999
 10
0.3799999999999999
 20
-2.022999999999999
 10
0.3199999999999998
 20
-2.022999999999999
 10
0.3199999999999998
 20
-2.139543033509586
  0
LWPOLYLINE
  5
F519
330
F02E
100
AcDbEntity
  8
0
100
AcDbPolyline
 90
        6
 70
     0
 43
0.0
 38
1.79375
 10
0.2799999999999998
 20
-1.866456966490412
 10
0.2799999999999998
 20
-1.982999999999999
 10
0.2199999999999997
 20
-1.982999999999999
 10
0.2199999999999997
 20
-2.022999999999999
 10
0.2799999999999998
 20
-2.022999999999999
 10
0.2799999999999998
 20
-2.139543033509586
  0
LWPOLYLINE
  5
F51A
330
F02E
100
AcDbEntity
  8
0
100
AcDbPolyline
 90
        6
 70
     0
 43
0.0
 38
1.79375
 10
0.8199999999999999
 20
-1.866456966490412
 10
0.8199999999999999
 20
-1.982999999999999
 10
0.8799999999999998
 20
-1.982999999999999
 10
0.8799999999999998
 20
-2.022999999999999
 10
0.8199999999999999
 20
-2.022999999999999
 10
0.8199999999999999
 20
-2.139543033509586
  0
LWPOLYLINE
  5
F51B
330
F02E
100
AcDbEntity
  8
0
100
AcDbPolyline
 90
        6
 70
     0
 43
0.0
 38
1.79375
 10
0.7799999999999998
 20
-1.866456966490412
 10
0.7799999999999998
 20
-1.982999999999999
 10
0.7199999999999998
 20
-1.982999999999999
 10
0.7199999999999998
 20
-2.022999999999999
 10
0.7799999999999998
 20
-2.022999999999999
 10
0.7799999999999998
 20
-2.139543033509586
  0
LWPOLYLINE
  5
F51C
330
F02E
100
AcDbEntity
  8
0
100
AcDbPolyline
 90
        6
 70
     0
 43
0.0
 38
1.79375
 10
1.319999999999999
 20
-1.866456966490412
 10
1.319999999999999
 20
-1.982999999999999
 10
1.379999999999999
 20
-1.982999999999999
 10
1.379999999999999
 20
-2.022999999999999
 10
1.319999999999999
 20
-2.022999999999999
 10
1.319999999999999
 20
-2.139543033509586
  0
LWPOLYLINE
  5
F51D
330
F02E
100
AcDbEntity
  8
0
100
AcDbPolyline
 90
        6
 70
     0
 43
0.0
 38
1.79375
 10
1.279999999999999
 20
-1.866456966490412
 10
1.279999999999999
 20
-1.982999999999999
 10
1.219999999999999
 20
-1.982999999999999
 10
1.219999999999999
 20
-2.022999999999999
 10
1.279999999999999
 20
-2.022999999999999
 10
1.279999999999999
 20
-2.139543033509586
  0
ENDSEC
  0
SECTION
  2
OBJECTS
  0
DICTIONARY
  5
F01C
330
0
100
AcDbDictionary
281
     1
  3
ACAD_BACKGROUND
350
F34A
  3
ACAD_COLOR
350
F321
  3
ACAD_GROUP
350
F01D
  3
ACAD_LAYOUT
350
F029
  3
ACAD_MATERIAL
350
F2F7
  3
ACAD_MLEADERSTYLE
350
F346
  3
ACAD_MLINESTYLE
350
F026
  3
ACAD_PERSUBENTMGR
350
F394
  3
ACAD_PLOTSETTINGS
350
F028
  3
ACAD_PLOTSTYLENAME
350
F01E
  3
ACAD_SCALELIST
350
F324
  3
ACAD_TABLESTYLE
350
F322
  3
ACAD_VISUALSTYLE
350
F310
  3
ACDB_RECOMPOSE_DATA
350
F362
  3
AcDbVariableDictionary
350
F363
  0
DICTIONARY
  5
F356
330
F020
100
AcDbDictionary
280
     1
281
     1
  3
ADSK_XREC_LAYER_RECONCILED
360
F357
  0
DICTIONARY
  5
F358
330
F034
100
AcDbDictionary
280
     1
281
     1
  3
ADSK_XREC_LAYER_RECONCILED
360
F359
  0
DICTIONARY
  5
F35A
330
F06C
100
AcDbDictionary
280
     1
281
     1
  3
ADSK_XREC_LAYER_RECONCILED
360
F35B
  0
DICTIONARY
  5
F35C
330
F06D
100
AcDbDictionary
280
     1
281
     1
  3
ADSK_XREC_LAYER_RECONCILED
360
F35D
  0
DICTIONARY
  5
F35E
330
F06E
100
AcDbDictionary
280
     1
281
     1
  3
ADSK_XREC_LAYER_RECONCILED
360
F35F
  0
DICTIONARY
  5
F0A7
330
F02E
100
AcDbDictionary
280
     1
281
     1
  3
ACAD_LAYOUTSELFREF
360
F2E1
  3
ACAD_SORTENTS
360
F37A
  0
DICTIONARY
  5
F0A9
330
F02A
100
AcDbDictionary
280
     1
281
     1
  3
ACAD_LAYOUTSELFREF
360
F2E0
  0
ACSH_HISTORY_CLASS
  5
F385
330
F382
100
AcDbShHistory
 90
       27
 91
       25
360
F384
 92
        9
280
     0
281
     1
  0
DICTIONARY
  5
F34A
102
{ACAD_REACTORS
330
F01C
102
}
330
F01C
100
AcDbDictionary
281
     1
  0
DICTIONARY
  5
F321
102
{ACAD_REACTORS
330
F01C
102
}
330
F01C
100
AcDbDictionary
281
     1
  0
DICTIONARY
  5
F01D
102
{ACAD_REACTORS
330
F01C
102
}
330
F01C
100
AcDbDictionary
281
     1
  0
DICTIONARY
  5
F029
102
{ACAD_REACTORS
330
F01C
102
}
330
F01C
100
AcDbDictionary
281
     1
  3
Layout1
350
F02D
  3
Model
350
F031
  0
DICTIONARY
  5
F2F7
102
{ACAD_REACTORS
330
F01C
102
}
330
F01C
100
AcDbDictionary
281
     1
  3
ByBlock
350
F300
  3
ByLayer
350
F2F8
  3
Global
350
F308
  0
DICTIONARY
  5
F346
102
{ACAD_REACTORS
330
F01C
102
}
330
F01C
100
AcDbDictionary
281
     1
  3
Standard
350
F347
  0
DICTIONARY
  5
F026
102
{ACAD_REACTORS
330
F01C
102
}
330
F01C
100
AcDbDictionary
281
     1
  3
Standard
350
F027
  0
ACDBPERSSUBENTMANAGER
  5
F394
102
{ACAD_REACTORS
330
F01C
102
}
330
F01C
100
AcDbPersSubentManager
 90
        2
 90
        0
 90
        2
 90
        5
 90
        0
 90
        5
 90
        1
 90
        2
 90
        3
 90
        4
 90
        5
  0
DICTIONARY
  5
F028
102
{ACAD_REACTORS
330
F01C
102
}
330
F01C
100
AcDbDictionary
281
     1
  0
ACDBDICTIONARYWDFLT
  5
F01E
102
{ACAD_REACTORS
330
F01C
102
}
330
F01C
100
AcDbDictionary
281
     1
  3
Normal
350
F01F
100
AcDbDictionaryWithDefault
340
F01F
  0
DICTIONARY
  5
F324
102
{ACAD_REACTORS
330
F01C
102
}
330
F01C
100
AcDbDictionary
281
     1
  3
A0
350
F325
  3
A1
350
F326
  3
A2
350
F327
  3
A3
350
F328
  3
A4
350
F329
  3
A5
350
F32A
  3
A6
350
F32B
  3
A7
350
F32C
  3
A8
350
F32D
  3
A9
350
F32E
  3
B0
350
F32F
  3
B1
350
F330
  3
B2
350
F331
  3
B3
350
F332
  3
B4
350
F333
  3
B5
350
F334
  3
B6
350
F335
  3
B7
350
F336
  3
B8
350
F337
  3
B9
350
F338
  3
C0
350
F339
  3
C1
350
F33A
  3
C2
350
F33B
  3
C3
350
F33C
  3
C4
350
F33D
  3
C5
350
F33E
  3
C6
350
F33F
  3
C7
350
F340
  3
C8
350
F341
  3
C9
350
F342
  3
D0
350
F343
  3
D1
350
F344
  3
D2
350
F345
  0
DICTIONARY
  5
F322
102
{ACAD_REACTORS
330
F01C
102
}
330
F01C
100
AcDbDictionary
281
     1
  3
Standard
350
F323
  0
DICTIONARY
  5
F310
102
{ACAD_REACTORS
330
F01C
102
}
330
F01C
100
AcDbDictionary
281
     1
  3
2dWireframe
350
F316
  3
3D Hidden
350
F318
  3
3dWireframe
350
F317
  3
Basic
350
F315
  3
Brighten
350
F31C
  3
ColorChange
350
F320
  3
Conceptual
350
F319
  3
Dim
350
F31B
  3
Facepattern
350
F31F
  3
Flat
350
F311
  3
FlatWithEdges
350
F312
  3
Gouraud
350
F313
  3
GouraudWithEdges
350
F314
  3
Linepattern
350
F31E
  3
Realistic
350
F31A
  3
Thicken
350
F31D
  0
XRECORD
  5
F362
102
{ACAD_REACTORS
330
F01C
102
}
330
F01C
100
AcDbXrecord
280
     1
 90
        1
330
F323
  0
DICTIONARY
  5
F363
102
{ACAD_REACTORS
330
F01C
102
}
330
F01C
100
AcDbDictionary
281
     1
  3
CANNOSCALE
350
F367
  3
CMLEADERSTYLE
350
F365
  3
CTABLESTYLE
350
F364
  3
LIGHTINGUNITS
350
F368
  3
MSLTSCALE
350
F366
  0
XRECORD
  5
F357
102
{ACAD_REACTORS
330
F356
102
}
330
F356
100
AcDbXrecord
280
     1
290
     1
  0
XRECORD
  5
F359
102
{ACAD_REACTORS
330
F358
102
}
330
F358
100
AcDbXrecord
280
     1
290
     1
  0
XRECORD
  5
F35B
102
{ACAD_REACTORS
330
F35A
102
}
330
F35A
100
AcDbXrecord
280
     1
290
     1
  0
XRECORD
  5
F35D
102
{ACAD_REACTORS
330
F35C
102
}
330
F35C
100
AcDbXrecord
280
     1
290
     1
  0
XRECORD
  5
F35F
102
{ACAD_REACTORS
330
F35E
102
}
330
F35E
100
AcDbXrecord
280
     1
290
     1
  0
XRECORD
  5
F2E1
102
{ACAD_REACTORS
330
F0A7
102
}
330
F0A7
100
AcDbXrecord
280
     1
340
F02E
  0
SORTENTSTABLE
  5
F37A
102
{ACAD_REACTORS
330
F0A7
102
}
330
F0A7
100
AcDbSortentsTable
330
F02E
331
F00F
  5
F39A
331
F00E
  5
F399
331
F00D
  5
F398
331
F397
  5
F00F
331
F00C
  5
F397
331
F00B
  5
F396
331
F00A
  5
F38F
331
F009
  5
F38E
331
F008
  5
F38D
331
F007
  5
F38C
331
8367
  5
F376
331
F371
  5
8349
331
F382
  5
F39F
331
8366
  5
F375
331
F010
  5
F39B
331
8371
  5
F38B
331
8370
  5
F38A
331
836F
  5
F389
331
1605
  5
1605
331
836E
  5
F388
331
1604
  5
1604
331
836D
  5
F387
331
1603
  5
1603
331
836C
  5
F386
331
836B
  5
F382
331
1601
  5
1601
331
836A
  5
F379
331
F07D
  5
F39E
331
1600
  5
1600
331
8369
  5
F378
331
15FF
  5
15FF
331
8368
  5
F377
331
15FA
  5
15FA
331
15F9
  5
15F9
331
15F8
  5
15F8
331
15F7
  5
15F7
331
F04A
  5
F39D
331
F03B
  5
F39C
  0
XRECORD
  5
F2E0
102
{ACAD_REACTORS
330
F0A9
102
}
330
F0A9
100
AcDbXrecord
280
     1
340
F02A
  0
ACAD_EVALUATION_GRAPH
  5
F384
330
F385
100
AcDbEvalGraph
 96
        9
 97
        9
 91
        0
 93
       32
 95
        1
360
F383
 92
       -1
 92
       -1
 92
        0
 92
        0
 91
        1
 93
       32
 95
        2
360
F391
 92
       -1
 92
       -1
 92
        1
 92
        1
 91
        2
 93
       32
 95
        3
360
F395
 92
        0
 92
        1
 92
        2
 92
        2
 91
        3
 93
       32
 95
        4
360
F3A1
 92
       -1
 92
       -1
 92
        3
 92
        3
 91
        4
 93
       32
 95
        5
360
F3A5
 92
        2
 92
        3
 92
        4
 92
        4
 91
        5
 93
       32
 95
        6
360
F3BD
 92
       -1
 92
       -1
 92
        5
 92
        5
 91
        6
 93
       32
 95
        7
360
F3BE
 92
        4
 92
        5
 92
        6
 92
        6
 91
        7
 93
       32
 95
        8
360
F3B9
 92
       -1
 92
       -1
 92
        7
 92
        7
 91
        8
 93
       32
 95
        9
360
F3BF
 92
        6
 92
        7
 92
       -1
 92
       -1
 92
        0
 93
        0
 94
        1
 91
        0
 91
        2
 92
       -1
 92
        1
 92
       -1
 92
       -1
 92
       -1
 92
        1
 93
        0
 94
        1
 91
        1
 91
        2
 92
        0
 92
       -1
 92
       -1
 92
       -1
 92
       -1
 92
        2
 93
        0
 94
        1
 91
        2
 91
        4
 92
       -1
 92
        3
 92
       -1
 92
       -1
 92
       -1
 92
        3
 93
        0
 94
        1
 91
        3
 91
        4
 92
        2
 92
       -1
 92
       -1
 92
       -1
 92
       -1
 92
        4
 93
        0
 94
        1
 91
        4
 91
        6
 92
       -1
 92
        5
 92
       -1
 92
       -1
 92
       -1
 92
        5
 93
        0
 94
        1
 91
        5
 91
        6
 92
        4
 92
       -1
 92
       -1
 92
       -1
 92
       -1
 92
        6
 93
        0
 94
        1
 91
        6
 91
        8
 92
       -1
 92
        7
 92
       -1
 92
       -1
 92
       -1
 92
        7
 93
        0
 94
        1
 91
        7
 91
        8
 92
        6
 92
       -1
 92
       -1
 92
       -1
 92
       -1
  0
LAYOUT
  5
F02D
102
{ACAD_REACTORS
330
F029
102
}
330
F029
100
AcDbPlotSettings
  1

  2
QuickLink III
  4

  6

 40
0.0
 41
0.0
 42
0.0
 43
0.0
 44
0.0
 45
0.0
 46
0.0
 47
0.0
 48
0.0
 49
0.0
140
0.0
141
0.0
142
1.0
143
1.0
 70
   688
 72
     0
 73
     0
 74
     5
  7

 75
    16
147
1.0
 76
     0
 77
     2
 78
   300
148
0.0
149
0.0
100
AcDbLayout
  1
Layout1
 70
     1
 71
     1
 10
0.0
 20
0.0
 11
12.0
 21
9.0
 12
0.0
 22
0.0
 32
0.0
 14
1.000000000000000E+20
 24
1.000000000000000E+20
 34
1.000000000000000E+20
 15
-1.000000000000000E+20
 25
-1.000000000000000E+20
 35
-1.000000000000000E+20
146
0.0
 13
0.0
 23
0.0
 33
0.0
 16
1.0
 26
0.0
 36
0.0
 17
0.0
 27
1.0
 37
0.0
 76
     0
330
F02A
  0
LAYOUT
  5
F031
102
{ACAD_REACTORS
330
F029
102
}
330
F029
100
AcDbPlotSettings
  1

  2
QuickLink III
  4

  6

 40
0.0
 41
0.0
 42
0.0
 43
0.0
 44
0.0
 45
0.0
 46
0.0
 47
0.0
 48
0.0
 49
0.0
140
0.0
141
0.0
142
1.0
143
1.0
 70
  1712
 72
     0
 73
     0
 74
     0
  7

 75
     0
147
1.0
 76
     0
 77
     2
 78
   300
148
0.0
149
0.0
100
AcDbLayout
  1
Model
 70
     1
 71
     0
 10
0.0
 20
0.0
 11
12.0
 21
9.0
 12
0.0
 22
0.0
 32
0.0
 14
0.0
 24
0.0
 34
0.0
 15
0.0
 25
0.0
 35
0.0
146
0.0
 13
0.0
 23
0.0
 33
0.0
 16
1.0
 26
0.0
 36
0.0
 17
0.0
 27
1.0
 37
0.0
 76
     0
330
F02E
331
F2AC
  0
MATERIAL
  5
F300
102
{ACAD_XDICTIONARY
360
F301
102
}
102
{ACAD_REACTORS
330
F2F7
102
}
330
F2F7
100
AcDbMaterial
  1
ByBlock
 72
     0
 43
0.0208333333333333
 43
0.0
 43
0.0
 43
0.0
 43
0.0
 43
0.0208333333333333
 43
0.0
 43
0.0
 43
0.0
 43
0.0
 43
1.0
 43
0.0
 43
0.0
 43
0.0
 43
0.0
 43
1.0
 77
     0
 47
0.0208333333333333
 47
0.0
 47
0.0
 47
0.0
 47
0.0
 47
0.0208333333333333
 47
0.0
 47
0.0
 47
0.0
 47
0.0
 47
1.0
 47
0.0
 47
0.0
 47
0.0
 47
0.0
 47
1.0
171
     0
 49
0.0208333333333333
 49
0.0
 49
0.0
 49
0.0
 49
0.0
 49
0.0208333333333333
 49
0.0
 49
0.0
 49
0.0
 49
0.0
 49
1.0
 49
0.0
 49
0.0
 49
0.0
 49
0.0
 49
1.0
175
     0
142
0.0208333333333333
142
0.0
142
0.0
142
0.0
142
0.0
142
0.0208333333333333
142
0.0
142
0.0
142
0.0
142
0.0
142
1.0
142
0.0
142
0.0
142
0.0
142
0.0
142
1.0
179
     0
144
0.0208333333333333
144
0.0
144
0.0
144
0.0
144
0.0
144
0.0208333333333333
144
0.0
144
0.0
144
0.0
144
0.0
144
1.0
144
0.0
144
0.0
144
0.0
144
0.0
144
1.0
147
0.0208333333333333
147
0.0
147
0.0
147
0.0
147
0.0
147
0.0208333333333333
147
0.0
147
0.0
147
0.0
147
0.0
147
1.0
147
0.0
147
0.0
147
0.0
147
0.0
147
1.0
  0
MATERIAL
  5
F2F8
102
{ACAD_XDICTIONARY
360
F2F9
102
}
102
{ACAD_REACTORS
330
F2F7
102
}
330
F2F7
100
AcDbMaterial
  1
ByLayer
 72
     0
 43
0.0208333333333333
 43
0.0
 43
0.0
 43
0.0
 43
0.0
 43
0.0208333333333333
 43
0.0
 43
0.0
 43
0.0
 43
0.0
 43
1.0
 43
0.0
 43
0.0
 43
0.0
 43
0.0
 43
1.0
 77
     0
 47
0.0208333333333333
 47
0.0
 47
0.0
 47
0.0
 47
0.0
 47
0.0208333333333333
 47
0.0
 47
0.0
 47
0.0
 47
0.0
 47
1.0
 47
0.0
 47
0.0
 47
0.0
 47
0.0
 47
1.0
171
     0
 49
0.0208333333333333
 49
0.0
 49
0.0
 49
0.0
 49
0.0
 49
0.0208333333333333
 49
0.0
 49
0.0
 49
0.0
 49
0.0
 49
1.0
 49
0.0
 49
0.0
 49
0.0
 49
0.0
 49
1.0
175
     0
142
0.0208333333333333
142
0.0
142
0.0
142
0.0
142
0.0
142
0.0208333333333333
142
0.0
142
0.0
142
0.0
142
0.0
142
1.0
142
0.0
142
0.0
142
0.0
142
0.0
142
1.0
179
     0
144
0.0208333333333333
144
0.0
144
0.0
144
0.0
144
0.0
144
0.0208333333333333
144
0.0
144
0.0
144
0.0
144
0.0
144
1.0
144
0.0
144
0.0
144
0.0
144
0.0
144
1.0
147
0.0208333333333333
147
0.0
147
0.0
147
0.0
147
0.0
147
0.0208333333333333
147
0.0
147
0.0
147
0.0
147
0.0
147
1.0
147
0.0
147
0.0
147
0.0
147
0.0
147
1.0
  0
MATERIAL
  5
F308
102
{ACAD_XDICTIONARY
360
F309
102
}
102
{ACAD_REACTORS
330
F2F7
102
}
330
F2F7
100
AcDbMaterial
  1
Global
 72
     0
 43
0.0208333333333333
 43
0.0
 43
0.0
 43
0.0
 43
0.0
 43
0.0208333333333333
 43
0.0
 43
0.0
 43
0.0
 43
0.0
 43
1.0
 43
0.0
 43
0.0
 43
0.0
 43
0.0
 43
1.0
 77
     0
 47
0.0208333333333333
 47
0.0
 47
0.0
 47
0.0
 47
0.0
 47
0.0208333333333333
 47
0.0
 47
0.0
 47
0.0
 47
0.0
 47
1.0
 47
0.0
 47
0.0
 47
0.0
 47
0.0
 47
1.0
171
     0
 49
0.0208333333333333
 49
0.0
 49
0.0
 49
0.0
 49
0.0
 49
0.0208333333333333
 49
0.0
 49
0.0
 49
0.0
 49
0.0
 49
1.0
 49
0.0
 49
0.0
 49
0.0
 49
0.0
 49
1.0
175
     0
142
0.0208333333333333
142
0.0
142
0.0
142
0.0
142
0.0
142
0.0208333333333333
142
0.0
142
0.0
142
0.0
142
0.0
142
1.0
142
0.0
142
0.0
142
0.0
142
0.0
142
1.0
179
     0
144
0.0208333333333333
144
0.0
144
0.0
144
0.0
144
0.0
144
0.0208333333333333
144
0.0
144
0.0
144
0.0
144
0.0
144
1.0
144
0.0
144
0.0
144
0.0
144
0.0
144
1.0
147
0.0208333333333333
147
0.0
147
0.0
147
0.0
147
0.0
147
0.0208333333333333
147
0.0
147
0.0
147
0.0
147
0.0
147
1.0
147
0.0
147
0.0
147
0.0
147
0.0
147
1.0
  0
MLEADERSTYLE
  5
F347
102
{ACAD_REACTORS
330
F346
102
}
330
F346
100
AcDbMLeaderStyle
170
     2
171
     1
172
     0
 90
        2
 40
0.0
 41
0.0
173
     1
 91
-1056964608
340
F023
 92
       -2
290
     1
 42
0.09
291
     1
 43
0.36
  3
Standard
 44
0.18
300

342
F021
174
     1
178
     6
175
     1
176
     0
 93
-1056964608
 45
0.18
292
     0
297
     0
 46
0.18
 94
-1056964608
 47
1.0
 49
1.0
140
1.0
293
     1
141
0.0
294
     1
177
     0
142
1.0
295
     1
296
     0
143
0.125
1001
ACAD_MLEADERVER
1070
     2
  0
MLINESTYLE
  5
F027
102
{ACAD_REACTORS
330
F026
102
}
330
F026
100
AcDbMlineStyle
  2
STANDARD
 70
     0
  3

 62
   256
 51
90.0
 52
90.0
 71
     2
 49
0.5
 62
   256
  6
BYLAYER
 49
-0.5
 62
   256
  6
BYLAYER
  0
ACDBPLACEHOLDER
  5
F01F
102
{ACAD_REACTORS
330
F01E
102
}
330
F01E
  0
SCALE
  5
F325
102
{ACAD_REACTORS
330
F324
102
}
330
F324
100
AcDbScale
 70
     0
300
1:1
140
1.0
141
1.0
290
     1
  0
SCALE
  5
F326
102
{ACAD_REACTORS
330
F324
102
}
330
F324
100
AcDbScale
 70
     0
300
1:2
140
1.0
141
2.0
290
     0
  0
SCALE
  5
F327
102
{ACAD_REACTORS
330
F324
102
}
330
F324
100
AcDbScale
 70
     0
300
1:4
140
1.0
141
4.0
290
     0
  0
SCALE
  5
F328
102
{ACAD_REACTORS
330
F324
102
}
330
F324
100
AcDbScale
 70
     0
300
1:5
140
1.0
141
5.0
290
     0
  0
SCALE
  5
F329
102
{ACAD_REACTORS
330
F324
102
}
330
F324
100
AcDbScale
 70
     0
300
1:8
140
1.0
141
8.0
290
     0
  0
SCALE
  5
F32A
102
{ACAD_REACTORS
330
F324
102
}
330
F324
100
AcDbScale
 70
     0
300
1:10
140
1.0
141
10.0
290
     0
  0
SCALE
  5
F32B
102
{ACAD_REACTORS
330
F324
102
}
330
F324
100
AcDbScale
 70
     0
300
1:16
140
1.0
141
16.0
290
     0
  0
SCALE
  5
F32C
102
{ACAD_REACTORS
330
F324
102
}
330
F324
100
AcDbScale
 70
     0
300
1:20
140
1.0
141
20.0
290
     0
  0
SCALE
  5
F32D
102
{ACAD_REACTORS
330
F324
102
}
330
F324
100
AcDbScale
 70
     0
300
1:30
140
1.0
141
30.0
290
     0
  0
SCALE
  5
F32E
102
{ACAD_REACTORS
330
F324
102
}
330
F324
100
AcDbScale
 70
     0
300
1:40
140
1.0
141
40.0
290
     0
  0
SCALE
  5
F32F
102
{ACAD_REACTORS
330
F324
102
}
330
F324
100
AcDbScale
 70
     0
300
1:50
140
1.0
141
50.0
290
     0
  0
SCALE
  5
F330
102
{ACAD_REACTORS
330
F324
102
}
330
F324
100
AcDbScale
 70
     0
300
1:100
140
1.0
141
100.0
290
     0
  0
SCALE
  5
F331
102
{ACAD_REACTORS
330
F324
102
}
330
F324
100
AcDbScale
 70
     0
300
2:1
140
2.0
141
1.0
290
     0
  0
SCALE
  5
F332
102
{ACAD_REACTORS
330
F324
102
}
330
F324
100
AcDbScale
 70
     0
300
4:1
140
4.0
141
1.0
290
     0
  0
SCALE
  5
F333
102
{ACAD_REACTORS
330
F324
102
}
330
F324
100
AcDbScale
 70
     0
300
8:1
140
8.0
141
1.0
290
     0
  0
SCALE
  5
F334
102
{ACAD_REACTORS
330
F324
102
}
330
F324
100
AcDbScale
 70
     0
300
10:1
140
10.0
141
1.0
290
     0
  0
SCALE
  5
F335
102
{ACAD_REACTORS
330
F324
102
}
330
F324
100
AcDbScale
 70
     0
300
100:1
140
100.0
141
1.0
290
     0
  0
SCALE
  5
F336
102
{ACAD_REACTORS
330
F324
102
}
330
F324
100
AcDbScale
 70
     0
300
1/128" = 1'-0"
140
0.0078125
141
12.0
290
     0
  0
SCALE
  5
F337
102
{ACAD_REACTORS
330
F324
102
}
330
F324
100
AcDbScale
 70
     0
300
1/64" = 1'-0"
140
0.015625
141
12.0
290
     0
  0
SCALE
  5
F338
102
{ACAD_REACTORS
330
F324
102
}
330
F324
100
AcDbScale
 70
     0
300
1/32" = 1'-0"
140
0.03125
141
12.0
290
     0
  0
SCALE
  5
F339
102
{ACAD_REACTORS
330
F324
102
}
330
F324
100
AcDbScale
 70
     0
300
1/16" = 1'-0"
140
0.0625
141
12.0
290
     0
  0
SCALE
  5
F33A
102
{ACAD_REACTORS
330
F324
102
}
330
F324
100
AcDbScale
 70
     0
300
3/32" = 1'-0"
140
0.09375
141
12.0
290
     0
  0
SCALE
  5
F33B
102
{ACAD_REACTORS
330
F324
102
}
330
F324
100
AcDbScale
 70
     0
300
1/8" = 1'-0"
140
0.125
141
12.0
290
     0
  0
SCALE
  5
F33C
102
{ACAD_REACTORS
330
F324
102
}
330
F324
100
AcDbScale
 70
     0
300
3/16" = 1'-0"
140
0.1875
141
12.0
290
     0
  0
SCALE
  5
F33D
102
{ACAD_REACTORS
330
F324
102
}
330
F324
100
AcDbScale
 70
     0
300
1/4" = 1'-0"
140
0.25
141
12.0
290
     0
  0
SCALE
  5
F33E
102
{ACAD_REACTORS
330
F324
102
}
330
F324
100
AcDbScale
 70
     0
300
3/8" = 1'-0"
140
0.375
141
12.0
290
     0
  0
SCALE
  5
F33F
102
{ACAD_REACTORS
330
F324
102
}
330
F324
100
AcDbScale
 70
     0
300
1/2" = 1'-0"
140
0.5
141
12.0
290
     0
  0
SCALE
  5
F340
102
{ACAD_REACTORS
330
F324
102
}
330
F324
100
AcDbScale
 70
     0
300
3/4" = 1'-0"
140
0.75
141
12.0
290
     0
  0
SCALE
  5
F341
102
{ACAD_REACTORS
330
F324
102
}
330
F324
100
AcDbScale
 70
     0
300
1" = 1'-0"
140
1.0
141
12.0
290
     0
  0
SCALE
  5
F342
102
{ACAD_REACTORS
330
F324
102
}
330
F324
100
AcDbScale
 70
     0
300
1-1/2" = 1'-0"
140
1.5
141
12.0
290
     0
  0
SCALE
  5
F343
102
{ACAD_REACTORS
330
F324
102
}
330
F324
100
AcDbScale
 70
     0
300
3" = 1'-0"
140
3.0
141
12.0
290
     0
  0
SCALE
  5
F344
102
{ACAD_REACTORS
330
F324
102
}
330
F324
100
AcDbScale
 70
     0
300
6" = 1'-0"
140
6.0
141
12.0
290
     0
  0
SCALE
  5
F345
102
{ACAD_REACTORS
330
F324
102
}
330
F324
100
AcDbScale
 70
     0
300
1'-0" = 1'-0"
140
12.0
141
12.0
290
     0
  0
TABLESTYLE
  5
F323
102
{ACAD_XDICTIONARY
360
F360
102
}
102
{ACAD_REACTORS
330
F322
102
}
330
F322
100
AcDbTableStyle
  3
Standard
 70
     0
 71
     0
 40
0.06
 41
0.06
280
     0
281
     0
  7
STANDARD
140
0.18
170
     2
 62
     0
 63
     7
283
     0
 90
      512
 91
        0
  1

274
    -2
284
     1
 64
     0
275
    -2
285
     1
 65
     0
276
    -2
286
     1
 66
     0
277
    -2
287
     1
 67
     0
278
    -2
288
     1
 68
     0
279
    -2
289
     1
 69
     0
  7
STANDARD
140
0.25
170
     5
 62
     0
 63
     7
283
     0
 90
      512
 91
        0
  1

274
    -2
284
     1
 64
     0
275
    -2
285
     1
 65
     0
276
    -2
286
     1
 66
     0
277
    -2
287
     1
 67
     0
278
    -2
288
     1
 68
     0
279
    -2
289
     1
 69
     0
  7
STANDARD
140
0.18
170
     5
 62
     0
 63
     7
283
     0
 90
      512
 91
        0
  1

274
    -2
284
     1
 64
     0
275
    -2
285
     1
 65
     0
276
    -2
286
     1
 66
     0
277
    -2
287
     1
 67
     0
278
    -2
288
     1
 68
     0
279
    -2
289
     1
 69
     0
  0
VISUALSTYLE
  5
F316
102
{ACAD_REACTORS
330
F310
102
}
330
F310
100
AcDbVisualStyle
  2
2dWireframe
 70
     4
 71
     0
 72
     2
 73
     0
 90
        0
 40
-0.6
 41
-30.0
 62
     5
 63
     7
421
 16777215
 74
     1
 91
        4
 64
     7
 65
   257
 75
     1
175
     1
 42
1.0
 92
        0
 66
   257
 43
1.0
 76
     1
 77
     6
 78
     2
 67
     7
 79
     5
170
     0
171
     0
290
     0
174
     0
 93
        1
 44
0.0
173
     0
291
     0
 45
0.0
  0
VISUALSTYLE
  5
F318
102
{ACAD_REACTORS
330
F310
102
}
330
F310
100
AcDbVisualStyle
  2
3D Hidden
 70
     6
 71
     1
 72
     2
 73
     2
 90
        0
 40
-0.6
 41
-30.0
 62
     5
 63
     7
421
 16777215
 74
     2
 91
        2
 64
     7
 65
   257
 75
     2
175
     1
 42
40.0
 92
        0
 66
   257
 43
1.0
 76
     1
 77
     6
 78
     2
 67
     7
 79
     3
170
     0
171
     0
290
     0
174
     0
 93
        1
 44
0.0
173
     0
291
     0
 45
0.0
  0
VISUALSTYLE
  5
F317
102
{ACAD_REACTORS
330
F310
102
}
330
F310
100
AcDbVisualStyle
  2
3dWireframe
 70
     5
 71
     0
 72
     2
 73
     0
 90
        0
 40
-0.6
 41
-30.0
 62
     5
 63
     7
421
 16777215
 74
     1
 91
        4
 64
     7
 65
   257
 75
     1
175
     1
 42
1.0
 92
        0
 66
   257
 43
1.0
 76
     1
 77
     6
 78
     2
 67
     7
 79
     5
170
     0
171
     0
290
     0
174
     0
 93
        1
 44
0.0
173
     0
291
     0
 45
0.0
  0
VISUALSTYLE
  5
F315
102
{ACAD_REACTORS
330
F310
102
}
330
F310
100
AcDbVisualStyle
  2
Basic
 70
     7
 71
     1
 72
     0
 73
     1
 90
        0
 40
-0.6
 41
-30.0
 62
     5
 63
     7
421
 16777215
 74
     0
 91
        4
 64
     7
 65
   257
 75
     1
175
     1
 42
1.0
 92
        8
 66
     7
 43
1.0
 76
     1
 77
     6
 78
     2
 67
     7
 79
     5
170
     0
171
     0
290
     0
174
     0
 93
        1
 44
0.0
173
     0
291
     1
 45
0.0
  0
VISUALSTYLE
  5
F31C
102
{ACAD_REACTORS
330
F310
102
}
330
F310
100
AcDbVisualStyle
  2
Brighten
 70
    12
 71
     2
 72
     2
 73
     0
 90
        0
 40
-0.6
 41
-30.0
 62
     5
 63
     7
421
 16777215
 74
     1
 91
        4
 64
     7
 65
   257
 75
     1
175
     1
 42
1.0
 92
        8
 66
     7
 43
1.0
 76
     1
 77
     6
 78
     2
 67
     7
 79
     5
170
     0
171
     0
290
     0
174
     0
 93
        1
 44
50.0
173
     0
291
     1
 45
0.0
  0
VISUALSTYLE
  5
F320
102
{ACAD_REACTORS
330
F310
102
}
330
F310
100
AcDbVisualStyle
  2
ColorChange
 70
    16
 71
     2
 72
     2
 73
     3
 90
        0
 40
-0.6
 41
-30.0
 62
     5
 63
     8
421
  8421504
 74
     1
 91
        4
 64
     7
 65
   257
 75
     1
175
     1
 42
1.0
 92
        8
 66
     8
424
  8421504
 43
1.0
 76
     1
 77
     6
 78
     2
 67
     7
 79
     5
170
     0
171
     0
290
     0
174
     0
 93
        1
 44
0.0
173
     0
291
     1
 45
0.0
  0
VISUALSTYLE
  5
F319
102
{ACAD_REACTORS
330
F310
102
}
330
F310
100
AcDbVisualStyle
  2
Conceptual
 70
     9
 71
     3
 72
     2
 73
     0
 90
        0
 40
-0.6
 41
-30.0
 62
     5
 63
     7
421
 16777215
 74
     2
 91
        2
 64
     7
 65
   257
 75
     1
175
     1
 42
40.0
 92
        8
 66
     7
 43
1.0
 76
     1
 77
     6
 78
     2
 67
     7
 79
     3
170
     0
171
     0
290
     0
174
     0
 93
        1
 44
0.0
173
     0
291
     0
 45
0.0
  0
VISUALSTYLE
  5
F31B
102
{ACAD_REACTORS
330
F310
102
}
330
F310
100
AcDbVisualStyle
  2
Dim
 70
    11
 71
     2
 72
     2
 73
     0
 90
        0
 40
-0.6
 41
-30.0
 62
     5
 63
     7
421
 16777215
 74
     1
 91
        4
 64
     7
 65
   257
 75
     1
175
     1
 42
1.0
 92
        8
 66
     7
 43
1.0
 76
     1
 77
     6
 78
     2
 67
     7
 79
     5
170
     0
171
     0
290
     0
174
     0
 93
        1
 44
-50.0
173
     0
291
     1
 45
0.0
  0
VISUALSTYLE
  5
F31F
102
{ACAD_REACTORS
330
F310
102
}
330
F310
100
AcDbVisualStyle
  2
Facepattern
 70
    15
 71
     2
 72
     2
 73
     0
 90
        0
 40
-0.6
 41
-30.0
 62
     5
 63
     7
421
 16777215
 74
     1
 91
        4
 64
     7
 65
   257
 75
     1
175
     1
 42
1.0
 92
        8
 66
     7
 43
1.0
 76
     1
 77
     6
 78
     2
 67
     7
 79
     5
170
     0
171
     0
290
     0
174
     0
 93
        1
 44
0.0
173
     0
291
     1
 45
0.0
  0
VISUALSTYLE
  5
F311
102
{ACAD_REACTORS
330
F310
102
}
330
F310
100
AcDbVisualStyle
  2
Flat
 70
     0
 71
     2
 72
     1
 73
     1
 90
        2
 40
-0.6
 41
30.0
 62
     5
 63
     7
421
 16777215
 74
     0
 91
        4
 64
     7
 65
   257
 75
     1
175
     1
 42
1.0
 92
        8
 66
     7
 43
1.0
 76
     1
 77
     6
 78
     2
 67
     7
 79
     5
170
     0
171
     0
290
     0
174
     0
 93
       13
 44
0.0
173
     0
291
     1
 45
0.0
  0
VISUALSTYLE
  5
F312
102
{ACAD_REACTORS
330
F310
102
}
330
F310
100
AcDbVisualStyle
  2
FlatWithEdges
 70
     1
 71
     2
 72
     1
 73
     1
 90
        2
 40
-0.6
 41
30.0
 62
     5
 63
     7
421
 16777215
 74
     1
 91
        4
 64
     7
 65
   257
 75
     1
175
     1
 42
1.0
 92
        0
 66
   257
 43
1.0
 76
     1
 77
     6
 78
     2
 67
     7
 79
     5
170
     0
171
     0
290
     0
174
     0
 93
       13
 44
0.0
173
     0
291
     1
 45
0.0
  0
VISUALSTYLE
  5
F313
102
{ACAD_REACTORS
330
F310
102
}
330
F310
100
AcDbVisualStyle
  2
Gouraud
 70
     2
 71
     2
 72
     2
 73
     1
 90
        2
 40
-0.6
 41
30.0
 62
     5
 63
     7
421
 16777215
 74
     0
 91
        4
 64
     7
 65
   257
 75
     1
175
     1
 42
1.0
 92
        0
 66
     7
 43
1.0
 76
     1
 77
     6
 78
     2
 67
     7
 79
     5
170
     0
171
     0
290
     0
174
     0
 93
       13
 44
0.0
173
     0
291
     1
 45
0.0
  0
VISUALSTYLE
  5
F314
102
{ACAD_REACTORS
330
F310
102
}
330
F310
100
AcDbVisualStyle
  2
GouraudWithEdges
 70
     3
 71
     2
 72
     2
 73
     1
 90
        2
 40
-0.6
 41
30.0
 62
     5
 63
     7
421
 16777215
 74
     1
 91
        4
 64
     7
 65
   257
 75
     1
175
     1
 42
1.0
 92
        0
 66
   257
 43
1.0
 76
     1
 77
     6
 78
     2
 67
     7
 79
     5
170
     0
171
     0
290
     0
174
     0
 93
       13
 44
0.0
173
     0
291
     1
 45
0.0
  0
VISUALSTYLE
  5
F31E
102
{ACAD_REACTORS
330
F310
102
}
330
F310
100
AcDbVisualStyle
  2
Linepattern
 70
    14
 71
     2
 72
     2
 73
     0
 90
        0
 40
-0.6
 41
-30.0
 62
     5
 63
     7
421
 16777215
 74
     1
 91
        4
 64
     7
 65
   257
 75
     7
175
     7
 42
1.0
 92
        8
 66
     7
 43
1.0
 76
     1
 77
     6
 78
     2
 67
     7
 79
     5
170
     0
171
     0
290
     0
174
     0
 93
        1
 44
0.0
173
     0
291
     1
 45
0.0
  0
VISUALSTYLE
  5
F31A
102
{ACAD_REACTORS
330
F310
102
}
330
F310
100
AcDbVisualStyle
  2
Realistic
 70
     8
 71
     2
 72
     2
 73
     0
 90
        0
 40
-0.6
 41
-30.0
 62
     5
 63
     7
421
 16777215
 74
     1
 91
        0
 64
     7
 65
   257
 75
     1
175
     1
 42
1.0
 92
        8
 66
     8
424
  7895160
 43
1.0
 76
     1
 77
     6
 78
     2
 67
     7
 79
     5
170
     0
171
     0
290
     0
174
     0
 93
       13
 44
0.0
173
     0
291
     0
 45
0.0
  0
VISUALSTYLE
  5
F31D
102
{ACAD_REACTORS
330
F310
102
}
330
F310
100
AcDbVisualStyle
  2
Thicken
 70
    13
 71
     2
 72
     2
 73
     0
 90
        0
 40
-0.6
 41
-30.0
 62
     5
 63
     7
421
 16777215
 74
     1
 91
        4
 64
     7
 65
   257
 75
     1
175
     1
 42
1.0
 92
       12
 66
     7
 43
1.0
 76
     1
 77
     6
 78
     2
 67
     7
 79
     5
170
     0
171
     0
290
     0
174
     0
 93
        1
 44
0.0
173
     0
291
     1
 45
0.0
  0
DICTIONARYVAR
  5
F367
102
{ACAD_REACTORS
330
F363
102
}
330
F363
100
DictionaryVariables
280
     0
  1
1:1
  0
DICTIONARYVAR
  5
F365
102
{ACAD_REACTORS
330
F363
102
}
330
F363
100
DictionaryVariables
280
     0
  1
STANDARD
  0
DICTIONARYVAR
  5
F364
102
{ACAD_REACTORS
330
F363
102
}
330
F363
100
DictionaryVariables
280
     0
  1
STANDARD
  0
DICTIONARYVAR
  5
F368
102
{ACAD_REACTORS
330
F363
102
}
330
F363
100
DictionaryVariables
280
     0
  1
0
  0
DICTIONARYVAR
  5
F366
102
{ACAD_REACTORS
330
F363
102
}
330
F363
100
DictionaryVariables
280
     0
  1
0
  0
ACSH_EXTRUSION_CLASS
  5
F383
330
F384
100
AcDbEvalExpr
 90
        1
 98
       27
 99
       25
100
AcDbShHistoryNode
 90
       27
 91
       25
 40
1.0
 41
0.0
 42
0.0
 43
0.0
 44
0.0
 45
1.0
 46
0.0
 47
0.0
 48
0.0
 49
0.0
 50
57.29577951308232
 51
0.0
 52
0.0
 53
0.0
 54
0.0
 55
57.29577951308232
 62
   256
 92
        1
347
F2F8
100
AcDbShPrimitive
100
AcDbShSweepBase
 90
       27
 91
       25
 10
1.78125
 20
0.0
 30
0.0
 92
       37
 70
     1
  1
mnmoo mh m mi          
  1
ni ^ *+0;:,4 ^ *+0\^ [ nh ^ LR nmqoqnqgmo QK o  
  1
mjqlffffffffffffff fqfffffffffffffffj:rooh n:rono 
  1
>,27:>;:- {rn rn _nn mnmqoqnqgmo |
  1
=0;& {rn rn {rn {m {rn {rn |
  1
3*2/ {rn rn {rn {rn {l {n |
  1
,7:33 {rn rn {rn {rn {rn {k {rn {m |
  1
9><: {rn rn {rn {rn {j {l {rn {i 90-(>-; ;0*=3: 0*+ |
  1
300/ {rn rn {rn {rn {h {k |
  1
/3>1:r,*-9><: {rn rn {rn o roqhnmjoooooooooooom oqghj n o o o o rn 90-(>-;@) V V V V |
  1
<0:;8: {rn rn {rn {g {f {rn {no 90-(>-; {j {rn |
  1
<0:;8: {rn rn {rn {nn {h {rn {nm 90-(>-; {j {rn |
  1
<0:;8: {rn rn {rn {h {nn {rn {nl 90-(>-; {j {rn |
  1
:;8: {rn rn {rn {nk o {nj nqhj {h {ni 90-(>-; _h *1410(1 |
  1
<0:;8: {rn rn {rn {f {g {rn {nh 90-(>-; {j {rn |
  1
:;8: {rn rn {rn {nj o {ng lqkighj {g {nf 90-(>-; _h *1410(1 |
  1
:;8: {rn rn {rn {mo o {nk lqkighj {f {mn 90-(>-; _h *1410(1 |
  1
):-+:' {rn rn {rn {no o {mm |
  1
):-+:' {rn rn {rn {no n {ml |
  1
,+->687+r<*-): {rn rn {rn o rmqkkighkffffffffff nqhj o o rn V V |
  1
:;8: {rn rn {rn {ng o {mo nqhj {nn {mk 90-(>-; _h *1410(1 |
  1
):-+:' {rn rn {rn {nm n {mj |
  1
,+->687+r<*-): {rn rn {rn o rmqkkighkffffffffff o o n o V V |
  1
):-+:' {rn rn {rn {nh n {mi |
  1
,+->687+r<*-): {rn rn {rn o nqomnghjooooooooon nqhj o rn o V V |
  1
/061+ {rn rn {rn o rmqkkighkffffffffff nqhj |
  1
/061+ {rn rn {rn o rmqkkighkffffffffff o |
  1
,+->687+r<*-): {rn rn {rn o nqomnghjooooooooon o o o n V V |
  1
/061+ {rn rn {rn o nqomnghjooooooooon o |
  1
/061+ {rn rn {rn o nqomnghjooooooooon nqhj |
 93
        0
 42
0.0
 43
0.0
 44
0.0
 45
0.0
 48
1.0
 49
0.0
 46
0.0
 46
0.0
 46
1.0
 46
0.0
 46
1.0
 46
0.0
 46
0.0
 46
-0.7125
 46
0.0
 46
1.0
 46
0.0
 46
0.875
 46
0.0
 46
0.0
 46
0.0
 46
1.0
 47
1.0
 47
0.0
 47
0.0
 47
0.0
 47
0.0
 47
1.0
 47
0.0
 47
0.0
 47
0.0
 47
0.0
 47
1.0
 47
0.0
 47
0.0
 47
0.0
 47
0.0
 47
1.0
290
     1
 70
     0
 71
     1
292
     1
293
     1
294
     0
295
     1
296
     0
 11
0.0
 21
0.0
 31
0.0
100
AcDbShExtrusion
  0
ACSH_EXTRUSION_CLASS
  5
F391
330
F384
100
AcDbEvalExpr
 90
        2
 98
       27
 99
       25
100
AcDbShHistoryNode
 90
       27
 91
       25
 40
1.0
 41
0.0
 42
0.0
 43
0.0
 44
0.0
 45
1.0
 46
0.0
 47
0.0
 48
0.0
 49
0.0
 50
57.29577951308232
 51
0.0
 52
0.0
 53
0.0
 54
0.0
 55
57.29577951308232
 62
   256
 92
        2
347
F2F8
100
AcDbShPrimitive
100
AcDbShSweepBase
 90
       27
 91
       25
 10
1.78125
 20
0.0
 30
0.0
 92
       37
 70
     1
  1
mnmoo mh m mi          
  1
ni ^ *+0;:,4 ^ *+0\^ [ nh ^ LR nmqoqnqgmo QK o  
  1
mjqlffffffffffffff fqfffffffffffffffj:rooh n:rono 
  1
>,27:>;:- {rn rn _nn mnmqoqnqgmo |
  1
=0;& {rn rn {rn {m {rn {rn |
  1
3*2/ {rn rn {rn {rn {l {n |
  1
,7:33 {rn rn {rn {rn {rn {k {rn {m |
  1
9><: {rn rn {rn {rn {j {l {rn {i 90-(>-; ;0*=3: 0*+ |
  1
300/ {rn rn {rn {rn {h {k |
  1
/3>1:r,*-9><: {rn rn {rn o roqhnmjooooooooooonl oqohgnmj n o o o o rn 90-(>-;@) V V V V |
  1
<0:;8: {rn rn {rn {g {f {rn {no 90-(>-; {j {rn |
  1
<0:;8: {rn rn {rn {nn {h {rn {nm 90-(>-; {j {rn |
  1
<0:;8: {rn rn {rn {h {nn {rn {nl 90-(>-; {j {rn |
  1
:;8: {rn rn {rn {nk o {nj oqnjimj {h {ni 90-(>-; _h *1410(1 |
  1
<0:;8: {rn rn {rn {f {g {rn {nh 90-(>-; {j {rn |
  1
:;8: {rn rn {rn {nj o {ng nqkmjooooooooooool {g {nf 90-(>-; _h *1410(1 |
  1
:;8: {rn rn {rn {mo o {nk nqkmjooooooooooool {f {mn 90-(>-; _h *1410(1 |
  1
):-+:' {rn rn {rn {no o {mm |
  1
):-+:' {rn rn {rn {no n {ml |
  1
,+->687+r<*-): {rn rn {rn o rnqkmjooooooooooool oqnjimj o o rn V V |
  1
:;8: {rn rn {rn {ng o {mo oqnjimj {nn {mk 90-(>-; _h *1410(1 |
  1
):-+:' {rn rn {rn {nm n {mj |
  1
,+->687+r<*-): {rn rn {rn o rnqkmjooooooooooool o o n o V V |
  1
):-+:' {rn rn {rn {nh n {mi |
  1
,+->687+r<*-): {rn rn {rn o o oqnjimj o rn o V V |
  1
/061+ {rn rn {rn o rnqkmjooooooooooool oqnjimj |
  1
/061+ {rn rn {rn o rnqkmjooooooooooool o |
  1
,+->687+r<*-): {rn rn {rn o o o o o n V V |
  1
/061+ {rn rn {rn o o o |
  1
/061+ {rn rn {rn o o oqnjimj |
 93
        0
 42
0.0
 43
0.0
 44
0.0
 45
0.0
 48
1.0
 49
0.0
 46
0.0
 46
0.0
 46
1.0
 46
0.0
 46
1.0
 46
0.0
 46
0.0
 46
-0.7125000000000002
 46
0.0
 46
1.0
 46
0.0
 46
0.078125
 46
0.0
 46
0.0
 46
0.0
 46
1.0
 47
1.0
 47
0.0
 47
0.0
 47
0.0
 47
0.0
 47
1.0
 47
0.0
 47
0.0
 47
0.0
 47
0.0
 47
1.0
 47
0.0
 47
0.0
 47
0.0
 47
0.0
 47
1.0
290
     1
 70
     0
 71
     1
292
     1
293
     1
294
     0
295
     1
296
     0
 11
0.0
 21
0.0
 31
0.0
100
AcDbShExtrusion
  0
ACSH_BOOLEAN_CLASS
  5
F395
330
F384
100
AcDbEvalExpr
 90
        3
 98
       27
 99
       25
100
AcDbShHistoryNode
 90
       27
 91
       25
 40
1.0
 41
0.0
 42
0.0
 43
0.0
 44
0.0
 45
1.0
 46
0.0
 47
0.0
 48
0.0
 49
0.0
 50
57.29577951308232
 51
0.0
 52
0.0
 53
0.0
 54
0.0
 55
57.29577951308232
 62
   256
 92
        0
347
F2F8
100
AcDbShBoolean
 90
       27
 91
       25
280
     2
 92
        1
 93
        2
  0
ACSH_EXTRUSION_CLASS
  5
F3A1
330
F384
100
AcDbEvalExpr
 90
        4
 98
       27
 99
       25
100
AcDbShHistoryNode
 90
       27
 91
       25
 40
1.0
 41
0.0
 42
0.0
 43
0.0
 44
0.0
 45
1.0
 46
0.0
 47
0.0
 48
0.0
 49
0.0
 50
57.29577951308232
 51
0.0
 52
0.0
 53
0.0
 54
0.0
 55
57.29577951308232
 62
   256
 92
        3
347
F2F8
100
AcDbShPrimitive
100
AcDbShSweepBase
 90
       27
 91
       25
 10
1.78125
 20
0.0
 30
0.0
 92
       37
 70
     1
  1
mnmoo mh m mi          
  1
ni ^ *+0;:,4 ^ *+0\^ [ nh ^ LR nmqoqnqgmo QK o  
  1
mjqlffffffffffffff fqfffffffffffffffj:rooh n:rono 
  1
>,27:>;:- {rn rn _nn mnmqoqnqgmo |
  1
=0;& {rn rn {rn {m {rn {rn |
  1
3*2/ {rn rn {rn {rn {l {n |
  1
,7:33 {rn rn {rn {rn {rn {k {rn {m |
  1
9><: {rn rn {rn {rn {j {l {rn {i 90-(>-; ;0*=3: 0*+ |
  1
300/ {rn rn {rn {rn {h {k |
  1
/3>1:r,*-9><: {rn rn {rn o roqhnmkffffffffffffn mqoimj n o o o o rn 90-(>-;@) V V V V |
  1
<0:;8: {rn rn {rn {g {f {rn {no 90-(>-; {j {rn |
  1
<0:;8: {rn rn {rn {nn {h {rn {nm 90-(>-; {j {rn |
  1
<0:;8: {rn rn {rn {h {nn {rn {nl 90-(>-; {j {rn |
  1
:;8: {rn rn {rn {nk o {nj oqimj {h {ni 90-(>-; _h *1410(1 |
  1
<0:;8: {rn rn {rn {f {g {rn {nh 90-(>-; {j {rn |
  1
:;8: {rn rn {rn {nj o {ng nqhj {g {nf 90-(>-; _h *1410(1 |
  1
:;8: {rn rn {rn {mo o {nk nqhj {f {mn 90-(>-; _h *1410(1 |
  1
):-+:' {rn rn {rn {no o {mm |
  1
):-+:' {rn rn {rn {no n {ml |
  1
,+->687+r<*-): {rn rn {rn o rnqjghkffffffffffff mqlhj o o rn V V |
  1
:;8: {rn rn {rn {ng o {mo oqimj {nn {mk 90-(>-; _h *1410(1 |
  1
):-+:' {rn rn {rn {nm n {mj |
  1
,+->687+r<*-): {rn rn {rn o rnqjghkffffffffffff nqhj o n o V V |
  1
):-+:' {rn rn {rn {nh n {mi |
  1
,+->687+r<*-): {rn rn {rn o oqnimjoooooooooooof mqlhj o rn o V V |
  1
/061+ {rn rn {rn o rnqjghkffffffffffff mqlhj |
  1
/061+ {rn rn {rn o rnqjghkffffffffffff nqhj |
  1
,+->687+r<*-): {rn rn {rn o oqnimjoooooooooooof nqhj o o n V V |
  1
/061+ {rn rn {rn o oqnimjoooooooooooof nqhj |
  1
/061+ {rn rn {rn o oqnimjoooooooooooof mqlhj |
 93
        0
 42
0.0
 43
0.0
 44
0.0
 45
0.0
 48
1.0
 49
0.0
 46
0.0
 46
0.0
 46
1.0
 46
0.0
 46
1.0
 46
0.0
 46
0.0
 46
-0.7125
 46
0.0
 46
1.0
 46
0.0
 46
2.0625
 46
0.0
 46
0.0
 46
0.0
 46
1.0
 47
1.0
 47
0.0
 47
0.0
 47
0.0
 47
0.0
 47
1.0
 47
0.0
 47
0.0
 47
0.0
 47
0.0
 47
1.0
 47
0.0
 47
0.0
 47
0.0
 47
0.0
 47
1.0
290
     1
 70
     0
 71
     1
292
     1
293
     1
294
     0
295
     1
296
     0
 11
0.0
 21
0.0
 31
0.0
100
AcDbShExtrusion
  0
ACSH_BOOLEAN_CLASS
  5
F3A5
330
F384
100
AcDbEvalExpr
 90
        5
 98
       27
 99
       25
100
AcDbShHistoryNode
 90
       27
 91
       25
 40
1.0
 41
0.0
 42
0.0
 43
0.0
 44
0.0
 45
1.0
 46
0.0
 47
0.0
 48
0.0
 49
0.0
 50
57.29577951308232
 51
0.0
 52
0.0
 53
0.0
 54
0.0
 55
57.29577951308232
 62
   256
 92
        0
347
F2F8
100
AcDbShBoolean
 90
       27
 91
       25
280
     0
 92
        3
 93
        4
  0
ACSH_EXTRUSION_CLASS
  5
F3BD
330
F384
100
AcDbEvalExpr
 90
        6
 98
       27
 99
       25
100
AcDbShHistoryNode
 90
       27
 91
       25
 40
1.0
 41
0.0
 42
0.0
 43
-0.4346554717007507
 44
0.0
 45
1.0
 46
0.0
 47
1.165
 48
0.0
 49
0.0
 50
57.29577951308232
 51
0.0
 52
0.0
 53
0.0
 54
0.0
 55
57.29577951308232
 62
   256
 92
        4
347
F2F8
100
AcDbShPrimitive
100
AcDbShSweepBase
 90
       27
 91
       25
 10
0.0
 20
0.0
 30
-0.25
 92
       77
 90
      752
310
060080000000000000540411044E58E33F4753F73FE066457254C5CCBF4E58E33F4753F73F00E572731E3F94BFC66C918728CEFB3F00E572731E3F94BFC66C918728CEFB3FE066457254C5CCBF8FFFFFFFFFFFFEFBF8FFFFFFFFFFFFEFBFCC
 93
        0
 42
0.0
 43
0.0
 44
0.0
 45
0.0
 48
1.0
 49
0.0
 46
1.0
 46
0.0
 46
0.0
 46
1.590835629649279
 46
0.0
 46
1.0
 46
0.0
 46
-0.1273970097688861
 46
0.0
 46
0.0
 46
1.0
 46
2.625
 46
0.0
 46
0.0
 46
0.0
 46
1.0
 47
1.0
 47
0.0
 47
0.0
 47
0.0
 47
0.0
 47
1.0
 47
0.0
 47
0.0
 47
0.0
 47
0.0
 47
1.0
 47
0.0
 47
0.0
 47
0.0
 47
0.0
 47
1.0
290
     1
 70
     0
 71
     1
292
     1
293
     1
294
     0
295
     1
296
     0
 11
0.0
 21
0.0
 31
0.0
100
AcDbShExtrusion
  0
ACSH_BOOLEAN_CLASS
  5
F3BE
330
F384
100
AcDbEvalExpr
 90
        7
 98
       27
 99
       25
100
AcDbShHistoryNode
 90
       27
 91
       25
 40
1.0
 41
0.0
 42
0.0
 43
0.0
 44
0.0
 45
1.0
 46
0.0
 47
0.0
 48
0.0
 49
0.0
 50
57.29577951308232
 51
0.0
 52
0.0
 53
0.0
 54
0.0
 55
57.29577951308232
 62
   256
 92
        0
347
F2F8
100
AcDbShBoolean
 90
       27
 91
       25
280
     0
 92
        5
 93
        6
  0
ACSH_EXTRUSION_CLASS
  5
F3B9
330
F384
100
AcDbEvalExpr
 90
        8
 98
       27
 99
       25
100
AcDbShHistoryNode
 90
       27
 91
       25
 40
1.0
 41
0.0
 42
0.0
 43
-0.4346554717007507
 44
0.0
 45
1.0
 46
0.0
 47
0.0
 48
0.0
 49
0.0
 50
57.29577951308232
 51
0.0
 52
0.0
 53
0.0
 54
0.0
 55
57.29577951308232
 62
   256
 92
        5
347
F2F8
100
AcDbShPrimitive
100
AcDbShSweepBase
 90
       27
 91
       25
 10
0.0
 20
0.0
 30
-0.25
 92
       77
 90
      752
310
060080000000000000540411044E58E33F4753F73F821D8698813CF6BF4E58E33F4753F73F3A3C0B84D3F4F2BFC66C918728CEFB3F3A3C0B84D3F4F2BFC66C918728CEFB3F821D8698813CF6BF8FFFFFFFFFFFFEFBF8FFFFFFFFFFFFEFBFCC
 93
        0
 42
0.0
 43
0.0
 44
0.0
 45
0.0
 48
1.0
 49
0.0
 46
1.0
 46
0.0
 46
0.0
 46
1.590835629649279
 46
0.0
 46
1.0
 46
0.0
 46
-1.292397009768886
 46
0.0
 46
0.0
 46
1.0
 46
2.625
 46
0.0
 46
0.0
 46
0.0
 46
1.0
 47
1.0
 47
0.0
 47
0.0
 47
0.0
 47
0.0
 47
1.0
 47
0.0
 47
0.0
 47
0.0
 47
0.0
 47
1.0
 47
0.0
 47
0.0
 47
0.0
 47
0.0
 47
1.0
290
     1
 70
     0
 71
     1
292
     1
293
     1
294
     0
295
     1
296
     0
 11
0.0
 21
0.0
 31
0.0
100
AcDbShExtrusion
  0
ACSH_BOOLEAN_CLASS
  5
F3BF
330
F384
100
AcDbEvalExpr
 90
        9
 98
       27
 99
       25
100
AcDbShHistoryNode
 90
       27
 91
       25
 40
1.0
 41
0.0
 42
0.0
 43
0.0
 44
0.0
 45
1.0
 46
0.0
 47
0.0
 48
0.0
 49
0.0
 50
57.29577951308232
 51
0.0
 52
0.0
 53
0.0
 54
0.0
 55
57.29577951308232
 62
   256
 92
        0
347
F2F8
100
AcDbShBoolean
 90
       27
 91
       25
280
     0
 92
        7
 93
        8
  0
DICTIONARY
  5
F301
330
F300
100
AcDbDictionary
280
     1
281
     1
  3
BUMPTILE
360
F303
  3
DIFFUSETILE
360
F302
  3
OPACITYTILE
360
F306
  3
REFLECTIONTILE
360
F305
  3
REFRACTIONTILE
360
F307
  3
SPECULARTILE
360
F304
  0
DICTIONARY
  5
F2F9
330
F2F8
100
AcDbDictionary
280
     1
281
     1
  3
BUMPTILE
360
F2FB
  3
DIFFUSETILE
360
F2FA
  3
OPACITYTILE
360
F2FE
  3
REFLECTIONTILE
360
F2FD
  3
REFRACTIONTILE
360
F2FF
  3
SPECULARTILE
360
F2FC
  0
DICTIONARY
  5
F309
330
F308
100
AcDbDictionary
280
     1
281
     1
  3
BUMPTILE
360
F30B
  3
DIFFUSETILE
360
F30A
  3
OPACITYTILE
360
F30E
  3
REFLECTIONTILE
360
F30D
  3
REFRACTIONTILE
360
F30F
  3
SPECULARTILE
360
F30C
  0
DICTIONARY
  5
F360
330
F323
100
AcDbDictionary
280
     1
281
     1
  3
ACAD_ROUNDTRIP_2008_TABLESTYLE_CELLSTYLEMAP
360
F525
  0
XRECORD
  5
F303
102
{ACAD_REACTORS
330
F301
102
}
330
F301
100
AcDbXrecord
280
     1
270
     1
271
     1
  0
XRECORD
  5
F302
102
{ACAD_REACTORS
330
F301
102
}
330
F301
100
AcDbXrecord
280
     1
270
     1
271
     1
  0
XRECORD
  5
F306
102
{ACAD_REACTORS
330
F301
102
}
330
F301
100
AcDbXrecord
280
     1
270
     1
271
     1
  0
XRECORD
  5
F305
102
{ACAD_REACTORS
330
F301
102
}
330
F301
100
AcDbXrecord
280
     1
270
     1
271
     1
  0
XRECORD
  5
F307
102
{ACAD_REACTORS
330
F301
102
}
330
F301
100
AcDbXrecord
280
     1
270
     1
271
     1
  0
XRECORD
  5
F304
102
{ACAD_REACTORS
330
F301
102
}
330
F301
100
AcDbXrecord
280
     1
270
     1
271
     1
  0
XRECORD
  5
F2FB
102
{ACAD_REACTORS
330
F2F9
102
}
330
F2F9
100
AcDbXrecord
280
     1
270
     1
271
     1
  0
XRECORD
  5
F2FA
102
{ACAD_REACTORS
330
F2F9
102
}
330
F2F9
100
AcDbXrecord
280
     1
270
     1
271
     1
  0
XRECORD
  5
F2FE
102
{ACAD_REACTORS
330
F2F9
102
}
330
F2F9
100
AcDbXrecord
280
     1
270
     1
271
     1
  0
XRECORD
  5
F2FD
102
{ACAD_REACTORS
330
F2F9
102
}
330
F2F9
100
AcDbXrecord
280
     1
270
     1
271
     1
  0
XRECORD
  5
F2FF
102
{ACAD_REACTORS
330
F2F9
102
}
330
F2F9
100
AcDbXrecord
280
     1
270
     1
271
     1
  0
XRECORD
  5
F2FC
102
{ACAD_REACTORS
330
F2F9
102
}
330
F2F9
100
AcDbXrecord
280
     1
270
     1
271
     1
  0
XRECORD
  5
F30B
102
{ACAD_REACTORS
330
F309
102
}
330
F309
100
AcDbXrecord
280
     1
270
     1
271
     1
  0
XRECORD
  5
F30A
102
{ACAD_REACTORS
330
F309
102
}
330
F309
100
AcDbXrecord
280
     1
270
     1
271
     1
  0
XRECORD
  5
F30E
102
{ACAD_REACTORS
330
F309
102
}
330
F309
100
AcDbXrecord
280
     1
270
     1
271
     1
  0
XRECORD
  5
F30D
102
{ACAD_REACTORS
330
F309
102
}
330
F309
100
AcDbXrecord
280
     1
270
     1
271
     1
  0
XRECORD
  5
F30F
102
{ACAD_REACTORS
330
F309
102
}
330
F309
100
AcDbXrecord
280
     1
270
     1
271
     1
  0
XRECORD
  5
F30C
102
{ACAD_REACTORS
330
F309
102
}
330
F309
100
AcDbXrecord
280
     1
270
     1
271
     1
  0
CELLSTYLEMAP
  5
F525
102
{ACAD_REACTORS
330
F360
102
}
330
F360
100
AcDbCellStyleMap
 90
        3
300
CELLSTYLE
  1
TABLEFORMAT_BEGIN
 90
        5
170
     1
 91
        0
 92
    32768
 62
   257
 93
        1
300
CONTENTFORMAT
  1
CONTENTFORMAT_BEGIN
 90
        0
 91
        0
 92
      512
 93
        0
300

 40
0.0
140
1.0
 94
        5
 62
     0
340
F021
144
0.25
309
CONTENTFORMAT_END
171
     0
 94
        0
309
TABLEFORMAT_END
  1
CELLSTYLE_BEGIN
 90
        1
 91
        1
300
_TITLE
309
CELLSTYLE_END
300
CELLSTYLE
  1
TABLEFORMAT_BEGIN
 90
        5
170
     1
 91
        0
 92
        0
 62
   257
 93
        1
300
CONTENTFORMAT
  1
CONTENTFORMAT_BEGIN
 90
        0
 91
        0
 92
      512
 93
        0
300

 40
0.0
140
1.0
 94
        5
 62
     0
340
F021
144
0.18
309
CONTENTFORMAT_END
171
     0
 94
        0
309
TABLEFORMAT_END
  1
CELLSTYLE_BEGIN
 90
        2
 91
        1
300
_HEADER
309
CELLSTYLE_END
300
CELLSTYLE
  1
TABLEFORMAT_BEGIN
 90
        5
170
     1
 91
        0
 92
        0
 62
   257
 93
        1
300
CONTENTFORMAT
  1
CONTENTFORMAT_BEGIN
 90
        0
 91
        0
 92
      512
 93
        0
300

 40
0.0
140
1.0
 94
        2
 62
     0
340
F021
144
0.18
309
CONTENTFORMAT_END
171
     0
 94
        0
309
TABLEFORMAT_END
  1
CELLSTYLE_BEGIN
 90
        3
 91
        2
300
_DATA
309
CELLSTYLE_END
  0
ENDSEC
  0
EOF
