  0
SECTION
  2
HEADER
  9
$ACADVER
  1
AC1018
  9
$ACADMAINTVER
 70
   104
  9
$DWGCODEPAGE
  3
ANSI_1252
  9
$LASTSAVEDBY
  1
mburright
  9
$INSBASE
 10
0.0
 20
0.0
 30
0.0
  9
$EXTMIN
 10
-65.79466681699216
 20
-146.459839235871
 30
0.0
  9
$EXTMAX
 10
146.1241599224348
 20
198.5542265253549
 30
0.0
  9
$LIMMIN
 10
0.0
 20
0.0
  9
$LIMMAX
 10
12.0
 20
9.0
  9
$ORTHOMODE
 70
     0
  9
$REGENMODE
 70
     1
  9
$FILLMODE
 70
     1
  9
$QTEXTMODE
 70
     0
  9
$MIRRTEXT
 70
     0
  9
$LTSCALE
 40
1.0
  9
$ATTMODE
 70
     1
  9
$TEXTSIZE
 40
0.2
  9
$TRACEWID
 40
0.05
  9
$TEXTSTYLE
  7
Standard
  9
$CLAYER
  8
0
  9
$CELTYPE
  6
ByLayer
  9
$CECOLOR
 62
   256
  9
$CELTSCALE
 40
1.0
  9
$DISPSILH
 70
     0
  9
$DIMSCALE
 40
1.0
  9
$DIMASZ
 40
0.18
  9
$DIMEXO
 40
0.0625
  9
$DIMDLI
 40
0.38
  9
$DIMRND
 40
0.0
  9
$DIMDLE
 40
0.0
  9
$DIMEXE
 40
0.18
  9
$DIMTP
 40
0.0
  9
$DIMTM
 40
0.0
  9
$DIMTXT
 40
0.18
  9
$DIMCEN
 40
0.09
  9
$DIMTSZ
 40
0.0
  9
$DIMTOL
 70
     0
  9
$DIMLIM
 70
     0
  9
$DIMTIH
 70
     1
  9
$DIMTOH
 70
     1
  9
$DIMSE1
 70
     0
  9
$DIMSE2
 70
     0
  9
$DIMTAD
 70
     0
  9
$DIMZIN
 70
     0
  9
$DIMBLK
  1

  9
$DIMASO
 70
     1
  9
$DIMSHO
 70
     1
  9
$DIMPOST
  1

  9
$DIMAPOST
  1

  9
$DIMALT
 70
     0
  9
$DIMALTD
 70
     2
  9
$DIMALTF
 40
25.4
  9
$DIMLFAC
 40
1.0
  9
$DIMTOFL
 70
     0
  9
$DIMTVP
 40
0.0
  9
$DIMTIX
 70
     0
  9
$DIMSOXD
 70
     0
  9
$DIMSAH
 70
     0
  9
$DIMBLK1
  1

  9
$DIMBLK2
  1

  9
$DIMSTYLE
  2
Standard
  9
$DIMCLRD
 70
     0
  9
$DIMCLRE
 70
     0
  9
$DIMCLRT
 70
     0
  9
$DIMTFAC
 40
1.0
  9
$DIMGAP
 40
0.09
  9
$DIMJUST
 70
     0
  9
$DIMSD1
 70
     0
  9
$DIMSD2
 70
     0
  9
$DIMTOLJ
 70
     1
  9
$DIMTZIN
 70
     0
  9
$DIMALTZ
 70
     0
  9
$DIMALTTZ
 70
     0
  9
$DIMUPT
 70
     0
  9
$DIMDEC
 70
     4
  9
$DIMTDEC
 70
     4
  9
$DIMALTU
 70
     2
  9
$DIMALTTD
 70
     2
  9
$DIMTXSTY
  7
Standard
  9
$DIMAUNIT
 70
     0
  9
$DIMADEC
 70
     0
  9
$DIMALTRND
 40
0.0
  9
$DIMAZIN
 70
     0
  9
$DIMDSEP
 70
    46
  9
$DIMATFIT
 70
     3
  9
$DIMFRAC
 70
     0
  9
$DIMLDRBLK
  1

  9
$DIMLUNIT
 70
     2
  9
$DIMLWD
 70
    -2
  9
$DIMLWE
 70
    -2
  9
$DIMTMOVE
 70
     0
  9
$LUNITS
 70
     2
  9
$LUPREC
 70
     4
  9
$SKETCHINC
 40
0.1
  9
$FILLETRAD
 40
0.0
  9
$AUNITS
 70
     0
  9
$AUPREC
 70
     0
  9
$MENU
  1
.
  9
$ELEVATION
 40
0.0
  9
$PELEVATION
 40
0.0
  9
$THICKNESS
 40
0.0
  9
$LIMCHECK
 70
     0
  9
$CHAMFERA
 40
0.0
  9
$CHAMFERB
 40
0.0
  9
$CHAMFERC
 40
0.0
  9
$CHAMFERD
 40
0.0
  9
$SKPOLY
 70
     0
  9
$TDCREATE
 40
2455623.605141470
  9
$TDUCREATE
 40
2455623.855141470
  9
$TDUPDATE
 40
2455623.674280116
  9
$TDUUPDATE
 40
2455623.924280116
  9
$TDINDWG
 40
0.0026633912
  9
$TDUSRTIMER
 40
0.0026632060
  9
$USRTIMER
 70
     1
  9
$ANGBASE
 50
0.0
  9
$ANGDIR
 70
     0
  9
$PDMODE
 70
     0
  9
$PDSIZE
 40
0.0
  9
$PLINEWID
 40
0.0
  9
$SPLFRAME
 70
     0
  9
$SPLINETYPE
 70
     6
  9
$SPLINESEGS
 70
     8
  9
$HANDSEED
  5
51E
  9
$SURFTAB1
 70
     6
  9
$SURFTAB2
 70
     6
  9
$SURFTYPE
 70
     6
  9
$SURFU
 70
     6
  9
$SURFV
 70
     6
  9
$UCSBASE
  2

  9
$UCSNAME
  2

  9
$UCSORG
 10
0.0
 20
0.0
 30
0.0
  9
$UCSXDIR
 10
1.0
 20
0.0
 30
0.0
  9
$UCSYDIR
 10
0.0
 20
1.0
 30
0.0
  9
$UCSORTHOREF
  2

  9
$UCSORTHOVIEW
 70
     0
  9
$UCSORGTOP
 10
0.0
 20
0.0
 30
0.0
  9
$UCSORGBOTTOM
 10
0.0
 20
0.0
 30
0.0
  9
$UCSORGLEFT
 10
0.0
 20
0.0
 30
0.0
  9
$UCSORGRIGHT
 10
0.0
 20
0.0
 30
0.0
  9
$UCSORGFRONT
 10
0.0
 20
0.0
 30
0.0
  9
$UCSORGBACK
 10
0.0
 20
0.0
 30
0.0
  9
$PUCSBASE
  2

  9
$PUCSNAME
  2

  9
$PUCSORG
 10
0.0
 20
0.0
 30
0.0
  9
$PUCSXDIR
 10
1.0
 20
0.0
 30
0.0
  9
$PUCSYDIR
 10
0.0
 20
1.0
 30
0.0
  9
$PUCSORTHOREF
  2

  9
$PUCSORTHOVIEW
 70
     0
  9
$PUCSORGTOP
 10
0.0
 20
0.0
 30
0.0
  9
$PUCSORGBOTTOM
 10
0.0
 20
0.0
 30
0.0
  9
$PUCSORGLEFT
 10
0.0
 20
0.0
 30
0.0
  9
$PUCSORGRIGHT
 10
0.0
 20
0.0
 30
0.0
  9
$PUCSORGFRONT
 10
0.0
 20
0.0
 30
0.0
  9
$PUCSORGBACK
 10
0.0
 20
0.0
 30
0.0
  9
$USERI1
 70
     0
  9
$USERI2
 70
     0
  9
$USERI3
 70
     0
  9
$USERI4
 70
     0
  9
$USERI5
 70
     0
  9
$USERR1
 40
0.0
  9
$USERR2
 40
0.0
  9
$USERR3
 40
0.0
  9
$USERR4
 40
0.0
  9
$USERR5
 40
0.0
  9
$WORLDVIEW
 70
     1
  9
$SHADEDGE
 70
     3
  9
$SHADEDIF
 70
    70
  9
$TILEMODE
 70
     1
  9
$MAXACTVP
 70
    64
  9
$PINSBASE
 10
0.0
 20
0.0
 30
0.0
  9
$PLIMCHECK
 70
     0
  9
$PEXTMIN
 10
0.0
 20
0.0
 30
0.0
  9
$PEXTMAX
 10
0.0
 20
0.0
 30
0.0
  9
$PLIMMIN
 10
0.0
 20
0.0
  9
$PLIMMAX
 10
12.0
 20
9.0
  9
$UNITMODE
 70
     0
  9
$VISRETAIN
 70
     1
  9
$PLINEGEN
 70
     0
  9
$PSLTSCALE
 70
     1
  9
$TREEDEPTH
 70
  3020
  9
$CMLSTYLE
  2
Standard
  9
$CMLJUST
 70
     0
  9
$CMLSCALE
 40
1.0
  9
$PROXYGRAPHICS
 70
     1
  9
$MEASUREMENT
 70
     0
  9
$CELWEIGHT
370
    -1
  9
$ENDCAPS
280
     0
  9
$JOINSTYLE
280
     0
  9
$LWDISPLAY
290
     0
  9
$INSUNITS
 70
     1
  9
$HYPERLINKBASE
  1

  9
$STYLESHEET
  1

  9
$XEDIT
290
     1
  9
$CEPSNTYPE
380
     0
  9
$PSTYLEMODE
290
     1
  9
$FINGERPRINTGUID
  2
{31DEE3B8-F694-404F-94F9-7AC520553E8A}
  9
$VERSIONGUID
  2
{2C021520-C5F2-471B-9DA7-1930C9E25BD5}
  9
$EXTNAMES
290
     1
  9
$PSVPSCALE
 40
0.0
  9
$OLESTARTUP
290
     0
  9
$SORTENTS
280
   127
  9
$INDEXCTL
280
     0
  9
$HIDETEXT
280
     1
  9
$XCLIPFRAME
290
     0
  9
$HALOGAP
280
     0
  9
$OBSCOLOR
 70
   257
  9
$OBSLTYPE
280
     0
  9
$INTERSECTIONDISPLAY
280
     0
  9
$INTERSECTIONCOLOR
 70
   257
  9
$DIMASSOC
280
     2
  9
$PROJECTNAME
  1

  0
ENDSEC
  0
SECTION
  2
CLASSES
  0
CLASS
  1
ACDBDICTIONARYWDFLT
  2
AcDbDictionaryWithDefault
  3
ObjectDBX Classes
 90
        0
 91
        1
280
     0
281
     0
  0
CLASS
  1
DICTIONARYVAR
  2
AcDbDictionaryVar
  3
ObjectDBX Classes
 90
        0
 91
       11
280
     0
281
     0
  0
CLASS
  1
TABLESTYLE
  2
AcDbTableStyle
  3
ObjectDBX Classes
 90
     4095
 91
        1
280
     0
281
     0
  0
CLASS
  1
MATERIAL
  2
AcDbMaterial
  3
ObjectDBX Classes
 90
     1153
 91
        3
280
     0
281
     0
  0
CLASS
  1
VISUALSTYLE
  2
AcDbVisualStyle
  3
ObjectDBX Classes
 90
     4095
 91
       19
280
     0
281
     0
  0
CLASS
  1
SCALE
  2
AcDbScale
  3
ObjectDBX Classes
 90
     1153
 91
       33
280
     0
281
     0
  0
CLASS
  1
MLEADERSTYLE
  2
AcDbMLeaderStyle
  3
ACDB_MLEADERSTYLE_CLASS
 90
     4095
 91
        2
280
     0
281
     0
  0
CLASS
  1
CELLSTYLEMAP
  2
AcDbCellStyleMap
  3
ObjectDBX Classes
 90
     1152
 91
        2
280
     0
281
     0
  0
CLASS
  1
EXACXREFPANELOBJECT
  2
ExAcXREFPanelObject
  3
EXAC_ESW
 90
     1025
 91
        1
280
     0
281
     0
  0
CLASS
  1
NPOCOLLECTION
  2
AcDbImpNonPersistentObjectsCollection
  3
ObjectDBX Classes
 90
     1153
 91
        1
280
     0
281
     0
  0
CLASS
  1
LAYER_INDEX
  2
AcDbLayerIndex
  3
ObjectDBX Classes
 90
        0
 91
        0
280
     0
281
     0
  0
CLASS
  1
SPATIAL_INDEX
  2
AcDbSpatialIndex
  3
ObjectDBX Classes
 90
        0
 91
        0
280
     0
281
     0
  0
CLASS
  1
IDBUFFER
  2
AcDbIdBuffer
  3
ObjectDBX Classes
 90
        0
 91
        0
280
     0
281
     0
  0
ENDSEC
  0
SECTION
  2
TABLES
  0
TABLE
  2
VPORT
  5
8
102
{ACAD_XDICTIONARY
360
486
102
}
330
0
100
AcDbSymbolTable
 70
     1
  0
VPORT
  5
94
330
8
100
AcDbSymbolTableRecord
100
AcDbViewportTableRecord
  2
*Active
 70
     0
 10
0.0
 20
0.0
 11
1.0
 21
1.0
 12
40.16474704613336
 22
26.04719444804044
 13
0.0
 23
0.0
 14
0.5
 24
0.5
 15
0.5
 25
0.5
 16
0.0
 26
0.0
 36
1.0
 17
0.0
 27
0.0
 37
0.0
 40
347.7379915181871
 41
1.524813895781637
 42
50.0
 43
0.0
 44
0.0
 50
0.0
 51
0.0
 71
     0
 72
  1000
 73
     1
 74
     3
 75
     0
 76
     0
 77
     0
 78
     0
281
     0
 65
     1
110
0.0
120
0.0
130
0.0
111
1.0
121
0.0
131
0.0
112
0.0
122
1.0
132
0.0
 79
     0
146
0.0
  0
ENDTAB
  0
TABLE
  2
LTYPE
  5
5
330
0
100
AcDbSymbolTable
 70
     5
  0
LTYPE
  5
14
330
5
100
AcDbSymbolTableRecord
100
AcDbLinetypeTableRecord
  2
ByBlock
 70
     0
  3

 72
    65
 73
     0
 40
0.0
  0
LTYPE
  5
15
330
5
100
AcDbSymbolTableRecord
100
AcDbLinetypeTableRecord
  2
ByLayer
 70
     0
  3

 72
    65
 73
     0
 40
0.0
  0
LTYPE
  5
16
330
5
100
AcDbSymbolTableRecord
100
AcDbLinetypeTableRecord
  2
Continuous
 70
     0
  3
Solid line
 72
    65
 73
     0
 40
0.0
  0
LTYPE
  5
372
330
5
100
AcDbSymbolTableRecord
100
AcDbLinetypeTableRecord
  2
GESTRICHELT2
 70
     0
  3
_ _ _ _ _ _ _ _ _ _ _ _ _ _ _ _ _ _ _ _ _ _ _ _
 72
    65
 73
     2
 40
0.375
 49
0.25
 74
     0
 49
-0.125
 74
     0
  0
LTYPE
  5
373
330
5
100
AcDbSymbolTableRecord
100
AcDbLinetypeTableRecord
  2
MITTE2
 70
     0
  3
Mitte (.5x) ___ _ ___ _ ___ _ ___ _ ___ _ ___
 72
    65
 73
     4
 40
1.125
 49
0.75
 74
     0
 49
-0.125
 74
     0
 49
0.125
 74
     0
 49
-0.125
 74
     0
  0
LTYPE
  5
374
330
5
100
AcDbSymbolTableRecord
100
AcDbLinetypeTableRecord
  2
STRICHLINIE
 70
     0
  3
Strichlinie __ __ __ __ __ __ __ __ __ __ __ __
 72
    65
 73
     2
 40
0.75
 49
0.5
 74
     0
 49
-0.25
 74
     0
  0
LTYPE
  5
375
330
5
100
AcDbSymbolTableRecord
100
AcDbLinetypeTableRecord
  2
CENTER2
 70
     0
  3
___ _ ___ _ ___ _ ___ _ ___ _ ___ _ ___ _ ___ _
 72
    65
 73
     4
 40
1.125
 49
0.75
 74
     0
 49
-0.125
 74
     0
 49
0.125
 74
     0
 49
-0.125
 74
     0
  0
ENDTAB
  0
TABLE
  2
LAYER
  5
2
330
0
100
AcDbSymbolTable
 70
    11
  0
LAYER
  5
10
102
{ACAD_XDICTIONARY
360
E6
102
}
330
2
100
AcDbSymbolTableRecord
100
AcDbLayerTableRecord
  2
0
 70
     0
 62
     7
  6
Continuous
370
    -3
390
F
  0
LAYER
  5
376
330
2
100
AcDbSymbolTableRecord
100
AcDbLayerTableRecord
  2
COMPONENTS
 70
     0
 62
     1
  6
Continuous
370
    -3
390
F
  0
LAYER
  5
377
330
2
100
AcDbSymbolTableRecord
100
AcDbLayerTableRecord
  2
GESTRICHELT
 70
     0
 62
     6
  6
GESTRICHELT2
370
    -3
390
F
  0
LAYER
  5
378
330
2
100
AcDbSymbolTableRecord
100
AcDbLayerTableRecord
  2
1
 70
     0
 62
    -7
  6
Continuous
370
    -3
390
F
  0
LAYER
  5
379
330
2
100
AcDbSymbolTableRecord
100
AcDbLayerTableRecord
  2
100-S
 70
     0
 62
     4
  6
GESTRICHELT2
370
    -3
390
F
  0
LAYER
  5
37A
330
2
100
AcDbSymbolTableRecord
100
AcDbLayerTableRecord
  2
Screwholes
 70
     0
 62
    -1
  6
Continuous
370
    -3
390
F
  0
LAYER
  5
37B
330
2
100
AcDbSymbolTableRecord
100
AcDbLayerTableRecord
  2
Busbars
 70
     0
 62
     4
  6
Continuous
370
    -3
390
F
  0
LAYER
  5
37C
330
2
100
AcDbSymbolTableRecord
100
AcDbLayerTableRecord
  2
Defpoints
 70
     0
 62
     7
  6
Continuous
290
     0
370
    -3
390
F
  0
LAYER
  5
37D
330
2
100
AcDbSymbolTableRecord
100
AcDbLayerTableRecord
  2
Measures
 70
     0
 62
     5
  6
Continuous
370
    -3
390
F
  0
LAYER
  5
37E
330
2
100
AcDbSymbolTableRecord
100
AcDbLayerTableRecord
  2
140-AS
 70
     0
 62
     6
  6
GESTRICHELT2
370
    -3
390
F
  0
LAYER
  5
37F
330
2
100
AcDbSymbolTableRecord
100
AcDbLayerTableRecord
  2
Mitte
 70
     0
 62
     3
  6
CENTER2
370
    15
390
F
  0
ENDTAB
  0
TABLE
  2
STYLE
  5
3
330
0
100
AcDbSymbolTable
 70
     3
  0
STYLE
  5
11
330
3
100
AcDbSymbolTableRecord
100
AcDbTextStyleTableRecord
  2
Standard
 70
     0
 40
0.0
 41
1.0
 50
0.0
 71
     0
 42
0.2
  3
ARIAL.TTF
  4

1001
ACAD
1000
Arial
1071
       34
  0
STYLE
  5
DC
330
3
100
AcDbSymbolTableRecord
100
AcDbTextStyleTableRecord
  2
Annotative
 70
     0
 40
0.0
 41
1.0
 50
0.0
 71
     0
 42
0.2
  3
ARIAL.TTF
  4

1001
AcadAnnotative
1000
AnnotativeData
1002
{
1070
     1
1070
     1
1002
}
1001
ACAD
1000
Arial
1071
       34
  0
STYLE
  5
380
330
3
100
AcDbSymbolTableRecord
100
AcDbTextStyleTableRecord
  2
ARIAL
 70
     0
 40
5.0
 41
1.0
 50
0.0
 71
     0
 42
5.0
  3
ARIAL.TTF
  4

1001
ACAD
1000
Arial
1071
       34
  0
ENDTAB
  0
TABLE
  2
VIEW
  5
6
330
0
100
AcDbSymbolTable
 70
     0
  0
ENDTAB
  0
TABLE
  2
UCS
  5
7
330
0
100
AcDbSymbolTable
 70
     0
  0
ENDTAB
  0
TABLE
  2
APPID
  5
9
330
0
100
AcDbSymbolTable
 70
     7
  0
APPID
  5
12
330
9
100
AcDbSymbolTableRecord
100
AcDbRegAppTableRecord
  2
ACAD
 70
     0
  0
APPID
  5
DD
330
9
100
AcDbSymbolTableRecord
100
AcDbRegAppTableRecord
  2
AcadAnnoPO
 70
     0
  0
APPID
  5
DE
330
9
100
AcDbSymbolTableRecord
100
AcDbRegAppTableRecord
  2
AcadAnnotative
 70
     0
  0
APPID
  5
DF
330
9
100
AcDbSymbolTableRecord
100
AcDbRegAppTableRecord
  2
ACAD_DSTYLE_DIMJAG
 70
     0
  0
APPID
  5
E0
330
9
100
AcDbSymbolTableRecord
100
AcDbRegAppTableRecord
  2
ACAD_DSTYLE_DIMTALN
 70
     0
  0
APPID
  5
107
330
9
100
AcDbSymbolTableRecord
100
AcDbRegAppTableRecord
  2
ACAD_MLEADERVER
 70
     0
  0
APPID
  5
382
330
9
100
AcDbSymbolTableRecord
100
AcDbRegAppTableRecord
  2
AcDbDynamicBlockGUID
 70
     0
  0
ENDTAB
  0
TABLE
  2
DIMSTYLE
  5
A
330
0
100
AcDbSymbolTable
 70
     3
100
AcDbDimStyleTable
 71
     2
340
27
340
E1
  0
DIMSTYLE
105
27
330
A
100
AcDbSymbolTableRecord
100
AcDbDimStyleTableRecord
  2
Standard
 70
     0
340
11
  0
DIMSTYLE
105
E1
330
A
100
AcDbSymbolTableRecord
100
AcDbDimStyleTableRecord
  2
Annotative
 70
     0
 40
0.0
340
11
1001
AcadAnnotative
1000
AnnotativeData
1002
{
1070
     1
1070
     1
1002
}
1001
ACAD_DSTYLE_DIMJAG
1070
   388
1040
1.5
1001
ACAD_DSTYLE_DIMTALN
1070
   392
1070
     0
  0
DIMSTYLE
105
381
102
{ACAD_REACTORS
330
3A8
330
3A9
330
3AA
330
3AB
330
3AC
330
3B1
330
3B2
330
3C4
330
3C5
102
}
330
A
100
AcDbSymbolTableRecord
100
AcDbDimStyleTableRecord
  2
ARIAL
 70
     0
 41
5.0
 42
1.0
 43
15.0
 44
2.5
 73
     0
 74
     0
 77
     1
 78
     8
140
5.0
141
2.5
143
0.0394
147
1.0
171
     4
172
     1
273
     8
274
     4
277
     6
289
     1
340
380
  0
ENDTAB
  0
TABLE
  2
BLOCK_RECORD
  5
1
330
0
100
AcDbSymbolTable
 70
    23
  0
BLOCK_RECORD
  5
1F
102
{ACAD_XDICTIONARY
360
15D
102
}
330
1
100
AcDbSymbolTableRecord
100
AcDbBlockTableRecord
  2
*Model_Space
340
22
  0
BLOCK_RECORD
  5
58
330
1
100
AcDbSymbolTableRecord
100
AcDbBlockTableRecord
  2
*Paper_Space
340
59
  0
BLOCK_RECORD
  5
5D
330
1
100
AcDbSymbolTableRecord
100
AcDbBlockTableRecord
  2
*Paper_Space0
340
5E
  0
BLOCK_RECORD
  5
183
102
{ACAD_XDICTIONARY
360
184
102
}
330
1
100
AcDbSymbolTableRecord
100
AcDbBlockTableRecord
  2
CRI7E-24
340
0
102
{BLKREFS
331
3B3
331
3B4
102
}
1001
AcDbDynamicBlockGUID
1000
{4B108A38-00D4-419E-9F86-33992323E8ED}
  0
BLOCK_RECORD
  5
195
102
{ACAD_XDICTIONARY
360
196
102
}
330
1
100
AcDbSymbolTableRecord
100
AcDbBlockTableRecord
  2
CA7-PV-11
340
0
102
{BLKREFS
331
3B5
331
3B6
102
}
1001
AcDbDynamicBlockGUID
1000
{B7ADB6BB-7D9D-4EA0-B2EF-6AD2C82A07D3}
  0
BLOCK_RECORD
  5
1B2
102
{ACAD_XDICTIONARY
360
1B3
102
}
330
1
100
AcDbSymbolTableRecord
100
AcDbBlockTableRecord
  2
CA7-PV-22
340
0
102
{BLKREFS
331
3B7
331
3B8
102
}
1001
AcDbDynamicBlockGUID
1000
{51CF6F36-C9C5-4489-A7A1-956091FC4880}
  0
BLOCK_RECORD
  5
1DF
330
1
100
AcDbSymbolTableRecord
100
AcDbBlockTableRecord
  2
*X4
340
0
102
{BLKREFS
331
206
102
}
  0
BLOCK_RECORD
  5
202
330
1
100
AcDbSymbolTableRecord
100
AcDbBlockTableRecord
  2
LOCH_4MM
340
0
102
{BLKREFS
331
2E8
331
2F2
102
}
  0
BLOCK_RECORD
  5
20D
102
{ACAD_XDICTIONARY
360
20E
102
}
330
1
100
AcDbSymbolTableRecord
100
AcDbBlockTableRecord
  2
CA7-PA-11
340
0
102
{BLKREFS
331
3C0
331
3C1
102
}
1001
AcDbDynamicBlockGUID
1000
{D09E2383-11AA-41E4-A505-DC4E276057A5}
  0
BLOCK_RECORD
  5
21D
102
{ACAD_XDICTIONARY
360
21E
102
}
330
1
100
AcDbSymbolTableRecord
100
AcDbBlockTableRecord
  2
KT7-PAF1
340
0
102
{BLKREFS
331
3BF
102
}
1001
AcDbDynamicBlockGUID
1000
{F188DDE0-E2B3-4002-8F30-6B8E8E5A9BE0}
  0
BLOCK_RECORD
  5
22F
330
1
100
AcDbSymbolTableRecord
100
AcDbBlockTableRecord
  2
W-32490
340
0
102
{BLKREFS
331
3B9
102
}
  0
BLOCK_RECORD
  5
26B
330
1
100
AcDbSymbolTableRecord
100
AcDbBlockTableRecord
  2
DIN RAIL
340
0
102
{BLKREFS
331
3AD
331
3AE
331
3AF
331
3B0
102
}
  0
BLOCK_RECORD
  5
277
330
1
100
AcDbSymbolTableRecord
100
AcDbBlockTableRecord
  2
W-32489
340
0
102
{BLKREFS
331
3BA
102
}
  0
BLOCK_RECORD
  5
2AE
330
1
100
AcDbSymbolTableRecord
100
AcDbBlockTableRecord
  2
KTA7-25
340
0
102
{BLKREFS
331
3BC
102
}
  0
BLOCK_RECORD
  5
2DE
330
1
100
AcDbSymbolTableRecord
100
AcDbBlockTableRecord
  2
CA7-9...23
340
0
102
{BLKREFS
331
3BB
331
3BD
102
}
  0
BLOCK_RECORD
  5
2F7
330
1
100
AcDbSymbolTableRecord
100
AcDbBlockTableRecord
  2
CM7-02
340
0
102
{BLKREFS
331
3BE
102
}
  0
BLOCK_RECORD
  5
3C7
330
1
100
AcDbSymbolTableRecord
100
AcDbBlockTableRecord
  2
*D14
340
0
  0
BLOCK_RECORD
  5
3D3
330
1
100
AcDbSymbolTableRecord
100
AcDbBlockTableRecord
  2
*D15
340
0
  0
BLOCK_RECORD
  5
3DF
330
1
100
AcDbSymbolTableRecord
100
AcDbBlockTableRecord
  2
*D16
340
0
  0
BLOCK_RECORD
  5
3EB
330
1
100
AcDbSymbolTableRecord
100
AcDbBlockTableRecord
  2
*D17
340
0
  0
BLOCK_RECORD
  5
3F7
330
1
100
AcDbSymbolTableRecord
100
AcDbBlockTableRecord
  2
*D18
340
0
  0
BLOCK_RECORD
  5
403
330
1
100
AcDbSymbolTableRecord
100
AcDbBlockTableRecord
  2
*D19
340
0
  0
BLOCK_RECORD
  5
40F
330
1
100
AcDbSymbolTableRecord
100
AcDbBlockTableRecord
  2
*D20
340
0
  0
BLOCK_RECORD
  5
41B
330
1
100
AcDbSymbolTableRecord
100
AcDbBlockTableRecord
  2
*D21
340
0
  0
BLOCK_RECORD
  5
427
330
1
100
AcDbSymbolTableRecord
100
AcDbBlockTableRecord
  2
*D22
340
0
  0
ENDTAB
  0
ENDSEC
  0
SECTION
  2
BLOCKS
  0
BLOCK
  5
20
330
1F
100
AcDbEntity
  8
0
100
AcDbBlockBegin
  2
*Model_Space
 70
     0
 10
0.0
 20
0.0
 30
0.0
  3
*Model_Space
  1

  0
ENDBLK
  5
21
330
1F
100
AcDbEntity
  8
0
100
AcDbBlockEnd
  0
BLOCK
  5
5A
330
58
100
AcDbEntity
 67
     1
  8
0
100
AcDbBlockBegin
  2
*Paper_Space
 70
     0
 10
0.0
 20
0.0
 30
0.0
  3
*Paper_Space
  1

  0
ENDBLK
  5
5B
330
58
100
AcDbEntity
 67
     1
  8
0
100
AcDbBlockEnd
  0
BLOCK
  5
5F
330
5D
100
AcDbEntity
 67
     1
  8
0
100
AcDbBlockBegin
  2
*Paper_Space0
 70
     0
 10
0.0
 20
0.0
 30
0.0
  3
*Paper_Space0
  1

  0
ENDBLK
  5
60
330
5D
100
AcDbEntity
 67
     1
  8
0
100
AcDbBlockEnd
  0
BLOCK
  5
185
330
183
100
AcDbEntity
  8
0
100
AcDbBlockBegin
  2
CRI7E-24
 70
     0
 10
0.0
 20
0.0
 30
0.0
  3
CRI7E-24
  1

  0
LINE
  5
186
330
183
100
AcDbEntity
  8
0
  6
STRICHLINIE
 48
6.0
100
AcDbLine
 10
-14.99999999999997
 20
-8.999999500000003
 30
0.0
 11
22.5
 21
-8.999999500000003
 31
0.0
  0
CIRCLE
  5
187
330
183
100
AcDbEntity
  8
0
  6
STRICHLINIE
 48
6.0
100
AcDbCircle
 10
17.0
 20
-3.499999500000001
 30
0.0
 40
3.0
  0
CIRCLE
  5
188
330
183
100
AcDbEntity
  8
0
  6
STRICHLINIE
 48
6.0
100
AcDbCircle
 10
-10.0
 20
-3.499999500000001
 30
0.0
 40
3.0
  0
LINE
  5
189
330
183
100
AcDbEntity
  8
0
  6
STRICHLINIE
 48
6.0
100
AcDbLine
 10
-14.99999999999998
 20
-8.999999499999972
 30
0.0
 11
-15.0
 21
9.5
 31
0.0
  0
CIRCLE
  5
18A
330
183
100
AcDbEntity
  8
0
  6
STRICHLINIE
 48
6.0
100
AcDbCircle
 10
0.0
 20
-3.499999500000001
 30
0.0
 40
3.0
  0
LINE
  5
18B
330
183
100
AcDbEntity
  8
1
  6
STRICHLINIE
 48
6.0
100
AcDbLine
 10
0.0
 20
1.0
 30
0.0
 11
0.0
 21
-1.0
 31
0.0
  0
LINE
  5
18C
330
183
100
AcDbEntity
  8
0
  6
STRICHLINIE
 48
6.0
100
AcDbLine
 10
11.80000000000007
 20
-6.799999499999983
 30
0.0
 11
5.200000000000044
 21
-6.799999499999983
 31
0.0
  0
LINE
  5
18D
330
183
100
AcDbEntity
  8
0
  6
STRICHLINIE
 48
6.0
100
AcDbLine
 10
5.200000000000044
 20
-8.999999500000003
 30
0.0
 11
5.200000000000044
 21
-6.799999499999983
 31
0.0
  0
ARC
  5
18E
330
183
100
AcDbEntity
  8
0
  6
STRICHLINIE
 48
6.0
100
AcDbCircle
 10
7.700000000000045
 20
-7.499999500000001
 30
0.0
 40
1.44999995
100
AcDbArc
 50
180.0
 51
0.0
  0
LINE
  5
18F
330
183
100
AcDbEntity
  8
0
  6
STRICHLINIE
 48
6.0
100
AcDbLine
 10
11.80000000000007
 20
-8.999999500000003
 30
0.0
 11
11.80000000000007
 21
-6.799999499999983
 31
0.0
  0
LINE
  5
190
330
183
100
AcDbEntity
  8
0
  6
STRICHLINIE
 48
6.0
100
AcDbLine
 10
22.5
 20
-8.999999500000003
 30
0.0
 11
22.5
 21
9.5
 31
0.0
  0
LINE
  5
191
330
183
100
AcDbEntity
  8
1
  6
STRICHLINIE
 48
6.0
100
AcDbLine
 10
-1.0
 20
0.0
 30
0.0
 11
1.0
 21
0.0
 31
0.0
  0
LINE
  5
192
330
183
100
AcDbEntity
  8
0
  6
STRICHLINIE
 48
6.0
100
AcDbLine
 10
14.0
 20
9.5
 30
0.0
 11
-15.0
 21
9.5
 31
0.0
  0
LINE
  5
193
330
183
100
AcDbEntity
  8
0
  6
STRICHLINIE
 48
6.0
100
AcDbLine
 10
22.5
 20
9.5
 30
0.0
 11
14.0
 21
9.5
 31
0.0
  0
ENDBLK
  5
194
330
183
100
AcDbEntity
  8
0
100
AcDbBlockEnd
  0
BLOCK
  5
197
330
195
100
AcDbEntity
  8
0
100
AcDbBlockBegin
  2
CA7-PV-11
 70
     0
 10
0.0
 20
0.0
 30
0.0
  3
CA7-PV-11
  1

  0
LWPOLYLINE
  5
198
330
195
100
AcDbEntity
  8
0
  6
STRICHLINIE
 48
6.0
100
AcDbPolyline
 90
        4
 70
     1
 43
0.0
 10
-12.5
 20
19.0
 10
-12.5
 20
-19.0
 10
12.5
 20
-19.0
 10
12.5
 20
19.0
  0
LINE
  5
199
330
195
100
AcDbEntity
  8
0
  6
STRICHLINIE
 48
6.0
100
AcDbLine
 10
1.506701114575605
 20
-23.30802562330143
 30
0.0
 11
1.506701114575605
 21
-18.98882513651591
 31
0.0
  0
LINE
  5
19A
330
195
100
AcDbEntity
  8
0
  6
STRICHLINIE
 48
6.0
100
AcDbLine
 10
-1.506691069935015
 20
-23.30802562330143
 30
0.0
 11
-1.506691069935015
 21
-18.98882513651591
 31
0.0
  0
LINE
  5
19B
330
195
100
AcDbEntity
  8
0
  6
STRICHLINIE
 48
6.0
100
AcDbLine
 10
-1.506691069935015
 20
-23.30802562330143
 30
0.0
 11
1.506701114575605
 21
-23.30802562330143
 31
0.0
  0
CIRCLE
  5
19C
330
195
100
AcDbEntity
  8
0
  6
STRICHLINIE
 48
6.0
100
AcDbCircle
 10
5.5
 20
-14.5
 30
0.0
 40
3.0
  0
CIRCLE
  5
19D
330
195
100
AcDbEntity
  8
0
  6
STRICHLINIE
 48
6.0
100
AcDbCircle
 10
-5.5
 20
-14.5
 30
0.0
 40
3.0
  0
LINE
  5
19E
330
195
100
AcDbEntity
  8
0
  6
STRICHLINIE
 48
6.0
100
AcDbLine
 10
-10.99286252391419
 20
-22.0
 30
0.0
 11
-12.59999999999957
 21
-22.0
 31
0.0
  0
LINE
  5
19F
330
195
100
AcDbEntity
  8
0
  6
STRICHLINIE
 48
6.0
100
AcDbLine
 10
-10.99286252391419
 20
-22.0
 30
0.0
 11
-10.99286252391419
 21
-18.98884522579715
 31
0.0
  0
LINE
  5
1A0
330
195
100
AcDbEntity
  8
0
  6
STRICHLINIE
 48
6.0
100
AcDbLine
 10
-12.5
 20
-19.0
 30
0.0
 11
-12.5
 21
-22.0
 31
0.0
  0
LINE
  5
1A1
330
195
100
AcDbEntity
  8
1
  6
STRICHLINIE
 48
6.0
100
AcDbLine
 10
0.0
 20
1.0
 30
0.0
 11
0.0
 21
-1.0
 31
0.0
  0
LINE
  5
1A2
330
195
100
AcDbEntity
  8
1
  6
STRICHLINIE
 48
6.0
100
AcDbLine
 10
-1.0
 20
0.0
 30
0.0
 11
1.0
 21
0.0
 31
0.0
  0
LINE
  5
1A3
330
195
100
AcDbEntity
  8
0
  6
STRICHLINIE
 48
6.0
100
AcDbLine
 10
12.5
 20
-22.0
 30
0.0
 11
10.99284745695325
 21
-22.0
 31
0.0
  0
LINE
  5
1A4
330
195
100
AcDbEntity
  8
0
  6
STRICHLINIE
 48
6.0
100
AcDbLine
 10
10.99284745695325
 20
-22.0
 30
0.0
 11
10.99284745695325
 21
-18.98884522579715
 31
0.0
  0
LINE
  5
1A5
330
195
100
AcDbEntity
  8
0
  6
STRICHLINIE
 48
6.0
100
AcDbLine
 10
12.5
 20
-19.0
 30
0.0
 11
12.5
 21
-22.0
 31
0.0
  0
CIRCLE
  5
1A6
330
195
100
AcDbEntity
  8
0
  6
STRICHLINIE
 48
6.0
100
AcDbCircle
 10
5.5
 20
14.5
 30
0.0
 40
3.0
  0
CIRCLE
  5
1A7
330
195
100
AcDbEntity
  8
0
  6
STRICHLINIE
 48
6.0
100
AcDbCircle
 10
-5.5
 20
14.5
 30
0.0
 40
3.0
  0
LINE
  5
1A8
330
195
100
AcDbEntity
  8
0
  6
STRICHLINIE
 48
6.0
100
AcDbLine
 10
-12.5
 20
19.0
 30
0.0
 11
-12.5
 21
22.0
 31
0.0
  0
LINE
  5
1A9
330
195
100
AcDbEntity
  8
0
  6
STRICHLINIE
 48
6.0
100
AcDbLine
 10
-10.99286252391419
 20
22.0
 30
0.0
 11
-10.99286252391419
 21
18.98884522579715
 31
0.0
  0
LINE
  5
1AA
330
195
100
AcDbEntity
  8
0
  6
STRICHLINIE
 48
6.0
100
AcDbLine
 10
-10.99286252391419
 20
22.0
 30
0.0
 11
-12.59999999999957
 21
22.0
 31
0.0
  0
LINE
  5
1AB
330
195
100
AcDbEntity
  8
0
  6
STRICHLINIE
 48
6.0
100
AcDbLine
 10
-1.506691069935015
 20
23.30802562330143
 30
0.0
 11
1.506701114575605
 21
23.30802562330143
 31
0.0
  0
LINE
  5
1AC
330
195
100
AcDbEntity
  8
0
  6
STRICHLINIE
 48
6.0
100
AcDbLine
 10
-1.506691069935015
 20
23.30802562330143
 30
0.0
 11
-1.506691069935015
 21
18.98882513651591
 31
0.0
  0
LINE
  5
1AD
330
195
100
AcDbEntity
  8
0
  6
STRICHLINIE
 48
6.0
100
AcDbLine
 10
1.506701114575605
 20
23.30802562330143
 30
0.0
 11
1.506701114575605
 21
18.98882513651591
 31
0.0
  0
LINE
  5
1AE
330
195
100
AcDbEntity
  8
0
  6
STRICHLINIE
 48
6.0
100
AcDbLine
 10
12.5
 20
19.0
 30
0.0
 11
12.5
 21
22.0
 31
0.0
  0
LINE
  5
1AF
330
195
100
AcDbEntity
  8
0
  6
STRICHLINIE
 48
6.0
100
AcDbLine
 10
10.99284745695325
 20
22.0
 30
0.0
 11
10.99284745695325
 21
18.98884522579715
 31
0.0
  0
LINE
  5
1B0
330
195
100
AcDbEntity
  8
0
  6
STRICHLINIE
 48
6.0
100
AcDbLine
 10
12.5
 20
22.0
 30
0.0
 11
10.99284745695325
 21
22.0
 31
0.0
  0
ENDBLK
  5
1B1
330
195
100
AcDbEntity
  8
0
100
AcDbBlockEnd
  0
BLOCK
  5
1B4
330
1B2
100
AcDbEntity
  8
0
100
AcDbBlockBegin
  2
CA7-PV-22
 70
     0
 10
0.0
 20
0.0
 30
0.0
  3
CA7-PV-22
  1

  0
LWPOLYLINE
  5
1B5
330
1B2
100
AcDbEntity
  8
0
  6
STRICHLINIE
 48
6.0
100
AcDbPolyline
 90
        4
 70
     1
 43
0.0
 10
-22.5
 20
19.0
 10
-22.5
 20
-19.0
 10
22.5
 20
-19.0
 10
22.5
 20
19.0
  0
CIRCLE
  5
1B6
330
1B2
100
AcDbEntity
  8
0
  6
STRICHLINIE
 48
6.0
100
AcDbCircle
 10
16.5
 20
-14.5
 30
0.0
 40
3.0
  0
LINE
  5
1B7
330
1B2
100
AcDbEntity
  8
0
  6
STRICHLINIE
 48
6.0
100
AcDbLine
 10
12.45535938496414
 20
-23.30802526606527
 30
0.0
 11
12.45535938496414
 21
-18.98882477927975
 31
0.0
  0
LINE
  5
1B8
330
1B2
100
AcDbEntity
  8
0
  6
STRICHLINIE
 48
6.0
100
AcDbLine
 10
9.441967200453516
 20
-23.30802526606527
 30
0.0
 11
9.441967200453516
 21
-18.98882980160005
 31
0.0
  0
LINE
  5
1B9
330
1B2
100
AcDbEntity
  8
0
  6
STRICHLINIE
 48
6.0
100
AcDbLine
 10
1.506701114575661
 20
-23.30803028838557
 30
0.0
 11
1.506701114575661
 21
-18.98882980160005
 31
0.0
  0
LINE
  5
1BA
330
1B2
100
AcDbEntity
  8
0
  6
STRICHLINIE
 48
6.0
100
AcDbLine
 10
-1.506691069934959
 20
-23.30803028838557
 30
0.0
 11
-1.506691069934959
 21
-18.98882980160005
 31
0.0
  0
LINE
  5
1BB
330
1B2
100
AcDbEntity
  8
0
  6
STRICHLINIE
 48
6.0
100
AcDbLine
 10
-9.441957155812817
 20
-23.30802966059554
 30
0.0
 11
-9.441957155812817
 21
-18.98883482392034
 31
0.0
  0
LINE
  5
1BC
330
1B2
100
AcDbEntity
  8
0
  6
STRICHLINIE
 48
6.0
100
AcDbLine
 10
-12.45534934032344
 20
-23.30803593849589
 30
0.0
 11
-12.45534934032344
 21
-18.98883482392034
 31
0.0
  0
LINE
  5
1BD
330
1B2
100
AcDbEntity
  8
0
  6
STRICHLINIE
 48
6.0
100
AcDbLine
 10
-12.45534934032344
 20
-23.30803593849589
 30
0.0
 11
-9.441957155812817
 21
-23.30802966059554
 31
0.0
  0
LINE
  5
1BE
330
1B2
100
AcDbEntity
  8
0
  6
STRICHLINIE
 48
6.0
100
AcDbLine
 10
-1.506691069934959
 20
-23.30803028838557
 30
0.0
 11
1.506701114575661
 21
-23.30803028838557
 31
0.0
  0
LINE
  5
1BF
330
1B2
100
AcDbEntity
  8
0
  6
STRICHLINIE
 48
6.0
100
AcDbLine
 10
9.441967200453516
 20
-23.30802526606527
 30
0.0
 11
12.45535938496414
 21
-23.30802526606527
 31
0.0
  0
CIRCLE
  5
1C0
330
1B2
100
AcDbEntity
  8
0
  6
STRICHLINIE
 48
6.0
100
AcDbCircle
 10
-5.5
 20
-14.5
 30
0.0
 40
3.0
  0
CIRCLE
  5
1C1
330
1B2
100
AcDbEntity
  8
0
  6
STRICHLINIE
 48
6.0
100
AcDbCircle
 10
-16.5
 20
-14.5
 30
0.0
 40
3.0
  0
LINE
  5
1C2
330
1B2
100
AcDbEntity
  8
0
  6
STRICHLINIE
 48
6.0
100
AcDbLine
 10
-20.89286252391412
 20
-22.0
 30
0.0
 11
-22.49999999999955
 21
-22.0
 31
0.0
  0
LINE
  5
1C3
330
1B2
100
AcDbEntity
  8
0
  6
STRICHLINIE
 48
6.0
100
AcDbLine
 10
-20.89286252391413
 20
-21.99999999999997
 30
0.0
 11
-20.89286252391412
 21
-18.98884989088128
 31
0.0
  0
LINE
  5
1C4
330
1B2
100
AcDbEntity
  8
0
  6
STRICHLINIE
 48
6.0
100
AcDbLine
 10
-22.5
 20
-19.0
 30
0.0
 11
-22.5
 21
-22.0
 31
0.0
  0
CIRCLE
  5
1C5
330
1B2
100
AcDbEntity
  8
0
  6
STRICHLINIE
 48
6.0
100
AcDbCircle
 10
5.5
 20
-14.5
 30
0.0
 40
3.0
  0
LINE
  5
1C6
330
1B2
100
AcDbEntity
  8
1
  6
STRICHLINIE
 48
6.0
100
AcDbLine
 10
-1.0
 20
0.0
 30
0.0
 11
1.0
 21
0.0
 31
0.0
  0
LINE
  5
1C7
330
1B2
100
AcDbEntity
  8
1
  6
STRICHLINIE
 48
6.0
100
AcDbLine
 10
0.0
 20
1.0
 30
0.0
 11
0.0
 21
-1.0
 31
0.0
  0
LINE
  5
1C8
330
1B2
100
AcDbEntity
  8
0
  6
STRICHLINIE
 48
6.0
100
AcDbLine
 10
22.49998982143265
 20
-22.0
 30
0.0
 11
20.89284745695329
 21
-22.0
 31
0.0
  0
LINE
  5
1C9
330
1B2
100
AcDbEntity
  8
0
  6
STRICHLINIE
 48
6.0
100
AcDbLine
 10
20.89284745695329
 20
-22.0
 30
0.0
 11
20.89284745695329
 21
-18.98884989088128
 31
0.0
  0
LINE
  5
1CA
330
1B2
100
AcDbEntity
  8
0
  6
STRICHLINIE
 48
6.0
100
AcDbLine
 10
22.5
 20
-19.0
 30
0.0
 11
22.5
 21
-22.0
 31
0.0
  0
CIRCLE
  5
1CB
330
1B2
100
AcDbEntity
  8
0
  6
STRICHLINIE
 48
6.0
100
AcDbCircle
 10
16.5
 20
14.5
 30
0.0
 40
3.0
  0
CIRCLE
  5
1CC
330
1B2
100
AcDbEntity
  8
0
  6
STRICHLINIE
 48
6.0
100
AcDbCircle
 10
-5.5
 20
14.5
 30
0.0
 40
3.0
  0
CIRCLE
  5
1CD
330
1B2
100
AcDbEntity
  8
0
  6
STRICHLINIE
 48
6.0
100
AcDbCircle
 10
-16.5
 20
14.5
 30
0.0
 40
3.0
  0
LINE
  5
1CE
330
1B2
100
AcDbEntity
  8
0
  6
STRICHLINIE
 48
6.0
100
AcDbLine
 10
-22.5
 20
19.0
 30
0.0
 11
-22.5
 21
22.0
 31
0.0
  0
LINE
  5
1CF
330
1B2
100
AcDbEntity
  8
0
  6
STRICHLINIE
 48
6.0
100
AcDbLine
 10
-20.89286252391413
 20
21.99999999999997
 30
0.0
 11
-20.89286252391412
 21
18.98884989088128
 31
0.0
  0
LINE
  5
1D0
330
1B2
100
AcDbEntity
  8
0
  6
STRICHLINIE
 48
6.0
100
AcDbLine
 10
-20.89286252391412
 20
22.0
 30
0.0
 11
-22.49999999999955
 21
22.0
 31
0.0
  0
LINE
  5
1D1
330
1B2
100
AcDbEntity
  8
0
  6
STRICHLINIE
 48
6.0
100
AcDbLine
 10
-12.45534934032344
 20
23.30803593849589
 30
0.0
 11
-9.441957155812817
 21
23.30802966059554
 31
0.0
  0
LINE
  5
1D2
330
1B2
100
AcDbEntity
  8
0
  6
STRICHLINIE
 48
6.0
100
AcDbLine
 10
-12.45534934032344
 20
23.30803593849589
 30
0.0
 11
-12.45534934032344
 21
18.98883482392034
 31
0.0
  0
LINE
  5
1D3
330
1B2
100
AcDbEntity
  8
0
  6
STRICHLINIE
 48
6.0
100
AcDbLine
 10
-9.441957155812817
 20
23.30802966059554
 30
0.0
 11
-9.441957155812817
 21
18.98883482392034
 31
0.0
  0
CIRCLE
  5
1D4
330
1B2
100
AcDbEntity
  8
0
  6
STRICHLINIE
 48
6.0
100
AcDbCircle
 10
5.5
 20
14.5
 30
0.0
 40
3.0
  0
LINE
  5
1D5
330
1B2
100
AcDbEntity
  8
0
  6
STRICHLINIE
 48
6.0
100
AcDbLine
 10
-1.506691069934959
 20
23.30803028838557
 30
0.0
 11
1.506701114575661
 21
23.30803028838557
 31
0.0
  0
LINE
  5
1D6
330
1B2
100
AcDbEntity
  8
0
  6
STRICHLINIE
 48
6.0
100
AcDbLine
 10
-1.506691069934959
 20
23.30803028838557
 30
0.0
 11
-1.506691069934959
 21
18.98882980160005
 31
0.0
  0
LINE
  5
1D7
330
1B2
100
AcDbEntity
  8
0
  6
STRICHLINIE
 48
6.0
100
AcDbLine
 10
1.506701114575661
 20
23.30803028838557
 30
0.0
 11
1.506701114575661
 21
18.98882980160005
 31
0.0
  0
LINE
  5
1D8
330
1B2
100
AcDbEntity
  8
0
  6
STRICHLINIE
 48
6.0
100
AcDbLine
 10
9.441967200453516
 20
23.30802526606527
 30
0.0
 11
12.45535938496414
 21
23.30802526606527
 31
0.0
  0
LINE
  5
1D9
330
1B2
100
AcDbEntity
  8
0
  6
STRICHLINIE
 48
6.0
100
AcDbLine
 10
9.441967200453516
 20
23.30802526606527
 30
0.0
 11
9.441967200453516
 21
18.98882980160005
 31
0.0
  0
LINE
  5
1DA
330
1B2
100
AcDbEntity
  8
0
  6
STRICHLINIE
 48
6.0
100
AcDbLine
 10
12.45535938496414
 20
23.30802526606527
 30
0.0
 11
12.45535938496414
 21
18.98882477927975
 31
0.0
  0
LINE
  5
1DB
330
1B2
100
AcDbEntity
  8
0
  6
STRICHLINIE
 48
6.0
100
AcDbLine
 10
22.5
 20
19.0
 30
0.0
 11
22.5
 21
22.0
 31
0.0
  0
LINE
  5
1DC
330
1B2
100
AcDbEntity
  8
0
  6
STRICHLINIE
 48
6.0
100
AcDbLine
 10
20.89284745695329
 20
22.0
 30
0.0
 11
20.89284745695329
 21
18.98884989088128
 31
0.0
  0
LINE
  5
1DD
330
1B2
100
AcDbEntity
  8
0
  6
STRICHLINIE
 48
6.0
100
AcDbLine
 10
22.49998982143265
 20
22.0
 30
0.0
 11
20.89284745695329
 21
22.0
 31
0.0
  0
ENDBLK
  5
1DE
330
1B2
100
AcDbEntity
  8
0
100
AcDbBlockEnd
  0
BLOCK
  5
1E0
330
1DF
100
AcDbEntity
  8
0
100
AcDbBlockBegin
  2
*X4
 70
     1
 10
0.0
 20
0.0
 30
0.0
  3
*X4
  1

  0
LINE
  5
1E1
330
1DF
100
AcDbEntity
  8
0
 62
     0
100
AcDbLine
 10
89.82679464217154
 20
20.0
 30
0.0
 11
90.0
 21
20.17320535782844
 31
0.0
  0
LINE
  5
1E2
330
1DF
100
AcDbEntity
  8
0
 62
     0
100
AcDbLine
 10
89.65001794687493
 20
20.0
 30
0.0
 11
90.0
 21
20.34998205312507
 31
0.0
  0
LINE
  5
1E3
330
1DF
100
AcDbEntity
  8
0
 62
     0
100
AcDbLine
 10
89.47324125157829
 20
20.0
 30
0.0
 11
90.0
 21
20.52675874842171
 31
0.0
  0
LINE
  5
1E4
330
1DF
100
AcDbEntity
  8
0
 62
     0
100
AcDbLine
 10
89.29646455628164
 20
20.0
 30
0.0
 11
90.0
 21
20.70353544371835
 31
0.0
  0
LINE
  5
1E5
330
1DF
100
AcDbEntity
  8
0
 62
     0
100
AcDbLine
 10
89.11968786098501
 20
20.0
 30
0.0
 11
90.0
 21
20.88031213901498
 31
0.0
  0
LINE
  5
1E6
330
1DF
100
AcDbEntity
  8
0
 62
     0
100
AcDbLine
 10
88.94291116568838
 20
20.0
 30
0.0
 11
90.0
 21
21.05708883431162
 31
0.0
  0
LINE
  5
1E7
330
1DF
100
AcDbEntity
  8
0
 62
     0
100
AcDbLine
 10
88.76613447039174
 20
20.0
 30
0.0
 11
90.0
 21
21.23386552960826
 31
0.0
  0
LINE
  5
1E8
330
1DF
100
AcDbEntity
  8
0
 62
     0
100
AcDbLine
 10
88.58935777509509
 20
20.0
 30
0.0
 11
90.0
 21
21.4106422249049
 31
0.0
  0
LINE
  5
1E9
330
1DF
100
AcDbEntity
  8
0
 62
     0
100
AcDbLine
 10
88.41258107979847
 20
20.0
 30
0.0
 11
90.0
 21
21.58741892020153
 31
0.0
  0
LINE
  5
1EA
330
1DF
100
AcDbEntity
  8
0
 62
     0
100
AcDbLine
 10
88.23580438450184
 20
20.0
 30
0.0
 11
90.0
 21
21.76419561549817
 31
0.0
  0
LINE
  5
1EB
330
1DF
100
AcDbEntity
  8
0
 62
     0
100
AcDbLine
 10
88.05902768920519
 20
20.0
 30
0.0
 11
90.0
 21
21.94097231079481
 31
0.0
  0
LINE
  5
1EC
330
1DF
100
AcDbEntity
  8
0
 62
     0
100
AcDbLine
 10
88.00369027956605
 20
20.12143928565751
 30
0.0
 11
89.87856071434249
 21
21.99630972043393
 31
0.0
  0
LINE
  5
1ED
330
1DF
100
AcDbEntity
  8
0
 62
     0
100
AcDbLine
 10
88.02582243095988
 20
20.32034813234795
 30
0.0
 11
89.67965186765203
 21
21.97417756904012
 31
0.0
  0
LINE
  5
1EE
330
1DF
100
AcDbEntity
  8
0
 62
     0
100
AcDbLine
 10
88.0764780899428
 20
20.5477804866275
 30
0.0
 11
89.4522195133725
 21
21.92352191005721
 31
0.0
  0
LINE
  5
1EF
330
1DF
100
AcDbEntity
  8
0
 62
     0
100
AcDbLine
 10
88.17905072311971
 20
20.82712981510105
 30
0.0
 11
89.17287018489895
 21
21.82094927688031
 31
0.0
  0
LINE
  5
1F0
330
1DF
100
AcDbEntity
  8
0
 62
     0
100
AcDbLine
 10
88.51652673163108
 20
21.34138251890909
 30
0.0
 11
88.65861748109091
 21
21.4834732683689
 31
0.0
  0
LINE
  5
1F1
330
1DF
100
AcDbEntity
  8
0
 62
     0
100
AcDbLine
 10
90.0
 20
19.9964286625318
 30
0.0
 11
90.0035713374682
 21
20.0
 31
0.0
  0
LINE
  5
1F2
330
1DF
100
AcDbEntity
  8
0
 62
     0
100
AcDbLine
 10
90.0
 20
19.81965196723516
 30
0.0
 11
90.18034803276483
 21
20.0
 31
0.0
  0
LINE
  5
1F3
330
1DF
100
AcDbEntity
  8
0
 62
     0
100
AcDbLine
 10
90.0
 20
19.64287527193851
 30
0.0
 11
90.35712472806148
 21
20.0
 31
0.0
  0
LINE
  5
1F4
330
1DF
100
AcDbEntity
  8
0
 62
     0
100
AcDbLine
 10
90.0
 20
19.46609857664189
 30
0.0
 11
90.53390142335812
 21
20.0
 31
0.0
  0
LINE
  5
1F5
330
1DF
100
AcDbEntity
  8
0
 62
     0
100
AcDbLine
 10
90.0
 20
19.28932188134525
 30
0.0
 11
90.71067811865477
 21
20.0
 31
0.0
  0
LINE
  5
1F6
330
1DF
100
AcDbEntity
  8
0
 62
     0
100
AcDbLine
 10
90.0
 20
19.11254518604861
 30
0.0
 11
90.88745481395138
 21
20.0
 31
0.0
  0
LINE
  5
1F7
330
1DF
100
AcDbEntity
  8
0
 62
     0
100
AcDbLine
 10
90.0
 20
18.93576849075198
 30
0.0
 11
91.06423150924801
 21
20.0
 31
0.0
  0
LINE
  5
1F8
330
1DF
100
AcDbEntity
  8
0
 62
     0
100
AcDbLine
 10
90.0
 20
18.75899179545534
 30
0.0
 11
91.24100820454463
 21
20.0
 31
0.0
  0
LINE
  5
1F9
330
1DF
100
AcDbEntity
  8
0
 62
     0
100
AcDbLine
 10
90.0
 20
18.5822151001587
 30
0.0
 11
91.4177848998413
 21
20.0
 31
0.0
  0
LINE
  5
1FA
330
1DF
100
AcDbEntity
  8
0
 62
     0
100
AcDbLine
 10
90.0
 20
18.40543840486207
 30
0.0
 11
91.59456159513792
 21
20.0
 31
0.0
  0
LINE
  5
1FB
330
1DF
100
AcDbEntity
  8
0
 62
     0
100
AcDbLine
 10
90.0
 20
18.22866170956543
 30
0.0
 11
91.77133829043457
 21
20.0
 31
0.0
  0
LINE
  5
1FC
330
1DF
100
AcDbEntity
  8
0
 62
     0
100
AcDbLine
 10
90.0
 20
18.05188501426879
 30
0.0
 11
91.9481149857312
 21
20.0
 31
0.0
  0
LINE
  5
1FD
330
1DF
100
AcDbEntity
  8
0
 62
     0
100
AcDbLine
 10
90.12906015604333
 20
18.00416847501547
 30
0.0
 11
91.99583152498451
 21
19.87093984395668
 31
0.0
  0
LINE
  5
1FE
330
1DF
100
AcDbEntity
  8
0
 62
     0
100
AcDbLine
 10
90.32889704253795
 20
18.0272286662135
 30
0.0
 11
91.97277133378651
 21
19.67110295746202
 31
0.0
  0
LINE
  5
1FF
330
1DF
100
AcDbEntity
  8
0
 62
     0
100
AcDbLine
 10
90.55780672535469
 20
18.07936165373355
 30
0.0
 11
91.92063834626644
 21
19.44219327464532
 31
0.0
  0
LINE
  5
200
330
1DF
100
AcDbEntity
  8
0
 62
     0
100
AcDbLine
 10
90.84032314287684
 20
18.18510137595909
 30
0.0
 11
91.8148986240409
 21
19.15967685712315
 31
0.0
  0
ENDBLK
  5
201
330
1DF
100
AcDbEntity
  8
0
100
AcDbBlockEnd
  0
BLOCK
  5
203
330
202
100
AcDbEntity
  8
0
100
AcDbBlockBegin
  2
LOCH_4MM
 70
     0
 10
0.0
 20
0.0
 30
0.0
  3
LOCH_4MM
  1

  0
LINE
  5
204
330
202
100
AcDbEntity
  8
0
 62
     1
100
AcDbLine
 10
3.0
 20
0.0
 30
0.0
 11
7.0
 21
0.0
 31
0.0
  0
LINE
  5
205
330
202
100
AcDbEntity
  8
0
  6
ByBlock
 62
     1
100
AcDbLine
 10
0.0
 20
-7.0
 30
0.0
 11
0.0
 21
-3.0
 31
0.0
  0
INSERT
  5
206
330
202
100
AcDbEntity
  8
0
 62
     1
100
AcDbBlockReference
  2
*X4
 10
-90.0
 20
-20.0
 30
0.0
1001
ACAD
1000
HATCH
1002
{
1070
    16
1000
ANSI31,I
1040
1.0
1040
0.0
1002
}
  0
CIRCLE
  5
207
330
202
100
AcDbEntity
  8
0
 62
     1
100
AcDbCircle
 10
0.0
 20
0.0
 30
0.0
 40
2.0
  0
LINE
  5
208
330
202
100
AcDbEntity
  8
0
 62
     1
100
AcDbLine
 10
-2.0
 20
0.0
 30
0.0
 11
2.0
 21
0.0
 31
0.0
  0
LINE
  5
209
330
202
100
AcDbEntity
  8
0
  6
ByBlock
 62
     1
100
AcDbLine
 10
-7.0
 20
0.0
 30
0.0
 11
-3.0
 21
0.0
 31
0.0
  0
LINE
  5
20A
330
202
100
AcDbEntity
  8
0
 62
     1
100
AcDbLine
 10
0.0
 20
-2.0
 30
0.0
 11
0.0
 21
2.0
 31
0.0
  0
LINE
  5
20B
330
202
100
AcDbEntity
  8
0
 62
     1
100
AcDbLine
 10
0.0
 20
3.0
 30
0.0
 11
0.0
 21
7.0
 31
0.0
  0
ENDBLK
  5
20C
330
202
100
AcDbEntity
  8
0
100
AcDbBlockEnd
  0
BLOCK
  5
20F
330
20D
100
AcDbEntity
  8
0
100
AcDbBlockBegin
  2
CA7-PA-11
 70
     0
 10
0.0
 20
0.0
 30
0.0
  3
CA7-PA-11
  1

  0
LINE
  5
210
330
20D
100
AcDbEntity
  8
0
  6
STRICHLINIE
 48
6.0
100
AcDbLine
 10
-0.0000133333530812
 20
-36.0
 30
0.0
 11
0.0000133333275159
 21
35.99993094167178
 31
0.0
  0
LINE
  5
211
330
20D
100
AcDbEntity
  8
0
  6
STRICHLINIE
 48
6.0
100
AcDbLine
 10
8.999986666646918
 20
-36.0
 30
0.0
 11
9.00001333332753
 21
35.99993094167178
 31
0.0
  0
CIRCLE
  5
212
330
20D
100
AcDbEntity
  8
0
  6
STRICHLINIE
 48
6.0
100
AcDbCircle
 10
4.499991666654337
 20
-27.7
 30
0.0
 40
3.0
  0
LINE
  5
213
330
20D
100
AcDbEntity
  8
0
  6
STRICHLINIE
 48
6.0
100
AcDbLine
 10
8.999991666654324
 20
-22.5
 30
0.0
 11
-0.0000083333456757
 21
-22.5
 31
0.0
  0
LINE
  5
214
330
20D
100
AcDbEntity
  8
0
  6
STRICHLINIE
 48
6.0
100
AcDbLine
 10
8.999986666646918
 20
-36.0
 30
0.0
 11
-0.0000133333530812
 21
-36.0
 31
0.0
  0
CIRCLE
  5
215
330
20D
100
AcDbEntity
  8
0
  6
STRICHLINIE
 48
6.0
100
AcDbCircle
 10
4.499991666654337
 20
12.30000000000001
 30
0.0
 40
3.0
  0
CIRCLE
  5
216
330
20D
100
AcDbEntity
  8
0
  6
STRICHLINIE
 48
6.0
100
AcDbCircle
 10
4.499991666654337
 20
-12.30000000000001
 30
0.0
 40
3.0
  0
LINE
  5
217
330
20D
100
AcDbEntity
  8
1
  6
STRICHLINIE
 48
6.0
100
AcDbLine
 10
-1.000008333345675
 20
0.0
 30
0.0
 11
0.999991666654324
 21
0.0
 31
0.0
  0
LINE
  5
218
330
20D
100
AcDbEntity
  8
1
  6
STRICHLINIE
 48
6.0
100
AcDbLine
 10
7.999991666654324
 20
0.0
 30
0.0
 11
9.999991666654324
 21
0.0
 31
0.0
  0
CIRCLE
  5
219
330
20D
100
AcDbEntity
  8
0
  6
STRICHLINIE
 48
6.0
100
AcDbCircle
 10
4.499991666654337
 20
27.7
 30
0.0
 40
3.0
  0
LINE
  5
21A
330
20D
100
AcDbEntity
  8
0
  6
STRICHLINIE
 48
6.0
100
AcDbLine
 10
0.0000083333453205
 20
22.499999
 30
0.0
 11
9.000008333345306
 21
22.49999899999997
 31
0.0
  0
LINE
  5
21B
330
20D
100
AcDbEntity
  8
0
  6
STRICHLINIE
 48
6.0
100
AcDbLine
 10
0.0000133333275159
 20
35.99993094167178
 30
0.0
 11
9.00001333316905
 21
35.99950305601812
 31
0.0
  0
ENDBLK
  5
21C
330
20D
100
AcDbEntity
  8
0
100
AcDbBlockEnd
  0
BLOCK
  5
21F
330
21D
100
AcDbEntity
  8
0
100
AcDbBlockBegin
  2
KT7-PAF1
 70
     0
 10
0.0
 20
0.0
 30
0.0
  3
KT7-PAF1
  1

  0
CIRCLE
  5
220
330
21D
100
AcDbEntity
  8
0
  6
STRICHLINIE
 48
6.0
100
AcDbCircle
 10
4.500009999999996
 20
-37.00000599999999
 30
0.0
 40
3.299999999999998
  0
LINE
  5
221
330
21D
100
AcDbEntity
  8
0
  6
STRICHLINIE
 48
6.0
100
AcDbLine
 10
0.0000099999999748
 20
-45.95000500000002
 30
0.0
 11
0.0000099999999748
 21
45.94999
 31
0.0
  0
LINE
  5
222
330
21D
100
AcDbEntity
  8
0
  6
STRICHLINIE
 48
6.0
100
AcDbLine
 10
9.000010000000019
 20
-45.95000500000001
 30
0.0
 11
9.000010000000024
 21
45.94999
 31
0.0
  0
LINE
  5
223
330
21D
100
AcDbEntity
  8
0
  6
STRICHLINIE
 48
6.0
100
AcDbLine
 10
0.0000099999999748
 20
-45.95000500000001
 30
0.0
 11
9.000010000000019
 21
-45.950005
 31
0.0
  0
CIRCLE
  5
224
330
21D
100
AcDbEntity
  8
0
  6
STRICHLINIE
 48
6.0
100
AcDbCircle
 10
4.500009999999996
 20
-26.00000599999999
 30
0.0
 40
3.299999999999998
  0
LINE
  5
225
330
21D
100
AcDbEntity
  8
0
  6
STRICHLINIE
 48
6.0
100
AcDbLine
 10
0.0000099999999748
 20
45.94999
 30
0.0
 11
9.000010000000024
 21
45.94999
 31
0.0
  0
LINE
  5
226
330
21D
100
AcDbEntity
  8
0
  6
STRICHLINIE
 48
6.0
100
AcDbLine
 10
0.0000099999999748
 20
-33.60000500000001
 30
0.0
 11
9.000010000000019
 21
-33.600005
 31
0.0
  0
LINE
  5
227
330
21D
100
AcDbEntity
  8
0
  6
STRICHLINIE
 48
6.0
100
AcDbLine
 10
0.0000099999999748
 20
-22.50000499999998
 30
0.0
 11
9.000010000000024
 21
-22.50000499999999
 31
0.0
  0
CIRCLE
  5
228
330
21D
100
AcDbEntity
  8
0
  6
STRICHLINIE
 48
6.0
100
AcDbCircle
 10
4.500009999999996
 20
36.99999099999998
 30
0.0
 40
3.299999999999998
  0
CIRCLE
  5
229
330
21D
100
AcDbEntity
  8
0
  6
STRICHLINIE
 48
6.0
100
AcDbCircle
 10
4.500009999999996
 20
25.99999099999998
 30
0.0
 40
3.299999999999998
  0
LINE
  5
22A
330
21D
100
AcDbEntity
  8
0
  6
STRICHLINIE
 48
6.0
100
AcDbLine
 10
0.0000099999999748
 20
33.59999000000001
 30
0.0
 11
9.000010000000024
 21
33.59999000000001
 31
0.0
  0
LINE
  5
22B
330
21D
100
AcDbEntity
  8
0
  6
STRICHLINIE
 48
6.0
100
AcDbLine
 10
0.0000099999999748
 20
22.49998999999998
 30
0.0
 11
9.000010000000024
 21
22.49998999999998
 31
0.0
  0
LINE
  5
22C
330
21D
100
AcDbEntity
  8
1
  6
STRICHLINIE
 48
6.0
100
AcDbLine
 10
-1.0
 20
-0.0000075000000024
 30
0.0
 11
1.0
 21
-0.0000075000000024
 31
0.0
  0
LINE
  5
22D
330
21D
100
AcDbEntity
  8
1
  6
STRICHLINIE
 48
6.0
100
AcDbLine
 10
8.000000000000046
 20
-0.0000074999999988
 30
0.0
 11
10.00000000000004
 21
-0.0000074999999988
 31
0.0
  0
ENDBLK
  5
22E
330
21D
100
AcDbEntity
  8
0
100
AcDbBlockEnd
  0
BLOCK
  5
230
330
22F
100
AcDbEntity
  8
0
100
AcDbBlockBegin
  2
W-32490
 70
     0
 10
0.0
 20
0.0
 30
0.0
  3
W-32490
  1

  0
LINE
  5
231
330
22F
100
AcDbEntity
  8
0
  6
Continuous
100
AcDbLine
 10
0.0000000000000284
 20
-218.7745166004056
 30
0.0
 11
0.0
 21
0.0
 31
0.0
  0
LINE
  5
232
330
22F
100
AcDbEntity
  8
0
  6
Continuous
100
AcDbLine
 10
54.0
 20
-228.0
 30
0.0
 11
54.00000000000003
 21
-0.0000000000000213
 31
0.0
  0
LINE
  5
233
330
22F
100
AcDbEntity
  8
0
  6
Continuous
100
AcDbLine
 10
3.40000000000009
 20
-228.0
 30
0.0
 11
54.00000000000003
 21
-228.0
 31
0.0
  0
LINE
  5
234
330
22F
100
AcDbEntity
  8
0
  6
Continuous
100
AcDbLine
 10
5.000000000000028
 20
-216.2499999999997
 30
0.0
 11
7.999999999614174
 21
-216.2506731062591
 31
0.0
  0
LINE
  5
235
330
22F
100
AcDbEntity
  8
0
  6
Continuous
100
AcDbLine
 10
0.0000000000000284
 20
-214.0
 30
0.0
 11
10.49999999999997
 21
-214.0
 31
0.0
  0
LINE
  5
236
330
22F
100
AcDbEntity
  8
0
  6
Continuous
100
AcDbLine
 10
6.075483399592768
 20
-221.75
 30
0.0
 11
8.060840606689481
 21
-221.75
 31
0.0
  0
LINE
  5
237
330
22F
100
AcDbEntity
  8
Mitte
 62
     3
100
AcDbLine
 10
3.0
 20
-219.0
 30
0.0
 11
11.0
 21
-219.0
 31
0.0
  0
LINE
  5
238
330
22F
100
AcDbEntity
  8
1
  6
MITTE2
 62
     3
100
AcDbLine
 10
-4.0
 20
-189.0
 30
0.0
 11
58.0
 21
-189.0
 31
0.0
  0
LINE
  5
239
330
22F
100
AcDbEntity
  8
Mitte
 62
     3
100
AcDbLine
 10
7.000000000000027
 20
-223.0
 30
0.0
 11
7.000000000000027
 21
-215.0
 31
0.0
  0
LINE
  5
23A
330
22F
100
AcDbEntity
  8
0
  6
Continuous
100
AcDbLine
 10
3.40000000000009
 20
-228.0
 30
0.0
 11
3.400000000000147
 21
-224.4254833995926
 31
0.0
  0
LINE
  5
23B
330
22F
100
AcDbEntity
  8
0
  6
Continuous
100
AcDbLine
 10
3.605023384545376
 20
-223.9305105213862
 30
0.0
 11
5.580509186242153
 21
-221.9550247196894
 31
0.0
  0
LINE
  5
23C
330
22F
100
AcDbEntity
  8
0
  6
Continuous
100
AcDbLine
 10
3.605025253169543
 20
-223.930508652762
 30
0.0
 11
5.580508652762205
 21
-221.9550252531694
 31
0.0
  0
ARC
  5
23D
330
22F
100
AcDbEntity
  8
0
  6
Continuous
100
AcDbCircle
 10
4.100000000000136
 20
-224.4254833995926
 30
0.0
 40
0.7
100
AcDbArc
 50
135.0000000000003
 51
179.9999999999992
  0
ARC
  5
23E
330
22F
100
AcDbEntity
  8
0
  6
Continuous
100
AcDbCircle
 10
6.075483399592768
 20
-222.4499999999999
 30
0.0
 40
0.7
100
AcDbArc
 50
90.0
 51
134.9999999999982
  0
ARC
  5
23F
330
22F
100
AcDbEntity
  8
0
  6
Continuous
100
AcDbCircle
 10
5.000000000000142
 20
-219.0000000000003
 30
0.0
 40
2.750000000000254
100
AcDbArc
 50
90.0
 51
159.6200236591096
  0
ARC
  5
240
330
22F
100
AcDbEntity
  8
0
  6
Continuous
100
AcDbCircle
 10
0.7000000000001876
 20
-218.7745166004056
 30
0.0
 40
0.7000000000001311
100
AcDbArc
 50
179.9997253276037
 51
314.9999072034843
  0
LINE
  5
241
330
22F
100
AcDbEntity
  8
0
  6
Continuous
100
AcDbLine
 10
1.194973945166025
 20
-219.2694921489013
 30
0.0
 11
2.422139167333995
 21
-218.0423269267333
 31
0.0
  0
ARC
  5
242
330
22F
100
AcDbEntity
  8
0
  6
Continuous
100
AcDbCircle
 10
0.7000000000000739
 20
-218.7745166004051
 30
0.0
 40
0.7000000000000175
100
AcDbArc
 50
179.9997253249494
 51
314.9999072034658
  0
LINE
  5
243
330
22F
100
AcDbEntity
  8
0
  6
Continuous
100
AcDbLine
 10
1.194973945166025
 20
-219.2694921489013
 30
0.0
 11
2.422139167333995
 21
-218.0423269267333
 31
0.0
  0
LINE
  5
244
330
22F
100
AcDbEntity
  8
1
100
AcDbLine
 10
-0.9999999999999715
 20
-174.0
 30
0.0
 11
1.000000000000027
 21
-174.0
 31
0.0
  0
LINE
  5
245
330
22F
100
AcDbEntity
  8
1
100
AcDbLine
 10
-0.9999999999999715
 20
-166.5
 30
0.0
 11
1.000000000000027
 21
-166.5
 31
0.0
  0
ARC
  5
246
330
22F
100
AcDbEntity
  8
0
  6
Continuous
100
AcDbCircle
 10
8.000000000000255
 20
-219.0006731062594
 30
0.0
 40
2.749999999999884
100
AcDbArc
 50
271.2677070664679
 51
90.0
  0
LINE
  5
247
330
22F
100
AcDbEntity
  8
0
  6
Continuous
100
AcDbLine
 10
13.00000000000003
 20
-222.4999999999998
 30
0.0
 11
13.00000000000003
 21
-216.5
 31
0.0
  0
ARC
  5
248
330
22F
100
AcDbEntity
  8
0
  6
Continuous
100
AcDbCircle
 10
47.00000000000001
 20
-219.0
 30
0.0
 40
2.75
100
AcDbArc
 50
270.0
 51
90.0
  0
ARC
  5
249
330
22F
100
AcDbEntity
  8
0
  6
Continuous
100
AcDbCircle
 10
45.9999999999998
 20
-219.0
 30
0.0
 40
2.75
100
AcDbArc
 50
90.0
 51
270.0
  0
LINE
  5
24A
330
22F
100
AcDbEntity
  8
0
  6
Continuous
100
AcDbLine
 10
41.00000000000004
 20
-222.500000000002
 30
0.0
 11
41.00000000000004
 21
-216.5
 31
0.0
  0
LINE
  5
24B
330
22F
100
AcDbEntity
  8
Mitte
 62
     3
100
AcDbLine
 10
47.00000000000014
 20
-223.0
 30
0.0
 11
47.00000000000014
 21
-215.0
 31
0.0
  0
LINE
  5
24C
330
22F
100
AcDbEntity
  8
0
  6
Continuous
100
AcDbLine
 10
12.00000000000014
 20
-228.0
 30
0.0
 11
12.00000000000014
 21
-223.4999999999996
 31
0.0
  0
LINE
  5
24D
330
22F
100
AcDbEntity
  8
0
  6
Continuous
100
AcDbLine
 10
12.00000000000014
 20
-223.4999999999996
 30
0.0
 11
13.00000000000003
 21
-222.4999999999998
 31
0.0
  0
LINE
  5
24E
330
22F
100
AcDbEntity
  8
0
  6
Continuous
100
AcDbLine
 10
41.99999999999991
 20
-228.0
 30
0.0
 11
41.99999999999991
 21
-223.5000000000019
 31
0.0
  0
LINE
  5
24F
330
22F
100
AcDbEntity
  8
0
  6
Continuous
100
AcDbLine
 10
41.00000000000004
 20
-222.500000000002
 30
0.0
 11
41.99999999999991
 21
-223.5000000000019
 31
0.0
  0
LINE
  5
250
330
22F
100
AcDbEntity
  8
0
  6
Continuous
100
AcDbLine
 10
46.00000000000003
 20
-221.7499999999998
 30
0.0
 11
47.00000000000001
 21
-221.7499999999998
 31
0.0
  0
LINE
  5
251
330
22F
100
AcDbEntity
  8
0
  6
Continuous
100
AcDbLine
 10
43.50000000000007
 20
-214.0
 30
0.0
 11
54.00000000000005
 21
-214.0
 31
0.0
  0
LINE
  5
252
330
22F
100
AcDbEntity
  8
0
  6
Continuous
100
AcDbLine
 10
10.49999999999997
 20
-214.0
 30
0.0
 11
13.00000000000003
 21
-216.5
 31
0.0
  0
LINE
  5
253
330
22F
100
AcDbEntity
  8
0
  6
Continuous
100
AcDbLine
 10
41.00000000000004
 20
-216.5
 30
0.0
 11
43.50000000000007
 21
-214.0
 31
0.0
  0
LINE
  5
254
330
22F
100
AcDbEntity
  8
0
  6
Continuous
100
AcDbLine
 10
46.00000000000003
 20
-216.2499999999997
 30
0.0
 11
47.00000000000001
 21
-216.2499999999997
 31
0.0
  0
LINE
  5
255
330
22F
100
AcDbEntity
  8
0
  6
Continuous
100
AcDbLine
 10
0.0000000000000284
 20
-14.00000000000001
 30
0.0
 11
10.4999999999998
 21
-14.00000000000001
 31
0.0
  0
CIRCLE
  5
256
330
22F
100
AcDbEntity
  8
0
  6
Continuous
100
AcDbCircle
 10
7.000000000000027
 20
-8.999999999999722
 30
0.0
 40
2.75
  0
LINE
  5
257
330
22F
100
AcDbEntity
  8
0
  6
Continuous
100
AcDbLine
 10
0.0000000000000284
 20
0.0
 30
0.0
 11
54.00000000000003
 21
-0.0000000000000213
 31
0.0
  0
LINE
  5
258
330
22F
100
AcDbEntity
  8
Mitte
 62
     3
100
AcDbLine
 10
3.0
 20
-9.0
 30
0.0
 11
11.0
 21
-9.0
 31
0.0
  0
LINE
  5
259
330
22F
100
AcDbEntity
  8
1
  6
MITTE2
 62
     3
100
AcDbLine
 10
-4.0
 20
-64.0
 30
0.0
 11
58.0
 21
-64.0
 31
0.0
  0
LINE
  5
25A
330
22F
100
AcDbEntity
  8
1
100
AcDbLine
 10
-0.9999999999999715
 20
-69.00000000000002
 30
0.0
 11
1.000000000000027
 21
-69.00000000000002
 31
0.0
  0
LINE
  5
25B
330
22F
100
AcDbEntity
  8
Mitte
 62
     3
100
AcDbLine
 10
7.000000000000027
 20
-13.0
 30
0.0
 11
7.000000000000027
 21
-5.0
 31
0.0
  0
LINE
  5
25C
330
22F
100
AcDbEntity
  8
0
  6
Continuous
100
AcDbLine
 10
54.00000000000003
 20
-136.4167709350586
 30
0.0
 11
54.00000000000003
 21
-136.3186683654785
 31
0.0
  0
LINE
  5
25D
330
22F
100
AcDbEntity
  8
0
  6
Continuous
100
AcDbLine
 10
13.00000000000003
 20
-11.49999999999986
 30
0.0
 11
13.00000000000003
 21
-5.50000000000046
 31
0.0
  0
CIRCLE
  5
25E
330
22F
100
AcDbEntity
  8
0
  6
Continuous
100
AcDbCircle
 10
47.00000000000014
 20
-9.000000000000177
 30
0.0
 40
2.750000000000081
  0
LINE
  5
25F
330
22F
100
AcDbEntity
  8
0
  6
Continuous
100
AcDbLine
 10
41.00000000000004
 20
-11.49999999999973
 30
0.0
 11
41.00000000000004
 21
-5.499999999998919
 31
0.0
  0
LINE
  5
260
330
22F
100
AcDbEntity
  8
Mitte
 62
     3
100
AcDbLine
 10
47.00000000000014
 20
-13.0
 30
0.0
 11
47.00000000000014
 21
-5.0
 31
0.0
  0
LINE
  5
261
330
22F
100
AcDbEntity
  8
0
  6
Continuous
100
AcDbLine
 10
43.50000000000017
 20
-14.00000000000001
 30
0.0
 11
54.00000000000003
 21
-14.00000000000001
 31
0.0
  0
LINE
  5
262
330
22F
100
AcDbEntity
  8
0
  6
Continuous
100
AcDbLine
 10
10.4999999999998
 20
-14.00000000000001
 30
0.0
 11
13.00000000000003
 21
-11.49999999999986
 31
0.0
  0
LINE
  5
263
330
22F
100
AcDbEntity
  8
0
  6
Continuous
100
AcDbLine
 10
41.00000000000004
 20
-11.49999999999973
 30
0.0
 11
43.50000000000017
 21
-14.00000000000001
 31
0.0
  0
LINE
  5
264
330
22F
100
AcDbEntity
  8
0
  6
Continuous
100
AcDbLine
 10
12.00000000000003
 20
-4.500000000000433
 30
0.0
 11
13.00000000000003
 21
-5.50000000000046
 31
0.0
  0
LINE
  5
265
330
22F
100
AcDbEntity
  8
0
  6
Continuous
100
AcDbLine
 10
12.00000000000003
 20
-4.500000000000433
 30
0.0
 11
12.0
 21
0.0
 31
0.0
  0
LINE
  5
266
330
22F
100
AcDbEntity
  8
0
  6
Continuous
100
AcDbLine
 10
41.00000000000004
 20
-5.499999999998919
 30
0.0
 11
42.00000000000001
 21
-4.499999999998735
 31
0.0
  0
LINE
  5
267
330
22F
100
AcDbEntity
  8
0
  6
Continuous
100
AcDbLine
 10
42.00000000000001
 20
-4.499999999998735
 30
0.0
 11
42.00000000000001
 21
-0.0000000000000213
 31
0.0
  0
LINE
  5
268
330
22F
100
AcDbEntity
  8
Mitte
 62
     3
100
AcDbLine
 10
43.0
 20
-9.0
 30
0.0
 11
51.0
 21
-9.0
 31
0.0
  0
LINE
  5
269
330
22F
100
AcDbEntity
  8
Mitte
 62
     3
100
AcDbLine
 10
43.0
 20
-219.0
 30
0.0
 11
51.0
 21
-219.0
 31
0.0
  0
ENDBLK
  5
26A
330
22F
100
AcDbEntity
  8
0
100
AcDbBlockEnd
  0
BLOCK
  5
26C
330
26B
100
AcDbEntity
  8
0
100
AcDbBlockBegin
  2
DIN RAIL
 70
     0
 10
0.0
 20
0.0
 30
0.0
  3
DIN RAIL
  1

  0
LINE
  5
26D
330
26B
100
AcDbEntity
  8
Busbars
100
AcDbLine
 10
19.9999991196878
 20
-17.50000059560153
 30
0.0
 11
0.0
 21
-17.50000059560153
 31
0.0
  0
LINE
  5
26E
330
26B
100
AcDbEntity
  8
Busbars
100
AcDbLine
 10
22.69858160559994
 20
-12.50000059560153
 30
0.0
 11
0.0
 21
-12.50000059560153
 31
0.0
  0
LINE
  5
26F
330
26B
100
AcDbEntity
  8
Busbars
100
AcDbLine
 10
17.30141663377571
 20
12.49999940439846
 30
0.0
 11
0.0
 21
12.49999940439846
 31
0.0
  0
LINE
  5
270
330
26B
100
AcDbEntity
  8
Busbars
100
AcDbLine
 10
19.9999991196878
 20
17.49999940439846
 30
0.0
 11
0.0
 21
17.49999940439846
 31
0.0
  0
LINE
  5
271
330
26B
100
AcDbEntity
  8
Busbars
100
AcDbLine
 10
0.0
 20
17.49999940439846
 30
0.0
 11
0.0
 21
-17.50000059560153
 31
0.0
  0
LINE
  5
272
330
26B
100
AcDbEntity
  8
1
100
AcDbLine
 10
-1.0
 20
-0.0000005956015343
 30
0.0
 11
1.0
 21
-0.0000005956015343
 31
0.0
  0
ARC
  5
273
330
26B
100
AcDbEntity
  8
Busbars
100
AcDbCircle
 10
30.23086159192849
 20
8.749999404398351
 30
0.0
 40
13.46228238174729
100
AcDbArc
 50
139.4611061902023
 51
220.5388938097977
  0
ARC
  5
274
330
26B
100
AcDbEntity
  8
Busbars
100
AcDbCircle
 10
9.769136647447112
 20
-8.750000595601646
 30
0.0
 40
13.46228238174729
100
AcDbArc
 50
319.4611061902023
 51
40.5388938097977
  0
LINE
  5
275
330
26B
100
AcDbEntity
  8
Mitte
100
AcDbLine
 10
0.0
 20
-0.0000005956015343
 30
0.0
 11
24.0
 21
-0.0000005956015343
 31
0.0
  0
ENDBLK
  5
276
330
26B
100
AcDbEntity
  8
0
100
AcDbBlockEnd
  0
BLOCK
  5
278
330
277
100
AcDbEntity
  8
0
100
AcDbBlockBegin
  2
W-32489
 70
     0
 10
0.0
 20
0.0
 30
0.0
  3
W-32489
  1

  0
LINE
  5
279
330
277
100
AcDbEntity
  8
0
  6
Continuous
100
AcDbLine
 10
44.99999999999997
 20
-228.0
 30
0.0
 11
44.99999999999997
 21
0.0000000000000142
 31
0.0
  0
LINE
  5
27A
330
277
100
AcDbEntity
  8
0
  6
Continuous
100
AcDbLine
 10
0.0
 20
-218.7745166004061
 30
0.0
 11
0.0
 21
0.0000000000000142
 31
0.0
  0
LINE
  5
27B
330
277
100
AcDbEntity
  8
0
  6
Continuous
100
AcDbLine
 10
8.499999999999772
 20
-214.0
 30
0.0
 11
11.0
 21
-216.5
 31
0.0
  0
LINE
  5
27C
330
277
100
AcDbEntity
  8
0
  6
Continuous
100
AcDbLine
 10
8.400000000000089
 20
-224.0999999999998
 30
0.0
 11
10.99999999999994
 21
-221.5
 31
0.0
  0
LINE
  5
27D
330
277
100
AcDbEntity
  8
0
  6
Continuous
100
AcDbLine
 10
3.40000000000009
 20
-228.0
 30
0.0
 11
44.99999999999997
 21
-228.0
 31
0.0
  0
ARC
  5
27E
330
277
100
AcDbEntity
  8
0
  6
Continuous
100
AcDbCircle
 10
6.0
 20
-219.0
 30
0.0
 40
2.749999999999968
100
AcDbArc
 50
271.267715956222
 51
90.0
  0
LINE
  5
27F
330
277
100
AcDbEntity
  8
Mitte
 62
     3
100
AcDbLine
 10
1.0
 20
-219.0
 30
0.0
 11
9.0
 21
-219.0
 31
0.0
  0
LINE
  5
280
330
277
100
AcDbEntity
  8
1
  6
MITTE2
 62
     3
100
AcDbLine
 10
-4.0
 20
-189.0
 30
0.0
 11
49.0
 21
-189.0
 31
0.0
  0
LINE
  5
281
330
277
100
AcDbEntity
  8
Mitte
 62
     3
100
AcDbLine
 10
5.0
 20
-223.0
 30
0.0
 11
5.0
 21
-215.0
 31
0.0
  0
LINE
  5
282
330
277
100
AcDbEntity
  8
0
  6
Continuous
100
AcDbLine
 10
8.400000000000089
 20
-228.0
 30
0.0
 11
8.400000000000089
 21
-224.0999999999998
 31
0.0
  0
LINE
  5
283
330
277
100
AcDbEntity
  8
0
  6
Continuous
100
AcDbLine
 10
3.40000000000009
 20
-228.0
 30
0.0
 11
3.40000000000009
 21
-224.4254833995938
 31
0.0
  0
LINE
  5
284
330
277
100
AcDbEntity
  8
0
  6
Continuous
100
AcDbLine
 10
3.605025253169457
 20
-223.9305086527632
 30
0.0
 11
5.581353095160692
 21
-221.954180810772
 31
0.0
  0
ARC
  5
285
330
277
100
AcDbEntity
  8
0
  6
Continuous
100
AcDbCircle
 10
4.100000000000078
 20
-224.4254833995938
 30
0.0
 40
0.7000000000000137
100
AcDbArc
 50
135.0000000000049
 51
180.0
  0
ARC
  5
286
330
277
100
AcDbEntity
  8
0
  6
Continuous
100
AcDbCircle
 10
6.076327841991314
 20
-222.4491555576026
 30
0.0
 40
0.6999999999999879
100
AcDbArc
 50
91.26771595622534
 51
135.0000000000003
  0
LINE
  5
287
330
277
100
AcDbEntity
  8
0
  6
Continuous
100
AcDbLine
 10
0.0
 20
-214.0
 30
0.0
 11
8.499999999999772
 21
-214.0
 31
0.0
  0
ARC
  5
288
330
277
100
AcDbEntity
  8
0
  6
Continuous
100
AcDbCircle
 10
5.0
 20
-219.0
 30
0.0
 40
2.75
100
AcDbArc
 50
90.0
 51
159.6199773286435
  0
LINE
  5
289
330
277
100
AcDbEntity
  8
0
  6
Continuous
100
AcDbLine
 10
1.19497474683061
 20
-219.2694913472366
 30
0.0
 11
2.4221404597331
 21
-218.0423256343341
 31
0.0
  0
ARC
  5
28A
330
277
100
AcDbEntity
  8
0
  6
Continuous
100
AcDbCircle
 10
0.6999999999999888
 20
-218.7745166004061
 30
0.0
 40
0.6999999999999888
100
AcDbArc
 50
180.0
 51
315.0000000000006
  0
LINE
  5
28B
330
277
100
AcDbEntity
  8
0
  6
Continuous
100
AcDbLine
 10
4.999999999998351
 20
-216.2499999999997
 30
0.0
 11
5.999999999998351
 21
-216.2499999999997
 31
0.0
  0
LINE
  5
28C
330
277
100
AcDbEntity
  8
1
100
AcDbLine
 10
-1.0
 20
-174.0
 30
0.0
 11
1.0
 21
-174.0
 31
0.0
  0
LINE
  5
28D
330
277
100
AcDbEntity
  8
1
100
AcDbLine
 10
-1.0
 20
-166.5
 30
0.0
 11
1.0
 21
-166.5
 31
0.0
  0
LINE
  5
28E
330
277
100
AcDbEntity
  8
0
  6
Continuous
100
AcDbLine
 10
10.99999999999994
 20
-221.5
 30
0.0
 11
11.0
 21
-216.5
 31
0.0
  0
ARC
  5
28F
330
277
100
AcDbEntity
  8
0
  6
Continuous
100
AcDbCircle
 10
40.0
 20
-219.0
 30
0.0
 40
2.75
100
AcDbArc
 50
270.0
 51
90.0
  0
LINE
  5
290
330
277
100
AcDbEntity
  8
0
  6
Continuous
100
AcDbLine
 10
34.0
 20
-221.5
 30
0.0
 11
34.0
 21
-216.5
 31
0.0
  0
ARC
  5
291
330
277
100
AcDbEntity
  8
0
  6
Continuous
100
AcDbCircle
 10
39.0
 20
-219.0
 30
0.0
 40
2.75
100
AcDbArc
 50
90.0
 51
270.0
  0
LINE
  5
292
330
277
100
AcDbEntity
  8
Mitte
 62
     3
100
AcDbLine
 10
40.0
 20
-223.0
 30
0.0
 11
40.0
 21
-215.0
 31
0.0
  0
LINE
  5
293
330
277
100
AcDbEntity
  8
0
  6
Continuous
100
AcDbLine
 10
36.59999999999994
 20
-228.0
 30
0.0
 11
36.5999999999999
 21
-224.0999999999999
 31
0.0
  0
LINE
  5
294
330
277
100
AcDbEntity
  8
0
  6
Continuous
100
AcDbLine
 10
34.0
 20
-221.5
 30
0.0
 11
36.5999999999999
 21
-224.0999999999999
 31
0.0
  0
LINE
  5
295
330
277
100
AcDbEntity
  8
0
  6
Continuous
100
AcDbLine
 10
39.00000000000165
 20
-221.7499999999997
 30
0.0
 11
40.00000000000165
 21
-221.7499999999997
 31
0.0
  0
LINE
  5
296
330
277
100
AcDbEntity
  8
0
  6
Continuous
100
AcDbLine
 10
36.50000000000011
 20
-214.0
 30
0.0
 11
45.0
 21
-214.0
 31
0.0
  0
LINE
  5
297
330
277
100
AcDbEntity
  8
0
  6
Continuous
100
AcDbLine
 10
34.0
 20
-216.5
 30
0.0
 11
36.50000000000011
 21
-214.0
 31
0.0
  0
LINE
  5
298
330
277
100
AcDbEntity
  8
0
  6
Continuous
100
AcDbLine
 10
39.00000000000165
 20
-216.2499999999997
 30
0.0
 11
40.00000000000165
 21
-216.2499999999997
 31
0.0
  0
LINE
  5
299
330
277
100
AcDbEntity
  8
1
  6
MITTE2
 62
     3
100
AcDbLine
 10
-4.0
 20
-63.99999999999998
 30
0.0
 11
49.0
 21
-63.99999999999998
 31
0.0
  0
LINE
  5
29A
330
277
100
AcDbEntity
  8
1
100
AcDbLine
 10
-1.0
 20
-69.0
 30
0.0
 11
1.0
 21
-69.0
 31
0.0
  0
LINE
  5
29B
330
277
100
AcDbEntity
  8
0
  6
Continuous
100
AcDbLine
 10
7.499999999999943
 20
-13.99999999999998
 30
0.0
 11
10.0
 21
-11.49999999999995
 31
0.0
  0
LINE
  5
29C
330
277
100
AcDbEntity
  8
0
  6
Continuous
100
AcDbLine
 10
0.0
 20
0.0000000000000142
 30
0.0
 11
44.99999999999997
 21
0.0000000000000142
 31
0.0
  0
LINE
  5
29D
330
277
100
AcDbEntity
  8
0
  6
Continuous
100
AcDbLine
 10
8.400000000000089
 20
-3.900000000000153
 30
0.0
 11
10.0
 21
-5.500000000000021
 31
0.0
  0
LINE
  5
29E
330
277
100
AcDbEntity
  8
Mitte
 62
     3
100
AcDbLine
 10
1.0
 20
-9.0
 30
0.0
 11
9.0
 21
-9.0
 31
0.0
  0
LINE
  5
29F
330
277
100
AcDbEntity
  8
Mitte
 62
     3
100
AcDbLine
 10
5.0
 20
-13.0
 30
0.0
 11
5.0
 21
-5.0
 31
0.0
  0
CIRCLE
  5
2A0
330
277
100
AcDbEntity
  8
0
  6
Continuous
100
AcDbCircle
 10
5.0
 20
-8.999999999999984
 30
0.0
 40
2.75
  0
LINE
  5
2A1
330
277
100
AcDbEntity
  8
0
  6
Continuous
100
AcDbLine
 10
0.0
 20
-13.99999999999998
 30
0.0
 11
7.499999999999943
 21
-13.99999999999998
 31
0.0
  0
LINE
  5
2A2
330
277
100
AcDbEntity
  8
0
  6
Continuous
100
AcDbLine
 10
8.400000000000089
 20
-3.900000000000153
 30
0.0
 11
8.400000000000089
 21
0.0000000000000142
 31
0.0
  0
LINE
  5
2A3
330
277
100
AcDbEntity
  8
Mitte
 62
     3
100
AcDbLine
 10
40.0
 20
-13.0
 30
0.0
 11
40.0
 21
-5.0
 31
0.0
  0
CIRCLE
  5
2A4
330
277
100
AcDbEntity
  8
0
  6
Continuous
100
AcDbCircle
 10
40.0
 20
-8.999999999999984
 30
0.0
 40
2.75
  0
LINE
  5
2A5
330
277
100
AcDbEntity
  8
0
  6
Continuous
100
AcDbLine
 10
10.0
 20
-11.49999999999995
 30
0.0
 11
10.0
 21
-5.500000000000021
 31
0.0
  0
LINE
  5
2A6
330
277
100
AcDbEntity
  8
0
  6
Continuous
100
AcDbLine
 10
35.0
 20
-11.49999999999988
 30
0.0
 11
35.00000000000006
 21
-5.500000000000021
 31
0.0
  0
LINE
  5
2A7
330
277
100
AcDbEntity
  8
0
  6
Continuous
100
AcDbLine
 10
37.50000000000007
 20
-13.99999999999998
 30
0.0
 11
45.0
 21
-13.99999999999998
 31
0.0
  0
LINE
  5
2A8
330
277
100
AcDbEntity
  8
0
  6
Continuous
100
AcDbLine
 10
35.0
 20
-11.49999999999988
 30
0.0
 11
37.50000000000007
 21
-13.99999999999998
 31
0.0
  0
LINE
  5
2A9
330
277
100
AcDbEntity
  8
0
  6
Continuous
100
AcDbLine
 10
36.5999999999999
 20
-3.900000000000112
 30
0.0
 11
36.59999999999994
 21
0.0000000000000142
 31
0.0
  0
LINE
  5
2AA
330
277
100
AcDbEntity
  8
0
  6
Continuous
100
AcDbLine
 10
35.00000000000006
 20
-5.500000000000021
 30
0.0
 11
36.5999999999999
 21
-3.900000000000112
 31
0.0
  0
LINE
  5
2AB
330
277
100
AcDbEntity
  8
Mitte
 62
     3
100
AcDbLine
 10
36.0
 20
-9.0
 30
0.0
 11
44.0
 21
-9.0
 31
0.0
  0
LINE
  5
2AC
330
277
100
AcDbEntity
  8
Mitte
 62
     3
100
AcDbLine
 10
36.0
 20
-219.0
 30
0.0
 11
44.0
 21
-219.0
 31
0.0
  0
ENDBLK
  5
2AD
330
277
100
AcDbEntity
  8
0
100
AcDbBlockEnd
  0
BLOCK
  5
2AF
330
2AE
100
AcDbEntity
  8
0
100
AcDbBlockBegin
  2
KTA7-25
 70
     0
 10
0.0
 20
0.0
 30
0.0
  3
KTA7-25
  1

  0
LINE
  5
2B0
330
2AE
100
AcDbEntity
  8
0
100
AcDbLine
 10
-0.000040863676702
 20
-44.9500001
 30
0.0
 11
0.0000408636766736
 21
44.9500001
 31
0.0
  0
LINE
  5
2B1
330
2AE
100
AcDbEntity
  8
0
100
AcDbLine
 10
44.99995913632328
 20
44.9500001
 30
0.0
 11
44.99995913632328
 21
-44.9500001
 31
0.0
  0
CIRCLE
  5
2B2
330
2AE
100
AcDbEntity
  8
0
100
AcDbCircle
 10
4.999959136323292
 20
-26.94999989999999
 30
0.0
 40
3.299999999999998
  0
LINE
  5
2B3
330
2AE
100
AcDbEntity
  8
0
100
AcDbLine
 10
22.34995913632329
 20
-31.5499999
 30
0.0
 11
-0.0000286818463735
 21
-31.5499999
 31
0.0
  0
LINE
  5
2B4
330
2AE
100
AcDbEntity
  8
0
100
AcDbLine
 10
44.99995913632329
 20
-44.9500001
 30
0.0
 11
-0.0000408636766736
 21
-44.9500001
 31
0.0
  0
CIRCLE
  5
2B5
330
2AE
100
AcDbEntity
  8
0
100
AcDbCircle
 10
8.399959136323298
 20
-36.24999990000001
 30
0.0
 40
3.752195399999998
  0
CIRCLE
  5
2B6
330
2AE
100
AcDbEntity
  8
0
  6
STRICHLINIE
100
AcDbCircle
 10
39.99995913632329
 20
-26.94999989999999
 30
0.0
 40
3.299999999999998
  0
LINE
  5
2B7
330
2AE
100
AcDbEntity
  8
0
100
AcDbLine
 10
22.34995913632329
 20
-31.5499999
 30
0.0
 11
44.99995913632328
 21
-31.54999990000001
 31
0.0
  0
CIRCLE
  5
2B8
330
2AE
100
AcDbEntity
  8
0
100
AcDbCircle
 10
36.59995913632331
 20
-36.24999990000001
 30
0.0
 40
3.752195399999998
  0
CIRCLE
  5
2B9
330
2AE
100
AcDbEntity
  8
0
100
AcDbCircle
 10
22.49995913632329
 20
-36.24999990000001
 30
0.0
 40
3.752195399999998
  0
CIRCLE
  5
2BA
330
2AE
100
AcDbEntity
  8
0
100
AcDbCircle
 10
17.59995913632331
 20
-26.94999989999999
 30
0.0
 40
3.299999999999998
  0
LINE
  5
2BB
330
2AE
100
AcDbEntity
  8
0
100
AcDbLine
 10
22.49995913632329
 20
-31.2500079
 30
0.0
 11
22.49995913632329
 21
-22.65000290000001
 31
0.0
  0
LINE
  5
2BC
330
2AE
100
AcDbEntity
  8
0
100
AcDbLine
 10
22.49995913632329
 20
-31.2500079
 30
0.0
 11
22.49995913632329
 21
-31.5499999
 31
0.0
  0
CIRCLE
  5
2BD
330
2AE
100
AcDbEntity
  8
0
  6
STRICHLINIE
100
AcDbCircle
 10
27.39995913632327
 20
-26.94999989999999
 30
0.0
 40
3.299999999999998
  0
LINE
  5
2BE
330
2AE
100
AcDbEntity
  8
0
100
AcDbLine
 10
-0.000040863676702
 20
-22.44999990000001
 30
0.0
 11
44.99995913632329
 21
-22.44999990000001
 31
0.0
  0
CIRCLE
  5
2BF
330
2AE
100
AcDbEntity
  8
0
100
AcDbCircle
 10
8.399959136323298
 20
34.3000001
 30
0.0
 40
3.75
  0
LINE
  5
2C0
330
2AE
100
AcDbEntity
  8
0
100
AcDbLine
 10
0.0000408636766736
 20
44.9500001
 30
0.0
 11
44.99995913632329
 21
44.9500001
 31
0.0
  0
CIRCLE
  5
2C1
330
2AE
100
AcDbEntity
  8
0
100
AcDbCircle
 10
7.499959136323293
 20
0.0000000999999941
 30
0.0
 40
3.75
  0
LINE
  5
2C2
330
2AE
100
AcDbEntity
  8
0
100
AcDbLine
 10
-0.0000408636767304
 20
22.4500001
 30
0.0
 11
44.69995913632327
 21
22.45000010000001
 31
0.0
  0
LINE
  5
2C3
330
2AE
100
AcDbEntity
  8
1
100
AcDbLine
 10
-1.0000408636767
 20
-0.0000010000000117
 30
0.0
 11
0.9999591363232978
 21
-0.0000010000000117
 31
0.0
  0
LINE
  5
2C4
330
2AE
100
AcDbEntity
  8
0
100
AcDbLine
 10
25.34995913632331
 20
12.9703081
 30
0.0
 11
42.34995913632331
 21
12.9703081
 31
0.0
  0
LINE
  5
2C5
330
2AE
100
AcDbEntity
  8
0
100
AcDbLine
 10
42.34995913632331
 20
20.93107709999999
 30
0.0
 11
25.34995913632331
 21
20.93107709999999
 31
0.0
  0
ARC
  5
2C6
330
2AE
100
AcDbEntity
  8
0
100
AcDbCircle
 10
24.8999591363233
 20
-4.499999900000005
 30
0.0
 40
10.5
100
AcDbArc
 50
292.98741
 51
67.02421999999997
  0
LINE
  5
2C7
330
2AE
100
AcDbEntity
  8
0
100
AcDbLine
 10
20.8999591363233
 20
6.500000099999994
 30
0.0
 11
20.8999591363233
 21
-20.49999990000001
 31
0.0
  0
LINE
  5
2C8
330
2AE
100
AcDbEntity
  8
0
100
AcDbLine
 10
28.8999591363233
 20
6.500000099999994
 30
0.0
 11
28.8999591363233
 21
-20.49999990000001
 31
0.0
  0
ARC
  5
2C9
330
2AE
100
AcDbEntity
  8
0
100
AcDbCircle
 10
24.8999591363233
 20
-4.499999900000005
 30
0.0
 40
10.5
100
AcDbArc
 50
112.9867
 51
247.00609
  0
LINE
  5
2CA
330
2AE
100
AcDbEntity
  8
0
100
AcDbLine
 10
27.8999591363233
 20
-21.49999990000001
 30
0.0
 11
21.8999591363233
 21
-21.49999990000001
 31
0.0
  0
ARC
  5
2CB
330
2AE
100
AcDbEntity
  8
0
100
AcDbCircle
 10
21.8999591363233
 20
-20.49999990000001
 30
0.0
 40
1.0
100
AcDbArc
 50
180.0
 51
270.0
  0
ARC
  5
2CC
330
2AE
100
AcDbEntity
  8
0
100
AcDbCircle
 10
27.8999591363233
 20
-20.49999990000001
 30
0.0
 40
1.0
100
AcDbArc
 50
270.0
 51
0.0
  0
LINE
  5
2CD
330
2AE
100
AcDbEntity
  8
0
100
AcDbLine
 10
21.8999591363233
 20
7.500000099999994
 30
0.0
 11
27.8999591363233
 21
7.500000099999994
 31
0.0
  0
ARC
  5
2CE
330
2AE
100
AcDbEntity
  8
0
100
AcDbCircle
 10
21.8999591363233
 20
6.500000099999994
 30
0.0
 40
0.99999997
100
AcDbArc
 50
89.999999
 51
180.0
  0
LINE
  5
2CF
330
2AE
100
AcDbEntity
  8
0
100
AcDbLine
 10
24.84995913632332
 20
13.27030809999999
 30
0.0
 11
24.84995913632332
 21
20.63107709999998
 31
0.0
  0
ARC
  5
2D0
330
2AE
100
AcDbEntity
  8
0
100
AcDbCircle
 10
27.8999591363233
 20
6.500000099999994
 30
0.0
 40
0.9999999899999998
100
AcDbArc
 50
0.0000009573
 51
89.99999800000002
  0
LINE
  5
2D1
330
2AE
100
AcDbEntity
  8
0
100
AcDbLine
 10
24.84995913632332
 20
12.9703081
 30
0.0
 11
24.84995913632332
 21
13.27030809999999
 31
0.0
  0
LINE
  5
2D2
330
2AE
100
AcDbEntity
  8
0
100
AcDbLine
 10
25.34995913632331
 20
12.9703081
 30
0.0
 11
24.84995913632332
 21
12.9703081
 31
0.0
  0
LINE
  5
2D3
330
2AE
100
AcDbEntity
  8
0
100
AcDbLine
 10
24.84995913632332
 20
20.63107709999998
 30
0.0
 11
24.84995913632332
 21
20.93107709999999
 31
0.0
  0
LINE
  5
2D4
330
2AE
100
AcDbEntity
  8
0
100
AcDbLine
 10
24.84995913632332
 20
20.93107709999999
 30
0.0
 11
25.34995913632331
 21
20.93107709999999
 31
0.0
  0
LINE
  5
2D5
330
2AE
100
AcDbEntity
  8
1
100
AcDbLine
 10
43.99995913632328
 20
0.0
 30
0.0
 11
45.99995913632328
 21
0.0
 31
0.0
  0
LINE
  5
2D6
330
2AE
100
AcDbEntity
  8
0
100
AcDbLine
 10
42.84995913632331
 20
20.63107709999998
 30
0.0
 11
42.84995913632331
 21
13.27030809999999
 31
0.0
  0
LINE
  5
2D7
330
2AE
100
AcDbEntity
  8
0
100
AcDbLine
 10
42.84995913632331
 20
13.27030809999999
 30
0.0
 11
42.84996913632332
 21
12.97030709999998
 31
0.0
  0
LINE
  5
2D8
330
2AE
100
AcDbEntity
  8
0
100
AcDbLine
 10
42.84996913632332
 20
12.97030709999998
 30
0.0
 11
42.34995913632331
 21
12.9703081
 31
0.0
  0
LINE
  5
2D9
330
2AE
100
AcDbEntity
  8
0
100
AcDbLine
 10
42.84995913632331
 20
20.93107709999999
 30
0.0
 11
42.84995913632331
 21
20.63107709999998
 31
0.0
  0
LINE
  5
2DA
330
2AE
100
AcDbEntity
  8
0
100
AcDbLine
 10
42.34995913632331
 20
20.93107709999999
 30
0.0
 11
42.84995913632331
 21
20.93107709999999
 31
0.0
  0
CIRCLE
  5
2DB
330
2AE
100
AcDbEntity
  8
0
100
AcDbCircle
 10
36.59995913632331
 20
34.3000001
 30
0.0
 40
3.75
  0
CIRCLE
  5
2DC
330
2AE
100
AcDbEntity
  8
0
100
AcDbCircle
 10
22.49995913632329
 20
34.3000001
 30
0.0
 40
3.75
  0
ENDBLK
  5
2DD
330
2AE
100
AcDbEntity
  8
0
100
AcDbBlockEnd
  0
BLOCK
  5
2DF
330
2DE
100
AcDbEntity
  8
0
100
AcDbBlockBegin
  2
CA7-9...23
 70
     0
 10
0.0
 20
0.0
 30
0.0
  3
CA7-9...23
  1

  0
CIRCLE
  5
2E0
330
2DE
100
AcDbEntity
  8
0
100
AcDbCircle
 10
6.0
 20
-22.0
 30
0.0
 40
3.0
  0
CIRCLE
  5
2E1
330
2DE
100
AcDbEntity
  8
0
100
AcDbCircle
 10
17.0
 20
-22.0
 30
0.0
 40
3.0
  0
CIRCLE
  5
2E2
330
2DE
100
AcDbEntity
  8
0
100
AcDbCircle
 10
28.0
 20
-22.0
 30
0.0
 40
3.0
  0
CIRCLE
  5
2E3
330
2DE
100
AcDbEntity
  8
0
100
AcDbCircle
 10
39.0
 20
-22.0
 30
0.0
 40
3.0
  0
LWPOLYLINE
  5
2E4
330
2DE
100
AcDbEntity
  8
0
100
AcDbPolyline
 90
        4
 70
     1
 43
0.0
 10
45.0
 20
31.5
 10
45.0
 20
-31.5
 10
0.0
 20
-31.5
 10
0.0
 20
31.5
  0
CIRCLE
  5
2E5
330
2DE
100
AcDbEntity
  8
0
100
AcDbCircle
 10
31.0
 20
-37.0
 30
0.0
 40
3.0
  0
LWPOLYLINE
  5
2E6
330
2DE
100
AcDbEntity
  8
0
100
AcDbPolyline
 90
        4
 70
     0
 43
0.0
 10
8.5
 20
-37.0
 10
0.0
 20
-37.0
 10
0.0
 20
-31.5
 10
45.0
 20
-31.5
  0
LWPOLYLINE
  5
2E7
330
2DE
100
AcDbEntity
  8
0
100
AcDbPolyline
 90
        4
 70
     1
 43
0.0
 10
36.5
 20
-31.5
 10
36.5
 20
-43.0
 10
8.5
 20
-43.0
 10
8.5
 20
-31.5
  0
INSERT
  5
2E8
330
2DE
100
AcDbEntity
  8
Screwholes
100
AcDbBlockReference
  2
LOCH_4MM
 10
5.0
 20
-30.0
 30
0.0
 50
180.0
  0
CIRCLE
  5
2E9
330
2DE
100
AcDbEntity
  8
0
100
AcDbCircle
 10
14.0
 20
-37.0
 30
0.0
 40
3.0
  0
LWPOLYLINE
  5
2EA
330
2DE
100
AcDbEntity
  8
0
100
AcDbPolyline
 90
        3
 70
     0
 43
0.0
 10
45.0
 20
-31.5
 10
45.0
 20
-37.0
 10
36.5
 20
-37.0
  0
LWPOLYLINE
  5
2EB
330
2DE
100
AcDbEntity
  8
0
100
AcDbPolyline
 90
        3
 70
     0
 43
0.0
 10
45.0
 20
31.5
 10
45.0
 20
37.0
 10
27.5
 20
37.0
  0
LWPOLYLINE
  5
2EC
330
2DE
100
AcDbEntity
  8
0
100
AcDbPolyline
 90
        4
 70
     0
 43
0.0
 10
17.5
 20
37.0
 10
0.0
 20
37.0
 10
0.0
 20
31.5
 10
45.0
 20
31.5
  0
LINE
  5
2ED
330
2DE
100
AcDbEntity
  8
1
100
AcDbLine
 10
-1.0
 20
0.0
 30
0.0
 11
1.0
 21
0.0
 31
0.0
  0
CIRCLE
  5
2EE
330
2DE
100
AcDbEntity
  8
0
100
AcDbCircle
 10
6.0
 20
22.0
 30
0.0
 40
3.0
  0
CIRCLE
  5
2EF
330
2DE
100
AcDbEntity
  8
0
100
AcDbCircle
 10
17.0
 20
22.0
 30
0.0
 40
3.0
  0
CIRCLE
  5
2F0
330
2DE
100
AcDbEntity
  8
0
100
AcDbCircle
 10
28.0
 20
22.0
 30
0.0
 40
3.0
  0
LWPOLYLINE
  5
2F1
330
2DE
100
AcDbEntity
  8
0
100
AcDbPolyline
 90
        4
 70
     1
 43
0.0
 10
27.5
 20
31.5
 10
27.5
 20
38.5
 10
17.5
 20
38.5
 10
17.5
 20
31.5
  0
INSERT
  5
2F2
330
2DE
100
AcDbEntity
  8
Screwholes
100
AcDbBlockReference
  2
LOCH_4MM
 10
40.0
 20
30.0
 30
0.0
 50
180.0
  0
CIRCLE
  5
2F3
330
2DE
100
AcDbEntity
  8
0
100
AcDbCircle
 10
39.0
 20
22.0
 30
0.0
 40
3.0
  0
LINE
  5
2F4
330
2DE
100
AcDbEntity
  8
1
100
AcDbLine
 10
44.0
 20
0.0
 30
0.0
 11
46.0
 21
0.0
 31
0.0
  0
LINE
  5
2F5
330
2DE
100
AcDbEntity
  8
1
100
AcDbLine
 10
22.5
 20
-42.0
 30
0.0
 11
22.5
 21
-44.0
 31
0.0
  0
ENDBLK
  5
2F6
330
2DE
100
AcDbEntity
  8
0
100
AcDbBlockEnd
  0
BLOCK
  5
2F8
330
2F7
100
AcDbEntity
  8
0
100
AcDbBlockBegin
  2
CM7-02
 70
     0
 10
0.0
 20
0.0
 30
0.0
  3
CM7-02
  1

  0
LINE
  5
2F9
330
2F7
100
AcDbEntity
  8
0
100
AcDbLine
 10
-0.0000133333530812
 20
-36.0
 30
0.0
 11
0.0000133333275301
 21
35.99993094167182
 31
0.0
  0
LINE
  5
2FA
330
2F7
100
AcDbEntity
  8
0
100
AcDbLine
 10
8.999986666646918
 20
-36.0
 30
0.0
 11
9.00001333332753
 21
35.99993094167182
 31
0.0
  0
LINE
  5
2FB
330
2F7
100
AcDbEntity
  8
0
100
AcDbLine
 10
8.999986666646918
 20
-36.0
 30
0.0
 11
-0.0000133333530812
 21
-36.0
 31
0.0
  0
CIRCLE
  5
2FC
330
2F7
100
AcDbEntity
  8
0
100
AcDbCircle
 10
4.499991666654324
 20
-27.7
 30
0.0
 40
3.099999949999999
  0
CIRCLE
  5
2FD
330
2F7
100
AcDbEntity
  8
0
100
AcDbCircle
 10
4.499991666654324
 20
-13.9
 30
0.0
 40
3.1
  0
LINE
  5
2FE
330
2F7
100
AcDbEntity
  8
0
100
AcDbLine
 10
8.999991666654324
 20
-22.5
 30
0.0
 11
-0.0000083333456757
 21
-22.5
 31
0.0
  0
LINE
  5
2FF
330
2F7
100
AcDbEntity
  8
1
100
AcDbLine
 10
7.999991666654324
 20
0.0
 30
0.0
 11
9.999991666654324
 21
0.0
 31
0.0
  0
LINE
  5
300
330
2F7
100
AcDbEntity
  8
1
100
AcDbLine
 10
-1.000008333345675
 20
0.0
 30
0.0
 11
0.999991666654324
 21
0.0
 31
0.0
  0
CIRCLE
  5
301
330
2F7
100
AcDbEntity
  8
0
100
AcDbCircle
 10
4.499991666654324
 20
27.69999899999999
 30
0.0
 40
3.099999949999999
  0
CIRCLE
  5
302
330
2F7
100
AcDbEntity
  8
0
100
AcDbCircle
 10
4.499991666654324
 20
13.9
 30
0.0
 40
3.1
  0
LINE
  5
303
330
2F7
100
AcDbEntity
  8
0
100
AcDbLine
 10
0.0000083333453063
 20
22.499999
 30
0.0
 11
9.000008333345306
 21
22.49999899999997
 31
0.0
  0
LINE
  5
304
330
2F7
100
AcDbEntity
  8
0
100
AcDbLine
 10
0.0000133333275301
 20
35.99993094167182
 30
0.0
 11
9.00001333316905
 21
35.99950305601808
 31
0.0
  0
ENDBLK
  5
305
330
2F7
100
AcDbEntity
  8
0
100
AcDbBlockEnd
  0
BLOCK
  5
3C8
330
3C7
100
AcDbEntity
  8
0
100
AcDbBlockBegin
  2
*D14
 70
     1
 10
0.0
 20
0.0
 30
0.0
  3
*D14
  1

  0
LINE
  5
433
330
3C7
100
AcDbEntity
  8
Measures
 62
     0
370
    -2
100
AcDbLine
 10
91.62417348197442
 20
128.0250204840684
 30
0.0
 11
131.1241599224348
 21
128.0250204840684
 31
0.0
  0
LINE
  5
434
330
3C7
100
AcDbEntity
  8
Measures
 62
     0
370
    -2
100
AcDbLine
 10
115.6241741423363
 20
64.02502087462521
 30
0.0
 11
131.1241599224348
 21
64.02502087462521
 31
0.0
  0
LINE
  5
435
330
3C7
100
AcDbEntity
  8
Measures
 62
     0
370
    -2
100
AcDbLine
 10
128.6241599224348
 20
123.0250204840684
 30
0.0
 11
128.6241599224348
 21
69.02502087462521
 31
0.0
  0
SOLID
  5
436
330
3C7
100
AcDbEntity
  8
Measures
 62
     0
100
AcDbTrace
 10
127.7908265891015
 20
123.0250204840684
 30
0.0
 11
129.4574932557682
 21
123.0250204840684
 31
0.0
 12
128.6241599224348
 22
128.0250204840684
 32
0.0
 13
128.6241599224348
 23
128.0250204840684
 33
0.0
  0
SOLID
  5
437
330
3C7
100
AcDbEntity
  8
Measures
 62
     0
100
AcDbTrace
 10
127.7908265891015
 20
69.02502087462521
 30
0.0
 11
129.4574932557682
 21
69.02502087462521
 31
0.0
 12
128.6241599224348
 22
64.02502087462521
 32
0.0
 13
128.6241599224348
 23
64.02502087462521
 33
0.0
  0
MTEXT
  5
438
330
3C7
100
AcDbEntity
  8
Measures
 62
     0
100
AcDbMText
 10
125.0712949838263
 20
96.02502067934686
 30
0.0
 40
5.0
 41
0.0
 71
     5
 72
     1
  1
\A1;64
  7
ARIAL
 11
0.0000000000000001
 21
1.0
 31
0.0
 73
     1
 44
1.0
  0
POINT
  5
439
330
3C7
100
AcDbEntity
  8
Defpoints
 62
     0
100
AcDbPoint
 10
90.62417348197442
 20
128.0250204840684
 30
0.0
  0
POINT
  5
43A
330
3C7
100
AcDbEntity
  8
Defpoints
 62
     0
100
AcDbPoint
 10
114.6241741423363
 20
64.02502087462521
 30
0.0
  0
POINT
  5
43B
330
3C7
100
AcDbEntity
  8
Defpoints
 62
     0
100
AcDbPoint
 10
128.6241599224348
 20
64.02502087462521
 30
0.0
  0
ENDBLK
  5
3C9
330
3C7
100
AcDbEntity
  8
0
100
AcDbBlockEnd
  0
BLOCK
  5
3D4
330
3D3
100
AcDbEntity
  8
0
100
AcDbBlockBegin
  2
*D15
 70
     1
 10
0.0
 20
0.0
 30
0.0
  3
*D15
  1

  0
LINE
  5
43C
330
3D3
100
AcDbEntity
  8
Measures
 62
     0
370
    -2
100
AcDbLine
 10
115.6241741423363
 20
64.02502087462521
 30
0.0
 11
131.1241599224348
 21
64.02502087462521
 31
0.0
  0
LINE
  5
43D
330
3D3
100
AcDbEntity
  8
Measures
 62
     0
370
    -2
100
AcDbLine
 10
115.6241685867725
 20
-60.97497912537479
 30
0.0
 11
131.1241599224348
 21
-60.97497912537479
 31
0.0
  0
LINE
  5
43E
330
3D3
100
AcDbEntity
  8
Measures
 62
     0
370
    -2
100
AcDbLine
 10
128.6241599224348
 20
59.0250208746252
 30
0.0
 11
128.6241599224348
 21
-55.97497912537479
 31
0.0
  0
SOLID
  5
43F
330
3D3
100
AcDbEntity
  8
Measures
 62
     0
100
AcDbTrace
 10
127.7908265891015
 20
59.0250208746252
 30
0.0
 11
129.4574932557682
 21
59.0250208746252
 31
0.0
 12
128.6241599224348
 22
64.02502087462521
 32
0.0
 13
128.6241599224348
 23
64.02502087462521
 33
0.0
  0
SOLID
  5
440
330
3D3
100
AcDbEntity
  8
Measures
 62
     0
100
AcDbTrace
 10
127.7908265891015
 20
-55.97497912537479
 30
0.0
 11
129.4574932557682
 21
-55.97497912537479
 31
0.0
 12
128.6241599224348
 22
-60.97497912537479
 32
0.0
 13
128.6241599224348
 23
-60.97497912537479
 33
0.0
  0
MTEXT
  5
441
330
3D3
100
AcDbEntity
  8
Measures
 62
     0
100
AcDbMText
 10
125.0712949838264
 20
1.525020874625226
 30
0.0
 40
5.0
 41
0.0
 71
     5
 72
     1
  1
\A1;125
  7
ARIAL
 11
0.0000000000000001
 21
1.0
 31
0.0
 73
     1
 44
1.0
  0
POINT
  5
442
330
3D3
100
AcDbEntity
  8
Defpoints
 62
     0
100
AcDbPoint
 10
114.6241741423363
 20
64.02502087462521
 30
0.0
  0
POINT
  5
443
330
3D3
100
AcDbEntity
  8
Defpoints
 62
     0
100
AcDbPoint
 10
114.6241685867725
 20
-60.97497912537479
 30
0.0
  0
POINT
  5
444
330
3D3
100
AcDbEntity
  8
Defpoints
 62
     0
100
AcDbPoint
 10
128.6241599224348
 20
-60.97497912537479
 30
0.0
  0
ENDBLK
  5
3D5
330
3D3
100
AcDbEntity
  8
0
100
AcDbBlockEnd
  0
BLOCK
  5
3E0
330
3DF
100
AcDbEntity
  8
0
100
AcDbBlockBegin
  2
*D16
 70
     1
 10
0.0
 20
0.0
 30
0.0
  3
*D16
  1

  0
LINE
  5
445
330
3DF
100
AcDbEntity
  8
Measures
 62
     0
370
    -2
100
AcDbLine
 10
91.62417414233628
 20
-99.97497852977325
 30
0.0
 11
146.1241599224348
 21
-99.97497852977327
 31
0.0
  0
LINE
  5
446
330
3DF
100
AcDbEntity
  8
Measures
 62
     0
370
    -2
100
AcDbLine
 10
91.62415992243484
 20
128.0250209514041
 30
0.0
 11
146.1241599224348
 21
128.0250209514041
 31
0.0
  0
LINE
  5
447
330
3DF
100
AcDbEntity
  8
Measures
 62
     0
370
    -2
100
AcDbLine
 10
143.6241599224348
 20
-94.97497852977327
 30
0.0
 11
143.6241599224348
 21
123.0250209514041
 31
0.0
  0
SOLID
  5
448
330
3DF
100
AcDbEntity
  8
Measures
 62
     0
100
AcDbTrace
 10
142.7908265891014
 20
-94.97497852977327
 30
0.0
 11
144.4574932557681
 21
-94.97497852977327
 31
0.0
 12
143.6241599224348
 22
-99.97497852977327
 32
0.0
 13
143.6241599224348
 23
-99.97497852977327
 33
0.0
  0
SOLID
  5
449
330
3DF
100
AcDbEntity
  8
Measures
 62
     0
100
AcDbTrace
 10
142.7908265891015
 20
123.0250209514041
 30
0.0
 11
144.4574932557681
 21
123.0250209514041
 31
0.0
 12
143.6241599224348
 22
128.0250209514041
 32
0.0
 13
143.6241599224348
 23
128.0250209514041
 33
0.0
  0
MTEXT
  5
44A
330
3DF
100
AcDbEntity
  8
Measures
 62
     0
100
AcDbMText
 10
140.0712949838263
 20
14.02502121081545
 30
0.0
 40
5.0
 41
0.0
 71
     5
 72
     1
  1
\A1;228
  7
ARIAL
 11
0.0000000000000001
 21
1.0
 31
0.0
 73
     1
 44
1.0
  0
POINT
  5
44B
330
3DF
100
AcDbEntity
  8
Defpoints
 62
     0
100
AcDbPoint
 10
90.62417414233628
 20
-99.97497852977325
 30
0.0
  0
POINT
  5
44C
330
3DF
100
AcDbEntity
  8
Defpoints
 62
     0
100
AcDbPoint
 10
90.62415992243485
 20
128.0250209514041
 30
0.0
  0
POINT
  5
44D
330
3DF
100
AcDbEntity
  8
Defpoints
 62
     0
100
AcDbPoint
 10
143.6241599224348
 20
128.0250209514041
 30
0.0
  0
ENDBLK
  5
3E1
330
3DF
100
AcDbEntity
  8
0
100
AcDbBlockEnd
  0
BLOCK
  5
3EC
330
3EB
100
AcDbEntity
  8
0
100
AcDbBlockBegin
  2
*D17
 70
     1
 10
0.0
 20
0.0
 30
0.0
  3
*D17
  1

  0
LINE
  5
44E
330
3EB
100
AcDbEntity
  8
Measures
 62
     0
370
    -2
100
AcDbLine
 10
-8.375840077565154
 20
-91.9749786940862
 30
0.0
 11
-8.375840077565156
 21
-131.4598392358711
 31
0.0
  0
LINE
  5
44F
330
3EB
100
AcDbEntity
  8
Measures
 62
     0
370
    -2
100
AcDbLine
 10
90.62418088214904
 20
-100.9749795159315
 30
0.0
 11
90.62418088214904
 21
-131.4598392358711
 31
0.0
  0
LINE
  5
450
330
3EB
100
AcDbEntity
  8
Measures
 62
     0
370
    -2
100
AcDbLine
 10
-3.375840077565156
 20
-128.959839235871
 30
0.0
 11
85.62418088214903
 21
-128.959839235871
 31
0.0
  0
SOLID
  5
451
330
3EB
100
AcDbEntity
  8
Measures
 62
     0
100
AcDbTrace
 10
-3.375840077565156
 20
-128.1265059025377
 30
0.0
 11
-3.375840077565156
 21
-129.7931725692044
 31
0.0
 12
-8.375840077565156
 22
-128.959839235871
 32
0.0
 13
-8.375840077565156
 23
-128.959839235871
 33
0.0
  0
SOLID
  5
452
330
3EB
100
AcDbEntity
  8
Measures
 62
     0
100
AcDbTrace
 10
85.62418088214903
 20
-128.1265059025377
 30
0.0
 11
85.62418088214903
 21
-129.7931725692044
 31
0.0
 12
90.62418088214904
 22
-128.959839235871
 32
0.0
 13
90.62418088214904
 23
-128.959839235871
 33
0.0
  0
MTEXT
  5
453
330
3EB
100
AcDbEntity
  8
Measures
 62
     0
100
AcDbMText
 10
41.12417040229193
 20
-125.4069742972626
 30
0.0
 40
5.0
 41
0.0
 71
     5
 72
     1
  1
\A1;99
  7
ARIAL
 73
     1
 44
1.0
  0
POINT
  5
454
330
3EB
100
AcDbEntity
  8
Defpoints
 62
     0
100
AcDbPoint
 10
-8.375840077565154
 20
-90.9749786940862
 30
0.0
  0
POINT
  5
455
330
3EB
100
AcDbEntity
  8
Defpoints
 62
     0
100
AcDbPoint
 10
90.62418088214904
 20
-99.97497951593157
 30
0.0
  0
POINT
  5
456
330
3EB
100
AcDbEntity
  8
Defpoints
 62
     0
100
AcDbPoint
 10
90.62418088214904
 20
-128.959839235871
 30
0.0
  0
ENDBLK
  5
3ED
330
3EB
100
AcDbEntity
  8
0
100
AcDbBlockEnd
  0
BLOCK
  5
3F8
330
3F7
100
AcDbEntity
  8
0
100
AcDbBlockBegin
  2
*D18
 70
     1
 10
0.0
 20
0.0
 30
0.0
  3
*D18
  1

  0
LINE
  5
457
330
3F7
100
AcDbEntity
  8
Measures
 62
     0
370
    -2
100
AcDbLine
 10
-17.3758398513786
 20
-75.47497951593155
 30
0.0
 11
-17.3758398513786
 21
-146.459839235871
 31
0.0
  0
LINE
  5
458
330
3F7
100
AcDbEntity
  8
Measures
 62
     0
370
    -2
100
AcDbLine
 10
99.62416014862141
 20
-75.47497951593155
 30
0.0
 11
99.62416014862141
 21
-146.459839235871
 31
0.0
  0
LINE
  5
459
330
3F7
100
AcDbEntity
  8
Measures
 62
     0
370
    -2
100
AcDbLine
 10
-12.3758398513786
 20
-143.9598392358711
 30
0.0
 11
94.62416014862141
 21
-143.9598392358711
 31
0.0
  0
SOLID
  5
45A
330
3F7
100
AcDbEntity
  8
Measures
 62
     0
100
AcDbTrace
 10
-12.3758398513786
 20
-143.1265059025377
 30
0.0
 11
-12.3758398513786
 21
-144.7931725692044
 31
0.0
 12
-17.3758398513786
 22
-143.9598392358711
 32
0.0
 13
-17.3758398513786
 23
-143.9598392358711
 33
0.0
  0
SOLID
  5
45B
330
3F7
100
AcDbEntity
  8
Measures
 62
     0
100
AcDbTrace
 10
94.62416014862141
 20
-143.1265059025377
 30
0.0
 11
94.62416014862141
 21
-144.7931725692044
 31
0.0
 12
99.62416014862141
 22
-143.9598392358711
 32
0.0
 13
99.62416014862141
 23
-143.9598392358711
 33
0.0
  0
MTEXT
  5
45C
330
3F7
100
AcDbEntity
  8
Measures
 62
     0
100
AcDbMText
 10
41.1241601486214
 20
-139.6822130421466
 30
0.0
 40
5.0
 41
0.0
 71
     5
 72
     1
  1
\A1;117  (a)
  7
ARIAL
 73
     1
 44
1.0
  0
POINT
  5
45D
330
3F7
100
AcDbEntity
  8
Defpoints
 62
     0
100
AcDbPoint
 10
-17.3758398513786
 20
-74.47497951593153
 30
0.0
  0
POINT
  5
45E
330
3F7
100
AcDbEntity
  8
Defpoints
 62
     0
100
AcDbPoint
 10
99.62416014862141
 20
-74.47497951593153
 30
0.0
  0
POINT
  5
45F
330
3F7
100
AcDbEntity
  8
Defpoints
 62
     0
100
AcDbPoint
 10
99.62416014862141
 20
-143.9598392358711
 30
0.0
  0
ENDBLK
  5
3F9
330
3F7
100
AcDbEntity
  8
0
100
AcDbBlockEnd
  0
BLOCK
  5
404
330
403
100
AcDbEntity
  8
0
100
AcDbBlockBegin
  2
*D19
 70
     1
 10
0.0
 20
0.0
 30
0.0
  3
*D19
  1

  0
LINE
  5
460
330
403
100
AcDbEntity
  8
Measures
 62
     0
370
    -2
100
AcDbLine
 10
-6.375826518025514
 20
119.0250204840684
 30
0.0
 11
-60.87584007756511
 21
119.0250204840685
 31
0.0
  0
LINE
  5
461
330
403
100
AcDbEntity
  8
Measures
 62
     0
370
    -2
100
AcDbLine
 10
-6.375826518025514
 20
-90.97497951593151
 30
0.0
 11
-60.87584007756515
 21
-90.97497951593151
 31
0.0
  0
LINE
  5
462
330
403
100
AcDbEntity
  8
Measures
 62
     0
370
    -2
100
AcDbLine
 10
-58.37584007756511
 20
114.0250204840685
 30
0.0
 11
-58.37584007756515
 21
-85.97497951593153
 31
0.0
  0
SOLID
  5
463
330
403
100
AcDbEntity
  8
Measures
 62
     0
100
AcDbTrace
 10
-59.20917341089843
 20
114.0250204840685
 30
0.0
 11
-57.54250674423178
 21
114.0250204840685
 31
0.0
 12
-58.37584007756511
 22
119.0250204840685
 32
0.0
 13
-58.37584007756511
 23
119.0250204840685
 33
0.0
  0
SOLID
  5
464
330
403
100
AcDbEntity
  8
Measures
 62
     0
100
AcDbTrace
 10
-59.20917341089849
 20
-85.97497951593153
 30
0.0
 11
-57.54250674423182
 21
-85.97497951593153
 31
0.0
 12
-58.37584007756515
 22
-90.97497951593151
 32
0.0
 13
-58.37584007756515
 23
-90.97497951593151
 33
0.0
  0
MTEXT
  5
465
330
403
100
AcDbEntity
  8
Measures
 62
     0
100
AcDbMText
 10
-61.9287050161736
 20
14.02502048406846
 30
0.0
 40
5.0
 41
0.0
 71
     5
 72
     1
  1
\A1;210
  7
ARIAL
 11
0.0000000000000001
 21
1.0
 31
0.0
 73
     1
 44
1.0
  0
POINT
  5
466
330
403
100
AcDbEntity
  8
Defpoints
 62
     0
100
AcDbPoint
 10
-5.375826518025514
 20
119.0250204840684
 30
0.0
  0
POINT
  5
467
330
403
100
AcDbEntity
  8
Defpoints
 62
     0
100
AcDbPoint
 10
-5.375826518025514
 20
-90.97497951593151
 30
0.0
  0
POINT
  5
468
330
403
100
AcDbEntity
  8
Defpoints
 62
     0
100
AcDbPoint
 10
-58.37584007756515
 20
-90.97497951593151
 30
0.0
  0
ENDBLK
  5
405
330
403
100
AcDbEntity
  8
0
100
AcDbBlockEnd
  0
BLOCK
  5
410
330
40F
100
AcDbEntity
  8
0
100
AcDbBlockBegin
  2
*D20
 70
     1
 10
0.0
 20
0.0
 30
0.0
  3
*D20
  1

  0
LINE
  5
469
330
40F
100
AcDbEntity
  8
Measures
 62
     0
370
    -2
100
AcDbLine
 10
-1.375819117850905
 20
124.0250204840684
 30
0.0
 11
-1.375819117850902
 21
159.0845032668737
 31
0.0
  0
LINE
  5
46A
330
40F
100
AcDbEntity
  8
Measures
 62
     0
370
    -2
100
AcDbLine
 10
85.62418088214906
 20
124.0250204840684
 30
0.0
 11
85.62418088214906
 21
159.0845032668737
 31
0.0
  0
LINE
  5
46B
330
40F
100
AcDbEntity
  8
Measures
 62
     0
370
    -2
100
AcDbLine
 10
3.624180882149095
 20
156.5845032668737
 30
0.0
 11
80.62418088214906
 21
156.5845032668737
 31
0.0
  0
SOLID
  5
46C
330
40F
100
AcDbEntity
  8
Measures
 62
     0
100
AcDbTrace
 10
3.624180882149095
 20
157.4178366002071
 30
0.0
 11
3.624180882149095
 21
155.7511699335404
 31
0.0
 12
-1.375819117850902
 22
156.5845032668737
 32
0.0
 13
-1.375819117850902
 23
156.5845032668737
 33
0.0
  0
SOLID
  5
46D
330
40F
100
AcDbEntity
  8
Measures
 62
     0
100
AcDbTrace
 10
80.62418088214906
 20
157.4178366002071
 30
0.0
 11
80.62418088214906
 21
155.7511699335404
 31
0.0
 12
85.62418088214906
 22
156.5845032668737
 32
0.0
 13
85.62418088214906
 23
156.5845032668737
 33
0.0
  0
MTEXT
  5
46E
330
40F
100
AcDbEntity
  8
Measures
 62
     0
100
AcDbMText
 10
42.12418088214906
 20
160.1373682054822
 30
0.0
 40
5.0
 41
0.0
 71
     5
 72
     1
  1
\A1;87
  7
ARIAL
 73
     1
 44
1.0
  0
POINT
  5
46F
330
40F
100
AcDbEntity
  8
Defpoints
 62
     0
100
AcDbPoint
 10
-1.375819117850905
 20
123.0250204840684
 30
0.0
  0
POINT
  5
470
330
40F
100
AcDbEntity
  8
Defpoints
 62
     0
100
AcDbPoint
 10
85.62418088214906
 20
123.0250204840684
 30
0.0
  0
POINT
  5
471
330
40F
100
AcDbEntity
  8
Defpoints
 62
     0
100
AcDbPoint
 10
85.62418088214906
 20
156.5845032668737
 30
0.0
  0
ENDBLK
  5
411
330
40F
100
AcDbEntity
  8
0
100
AcDbBlockEnd
  0
BLOCK
  5
41C
330
41B
100
AcDbEntity
  8
0
100
AcDbBlockBegin
  2
*D21
 70
     1
 10
0.0
 20
0.0
 30
0.0
  3
*D21
  1

  0
LINE
  5
472
330
41B
100
AcDbEntity
  8
Measures
 62
     0
370
    -2
100
AcDbLine
 10
-9.375826518025515
 20
128.0250204840684
 30
0.0
 11
-45.87584007756514
 21
128.0250204840684
 31
0.0
  0
LINE
  5
473
330
41B
100
AcDbEntity
  8
Measures
 62
     0
370
    -2
100
AcDbLine
 10
-14.37584007756515
 20
59.02502130591379
 30
0.0
 11
-45.87584007756514
 21
59.02502130591379
 31
0.0
  0
LINE
  5
474
330
41B
100
AcDbEntity
  8
Measures
 62
     0
370
    -2
100
AcDbLine
 10
-43.37584007756514
 20
123.0250204840685
 30
0.0
 11
-43.37584007756514
 21
64.02502130591379
 31
0.0
  0
SOLID
  5
475
330
41B
100
AcDbEntity
  8
Measures
 62
     0
100
AcDbTrace
 10
-44.20917341089847
 20
123.0250204840685
 30
0.0
 11
-42.54250674423181
 21
123.0250204840685
 31
0.0
 12
-43.37584007756514
 22
128.0250204840684
 32
0.0
 13
-43.37584007756514
 23
128.0250204840684
 33
0.0
  0
SOLID
  5
476
330
41B
100
AcDbEntity
  8
Measures
 62
     0
100
AcDbTrace
 10
-44.20917341089849
 20
64.02502130591379
 30
0.0
 11
-42.54250674423182
 21
64.02502130591379
 31
0.0
 12
-43.37584007756514
 22
59.02502130591379
 32
0.0
 13
-43.37584007756514
 23
59.02502130591379
 33
0.0
  0
MTEXT
  5
477
330
41B
100
AcDbEntity
  8
Measures
 62
     0
100
AcDbMText
 10
-46.92870501617362
 20
93.52502089499113
 30
0.0
 40
5.0
 41
0.0
 71
     5
 72
     1
  1
\A1;69
  7
ARIAL
 11
0.0000000000000001
 21
1.0
 31
0.0
 73
     1
 44
1.0
  0
POINT
  5
478
330
41B
100
AcDbEntity
  8
Defpoints
 62
     0
100
AcDbPoint
 10
-8.375826518025515
 20
128.0250204840684
 30
0.0
  0
POINT
  5
479
330
41B
100
AcDbEntity
  8
Defpoints
 62
     0
100
AcDbPoint
 10
-13.37584007756515
 20
59.02502130591379
 30
0.0
  0
POINT
  5
47A
330
41B
100
AcDbEntity
  8
Defpoints
 62
     0
100
AcDbPoint
 10
-43.37584007756514
 20
59.02502130591379
 30
0.0
  0
ENDBLK
  5
41D
330
41B
100
AcDbEntity
  8
0
100
AcDbBlockEnd
  0
BLOCK
  5
428
330
427
100
AcDbEntity
  8
0
100
AcDbBlockBegin
  2
*D22
 70
     1
 10
0.0
 20
0.0
 30
0.0
  3
*D22
  1

  0
LINE
  5
47B
330
427
100
AcDbEntity
  8
Measures
 62
     0
370
    -2
100
AcDbLine
 10
-18.37584007756515
 20
59.02502130591379
 30
0.0
 11
-45.87584007756514
 21
59.02502130591379
 31
0.0
  0
LINE
  5
47C
330
427
100
AcDbEntity
  8
Measures
 62
     0
370
    -2
100
AcDbLine
 10
-14.37584007756515
 20
-38.47497951593155
 30
0.0
 11
-45.87584007756514
 21
-38.47497951593154
 31
0.0
  0
LINE
  5
47D
330
427
100
AcDbEntity
  8
Measures
 62
     0
370
    -2
100
AcDbLine
 10
-43.37584007756514
 20
54.02502130591379
 30
0.0
 11
-43.37584007756514
 21
-33.47497951593154
 31
0.0
  0
SOLID
  5
47E
330
427
100
AcDbEntity
  8
Measures
 62
     0
100
AcDbTrace
 10
-44.20917341089846
 20
54.02502130591379
 30
0.0
 11
-42.54250674423179
 21
54.02502130591379
 31
0.0
 12
-43.37584007756514
 22
59.02502130591379
 32
0.0
 13
-43.37584007756514
 23
59.02502130591379
 33
0.0
  0
SOLID
  5
47F
330
427
100
AcDbEntity
  8
Measures
 62
     0
100
AcDbTrace
 10
-44.20917341089849
 20
-33.47497951593154
 30
0.0
 11
-42.54250674423182
 21
-33.47497951593154
 31
0.0
 12
-43.37584007756514
 22
-38.47497951593154
 32
0.0
 13
-43.37584007756514
 23
-38.47497951593154
 33
0.0
  0
MTEXT
  5
480
330
427
100
AcDbEntity
  8
Measures
 62
     0
100
AcDbMText
 10
-46.92870501617361
 20
10.27502089499112
 30
0.0
 40
5.0
 41
0.0
 71
     5
 72
     1
  1
\A1;97.5
  7
ARIAL
 11
0.0000000000000001
 21
1.0
 31
0.0
 73
     1
 44
1.0
  0
POINT
  5
481
330
427
100
AcDbEntity
  8
Defpoints
 62
     0
100
AcDbPoint
 10
-17.37584007756515
 20
59.02502130591379
 30
0.0
  0
POINT
  5
482
330
427
100
AcDbEntity
  8
Defpoints
 62
     0
100
AcDbPoint
 10
-13.37584007756515
 20
-38.47497951593155
 30
0.0
  0
POINT
  5
483
330
427
100
AcDbEntity
  8
Defpoints
 62
     0
100
AcDbPoint
 10
-43.37584007756514
 20
-38.47497951593154
 30
0.0
  0
ENDBLK
  5
429
330
427
100
AcDbEntity
  8
0
100
AcDbBlockEnd
  0
ENDSEC
  0
SECTION
  2
ENTITIES
  0
DIMENSION
  5
3A8
330
1F
100
AcDbEntity
  8
Measures
100
AcDbDimension
  2
*D14
 10
128.6241599224348
 20
64.02502087462521
 30
0.0
 11
125.0712949838263
 21
96.02502067934686
 31
0.0
 70
    32
 71
     5
 42
63.99999960944327
  3
ARIAL
100
AcDbAlignedDimension
 13
90.62417348197442
 23
128.0250204840684
 33
0.0
 14
114.6241741423363
 24
64.02502087462521
 34
0.0
 50
90.0
100
AcDbRotatedDimension
  0
DIMENSION
  5
3A9
330
1F
100
AcDbEntity
  8
Measures
100
AcDbDimension
  2
*D15
 10
128.6241599224348
 20
-60.97497912537479
 30
0.0
 11
125.0712949838264
 21
1.525020874625226
 31
0.0
 70
    32
 71
     5
 42
125.0
  3
ARIAL
100
AcDbAlignedDimension
 13
114.6241741423363
 23
64.02502087462521
 33
0.0
 14
114.6241685867725
 24
-60.97497912537479
 34
0.0
 50
90.0
100
AcDbRotatedDimension
  0
DIMENSION
  5
3AA
330
1F
100
AcDbEntity
  8
Measures
100
AcDbDimension
  2
*D16
 10
143.6241599224348
 20
128.0250209514041
 30
0.0
 11
140.0712949838263
 21
14.02502121081545
 31
0.0
 70
    32
 71
     5
 42
227.9999994811774
  3
ARIAL
100
AcDbAlignedDimension
 13
90.62417414233628
 23
-99.97497852977325
 33
0.0
 14
90.62415992243485
 24
128.0250209514041
 34
0.0
 50
90.0
100
AcDbRotatedDimension
  0
DIMENSION
  5
3AB
330
1F
100
AcDbEntity
  8
Measures
100
AcDbDimension
  2
*D17
 10
90.62418088214904
 20
-128.959839235871
 30
0.0
 11
41.12417040229193
 21
-125.4069742972626
 31
0.0
 70
    32
 71
     5
 42
99.00002095971421
  3
ARIAL
100
AcDbAlignedDimension
 13
-8.375840077565154
 23
-90.9749786940862
 33
0.0
 14
90.62418088214904
 24
-99.97497951593157
 34
0.0
100
AcDbRotatedDimension
  0
DIMENSION
  5
3AC
330
1F
100
AcDbEntity
  8
Measures
100
AcDbDimension
  2
*D18
 10
99.62416014862141
 20
-143.9598392358711
 30
0.0
 11
41.1241601486214
 21
-139.6822130421466
 31
0.0
 70
    32
  1
<>  (a)
 71
     5
 42
117.0
  3
ARIAL
100
AcDbAlignedDimension
 13
-17.3758398513786
 23
-74.47497951593153
 33
0.0
 14
99.62416014862141
 24
-74.47497951593153
 34
0.0
100
AcDbRotatedDimension
  0
INSERT
  5
3AD
330
1F
100
AcDbEntity
  8
Busbars
100
AcDbBlockReference
  2
DIN RAIL
 10
90.62417414233628
 20
64.02502147022673
 30
0.0
  0
INSERT
  5
3AE
330
1F
100
AcDbEntity
  8
Busbars
100
AcDbBlockReference
  2
DIN RAIL
 10
90.6241685867725
 20
-60.97497852977325
 30
0.0
  0
INSERT
  5
3AF
330
1F
100
AcDbEntity
  8
Busbars
100
AcDbBlockReference
  2
DIN RAIL
 10
-8.375825857663695
 20
64.02502147022673
 30
0.0
 50
180.0
  0
INSERT
  5
3B0
330
1F
100
AcDbEntity
  8
Busbars
100
AcDbBlockReference
  2
DIN RAIL
 10
-8.375825857663668
 20
-60.97497852977325
 30
0.0
 50
180.0
  0
DIMENSION
  5
3B1
330
1F
100
AcDbEntity
  8
Measures
100
AcDbDimension
  2
*D19
 10
-58.37584007756515
 20
-90.97497951593151
 30
0.0
 11
-61.9287050161736
 21
14.02502048406846
 31
0.0
 70
    32
 71
     5
 42
210.0
  3
ARIAL
100
AcDbAlignedDimension
 13
-5.375826518025514
 23
119.0250204840684
 33
0.0
 14
-5.375826518025514
 24
-90.97497951593151
 34
0.0
 50
90.0
100
AcDbRotatedDimension
  0
DIMENSION
  5
3B2
330
1F
100
AcDbEntity
  8
Measures
100
AcDbDimension
  2
*D20
 10
85.62418088214906
 20
156.5845032668737
 30
0.0
 11
42.12418088214906
 21
160.1373682054822
 31
0.0
 70
    32
 71
     5
 42
86.99999999999995
  3
ARIAL
100
AcDbAlignedDimension
 13
-1.375819117850905
 23
123.0250204840684
 33
0.0
 14
85.62418088214906
 24
123.0250204840684
 34
0.0
100
AcDbRotatedDimension
  0
INSERT
  5
3B3
330
1F
100
AcDbEntity
  8
GESTRICHELT
100
AcDbBlockReference
  2
CRI7E-24
 10
14.12417348197448
 20
-81.47497951593155
 30
0.0
  0
INSERT
  5
3B4
330
1F
100
AcDbEntity
  8
GESTRICHELT
100
AcDbBlockReference
  2
CRI7E-24
 10
68.12417348197448
 20
-81.47497951593155
 30
0.0
  0
INSERT
  5
3B5
330
1F
100
AcDbEntity
  8
GESTRICHELT
100
AcDbBlockReference
  2
CA7-PV-11
 10
14.12417348197448
 20
-38.47497951593155
 30
0.0
  0
INSERT
  5
3B6
330
1F
100
AcDbEntity
  8
GESTRICHELT
100
AcDbBlockReference
  2
CA7-PV-11
 10
68.12417348197448
 20
-38.47497951593155
 30
0.0
  0
INSERT
  5
3B7
330
1F
100
AcDbEntity
  8
GESTRICHELT
100
AcDbBlockReference
  2
CA7-PV-22
 10
14.12417348197448
 20
-38.47497951593155
 30
0.0
  0
INSERT
  5
3B8
330
1F
100
AcDbEntity
  8
GESTRICHELT
100
AcDbBlockReference
  2
CA7-PV-22
 10
68.12417348197448
 20
-38.47497951593155
 30
0.0
  0
INSERT
  5
3B9
330
1F
100
AcDbEntity
  8
0
100
AcDbBlockReference
  2
W-32490
 10
-8.375826518025515
 20
128.0250204840684
 30
0.0
  0
INSERT
  5
3BA
330
1F
100
AcDbEntity
  8
0
100
AcDbBlockReference
  2
W-32489
 10
45.62417348197448
 20
128.0250204840684
 30
0.0
  0
INSERT
  5
3BB
330
1F
100
AcDbEntity
  8
COMPONENTS
100
AcDbBlockReference
  2
CA7-9...23
 10
-8.375826518025515
 20
-38.47497951593155
 30
0.0
  0
INSERT
  5
3BC
330
1F
100
AcDbEntity
  8
COMPONENTS
100
AcDbBlockReference
  2
KTA7-25
 10
-8.375826518025515
 20
59.02502048406844
 30
0.0
  0
INSERT
  5
3BD
330
1F
100
AcDbEntity
  8
COMPONENTS
100
AcDbBlockReference
  2
CA7-9...23
 10
45.62417348197448
 20
-38.47497951593155
 30
0.0
  0
INSERT
  5
3BE
330
1F
100
AcDbEntity
  8
COMPONENTS
100
AcDbBlockReference
  2
CM7-02
 10
36.62417348197448
 20
-38.47497951593155
 30
0.0
  0
INSERT
  5
3BF
330
1F
100
AcDbEntity
  8
140-AS
100
AcDbBlockReference
  2
KT7-PAF1
 10
36.62413261829778
 20
59.02502798406842
 30
0.0
  0
INSERT
  5
3C0
330
1F
100
AcDbEntity
  8
100-S
100
AcDbBlockReference
  2
CA7-PA-11
 10
90.62417348197447
 20
-38.47497951593155
 30
0.0
  0
INSERT
  5
3C1
330
1F
100
AcDbEntity
  8
100-S
100
AcDbBlockReference
  2
CA7-PA-11
 10
-17.37582651802551
 20
-38.47497951593155
 30
0.0
  0
LINE
  5
3C2
330
1F
100
AcDbEntity
  8
Mitte
100
AcDbLine
 10
-13.37584007756515
 20
59.02502130591379
 30
0.0
 11
41.62415992243484
 21
59.02502130591379
 31
0.0
  0
LINE
  5
3C3
330
1F
100
AcDbEntity
  8
Mitte
100
AcDbLine
 10
-13.37584007756515
 20
-38.47497951593155
 30
0.0
 11
95.62415992243485
 21
-38.47497951593155
 31
0.0
  0
DIMENSION
  5
3C4
330
1F
100
AcDbEntity
  8
Measures
100
AcDbDimension
  2
*D21
 10
-43.37584007756514
 20
59.02502130591379
 30
0.0
 11
-46.92870501617362
 21
93.52502089499113
 31
0.0
 70
    32
 71
     5
 42
68.9999991781547
  3
ARIAL
100
AcDbAlignedDimension
 13
-8.375826518025515
 23
128.0250204840684
 33
0.0
 14
-13.37584007756515
 24
59.02502130591379
 34
0.0
 50
90.0
100
AcDbRotatedDimension
  0
DIMENSION
  5
3C5
330
1F
100
AcDbEntity
  8
Measures
100
AcDbDimension
  2
*D22
 10
-43.37584007756514
 20
-38.47497951593154
 30
0.0
 11
-46.92870501617361
 21
10.27502089499112
 31
0.0
 70
    32
 71
     5
 42
97.50000082184534
  3
ARIAL
100
AcDbAlignedDimension
 13
-17.37584007756515
 23
59.02502130591379
 33
0.0
 14
-13.37584007756515
 24
-38.47497951593155
 34
0.0
 50
90.0
100
AcDbRotatedDimension
  0
MTEXT
  5
3C6
330
1F
100
AcDbEntity
  8
0
100
AcDbMText
 10
1.177184370184239
 20
195.7844737518444
 30
0.0
 40
11.18583351505894
 41
8.059216891691447
 71
     1
 72
     5
  1
CLU7-9...23
 73
     1
 44
1.0
1001
ACAD
1000
ACAD_MTEXT_COLUMN_INFO_BEGIN
1070
    75
1070
     2
1070
    79
1070
     0
1070
    76
1070
     1
1070
    78
1070
     0
1070
    48
1040
8.059216891691447
1070
    49
1040
1.0
1070
    50
1070
     1
1040
0.0
1000
ACAD_MTEXT_COLUMN_INFO_END
  0
ENDSEC
  0
SECTION
  2
OBJECTS
  0
DICTIONARY
  5
C
330
0
100
AcDbDictionary
281
     1
  3
ACAD_COLOR
350
73
  3
ACAD_GROUP
350
D
  3
ACAD_LAYOUT
350
1A
  3
ACAD_MATERIAL
350
72
  3
ACAD_MLEADERSTYLE
350
D7
  3
ACAD_MLINESTYLE
350
17
  3
ACAD_PLOTSETTINGS
350
19
  3
ACAD_PLOTSTYLENAME
350
E
  3
ACAD_SCALELIST
350
B6
  3
ACAD_TABLESTYLE
350
86
  3
ACAD_VISUALSTYLE
350
99
  3
ACDB_RECOMPOSE_DATA
350
4F6
  3
AcDbVariableDictionary
350
66
  0
DICTIONARY
  5
486
330
8
100
AcDbDictionary
280
     1
281
     1
  0
DICTIONARY
  5
E6
330
10
100
AcDbDictionary
280
     1
281
     1
  0
DICTIONARY
  5
15D
330
1F
100
AcDbDictionary
280
     1
281
     1
  0
DICTIONARY
  5
184
330
183
100
AcDbDictionary
280
     1
281
     1
  0
DICTIONARY
  5
196
330
195
100
AcDbDictionary
280
     1
281
     1
  0
DICTIONARY
  5
1B3
330
1B2
100
AcDbDictionary
280
     1
281
     1
  0
DICTIONARY
  5
20E
330
20D
100
AcDbDictionary
280
     1
281
     1
  0
DICTIONARY
  5
21E
330
21D
100
AcDbDictionary
280
     1
281
     1
  0
DICTIONARY
  5
73
102
{ACAD_REACTORS
330
C
102
}
330
C
100
AcDbDictionary
281
     1
  0
DICTIONARY
  5
D
102
{ACAD_REACTORS
330
C
102
}
330
C
100
AcDbDictionary
281
     1
  0
DICTIONARY
  5
1A
102
{ACAD_REACTORS
330
C
102
}
330
C
100
AcDbDictionary
281
     1
  3
Layout1
350
59
  3
Layout2
350
5E
  3
Model
350
22
  0
DICTIONARY
  5
72
102
{ACAD_REACTORS
330
C
102
}
330
C
100
AcDbDictionary
281
     1
  3
ByBlock
350
97
  3
ByLayer
350
96
  3
Global
350
98
  0
DICTIONARY
  5
D7
102
{ACAD_REACTORS
330
C
102
}
330
C
100
AcDbDictionary
281
     1
  3
Annotative
350
E5
  3
Standard
350
D8
  0
DICTIONARY
  5
17
102
{ACAD_REACTORS
330
C
102
}
330
C
100
AcDbDictionary
281
     1
  3
Standard
350
18
  0
DICTIONARY
  5
19
102
{ACAD_REACTORS
330
C
102
}
330
C
100
AcDbDictionary
281
     1
  0
ACDBDICTIONARYWDFLT
  5
E
102
{ACAD_REACTORS
330
C
102
}
330
C
100
AcDbDictionary
281
     1
  3
Normal
350
F
100
AcDbDictionaryWithDefault
340
F
  0
DICTIONARY
  5
B6
102
{ACAD_REACTORS
330
C
102
}
330
C
100
AcDbDictionary
281
     1
  3
A0
350
B7
  3
A1
350
124
  3
A2
350
125
  3
A3
350
126
  3
A4
350
127
  3
A5
350
128
  3
A6
350
129
  3
A7
350
12A
  3
A8
350
12B
  3
A9
350
12C
  3
B0
350
12D
  3
B1
350
12E
  3
B2
350
12F
  3
B3
350
130
  3
B4
350
131
  3
B5
350
132
  3
B6
350
133
  3
B7
350
134
  3
B8
350
135
  3
B9
350
136
  3
C0
350
137
  3
C1
350
138
  3
C2
350
139
  3
C3
350
13A
  3
C4
350
13B
  3
C5
350
13C
  3
C6
350
13D
  3
C7
350
13E
  3
C8
350
13F
  3
C9
350
140
  3
D0
350
141
  3
D1
350
142
  3
D2
350
143
  0
DICTIONARY
  5
86
102
{ACAD_REACTORS
330
C
102
}
330
C
100
AcDbDictionary
281
     1
  3
Standard
350
87
  0
DICTIONARY
  5
99
102
{ACAD_REACTORS
330
C
102
}
330
C
100
AcDbDictionary
281
     1
  3
2dWireframe
350
9F
  3
3D Hidden
350
A1
  3
3dWireframe
350
A0
  3
Basic
350
9E
  3
Brighten
350
A5
  3
ColorChange
350
A9
  3
Conceptual
350
A2
  3
Dim
350
A4
  3
EdgeColorOff
350
175
  3
Facepattern
350
A8
  3
Flat
350
9A
  3
FlatWithEdges
350
9B
  3
Gouraud
350
9C
  3
GouraudWithEdges
350
9D
  3
JitterOff
350
173
  3
Linepattern
350
A7
  3
OverhangOff
350
174
  3
Realistic
350
A3
  3
Thicken
350
A6
  0
XRECORD
  5
4F6
102
{ACAD_REACTORS
330
C
102
}
330
C
100
AcDbXrecord
280
     1
 90
        1
330
87
330
3C6
  0
DICTIONARY
  5
66
102
{ACAD_REACTORS
330
C
102
}
330
C
100
AcDbDictionary
281
     1
  3
CANNOSCALE
350
F0
  3
CMLEADERSTYLE
350
EF
  3
CTABLESTYLE
350
89
  3
DIMASSOC
350
67
  3
HIDETEXT
350
6B
  3
LAYEREVAL
350
14D
  3
LAYERNOTIFY
350
14E
  3
LIGHTINGUNITS
350
4B5
  3
MSLTSCALE
350
4B4
  3
XCLIPFRAME
350
4F4
  0
LAYOUT
  5
59
102
{ACAD_REACTORS
330
1A
102
}
330
1A
100
AcDbPlotSettings
  1

  2
None
  4

  6

 40
0.0
 41
0.0
 42
0.0
 43
0.0
 44
0.0
 45
0.0
 46
0.0
 47
0.0
 48
0.0
 49
0.0
140
0.0
141
0.0
142
1.0
143
1.0
 70
   688
 72
     0
 73
     0
 74
     5
  7

 75
    16
147
1.0
 76
     0
 77
     2
 78
   300
148
0.0
149
0.0
100
AcDbLayout
  1
Layout1
 70
     1
 71
     1
 10
0.0
 20
0.0
 11
12.0
 21
9.0
 12
0.0
 22
0.0
 32
0.0
 14
0.0
 24
0.0
 34
0.0
 15
0.0
 25
0.0
 35
0.0
146
0.0
 13
0.0
 23
0.0
 33
0.0
 16
1.0
 26
0.0
 36
0.0
 17
0.0
 27
1.0
 37
0.0
 76
     0
330
58
  0
LAYOUT
  5
5E
102
{ACAD_REACTORS
330
1A
102
}
330
1A
100
AcDbPlotSettings
  1

  2
None
  4

  6

 40
0.0
 41
0.0
 42
0.0
 43
0.0
 44
0.0
 45
0.0
 46
0.0
 47
0.0
 48
0.0
 49
0.0
140
0.0
141
0.0
142
1.0
143
1.0
 70
   688
 72
     0
 73
     0
 74
     5
  7

 75
    16
147
1.0
 76
     0
 77
     2
 78
   300
148
0.0
149
0.0
100
AcDbLayout
  1
Layout2
 70
     1
 71
     2
 10
0.0
 20
0.0
 11
12.0
 21
9.0
 12
0.0
 22
0.0
 32
0.0
 14
0.0
 24
0.0
 34
0.0
 15
0.0
 25
0.0
 35
0.0
146
0.0
 13
0.0
 23
0.0
 33
0.0
 16
1.0
 26
0.0
 36
0.0
 17
0.0
 27
1.0
 37
0.0
 76
     0
330
5D
  0
LAYOUT
  5
22
102
{ACAD_REACTORS
330
1A
102
}
330
1A
100
AcDbPlotSettings
  1

  2
none_device
  4
ANSI_A_(8.50_x_11.00_Inches)
  6

 40
6.349999904632567
 41
19.04999923706055
 42
6.350006103515625
 43
19.04998779296875
 44
215.8999938964844
 45
279.3999938964844
 46
0.0
 47
0.0
 48
0.0
 49
0.0
140
0.0
141
0.0
142
1.0
143
2.584895464708373
 70
 11952
 72
     0
 73
     1
 74
     0
  7

 75
     0
147
0.3868628397755418
 76
     0
 77
     2
 78
   300
148
0.0
149
0.0
100
AcDbLayout
  1
Model
 70
     1
 71
     0
 10
0.0
 20
0.0
 11
12.0
 21
9.0
 12
0.0
 22
0.0
 32
0.0
 14
0.0
 24
0.0
 34
0.0
 15
0.0
 25
0.0
 35
0.0
146
0.0
 13
0.0
 23
0.0
 33
0.0
 16
1.0
 26
0.0
 36
0.0
 17
0.0
 27
1.0
 37
0.0
 76
     0
330
1F
331
94
  0
MATERIAL
  5
97
102
{ACAD_XDICTIONARY
360
4C4
102
}
102
{ACAD_REACTORS
330
72
102
}
330
72
100
AcDbMaterial
  1
ByBlock
  0
MATERIAL
  5
96
102
{ACAD_XDICTIONARY
360
4C2
102
}
102
{ACAD_REACTORS
330
72
102
}
330
72
100
AcDbMaterial
  1
ByLayer
  0
MATERIAL
  5
98
102
{ACAD_XDICTIONARY
360
110
102
}
102
{ACAD_REACTORS
330
72
102
}
330
72
100
AcDbMaterial
  1
Global
 43
0.0208000000566244
 43
0.0
 43
0.0
 43
0.0
 43
0.0
 43
0.0208000000566244
 43
0.0
 43
0.0
 43
0.0
 43
0.0
 43
1.0
 43
0.0
 43
0.0
 43
0.0
 43
0.0
 43
1.0
 49
0.0208000000566244
 49
0.0
 49
0.0
 49
0.0
 49
0.0
 49
0.0208000000566244
 49
0.0
 49
0.0
 49
0.0
 49
0.0
 49
1.0
 49
0.0
 49
0.0
 49
0.0
 49
0.0
 49
1.0
142
0.0208000000566244
142
0.0
142
0.0
142
0.0
142
0.0
142
0.0208000000566244
142
0.0
142
0.0
142
0.0
142
0.0
142
1.0
142
0.0
142
0.0
142
0.0
142
0.0
142
1.0
144
0.0208000000566244
144
0.0
144
0.0
144
0.0
144
0.0
144
0.0208000000566244
144
0.0
144
0.0
144
0.0
144
0.0
144
1.0
144
0.0
144
0.0
144
0.0
144
0.0
144
1.0
1001
ACAD
1070
    -1
1070
     3
1070
     0
1000

1071
        0
1070
     0
  0
MLEADERSTYLE
  5
E5
102
{ACAD_REACTORS
330
D7
102
}
330
D7
100
AcDbMLeaderStyle
170
     2
171
     1
172
     0
 90
        2
 40
0.0
 41
0.0
173
     1
 91
-1056964608
340
14
 92
       -2
290
     1
 42
0.09
291
     1
 43
0.36
  3
Standard
 44
0.18
300

342
11
174
     1
178
     1
175
     1
176
     0
 93
-1056964608
 45
0.18
292
     0
297
     0
 46
0.18
 94
-1056964608
 47
1.0
 49
1.0
140
1.0
293
     1
141
0.0
294
     1
177
     0
142
1.0
295
     0
296
     1
143
0.125
1001
ACAD_MLEADERVER
1070
     2
  0
MLEADERSTYLE
  5
D8
102
{ACAD_REACTORS
330
D7
102
}
330
D7
100
AcDbMLeaderStyle
170
     2
171
     1
172
     0
 90
        2
 40
0.0
 41
0.0
173
     1
 91
-1056964608
340
14
 92
       -2
290
     1
 42
0.09
291
     1
 43
0.36
  3
Standard
 44
0.18
300

342
11
174
     1
178
     1
175
     1
176
     0
 93
-1056964608
 45
0.18
292
     0
297
     0
 46
0.18
 94
-1056964608
 47
1.0
 49
1.0
140
1.0
293
     1
141
0.0
294
     1
177
     0
142
1.0
295
     0
296
     0
143
0.125
1001
ACAD_MLEADERVER
1070
     2
  0
MLINESTYLE
  5
18
102
{ACAD_REACTORS
330
17
102
}
330
17
100
AcDbMlineStyle
  2
STANDARD
 70
     0
  3

 62
   256
 51
90.0
 52
90.0
 71
     2
 49
0.5
 62
   256
  6
BYLAYER
 49
-0.5
 62
   256
  6
BYLAYER
  0
ACDBPLACEHOLDER
  5
F
102
{ACAD_REACTORS
330
E
102
}
330
E
  0
SCALE
  5
B7
102
{ACAD_REACTORS
330
B6
102
}
330
B6
100
AcDbScale
 70
     0
300
1:1
140
1.0
141
1.0
290
     1
  0
SCALE
  5
124
102
{ACAD_REACTORS
330
B6
102
}
330
B6
100
AcDbScale
 70
     0
300
1:2
140
1.0
141
2.0
290
     0
  0
SCALE
  5
125
102
{ACAD_REACTORS
330
B6
102
}
330
B6
100
AcDbScale
 70
     0
300
1:4
140
1.0
141
4.0
290
     0
  0
SCALE
  5
126
102
{ACAD_REACTORS
330
B6
102
}
330
B6
100
AcDbScale
 70
     0
300
1:5
140
1.0
141
5.0
290
     0
  0
SCALE
  5
127
102
{ACAD_REACTORS
330
B6
102
}
330
B6
100
AcDbScale
 70
     0
300
1:8
140
1.0
141
8.0
290
     0
  0
SCALE
  5
128
102
{ACAD_REACTORS
330
B6
102
}
330
B6
100
AcDbScale
 70
     0
300
1:10
140
1.0
141
10.0
290
     0
  0
SCALE
  5
129
102
{ACAD_REACTORS
330
B6
102
}
330
B6
100
AcDbScale
 70
     0
300
1:16
140
1.0
141
16.0
290
     0
  0
SCALE
  5
12A
102
{ACAD_REACTORS
330
B6
102
}
330
B6
100
AcDbScale
 70
     0
300
1:20
140
1.0
141
20.0
290
     0
  0
SCALE
  5
12B
102
{ACAD_REACTORS
330
B6
102
}
330
B6
100
AcDbScale
 70
     0
300
1:30
140
1.0
141
30.0
290
     0
  0
SCALE
  5
12C
102
{ACAD_REACTORS
330
B6
102
}
330
B6
100
AcDbScale
 70
     0
300
1:40
140
1.0
141
40.0
290
     0
  0
SCALE
  5
12D
102
{ACAD_REACTORS
330
B6
102
}
330
B6
100
AcDbScale
 70
     0
300
1:50
140
1.0
141
50.0
290
     0
  0
SCALE
  5
12E
102
{ACAD_REACTORS
330
B6
102
}
330
B6
100
AcDbScale
 70
     0
300
1:100
140
1.0
141
100.0
290
     0
  0
SCALE
  5
12F
102
{ACAD_REACTORS
330
B6
102
}
330
B6
100
AcDbScale
 70
     0
300
2:1
140
2.0
141
1.0
290
     0
  0
SCALE
  5
130
102
{ACAD_REACTORS
330
B6
102
}
330
B6
100
AcDbScale
 70
     0
300
4:1
140
4.0
141
1.0
290
     0
  0
SCALE
  5
131
102
{ACAD_REACTORS
330
B6
102
}
330
B6
100
AcDbScale
 70
     0
300
8:1
140
8.0
141
1.0
290
     0
  0
SCALE
  5
132
102
{ACAD_REACTORS
330
B6
102
}
330
B6
100
AcDbScale
 70
     0
300
10:1
140
10.0
141
1.0
290
     0
  0
SCALE
  5
133
102
{ACAD_REACTORS
330
B6
102
}
330
B6
100
AcDbScale
 70
     0
300
100:1
140
100.0
141
1.0
290
     0
  0
SCALE
  5
134
102
{ACAD_REACTORS
330
B6
102
}
330
B6
100
AcDbScale
 70
     0
300
1/128" = 1'-0"
140
0.0078125
141
12.0
290
     0
  0
SCALE
  5
135
102
{ACAD_REACTORS
330
B6
102
}
330
B6
100
AcDbScale
 70
     0
300
1/64" = 1'-0"
140
0.015625
141
12.0
290
     0
  0
SCALE
  5
136
102
{ACAD_REACTORS
330
B6
102
}
330
B6
100
AcDbScale
 70
     0
300
1/32" = 1'-0"
140
0.03125
141
12.0
290
     0
  0
SCALE
  5
137
102
{ACAD_REACTORS
330
B6
102
}
330
B6
100
AcDbScale
 70
     0
300
1/16" = 1'-0"
140
0.0625
141
12.0
290
     0
  0
SCALE
  5
138
102
{ACAD_REACTORS
330
B6
102
}
330
B6
100
AcDbScale
 70
     0
300
3/32" = 1'-0"
140
0.09375
141
12.0
290
     0
  0
SCALE
  5
139
102
{ACAD_REACTORS
330
B6
102
}
330
B6
100
AcDbScale
 70
     0
300
1/8" = 1'-0"
140
0.125
141
12.0
290
     0
  0
SCALE
  5
13A
102
{ACAD_REACTORS
330
B6
102
}
330
B6
100
AcDbScale
 70
     0
300
3/16" = 1'-0"
140
0.1875
141
12.0
290
     0
  0
SCALE
  5
13B
102
{ACAD_REACTORS
330
B6
102
}
330
B6
100
AcDbScale
 70
     0
300
1/4" = 1'-0"
140
0.25
141
12.0
290
     0
  0
SCALE
  5
13C
102
{ACAD_REACTORS
330
B6
102
}
330
B6
100
AcDbScale
 70
     0
300
3/8" = 1'-0"
140
0.375
141
12.0
290
     0
  0
SCALE
  5
13D
102
{ACAD_REACTORS
330
B6
102
}
330
B6
100
AcDbScale
 70
     0
300
1/2" = 1'-0"
140
0.5
141
12.0
290
     0
  0
SCALE
  5
13E
102
{ACAD_REACTORS
330
B6
102
}
330
B6
100
AcDbScale
 70
     0
300
3/4" = 1'-0"
140
0.75
141
12.0
290
     0
  0
SCALE
  5
13F
102
{ACAD_REACTORS
330
B6
102
}
330
B6
100
AcDbScale
 70
     0
300
1" = 1'-0"
140
1.0
141
12.0
290
     0
  0
SCALE
  5
140
102
{ACAD_REACTORS
330
B6
102
}
330
B6
100
AcDbScale
 70
     0
300
1-1/2" = 1'-0"
140
1.5
141
12.0
290
     0
  0
SCALE
  5
141
102
{ACAD_REACTORS
330
B6
102
}
330
B6
100
AcDbScale
 70
     0
300
3" = 1'-0"
140
3.0
141
12.0
290
     0
  0
SCALE
  5
142
102
{ACAD_REACTORS
330
B6
102
}
330
B6
100
AcDbScale
 70
     0
300
6" = 1'-0"
140
6.0
141
12.0
290
     0
  0
SCALE
  5
143
102
{ACAD_REACTORS
330
B6
102
}
330
B6
100
AcDbScale
 70
     0
300
1'-0" = 1'-0"
140
12.0
141
12.0
290
     0
  0
TABLESTYLE
  5
87
102
{ACAD_XDICTIONARY
360
104
102
}
102
{ACAD_REACTORS
330
86
102
}
330
86
100
AcDbTableStyle
  3
Standard
 70
     0
 71
     0
 40
0.06
 41
0.06
280
     0
281
     0
  7
Standard
140
0.18
170
     2
 62
     0
 63
     7
283
     0
274
    -2
284
     1
 64
     0
275
    -2
285
     1
 65
     0
276
    -2
286
     1
 66
     0
277
    -2
287
     1
 67
     0
278
    -2
288
     1
 68
     0
279
    -2
289
     1
 69
     0
  7
Standard
140
0.25
170
     5
 62
     0
 63
     7
283
     0
274
    -2
284
     1
 64
     0
275
    -2
285
     1
 65
     0
276
    -2
286
     1
 66
     0
277
    -2
287
     1
 67
     0
278
    -2
288
     1
 68
     0
279
    -2
289
     1
 69
     0
  7
Standard
140
0.18
170
     5
 62
     0
 63
     7
283
     0
274
    -2
284
     1
 64
     0
275
    -2
285
     1
 65
     0
276
    -2
286
     1
 66
     0
277
    -2
287
     1
 67
     0
278
    -2
288
     1
 68
     0
279
    -2
289
     1
 69
     0
  0
VISUALSTYLE
  5
9F
102
{ACAD_XDICTIONARY
360
502
102
}
102
{ACAD_REACTORS
330
99
102
}
330
99
100
AcDbVisualStyle
  2

 70
     4
 71
     0
 72
     2
 73
     1
 90
        0
 40
-0.6
 41
-30.0
 62
     5
 63
     7
421
 16777215
 74
     1
 91
        4
 64
     7
 65
   257
 75
     1
175
     1
 42
1.0
 92
        0
 66
   257
 43
1.0
 76
     1
 77
     6
 78
     2
 67
     7
 79
     5
170
     0
171
     0
290
     0
174
     0
 93
        1
 44
0.0
173
     0
291
     0
 45
0.0
1001
ACAD
1000
AcDbSavedByObjectVersion
1070
     0
  0
VISUALSTYLE
  5
A1
102
{ACAD_XDICTIONARY
360
506
102
}
102
{ACAD_REACTORS
330
99
102
}
330
99
100
AcDbVisualStyle
  2

 70
     6
 71
     1
 72
     2
 73
     2
 90
        0
 40
-0.6
 41
-30.0
 62
     5
 63
     7
421
 16777215
 74
     2
 91
        2
 64
     7
 65
   257
 75
     2
175
     1
 42
40.0
 92
        0
 66
   257
 43
1.0
 76
     1
 77
     6
 78
     2
 67
     7
 79
     3
170
     0
171
     0
290
     0
174
     0
 93
        1
 44
0.0
173
     0
291
     0
 45
0.0
1001
ACAD
1000
AcDbSavedByObjectVersion
1070
     0
  0
VISUALSTYLE
  5
A0
102
{ACAD_XDICTIONARY
360
504
102
}
102
{ACAD_REACTORS
330
99
102
}
330
99
100
AcDbVisualStyle
  2

 70
     5
 71
     0
 72
     2
 73
     1
 90
        0
 40
-0.6
 41
-30.0
 62
     5
 63
     7
421
 16777215
 74
     1
 91
        4
 64
     7
 65
   257
 75
     1
175
     1
 42
1.0
 92
        0
 66
   257
 43
1.0
 76
     1
 77
     6
 78
     2
 67
     7
 79
     5
170
     0
171
     0
290
     0
174
     0
 93
        1
 44
0.0
173
     0
291
     0
 45
0.0
1001
ACAD
1000
AcDbSavedByObjectVersion
1070
     0
  0
VISUALSTYLE
  5
9E
102
{ACAD_XDICTIONARY
360
500
102
}
102
{ACAD_REACTORS
330
99
102
}
330
99
100
AcDbVisualStyle
  2

 70
     7
 71
     1
 72
     0
 73
     1
 90
        0
 40
-0.6
 41
-30.0
 62
     5
 63
     7
421
 16777215
 74
     0
 91
        4
 64
     7
 65
   257
 75
     1
175
     1
 42
1.0
 92
        8
 66
     7
 43
1.0
 76
     1
 77
     6
 78
     2
 67
     7
 79
     5
170
     0
171
     0
290
     0
174
     0
 93
        1
 44
0.0
173
     0
291
     1
 45
0.0
1001
ACAD
1000
AcDbSavedByObjectVersion
1070
     0
  0
VISUALSTYLE
  5
A5
102
{ACAD_XDICTIONARY
360
50E
102
}
102
{ACAD_REACTORS
330
99
102
}
330
99
100
AcDbVisualStyle
  2

 70
    12
 71
     2
 72
     2
 73
     1
 90
        0
 40
-0.6
 41
-30.0
 62
     5
 63
     7
421
 16777215
 74
     1
 91
        4
 64
     7
 65
   257
 75
     1
175
     1
 42
1.0
 92
        8
 66
     7
 43
1.0
 76
     1
 77
     6
 78
     2
 67
     7
 79
     5
170
     0
171
     0
290
     0
174
     0
 93
        1
 44
50.0
173
     0
291
     1
 45
0.0
1001
ACAD
1000
AcDbSavedByObjectVersion
1070
     0
  0
VISUALSTYLE
  5
A9
102
{ACAD_XDICTIONARY
360
516
102
}
102
{ACAD_REACTORS
330
99
102
}
330
99
100
AcDbVisualStyle
  2

 70
    16
 71
     2
 72
     2
 73
     3
 90
        0
 40
-0.6
 41
-30.0
 62
     5
 63
     8
421
  8421504
 74
     1
 91
        4
 64
     7
 65
   257
 75
     1
175
     1
 42
1.0
 92
        8
 66
     8
424
  8421504
 43
1.0
 76
     1
 77
     6
 78
     2
 67
     7
 79
     5
170
     0
171
     0
290
     0
174
     0
 93
        1
 44
0.0
173
     0
291
     1
 45
0.0
1001
ACAD
1000
AcDbSavedByObjectVersion
1070
     0
  0
VISUALSTYLE
  5
A2
102
{ACAD_XDICTIONARY
360
508
102
}
102
{ACAD_REACTORS
330
99
102
}
330
99
100
AcDbVisualStyle
  2

 70
     9
 71
     3
 72
     2
 73
     1
 90
        0
 40
-0.6
 41
-30.0
 62
     5
 63
     7
421
 16777215
 74
     2
 91
        2
 64
     7
 65
   257
 75
     1
175
     1
 42
40.0
 92
        8
 66
     7
 43
1.0
 76
     1
 77
     6
 78
     2
 67
     7
 79
     3
170
     0
171
     0
290
     0
174
     0
 93
        1
 44
0.0
173
     0
291
     0
 45
0.0
1001
ACAD
1000
AcDbSavedByObjectVersion
1070
     0
  0
VISUALSTYLE
  5
A4
102
{ACAD_XDICTIONARY
360
50C
102
}
102
{ACAD_REACTORS
330
99
102
}
330
99
100
AcDbVisualStyle
  2

 70
    11
 71
     2
 72
     2
 73
     1
 90
        0
 40
-0.6
 41
-30.0
 62
     5
 63
     7
421
 16777215
 74
     1
 91
        4
 64
     7
 65
   257
 75
     1
175
     1
 42
1.0
 92
        8
 66
     7
 43
1.0
 76
     1
 77
     6
 78
     2
 67
     7
 79
     5
170
     0
171
     0
290
     0
174
     0
 93
        1
 44
-50.0
173
     0
291
     1
 45
0.0
1001
ACAD
1000
AcDbSavedByObjectVersion
1070
     0
  0
VISUALSTYLE
  5
175
102
{ACAD_XDICTIONARY
360
51C
102
}
102
{ACAD_REACTORS
330
99
102
}
330
99
100
AcDbVisualStyle
  2

 70
    22
 71
     2
 72
     2
 73
     0
 90
        0
 40
-0.6
 41
-30.0
 62
     5
 63
     7
421
 16777215
 74
     1
 91
        4
 64
     7
 65
   257
 75
     1
175
     1
 42
1.0
 92
        8
 66
     7
 43
1.0
 76
     1
 77
     6
 78
     2
 67
     7
 79
     5
170
     0
171
     0
290
     0
174
     0
 93
        1
 44
0.0
173
     0
291
     1
 45
0.0
1001
ACAD
1000
AcDbSavedByObjectVersion
1070
     0
  0
VISUALSTYLE
  5
A8
102
{ACAD_XDICTIONARY
360
514
102
}
102
{ACAD_REACTORS
330
99
102
}
330
99
100
AcDbVisualStyle
  2

 70
    15
 71
     2
 72
     2
 73
     1
 90
        0
 40
-0.6
 41
-30.0
 62
     5
 63
     7
421
 16777215
 74
     1
 91
        4
 64
     7
 65
   257
 75
     1
175
     1
 42
1.0
 92
        8
 66
     7
 43
1.0
 76
     1
 77
     6
 78
     2
 67
     7
 79
     5
170
     0
171
     0
290
     0
174
     0
 93
        1
 44
0.0
173
     0
291
     1
 45
0.0
1001
ACAD
1000
AcDbSavedByObjectVersion
1070
     0
  0
VISUALSTYLE
  5
9A
102
{ACAD_XDICTIONARY
360
4F8
102
}
102
{ACAD_REACTORS
330
99
102
}
330
99
100
AcDbVisualStyle
  2

 70
     0
 71
     2
 72
     1
 73
     1
 90
        2
 40
-0.6
 41
30.0
 62
     5
 63
     7
421
 16777215
 74
     0
 91
        4
 64
     7
 65
   257
 75
     1
175
     1
 42
1.0
 92
        8
 66
     7
 43
1.0
 76
     1
 77
     6
 78
     2
 67
     7
 79
     5
170
     0
171
     0
290
     0
174
     0
 93
        1
 44
0.0
173
     0
291
     1
 45
0.0
1001
ACAD
1000
AcDbSavedByObjectVersion
1070
     0
  0
VISUALSTYLE
  5
9B
102
{ACAD_XDICTIONARY
360
4FA
102
}
102
{ACAD_REACTORS
330
99
102
}
330
99
100
AcDbVisualStyle
  2

 70
     1
 71
     2
 72
     1
 73
     1
 90
        2
 40
-0.6
 41
30.0
 62
     5
 63
     7
421
 16777215
 74
     1
 91
        4
 64
     7
 65
   257
 75
     1
175
     1
 42
1.0
 92
        0
 66
   257
 43
1.0
 76
     1
 77
     6
 78
     2
 67
     7
 79
     5
170
     0
171
     0
290
     0
174
     0
 93
        1
 44
0.0
173
     0
291
     1
 45
0.0
1001
ACAD
1000
AcDbSavedByObjectVersion
1070
     0
  0
VISUALSTYLE
  5
9C
102
{ACAD_XDICTIONARY
360
4FC
102
}
102
{ACAD_REACTORS
330
99
102
}
330
99
100
AcDbVisualStyle
  2

 70
     2
 71
     2
 72
     2
 73
     1
 90
        2
 40
-0.6
 41
30.0
 62
     5
 63
     7
421
 16777215
 74
     0
 91
        4
 64
     7
 65
   257
 75
     1
175
     1
 42
1.0
 92
        0
 66
     7
 43
1.0
 76
     1
 77
     6
 78
     2
 67
     7
 79
     5
170
     0
171
     0
290
     0
174
     0
 93
        1
 44
0.0
173
     0
291
     1
 45
0.0
1001
ACAD
1000
AcDbSavedByObjectVersion
1070
     0
  0
VISUALSTYLE
  5
9D
102
{ACAD_XDICTIONARY
360
4FE
102
}
102
{ACAD_REACTORS
330
99
102
}
330
99
100
AcDbVisualStyle
  2

 70
     3
 71
     2
 72
     2
 73
     1
 90
        2
 40
-0.6
 41
30.0
 62
     5
 63
     7
421
 16777215
 74
     1
 91
        4
 64
     7
 65
   257
 75
     1
175
     1
 42
1.0
 92
        0
 66
   257
 43
1.0
 76
     1
 77
     6
 78
     2
 67
     7
 79
     5
170
     0
171
     0
290
     0
174
     0
 93
        1
 44
0.0
173
     0
291
     1
 45
0.0
1001
ACAD
1000
AcDbSavedByObjectVersion
1070
     0
  0
VISUALSTYLE
  5
173
102
{ACAD_XDICTIONARY
360
518
102
}
102
{ACAD_REACTORS
330
99
102
}
330
99
100
AcDbVisualStyle
  2

 70
    20
 71
     2
 72
     2
 73
     0
 90
        0
 40
-0.6
 41
-30.0
 62
     5
 63
     7
421
 16777215
 74
     1
 91
        4
 64
     7
 65
   257
 75
     1
175
     1
 42
1.0
 92
       10
 66
     7
 43
1.0
 76
     1
 77
     6
 78
     2
 67
     7
 79
     5
170
     0
171
     0
290
     0
174
     0
 93
        1
 44
0.0
173
     0
291
     1
 45
0.0
1001
ACAD
1000
AcDbSavedByObjectVersion
1070
     0
  0
VISUALSTYLE
  5
A7
102
{ACAD_XDICTIONARY
360
512
102
}
102
{ACAD_REACTORS
330
99
102
}
330
99
100
AcDbVisualStyle
  2

 70
    14
 71
     2
 72
     2
 73
     1
 90
        0
 40
-0.6
 41
-30.0
 62
     5
 63
     7
421
 16777215
 74
     1
 91
        4
 64
     7
 65
   257
 75
     7
175
     7
 42
1.0
 92
        8
 66
     7
 43
1.0
 76
     1
 77
     6
 78
     2
 67
     7
 79
     5
170
     0
171
     0
290
     0
174
     0
 93
        1
 44
0.0
173
     0
291
     1
 45
0.0
1001
ACAD
1000
AcDbSavedByObjectVersion
1070
     0
  0
VISUALSTYLE
  5
174
102
{ACAD_XDICTIONARY
360
51A
102
}
102
{ACAD_REACTORS
330
99
102
}
330
99
100
AcDbVisualStyle
  2

 70
    21
 71
     2
 72
     2
 73
     0
 90
        0
 40
-0.6
 41
-30.0
 62
     5
 63
     7
421
 16777215
 74
     1
 91
        4
 64
     7
 65
   257
 75
     1
175
     1
 42
1.0
 92
        9
 66
     7
 43
1.0
 76
     1
 77
     6
 78
     2
 67
     7
 79
     5
170
     0
171
     0
290
     0
174
     0
 93
        1
 44
0.0
173
     0
291
     1
 45
0.0
1001
ACAD
1000
AcDbSavedByObjectVersion
1070
     0
  0
VISUALSTYLE
  5
A3
102
{ACAD_XDICTIONARY
360
50A
102
}
102
{ACAD_REACTORS
330
99
102
}
330
99
100
AcDbVisualStyle
  2

 70
     8
 71
     2
 72
     2
 73
     1
 90
        0
 40
-0.6
 41
-30.0
 62
     5
 63
     7
421
 16777215
 74
     1
 91
        0
 64
     7
 65
   257
 75
     1
175
     1
 42
1.0
 92
        8
 66
     8
424
  7895160
 43
1.0
 76
     1
 77
     6
 78
     2
 67
     7
 79
     5
170
     0
171
     0
290
     0
174
     0
 93
       13
 44
0.0
173
     0
291
     0
 45
0.0
1001
ACAD
1000
AcDbSavedByObjectVersion
1070
     0
  0
VISUALSTYLE
  5
A6
102
{ACAD_XDICTIONARY
360
510
102
}
102
{ACAD_REACTORS
330
99
102
}
330
99
100
AcDbVisualStyle
  2

 70
    13
 71
     2
 72
     2
 73
     1
 90
        0
 40
-0.6
 41
-30.0
 62
     5
 63
     7
421
 16777215
 74
     1
 91
        4
 64
     7
 65
   257
 75
     1
175
     1
 42
1.0
 92
       12
 66
     7
 43
1.0
 76
     1
 77
     6
 78
     2
 67
     7
 79
     5
170
     0
171
     0
290
     0
174
     0
 93
        1
 44
0.0
173
     0
291
     1
 45
0.0
1001
ACAD
1000
AcDbSavedByObjectVersion
1070
     0
  0
DICTIONARYVAR
  5
F0
102
{ACAD_REACTORS
330
66
102
}
330
66
100
DictionaryVariables
280
     0
  1
1:1
  0
DICTIONARYVAR
  5
EF
102
{ACAD_REACTORS
330
66
102
}
330
66
100
DictionaryVariables
280
     0
  1
STANDARD
  0
DICTIONARYVAR
  5
89
102
{ACAD_REACTORS
330
66
102
}
330
66
100
DictionaryVariables
280
     0
  1
STANDARD
  0
DICTIONARYVAR
  5
67
102
{ACAD_REACTORS
330
66
102
}
330
66
100
DictionaryVariables
280
     0
  1
2
  0
DICTIONARYVAR
  5
6B
102
{ACAD_REACTORS
330
66
102
}
330
66
100
DictionaryVariables
280
     0
  1
1
  0
DICTIONARYVAR
  5
14D
102
{ACAD_REACTORS
330
66
102
}
330
66
100
DictionaryVariables
280
     0
  1
0
  0
DICTIONARYVAR
  5
14E
102
{ACAD_REACTORS
330
66
102
}
330
66
100
DictionaryVariables
280
     0
  1
0
  0
DICTIONARYVAR
  5
4B5
102
{ACAD_REACTORS
330
66
102
}
330
66
100
DictionaryVariables
280
     0
  1
2
  0
DICTIONARYVAR
  5
4B4
102
{ACAD_REACTORS
330
66
102
}
330
66
100
DictionaryVariables
280
     0
  1
1
  0
DICTIONARYVAR
  5
4F4
102
{ACAD_REACTORS
330
66
102
}
330
66
100
DictionaryVariables
280
     0
  1
2
  0
DICTIONARY
  5
4C4
330
97
100
AcDbDictionary
280
     1
281
     1
  3
ACAD_XREC_ROUNDTRIP
360
4C5
  0
DICTIONARY
  5
4C2
330
96
100
AcDbDictionary
280
     1
281
     1
  3
ACAD_XREC_ROUNDTRIP
360
4C3
  0
DICTIONARY
  5
110
330
98
100
AcDbDictionary
280
     1
281
     1
  3
ACAD_XREC_ROUNDTRIP
360
4C6
  3
BUMPTILE
360
112
  3
DIFFUSETILE
360
111
  3
OPACITYTILE
360
113
  3
REFLECTIONTILE
360
114
  0
DICTIONARY
  5
104
330
87
100
AcDbDictionary
280
     1
281
     1
  3
ACAD_ROUNDTRIP_2008_TABLESTYLE_CELLSTYLEMAP
360
4F5
  3
ACAD_XREC_ROUNDTRIP
360
4F7
  0
DICTIONARY
  5
502
330
9F
100
AcDbDictionary
280
     1
281
     1
  3
ACAD_XREC_ROUNDTRIP
360
503
  0
DICTIONARY
  5
506
330
A1
100
AcDbDictionary
280
     1
281
     1
  3
ACAD_XREC_ROUNDTRIP
360
507
  0
DICTIONARY
  5
504
330
A0
100
AcDbDictionary
280
     1
281
     1
  3
ACAD_XREC_ROUNDTRIP
360
505
  0
DICTIONARY
  5
500
330
9E
100
AcDbDictionary
280
     1
281
     1
  3
ACAD_XREC_ROUNDTRIP
360
501
  0
DICTIONARY
  5
50E
330
A5
100
AcDbDictionary
280
     1
281
     1
  3
ACAD_XREC_ROUNDTRIP
360
50F
  0
DICTIONARY
  5
516
330
A9
100
AcDbDictionary
280
     1
281
     1
  3
ACAD_XREC_ROUNDTRIP
360
517
  0
DICTIONARY
  5
508
330
A2
100
AcDbDictionary
280
     1
281
     1
  3
ACAD_XREC_ROUNDTRIP
360
509
  0
DICTIONARY
  5
50C
330
A4
100
AcDbDictionary
280
     1
281
     1
  3
ACAD_XREC_ROUNDTRIP
360
50D
  0
DICTIONARY
  5
51C
330
175
100
AcDbDictionary
280
     1
281
     1
  3
ACAD_XREC_ROUNDTRIP
360
51D
  0
DICTIONARY
  5
514
330
A8
100
AcDbDictionary
280
     1
281
     1
  3
ACAD_XREC_ROUNDTRIP
360
515
  0
DICTIONARY
  5
4F8
330
9A
100
AcDbDictionary
280
     1
281
     1
  3
ACAD_XREC_ROUNDTRIP
360
4F9
  0
DICTIONARY
  5
4FA
330
9B
100
AcDbDictionary
280
     1
281
     1
  3
ACAD_XREC_ROUNDTRIP
360
4FB
  0
DICTIONARY
  5
4FC
330
9C
100
AcDbDictionary
280
     1
281
     1
  3
ACAD_XREC_ROUNDTRIP
360
4FD
  0
DICTIONARY
  5
4FE
330
9D
100
AcDbDictionary
280
     1
281
     1
  3
ACAD_XREC_ROUNDTRIP
360
4FF
  0
DICTIONARY
  5
518
330
173
100
AcDbDictionary
280
     1
281
     1
  3
ACAD_XREC_ROUNDTRIP
360
519
  0
DICTIONARY
  5
512
330
A7
100
AcDbDictionary
280
     1
281
     1
  3
ACAD_XREC_ROUNDTRIP
360
513
  0
DICTIONARY
  5
51A
330
174
100
AcDbDictionary
280
     1
281
     1
  3
ACAD_XREC_ROUNDTRIP
360
51B
  0
DICTIONARY
  5
50A
330
A3
100
AcDbDictionary
280
     1
281
     1
  3
ACAD_XREC_ROUNDTRIP
360
50B
  0
DICTIONARY
  5
510
330
A6
100
AcDbDictionary
280
     1
281
     1
  3
ACAD_XREC_ROUNDTRIP
360
511
  0
XRECORD
  5
4C5
102
{ACAD_REACTORS
330
4C4
102
}
330
4C4
100
AcDbXrecord
280
     1
102
MATERIAL
148
0.0
149
0.0
149
0.0
 93
        0
 94
      127
282
     0
 72
     1
 77
     1
171
     1
175
     1
179
     1
273
     0
  0
XRECORD
  5
4C3
102
{ACAD_REACTORS
330
4C2
102
}
330
4C2
100
AcDbXrecord
280
     1
102
MATERIAL
148
0.0
149
0.0
149
0.0
 93
        0
 94
      127
282
     0
 72
     1
 77
     1
171
     1
175
     1
179
     1
273
     0
  0
XRECORD
  5
4C6
102
{ACAD_REACTORS
330
110
102
}
330
110
100
AcDbXrecord
280
     1
102
MATERIAL
148
0.0
149
0.0
149
0.0
 93
        0
 94
      127
282
     0
 72
     1
 77
     1
171
     1
175
     1
179
     1
273
     0
  0
XRECORD
  5
112
102
{ACAD_REACTORS
330
110
102
}
330
110
100
AcDbXrecord
280
     1
270
     1
271
     1
  0
XRECORD
  5
111
102
{ACAD_REACTORS
330
110
102
}
330
110
100
AcDbXrecord
280
     1
270
     1
271
     1
  0
XRECORD
  5
113
102
{ACAD_REACTORS
330
110
102
}
330
110
100
AcDbXrecord
280
     1
270
     1
271
     1
  0
XRECORD
  5
114
102
{ACAD_REACTORS
330
110
102
}
330
110
100
AcDbXrecord
280
     1
270
     1
271
     1
  0
CELLSTYLEMAP
  5
4F5
102
{ACAD_REACTORS
330
104
102
}
330
104
100
AcDbCellStyleMap
 90
        3
300
CELLSTYLE
  1
TABLEFORMAT_BEGIN
 90
        5
170
     1
 91
        0
 92
    32768
 62
   257
 93
        1
300
CONTENTFORMAT
  1
CONTENTFORMAT_BEGIN
 90
        0
 91
        0
 92
      512
 93
        0
300

 40
0.0
140
1.0
 94
        5
 62
     0
340
11
144
0.25
309
CONTENTFORMAT_END
171
     1
301
MARGIN
  1
CELLMARGIN_BEGIN
 40
0.06
 40
0.06
 40
0.06
 40
0.06
 40
0.18
 40
0.18
309
CELLMARGIN_END
 94
        6
 95
        1
302
GRIDFORMAT
  1
GRIDFORMAT_BEGIN
 90
        0
 91
        1
 62
     0
 92
       -2
340
0
 93
        0
 40
0.045
309
GRIDFORMAT_END
 95
        2
302
GRIDFORMAT
  1
GRIDFORMAT_BEGIN
 90
        0
 91
        1
 62
     0
 92
       -2
340
0
 93
        0
 40
0.045
309
GRIDFORMAT_END
 95
        4
302
GRIDFORMAT
  1
GRIDFORMAT_BEGIN
 90
        0
 91
        1
 62
     0
 92
       -2
340
0
 93
        0
 40
0.045
309
GRIDFORMAT_END
 95
        8
302
GRIDFORMAT
  1
GRIDFORMAT_BEGIN
 90
        0
 91
        1
 62
     0
 92
       -2
340
0
 93
        0
 40
0.045
309
GRIDFORMAT_END
 95
       16
302
GRIDFORMAT
  1
GRIDFORMAT_BEGIN
 90
        0
 91
        1
 62
     0
 92
       -2
340
0
 93
        0
 40
0.045
309
GRIDFORMAT_END
 95
       32
302
GRIDFORMAT
  1
GRIDFORMAT_BEGIN
 90
        0
 91
        1
 62
     0
 92
       -2
340
0
 93
        0
 40
0.045
309
GRIDFORMAT_END
309
TABLEFORMAT_END
  1
CELLSTYLE_BEGIN
 90
        1
 91
        1
300
_TITLE
309
CELLSTYLE_END
300
CELLSTYLE
  1
TABLEFORMAT_BEGIN
 90
        5
170
     1
 91
        0
 92
        0
 62
   257
 93
        1
300
CONTENTFORMAT
  1
CONTENTFORMAT_BEGIN
 90
        0
 91
        0
 92
      512
 93
        0
300

 40
0.0
140
1.0
 94
        5
 62
     0
340
11
144
0.18
309
CONTENTFORMAT_END
171
     1
301
MARGIN
  1
CELLMARGIN_BEGIN
 40
0.06
 40
0.06
 40
0.06
 40
0.06
 40
0.18
 40
0.18
309
CELLMARGIN_END
 94
        6
 95
        1
302
GRIDFORMAT
  1
GRIDFORMAT_BEGIN
 90
        0
 91
        1
 62
     0
 92
       -2
340
0
 93
        0
 40
0.045
309
GRIDFORMAT_END
 95
        2
302
GRIDFORMAT
  1
GRIDFORMAT_BEGIN
 90
        0
 91
        1
 62
     0
 92
       -2
340
0
 93
        0
 40
0.045
309
GRIDFORMAT_END
 95
        4
302
GRIDFORMAT
  1
GRIDFORMAT_BEGIN
 90
        0
 91
        1
 62
     0
 92
       -2
340
0
 93
        0
 40
0.045
309
GRIDFORMAT_END
 95
        8
302
GRIDFORMAT
  1
GRIDFORMAT_BEGIN
 90
        0
 91
        1
 62
     0
 92
       -2
340
0
 93
        0
 40
0.045
309
GRIDFORMAT_END
 95
       16
302
GRIDFORMAT
  1
GRIDFORMAT_BEGIN
 90
        0
 91
        1
 62
     0
 92
       -2
340
0
 93
        0
 40
0.045
309
GRIDFORMAT_END
 95
       32
302
GRIDFORMAT
  1
GRIDFORMAT_BEGIN
 90
        0
 91
        1
 62
     0
 92
       -2
340
0
 93
        0
 40
0.045
309
GRIDFORMAT_END
309
TABLEFORMAT_END
  1
CELLSTYLE_BEGIN
 90
        2
 91
        1
300
_HEADER
309
CELLSTYLE_END
300
CELLSTYLE
  1
TABLEFORMAT_BEGIN
 90
        5
170
     1
 91
        0
 92
        0
 62
   257
 93
        1
300
CONTENTFORMAT
  1
CONTENTFORMAT_BEGIN
 90
        0
 91
        0
 92
      512
 93
        0
300

 40
0.0
140
1.0
 94
        2
 62
     0
340
11
144
0.18
309
CONTENTFORMAT_END
171
     1
301
MARGIN
  1
CELLMARGIN_BEGIN
 40
0.06
 40
0.06
 40
0.06
 40
0.06
 40
0.18
 40
0.18
309
CELLMARGIN_END
 94
        6
 95
        1
302
GRIDFORMAT
  1
GRIDFORMAT_BEGIN
 90
        0
 91
        1
 62
     0
 92
       -2
340
0
 93
        0
 40
0.045
309
GRIDFORMAT_END
 95
        2
302
GRIDFORMAT
  1
GRIDFORMAT_BEGIN
 90
        0
 91
        1
 62
     0
 92
       -2
340
0
 93
        0
 40
0.045
309
GRIDFORMAT_END
 95
        4
302
GRIDFORMAT
  1
GRIDFORMAT_BEGIN
 90
        0
 91
        1
 62
     0
 92
       -2
340
0
 93
        0
 40
0.045
309
GRIDFORMAT_END
 95
        8
302
GRIDFORMAT
  1
GRIDFORMAT_BEGIN
 90
        0
 91
        1
 62
     0
 92
       -2
340
0
 93
        0
 40
0.045
309
GRIDFORMAT_END
 95
       16
302
GRIDFORMAT
  1
GRIDFORMAT_BEGIN
 90
        0
 91
        1
 62
     0
 92
       -2
340
0
 93
        0
 40
0.045
309
GRIDFORMAT_END
 95
       32
302
GRIDFORMAT
  1
GRIDFORMAT_BEGIN
 90
        0
 91
        1
 62
     0
 92
       -2
340
0
 93
        0
 40
0.045
309
GRIDFORMAT_END
309
TABLEFORMAT_END
  1
CELLSTYLE_BEGIN
 90
        3
 91
        2
300
_DATA
309
CELLSTYLE_END
  0
XRECORD
  5
4F7
102
{ACAD_REACTORS
330
104
102
}
330
104
100
AcDbXrecord
280
     1
102
ACAD_ROUNDTRIP_PRE2007_TABLESTYLE
 90
      512
 91
        0
  1

 92
      512
 93
        0
  2

 94
      512
 95
        0
  3

  0
XRECORD
  5
503
102
{ACAD_REACTORS
330
502
102
}
330
502
100
AcDbXrecord
280
     1
102
RTVSPropertyOp0
 70
     1
102
RTVSPropertyOp1
 70
     1
102
RTVSPropertyOp2
 70
     1
102
RTVSPropertyOp3
 70
     1
102
RTVSPropertyOp4
 70
     1
102
RTVSPropertyOp5
 70
     1
102
RTVSPropertyOp6
 70
     1
102
RTVSPropertyOp7
 70
     1
102
RTVSPropertyOp8
 70
     1
102
RTVSPropertyOp9
 70
     1
102
RTVSPropertyOp10
 70
     1
102
RTVSPropertyOp11
 70
     1
102
RTVSPropertyOp12
 70
     1
102
RTVSPropertyOp13
 70
     1
102
RTVSPropertyOp14
 70
     1
102
RTVSPropertyOp15
 70
     1
102
RTVSPropertyOp16
 70
     1
102
RTVSPropertyOp17
 70
     1
102
RTVSPropertyOp18
 70
     1
102
RTVSPropertyOp19
 70
     1
102
RTVSPropertyOp20
 70
     1
102
RTVSPropertyOp21
 70
     1
102
RTVSPropertyOp22
 70
     1
102
RTVSPropertyOp23
 70
     1
102
RTVSPropertyOp24
 70
     1
102
RTVSPropertyOp25
 70
     1
102
RTVSPropertyOp26
 70
     1
102
RTVSPropertyOp27
 70
     1
  0
XRECORD
  5
507
102
{ACAD_REACTORS
330
506
102
}
330
506
100
AcDbXrecord
280
     1
102
RTVSPropertyOp0
 70
     1
102
RTVSPropertyOp1
 70
     1
102
RTVSPropertyOp2
 70
     1
102
RTVSPropertyOp3
 70
     1
102
RTVSPropertyOp4
 70
     1
102
RTVSPropertyOp5
 70
     1
102
RTVSPropertyOp6
 70
     1
102
RTVSPropertyOp7
 70
     1
102
RTVSPropertyOp8
 70
     1
102
RTVSPropertyOp9
 70
     1
102
RTVSPropertyOp10
 70
     1
102
RTVSPropertyOp11
 70
     1
102
RTVSPropertyOp12
 70
     1
102
RTVSPropertyOp13
 70
     1
102
RTVSPropertyOp14
 70
     1
102
RTVSPropertyOp15
 70
     1
102
RTVSPropertyOp16
 70
     1
102
RTVSPropertyOp17
 70
     1
102
RTVSPropertyOp18
 70
     1
102
RTVSPropertyOp19
 70
     1
102
RTVSPropertyOp20
 70
     1
102
RTVSPropertyOp21
 70
     1
102
RTVSPropertyOp22
 70
     1
102
RTVSPropertyOp23
 70
     1
102
RTVSPropertyOp24
 70
     1
102
RTVSPropertyOp25
 70
     1
102
RTVSPropertyOp26
 70
     1
102
RTVSPropertyOp27
 70
     1
  0
XRECORD
  5
505
102
{ACAD_REACTORS
330
504
102
}
330
504
100
AcDbXrecord
280
     1
102
RTVSPropertyOp0
 70
     1
102
RTVSPropertyOp1
 70
     1
102
RTVSPropertyOp2
 70
     1
102
RTVSPropertyOp3
 70
     1
102
RTVSPropertyOp4
 70
     1
102
RTVSPropertyOp5
 70
     1
102
RTVSPropertyOp6
 70
     1
102
RTVSPropertyOp7
 70
     1
102
RTVSPropertyOp8
 70
     1
102
RTVSPropertyOp9
 70
     1
102
RTVSPropertyOp10
 70
     1
102
RTVSPropertyOp11
 70
     1
102
RTVSPropertyOp12
 70
     1
102
RTVSPropertyOp13
 70
     1
102
RTVSPropertyOp14
 70
     1
102
RTVSPropertyOp15
 70
     1
102
RTVSPropertyOp16
 70
     1
102
RTVSPropertyOp17
 70
     1
102
RTVSPropertyOp18
 70
     1
102
RTVSPropertyOp19
 70
     1
102
RTVSPropertyOp20
 70
     1
102
RTVSPropertyOp21
 70
     1
102
RTVSPropertyOp22
 70
     1
102
RTVSPropertyOp23
 70
     1
102
RTVSPropertyOp24
 70
     1
102
RTVSPropertyOp25
 70
     1
102
RTVSPropertyOp26
 70
     1
102
RTVSPropertyOp27
 70
     1
  0
XRECORD
  5
501
102
{ACAD_REACTORS
330
500
102
}
330
500
100
AcDbXrecord
280
     1
102
RTVSPropertyOp0
 70
     1
102
RTVSPropertyOp1
 70
     1
102
RTVSPropertyOp2
 70
     1
102
RTVSPropertyOp3
 70
     1
102
RTVSPropertyOp4
 70
     1
102
RTVSPropertyOp5
 70
     1
102
RTVSPropertyOp6
 70
     1
102
RTVSPropertyOp7
 70
     1
102
RTVSPropertyOp8
 70
     1
102
RTVSPropertyOp9
 70
     1
102
RTVSPropertyOp10
 70
     1
102
RTVSPropertyOp11
 70
     1
102
RTVSPropertyOp12
 70
     1
102
RTVSPropertyOp13
 70
     1
102
RTVSPropertyOp14
 70
     1
102
RTVSPropertyOp15
 70
     1
102
RTVSPropertyOp16
 70
     1
102
RTVSPropertyOp17
 70
     1
102
RTVSPropertyOp18
 70
     1
102
RTVSPropertyOp19
 70
     1
102
RTVSPropertyOp20
 70
     1
102
RTVSPropertyOp21
 70
     1
102
RTVSPropertyOp22
 70
     1
102
RTVSPropertyOp23
 70
     1
102
RTVSPropertyOp24
 70
     1
102
RTVSPropertyOp25
 70
     1
102
RTVSPropertyOp26
 70
     1
102
RTVSPropertyOp27
 70
     1
  0
XRECORD
  5
50F
102
{ACAD_REACTORS
330
50E
102
}
330
50E
100
AcDbXrecord
280
     1
102
RTVSPropertyOp0
 70
     1
102
RTVSPropertyOp1
 70
     1
102
RTVSPropertyOp2
 70
     1
102
RTVSPropertyOp3
 70
     1
102
RTVSPropertyOp4
 70
     1
102
RTVSPropertyOp5
 70
     1
102
RTVSPropertyOp6
 70
     1
102
RTVSPropertyOp7
 70
     1
102
RTVSPropertyOp8
 70
     1
102
RTVSPropertyOp9
 70
     1
102
RTVSPropertyOp10
 70
     1
102
RTVSPropertyOp11
 70
     1
102
RTVSPropertyOp12
 70
     1
102
RTVSPropertyOp13
 70
     1
102
RTVSPropertyOp14
 70
     1
102
RTVSPropertyOp15
 70
     1
102
RTVSPropertyOp16
 70
     1
102
RTVSPropertyOp17
 70
     1
102
RTVSPropertyOp18
 70
     1
102
RTVSPropertyOp19
 70
     1
102
RTVSPropertyOp20
 70
     1
102
RTVSPropertyOp21
 70
     1
102
RTVSPropertyOp22
 70
     1
102
RTVSPropertyOp23
 70
     1
102
RTVSPropertyOp24
 70
     1
102
RTVSPropertyOp25
 70
     1
102
RTVSPropertyOp26
 70
     1
102
RTVSPropertyOp27
 70
     1
  0
XRECORD
  5
517
102
{ACAD_REACTORS
330
516
102
}
330
516
100
AcDbXrecord
280
     1
102
RTVSPropertyOp0
 70
     1
102
RTVSPropertyOp1
 70
     1
102
RTVSPropertyOp2
 70
     1
102
RTVSPropertyOp3
 70
     1
102
RTVSPropertyOp4
 70
     1
102
RTVSPropertyOp5
 70
     1
102
RTVSPropertyOp6
 70
     1
102
RTVSPropertyOp7
 70
     1
102
RTVSPropertyOp8
 70
     1
102
RTVSPropertyOp9
 70
     1
102
RTVSPropertyOp10
 70
     1
102
RTVSPropertyOp11
 70
     1
102
RTVSPropertyOp12
 70
     1
102
RTVSPropertyOp13
 70
     1
102
RTVSPropertyOp14
 70
     1
102
RTVSPropertyOp15
 70
     1
102
RTVSPropertyOp16
 70
     1
102
RTVSPropertyOp17
 70
     1
102
RTVSPropertyOp18
 70
     1
102
RTVSPropertyOp19
 70
     1
102
RTVSPropertyOp20
 70
     1
102
RTVSPropertyOp21
 70
     1
102
RTVSPropertyOp22
 70
     1
102
RTVSPropertyOp23
 70
     1
102
RTVSPropertyOp24
 70
     1
102
RTVSPropertyOp25
 70
     1
102
RTVSPropertyOp26
 70
     1
102
RTVSPropertyOp27
 70
     1
  0
XRECORD
  5
509
102
{ACAD_REACTORS
330
508
102
}
330
508
100
AcDbXrecord
280
     1
102
RTVSPropertyOp0
 70
     1
102
RTVSPropertyOp1
 70
     1
102
RTVSPropertyOp2
 70
     1
102
RTVSPropertyOp3
 70
     1
102
RTVSPropertyOp4
 70
     1
102
RTVSPropertyOp5
 70
     1
102
RTVSPropertyOp6
 70
     1
102
RTVSPropertyOp7
 70
     1
102
RTVSPropertyOp8
 70
     1
102
RTVSPropertyOp9
 70
     1
102
RTVSPropertyOp10
 70
     1
102
RTVSPropertyOp11
 70
     1
102
RTVSPropertyOp12
 70
     1
102
RTVSPropertyOp13
 70
     1
102
RTVSPropertyOp14
 70
     1
102
RTVSPropertyOp15
 70
     1
102
RTVSPropertyOp16
 70
     1
102
RTVSPropertyOp17
 70
     1
102
RTVSPropertyOp18
 70
     1
102
RTVSPropertyOp19
 70
     1
102
RTVSPropertyOp20
 70
     1
102
RTVSPropertyOp21
 70
     1
102
RTVSPropertyOp22
 70
     1
102
RTVSPropertyOp23
 70
     1
102
RTVSPropertyOp24
 70
     1
102
RTVSPropertyOp25
 70
     1
102
RTVSPropertyOp26
 70
     1
102
RTVSPropertyOp27
 70
     1
  0
XRECORD
  5
50D
102
{ACAD_REACTORS
330
50C
102
}
330
50C
100
AcDbXrecord
280
     1
102
RTVSPropertyOp0
 70
     1
102
RTVSPropertyOp1
 70
     1
102
RTVSPropertyOp2
 70
     1
102
RTVSPropertyOp3
 70
     1
102
RTVSPropertyOp4
 70
     1
102
RTVSPropertyOp5
 70
     1
102
RTVSPropertyOp6
 70
     1
102
RTVSPropertyOp7
 70
     1
102
RTVSPropertyOp8
 70
     1
102
RTVSPropertyOp9
 70
     1
102
RTVSPropertyOp10
 70
     1
102
RTVSPropertyOp11
 70
     1
102
RTVSPropertyOp12
 70
     1
102
RTVSPropertyOp13
 70
     1
102
RTVSPropertyOp14
 70
     1
102
RTVSPropertyOp15
 70
     1
102
RTVSPropertyOp16
 70
     1
102
RTVSPropertyOp17
 70
     1
102
RTVSPropertyOp18
 70
     1
102
RTVSPropertyOp19
 70
     1
102
RTVSPropertyOp20
 70
     1
102
RTVSPropertyOp21
 70
     1
102
RTVSPropertyOp22
 70
     1
102
RTVSPropertyOp23
 70
     1
102
RTVSPropertyOp24
 70
     1
102
RTVSPropertyOp25
 70
     1
102
RTVSPropertyOp26
 70
     1
102
RTVSPropertyOp27
 70
     1
  0
XRECORD
  5
51D
102
{ACAD_REACTORS
330
51C
102
}
330
51C
100
AcDbXrecord
280
     1
102
RTVSPropertyOp0
 70
     0
102
RTVSPropertyOp1
 70
     0
102
RTVSPropertyOp2
 70
     0
102
RTVSPropertyOp3
 70
     0
102
RTVSPropertyOp4
 70
     0
102
RTVSPropertyOp5
 70
     0
102
RTVSPropertyOp6
 70
     0
102
RTVSPropertyOp7
 70
     0
102
RTVSPropertyOp8
 70
     0
102
RTVSPropertyOp9
 70
     0
102
RTVSPropertyOp10
 70
     0
102
RTVSPropertyOp11
 70
     0
102
RTVSPropertyOp12
 70
     0
102
RTVSPropertyOp13
 70
     0
102
RTVSPropertyOp14
 70
     2
102
RTVSPropertyOp15
 70
     0
102
RTVSPropertyOp16
 70
     0
102
RTVSPropertyOp17
 70
     0
102
RTVSPropertyOp18
 70
     0
102
RTVSPropertyOp19
 70
     0
102
RTVSPropertyOp20
 70
     0
102
RTVSPropertyOp21
 70
     0
102
RTVSPropertyOp22
 70
     0
102
RTVSPropertyOp23
 70
     0
102
RTVSPropertyOp24
 70
     0
102
RTVSPropertyOp25
 70
     0
102
RTVSPropertyOp26
 70
     0
102
RTVSPropertyOp27
 70
     0
  0
XRECORD
  5
515
102
{ACAD_REACTORS
330
514
102
}
330
514
100
AcDbXrecord
280
     1
102
RTVSPropertyOp0
 70
     1
102
RTVSPropertyOp1
 70
     1
102
RTVSPropertyOp2
 70
     1
102
RTVSPropertyOp3
 70
     1
102
RTVSPropertyOp4
 70
     1
102
RTVSPropertyOp5
 70
     1
102
RTVSPropertyOp6
 70
     1
102
RTVSPropertyOp7
 70
     1
102
RTVSPropertyOp8
 70
     1
102
RTVSPropertyOp9
 70
     1
102
RTVSPropertyOp10
 70
     1
102
RTVSPropertyOp11
 70
     1
102
RTVSPropertyOp12
 70
     1
102
RTVSPropertyOp13
 70
     1
102
RTVSPropertyOp14
 70
     1
102
RTVSPropertyOp15
 70
     1
102
RTVSPropertyOp16
 70
     1
102
RTVSPropertyOp17
 70
     1
102
RTVSPropertyOp18
 70
     1
102
RTVSPropertyOp19
 70
     1
102
RTVSPropertyOp20
 70
     1
102
RTVSPropertyOp21
 70
     1
102
RTVSPropertyOp22
 70
     1
102
RTVSPropertyOp23
 70
     1
102
RTVSPropertyOp24
 70
     1
102
RTVSPropertyOp25
 70
     1
102
RTVSPropertyOp26
 70
     1
102
RTVSPropertyOp27
 70
     1
  0
XRECORD
  5
4F9
102
{ACAD_REACTORS
330
4F8
102
}
330
4F8
100
AcDbXrecord
280
     1
102
RTVSPropertyOp0
 70
     1
102
RTVSPropertyOp1
 70
     1
102
RTVSPropertyOp2
 70
     1
102
RTVSPropertyOp3
 70
     1
102
RTVSPropertyOp4
 70
     1
102
RTVSPropertyOp5
 70
     1
102
RTVSPropertyOp6
 70
     1
102
RTVSPropertyOp7
 70
     1
102
RTVSPropertyOp8
 70
     1
102
RTVSPropertyOp9
 70
     1
102
RTVSPropertyOp10
 70
     1
102
RTVSPropertyOp11
 70
     1
102
RTVSPropertyOp12
 70
     1
102
RTVSPropertyOp13
 70
     1
102
RTVSPropertyOp14
 70
     1
102
RTVSPropertyOp15
 70
     1
102
RTVSPropertyOp16
 70
     1
102
RTVSPropertyOp17
 70
     1
102
RTVSPropertyOp18
 70
     1
102
RTVSPropertyOp19
 70
     1
102
RTVSPropertyOp20
 70
     1
102
RTVSPropertyOp21
 70
     1
102
RTVSPropertyOp22
 70
     1
102
RTVSPropertyOp23
 70
     1
102
RTVSPropertyOp24
 70
     1
102
RTVSPropertyOp25
 70
     1
102
RTVSPropertyOp26
 70
     1
102
RTVSPropertyOp27
 70
     1
  0
XRECORD
  5
4FB
102
{ACAD_REACTORS
330
4FA
102
}
330
4FA
100
AcDbXrecord
280
     1
102
RTVSPropertyOp0
 70
     1
102
RTVSPropertyOp1
 70
     1
102
RTVSPropertyOp2
 70
     1
102
RTVSPropertyOp3
 70
     1
102
RTVSPropertyOp4
 70
     1
102
RTVSPropertyOp5
 70
     1
102
RTVSPropertyOp6
 70
     1
102
RTVSPropertyOp7
 70
     1
102
RTVSPropertyOp8
 70
     1
102
RTVSPropertyOp9
 70
     1
102
RTVSPropertyOp10
 70
     1
102
RTVSPropertyOp11
 70
     1
102
RTVSPropertyOp12
 70
     1
102
RTVSPropertyOp13
 70
     1
102
RTVSPropertyOp14
 70
     1
102
RTVSPropertyOp15
 70
     1
102
RTVSPropertyOp16
 70
     1
102
RTVSPropertyOp17
 70
     1
102
RTVSPropertyOp18
 70
     1
102
RTVSPropertyOp19
 70
     1
102
RTVSPropertyOp20
 70
     1
102
RTVSPropertyOp21
 70
     1
102
RTVSPropertyOp22
 70
     1
102
RTVSPropertyOp23
 70
     1
102
RTVSPropertyOp24
 70
     1
102
RTVSPropertyOp25
 70
     1
102
RTVSPropertyOp26
 70
     1
102
RTVSPropertyOp27
 70
     1
  0
XRECORD
  5
4FD
102
{ACAD_REACTORS
330
4FC
102
}
330
4FC
100
AcDbXrecord
280
     1
102
RTVSPropertyOp0
 70
     1
102
RTVSPropertyOp1
 70
     1
102
RTVSPropertyOp2
 70
     1
102
RTVSPropertyOp3
 70
     1
102
RTVSPropertyOp4
 70
     1
102
RTVSPropertyOp5
 70
     1
102
RTVSPropertyOp6
 70
     1
102
RTVSPropertyOp7
 70
     1
102
RTVSPropertyOp8
 70
     1
102
RTVSPropertyOp9
 70
     1
102
RTVSPropertyOp10
 70
     1
102
RTVSPropertyOp11
 70
     1
102
RTVSPropertyOp12
 70
     1
102
RTVSPropertyOp13
 70
     1
102
RTVSPropertyOp14
 70
     1
102
RTVSPropertyOp15
 70
     1
102
RTVSPropertyOp16
 70
     1
102
RTVSPropertyOp17
 70
     1
102
RTVSPropertyOp18
 70
     1
102
RTVSPropertyOp19
 70
     1
102
RTVSPropertyOp20
 70
     1
102
RTVSPropertyOp21
 70
     1
102
RTVSPropertyOp22
 70
     1
102
RTVSPropertyOp23
 70
     1
102
RTVSPropertyOp24
 70
     1
102
RTVSPropertyOp25
 70
     1
102
RTVSPropertyOp26
 70
     1
102
RTVSPropertyOp27
 70
     1
  0
XRECORD
  5
4FF
102
{ACAD_REACTORS
330
4FE
102
}
330
4FE
100
AcDbXrecord
280
     1
102
RTVSPropertyOp0
 70
     1
102
RTVSPropertyOp1
 70
     1
102
RTVSPropertyOp2
 70
     1
102
RTVSPropertyOp3
 70
     1
102
RTVSPropertyOp4
 70
     1
102
RTVSPropertyOp5
 70
     1
102
RTVSPropertyOp6
 70
     1
102
RTVSPropertyOp7
 70
     1
102
RTVSPropertyOp8
 70
     1
102
RTVSPropertyOp9
 70
     1
102
RTVSPropertyOp10
 70
     1
102
RTVSPropertyOp11
 70
     1
102
RTVSPropertyOp12
 70
     1
102
RTVSPropertyOp13
 70
     1
102
RTVSPropertyOp14
 70
     1
102
RTVSPropertyOp15
 70
     1
102
RTVSPropertyOp16
 70
     1
102
RTVSPropertyOp17
 70
     1
102
RTVSPropertyOp18
 70
     1
102
RTVSPropertyOp19
 70
     1
102
RTVSPropertyOp20
 70
     1
102
RTVSPropertyOp21
 70
     1
102
RTVSPropertyOp22
 70
     1
102
RTVSPropertyOp23
 70
     1
102
RTVSPropertyOp24
 70
     1
102
RTVSPropertyOp25
 70
     1
102
RTVSPropertyOp26
 70
     1
102
RTVSPropertyOp27
 70
     1
  0
XRECORD
  5
519
102
{ACAD_REACTORS
330
518
102
}
330
518
100
AcDbXrecord
280
     1
102
RTVSPropertyOp0
 70
     0
102
RTVSPropertyOp1
 70
     0
102
RTVSPropertyOp2
 70
     0
102
RTVSPropertyOp3
 70
     0
102
RTVSPropertyOp4
 70
     0
102
RTVSPropertyOp5
 70
     0
102
RTVSPropertyOp6
 70
     0
102
RTVSPropertyOp7
 70
     0
102
RTVSPropertyOp8
 70
     0
102
RTVSPropertyOp9
 70
     0
102
RTVSPropertyOp10
 70
     0
102
RTVSPropertyOp11
 70
     0
102
RTVSPropertyOp12
 70
     0
102
RTVSPropertyOp13
 70
     0
102
RTVSPropertyOp14
 70
     2
102
RTVSPropertyOp15
 70
     0
102
RTVSPropertyOp16
 70
     0
102
RTVSPropertyOp17
 70
     0
102
RTVSPropertyOp18
 70
     0
102
RTVSPropertyOp19
 70
     0
102
RTVSPropertyOp20
 70
     0
102
RTVSPropertyOp21
 70
     0
102
RTVSPropertyOp22
 70
     0
102
RTVSPropertyOp23
 70
     0
102
RTVSPropertyOp24
 70
     0
102
RTVSPropertyOp25
 70
     0
102
RTVSPropertyOp26
 70
     0
102
RTVSPropertyOp27
 70
     0
  0
XRECORD
  5
513
102
{ACAD_REACTORS
330
512
102
}
330
512
100
AcDbXrecord
280
     1
102
RTVSPropertyOp0
 70
     1
102
RTVSPropertyOp1
 70
     1
102
RTVSPropertyOp2
 70
     1
102
RTVSPropertyOp3
 70
     1
102
RTVSPropertyOp4
 70
     1
102
RTVSPropertyOp5
 70
     1
102
RTVSPropertyOp6
 70
     1
102
RTVSPropertyOp7
 70
     1
102
RTVSPropertyOp8
 70
     1
102
RTVSPropertyOp9
 70
     1
102
RTVSPropertyOp10
 70
     1
102
RTVSPropertyOp11
 70
     1
102
RTVSPropertyOp12
 70
     1
102
RTVSPropertyOp13
 70
     1
102
RTVSPropertyOp14
 70
     1
102
RTVSPropertyOp15
 70
     1
102
RTVSPropertyOp16
 70
     1
102
RTVSPropertyOp17
 70
     1
102
RTVSPropertyOp18
 70
     1
102
RTVSPropertyOp19
 70
     1
102
RTVSPropertyOp20
 70
     1
102
RTVSPropertyOp21
 70
     1
102
RTVSPropertyOp22
 70
     1
102
RTVSPropertyOp23
 70
     1
102
RTVSPropertyOp24
 70
     1
102
RTVSPropertyOp25
 70
     1
102
RTVSPropertyOp26
 70
     1
102
RTVSPropertyOp27
 70
     1
  0
XRECORD
  5
51B
102
{ACAD_REACTORS
330
51A
102
}
330
51A
100
AcDbXrecord
280
     1
102
RTVSPropertyOp0
 70
     0
102
RTVSPropertyOp1
 70
     0
102
RTVSPropertyOp2
 70
     0
102
RTVSPropertyOp3
 70
     0
102
RTVSPropertyOp4
 70
     0
102
RTVSPropertyOp5
 70
     0
102
RTVSPropertyOp6
 70
     0
102
RTVSPropertyOp7
 70
     0
102
RTVSPropertyOp8
 70
     0
102
RTVSPropertyOp9
 70
     0
102
RTVSPropertyOp10
 70
     0
102
RTVSPropertyOp11
 70
     0
102
RTVSPropertyOp12
 70
     0
102
RTVSPropertyOp13
 70
     0
102
RTVSPropertyOp14
 70
     2
102
RTVSPropertyOp15
 70
     0
102
RTVSPropertyOp16
 70
     0
102
RTVSPropertyOp17
 70
     0
102
RTVSPropertyOp18
 70
     0
102
RTVSPropertyOp19
 70
     0
102
RTVSPropertyOp20
 70
     0
102
RTVSPropertyOp21
 70
     0
102
RTVSPropertyOp22
 70
     0
102
RTVSPropertyOp23
 70
     0
102
RTVSPropertyOp24
 70
     0
102
RTVSPropertyOp25
 70
     0
102
RTVSPropertyOp26
 70
     0
102
RTVSPropertyOp27
 70
     0
  0
XRECORD
  5
50B
102
{ACAD_REACTORS
330
50A
102
}
330
50A
100
AcDbXrecord
280
     1
102
RTVSPropertyOp0
 70
     1
102
RTVSPropertyOp1
 70
     1
102
RTVSPropertyOp2
 70
     1
102
RTVSPropertyOp3
 70
     1
102
RTVSPropertyOp4
 70
     1
102
RTVSPropertyOp5
 70
     1
102
RTVSPropertyOp6
 70
     1
102
RTVSPropertyOp7
 70
     1
102
RTVSPropertyOp8
 70
     1
102
RTVSPropertyOp9
 70
     1
102
RTVSPropertyOp10
 70
     1
102
RTVSPropertyOp11
 70
     1
102
RTVSPropertyOp12
 70
     1
102
RTVSPropertyOp13
 70
     1
102
RTVSPropertyOp14
 70
     1
102
RTVSPropertyOp15
 70
     1
102
RTVSPropertyOp16
 70
     1
102
RTVSPropertyOp17
 70
     1
102
RTVSPropertyOp18
 70
     1
102
RTVSPropertyOp19
 70
     1
102
RTVSPropertyOp20
 70
     1
102
RTVSPropertyOp21
 70
     1
102
RTVSPropertyOp22
 70
     1
102
RTVSPropertyOp23
 70
     1
102
RTVSPropertyOp24
 70
     1
102
RTVSPropertyOp25
 70
     1
102
RTVSPropertyOp26
 70
     1
102
RTVSPropertyOp27
 70
     1
  0
XRECORD
  5
511
102
{ACAD_REACTORS
330
510
102
}
330
510
100
AcDbXrecord
280
     1
102
RTVSPropertyOp0
 70
     1
102
RTVSPropertyOp1
 70
     1
102
RTVSPropertyOp2
 70
     1
102
RTVSPropertyOp3
 70
     1
102
RTVSPropertyOp4
 70
     1
102
RTVSPropertyOp5
 70
     1
102
RTVSPropertyOp6
 70
     1
102
RTVSPropertyOp7
 70
     1
102
RTVSPropertyOp8
 70
     1
102
RTVSPropertyOp9
 70
     1
102
RTVSPropertyOp10
 70
     1
102
RTVSPropertyOp11
 70
     1
102
RTVSPropertyOp12
 70
     1
102
RTVSPropertyOp13
 70
     1
102
RTVSPropertyOp14
 70
     1
102
RTVSPropertyOp15
 70
     1
102
RTVSPropertyOp16
 70
     1
102
RTVSPropertyOp17
 70
     1
102
RTVSPropertyOp18
 70
     1
102
RTVSPropertyOp19
 70
     1
102
RTVSPropertyOp20
 70
     1
102
RTVSPropertyOp21
 70
     1
102
RTVSPropertyOp22
 70
     1
102
RTVSPropertyOp23
 70
     1
102
RTVSPropertyOp24
 70
     1
102
RTVSPropertyOp25
 70
     1
102
RTVSPropertyOp26
 70
     1
102
RTVSPropertyOp27
 70
     1
  0
ENDSEC
  0
EOF
