  0
SECTION
  2
HEADER
  9
$ACADVER
  1
AC1009
  9
$INSBASE
 10
0.0
 20
0.0
 30
0.0
  9
$EXTMIN
 10
-1.215403
 20
-1.215312
 30
-0.000036
  9
$EXTMAX
 10
1.215426
 20
1.215458
 30
1.190036
  9
$LIMMIN
 10
0.0
 20
0.0
  9
$LIMMAX
 10
12.0
 20
9.0
  9
$ORTHOMODE
 70
     0
  9
$REGENMODE
 70
     1
  9
$FILLMODE
 70
     1
  9
$QTEXTMODE
 70
     0
  9
$MIRRTEXT
 70
     1
  9
$DRAGMODE
 70
     2
  9
$LTSCALE
 40
1.0
  9
$OSMODE
 70
     8
  9
$ATTMODE
 70
     2
  9
$TEXTSIZE
 40
0.2
  9
$TRACEWID
 40
0.05
  9
$TEXTSTYLE
  7
STANDARD
  9
$CLAYER
  8
0
  9
$CELTYPE
  6
BYLAYER
  9
$CECOLOR
 62
   256
  9
$DIMSCALE
 40
0.0
  9
$DIMASZ
 40
0.1875
  9
$DIMEXO
 40
0.0625
  9
$DIMDLI
 40
0.375
  9
$DIMRND
 40
0.0
  9
$DIMDLE
 40
0.0
  9
$DIMEXE
 40
0.1875
  9
$DIMTP
 40
0.0
  9
$DIMTM
 40
0.0
  9
$DIMTXT
 40
0.125
  9
$DIMCEN
 40
0.09375
  9
$DIMTSZ
 40
0.0
  9
$DIMTOL
 70
     0
  9
$DIMLIM
 70
     0
  9
$DIMTIH
 70
     0
  9
$DIMTOH
 70
     1
  9
$DIMSE1
 70
     0
  9
$DIMSE2
 70
     0
  9
$DIMTAD
 70
     0
  9
$DIMZIN
 70
     4
  9
$DIMBLK
  1

  9
$DIMASO
 70
     1
  9
$DIMSHO
 70
     1
  9
$DIMPOST
  1

  9
$DIMAPOST
  1

  9
$DIMALT
 70
     1
  9
$DIMALTD
 70
     0
  9
$DIMALTF
 40
25.4
  9
$DIMLFAC
 40
1.0
  9
$DIMTOFL
 70
     0
  9
$DIMTVP
 40
0.0
  9
$DIMTIX
 70
     1
  9
$DIMSOXD
 70
     0
  9
$DIMSAH
 70
     0
  9
$DIMBLK1
  1

  9
$DIMBLK2
  1

  9
$DIMSTYLE
  2
STANDARD
  9
$DIMCLRD
 70
     0
  9
$DIMCLRE
 70
     0
  9
$DIMCLRT
 70
     0
  9
$DIMTFAC
 40
1.5
  9
$DIMGAP
 40
0.09375
  9
$LUNITS
 70
     5
  9
$LUPREC
 70
     6
  9
$SKETCHINC
 40
0.1
  9
$FILLETRAD
 40
0.0
  9
$AUNITS
 70
     0
  9
$AUPREC
 70
     0
  9
$MENU
  1

  9
$ELEVATION
 40
0.0
  9
$PELEVATION
 40
0.0
  9
$THICKNESS
 40
0.0
  9
$LIMCHECK
 70
     0
  9
$BLIPMODE
 70
     1
  9
$CHAMFERA
 40
0.0
  9
$CHAMFERB
 40
0.0
  9
$SKPOLY
 70
     0
  9
$TDCREATE
 40
2451024.66104
  9
$TDUPDATE
 40
2451164.718633
  9
$TDINDWG
 40
0.343078
  9
$TDUSRTIMER
 40
0.343078
  9
$USRTIMER
 70
     1
  9
$ANGBASE
 50
0.0
  9
$ANGDIR
 70
     0
  9
$PDMODE
 70
     3
  9
$PDSIZE
 40
0.0
  9
$PLINEWID
 40
0.0
  9
$COORDS
 70
     1
  9
$SPLFRAME
 70
     1
  9
$SPLINETYPE
 70
     6
  9
$SPLINESEGS
 70
     8
  9
$ATTDIA
 70
     0
  9
$ATTREQ
 70
     1
  9
$HANDLING
 70
     1
  9
$HANDSEED
  5
419D
  9
$SURFTAB1
 70
     6
  9
$SURFTAB2
 70
     6
  9
$SURFTYPE
 70
     6
  9
$SURFU
 70
     6
  9
$SURFV
 70
     6
  9
$UCSNAME
  2

  9
$UCSORG
 10
0.0
 20
0.0
 30
0.0
  9
$UCSXDIR
 10
1.0
 20
0.0
 30
0.0
  9
$UCSYDIR
 10
0.0
 20
1.0
 30
0.0
  9
$PUCSNAME
  2

  9
$PUCSORG
 10
0.0
 20
0.0
 30
0.0
  9
$PUCSXDIR
 10
1.0
 20
0.0
 30
0.0
  9
$PUCSYDIR
 10
0.0
 20
1.0
 30
0.0
  9
$USERI1
 70
     0
  9
$USERI2
 70
     0
  9
$USERI3
 70
     0
  9
$USERI4
 70
     0
  9
$USERI5
 70
     0
  9
$USERR1
 40
0.0
  9
$USERR2
 40
0.0
  9
$USERR3
 40
0.0
  9
$USERR4
 40
0.0
  9
$USERR5
 40
0.0
  9
$WORLDVIEW
 70
     1
  9
$SHADEDGE
 70
     3
  9
$SHADEDIF
 70
    70
  9
$TILEMODE
 70
     1
  9
$MAXACTVP
 70
    16
  9
$PLIMCHECK
 70
     0
  9
$PEXTMIN
 10
0.0
 20
0.0
 30
0.0
  9
$PEXTMAX
 10
10.0
 20
7.5
 30
0.0
  9
$PLIMMIN
 10
0.0
 20
0.0
  9
$PLIMMAX
 10
12.0
 20
9.0
  9
$UNITMODE
 70
     0
  9
$VISRETAIN
 70
     0
  9
$PLINEGEN
 70
     0
  9
$PSLTSCALE
 70
     1
  0
ENDSEC
  0
SECTION
  2
TABLES
  0
TABLE
  2
VPORT
 70
     2
  0
VPORT
  2
*ACTIVE
 70
     0
 10
0.0
 20
0.0
 11
1.0
 21
1.0
 12
0.000011
 22
0.000073
 13
0.0
 23
0.0
 14
1.0
 24
1.0
 15
0.0
 25
0.0
 16
0.0
 26
0.0
 36
1.0
 17
0.0
 27
0.0
 37
0.0
 40
2.584814
 41
1.603066
 42
50.0
 43
0.0
 44
0.0
 50
0.0
 51
0.0
 71
     0
 72
   100
 73
     1
 74
     1
 75
     0
 76
     0
 77
     0
 78
     0
  0
ENDTAB
  0
TABLE
  2
LTYPE
 70
     1
  0
LTYPE
  2
CONTINUOUS
 70
     0
  3
Solid line
 72
    65
 73
     0
 40
0.0
  0
ENDTAB
  0
TABLE
  2
LAYER
 70
     6
  0
LAYER
  2
0
 70
     0
 62
     7
  6
CONTINUOUS
  0
LAYER
  2
AREA1
 70
     0
 62
     7
  6
CONTINUOUS
  0
LAYER
  2
AREA2
 70
     0
 62
     7
  6
CONTINUOUS
  0
LAYER
  2
DIMS-MTG-HOLES
 70
     0
 62
     1
  6
CONTINUOUS
  0
LAYER
  2
UL-DIMS
 70
     0
 62
     7
  6
CONTINUOUS
  0
LAYER
  2
DEFPOINTS
 70
     0
 62
     7
  6
CONTINUOUS
  0
ENDTAB
  0
TABLE
  2
STYLE
 70
     1
  0
STYLE
  2
STANDARD
 70
     0
 40
0.0
 41
1.0
 50
0.0
 71
     0
 42
0.2
  3
txt
  4

  0
ENDTAB
  0
TABLE
  2
VIEW
 70
     0
  0
ENDTAB
  0
TABLE
  2
UCS
 70
     0
  0
ENDTAB
  0
TABLE
  2
APPID
 70
     1
  0
APPID
  2
ACAD
 70
     0
  0
ENDTAB
  0
TABLE
  2
DIMSTYLE
 70
     1
  0
DIMSTYLE
  2
STANDARD
 70
     0
  3

  4

  5

  6

  7

 40
1.0
 41
0.18
 42
0.0625
 43
0.38
 44
0.18
 45
0.0
 46
0.0
 47
0.0
 48
0.0
140
0.18
141
0.09
142
0.0
143
25.4
144
1.0
145
0.0
146
1.0
147
0.09
 71
     0
 72
     0
 73
     1
 74
     1
 75
     0
 76
     0
 77
     0
 78
     0
170
     0
171
     2
172
     0
173
     0
174
     0
175
     0
176
     0
177
     0
178
     0
  0
ENDTAB
  0
ENDSEC
  0
SECTION
  2
BLOCKS
  0
BLOCK
  8
0
  2
$MODEL_SPACE
 70
     0
 10
0.0
 20
0.0
 30
0.0
  3
$MODEL_SPACE
  1

  0
ENDBLK
  5
4193
  8
0
  0
BLOCK
 67
     1
  8
0
  2
$PAPER_SPACE
 70
     0
 10
0.0
 20
0.0
 30
0.0
  3
$PAPER_SPACE
  1

  0
ENDBLK
  5
4191
 67
     1
  8
0
  0
BLOCK
  8
0
  2
*D0
 70
     1
 10
0.0
 20
0.0
 30
0.0
  3
*D0
  1

  0
LINE
  5
3FAC
  8
0
  6
BYBLOCK
 62
     0
 10
1.48744
 20
6.700152
 30
0.0
 11
1.48744
 21
7.254014
 31
0.0
  0
LINE
  5
3FAD
  8
0
  6
BYBLOCK
 62
     0
 10
3.51244
 20
6.700152
 30
0.0
 11
3.51244
 21
7.254014
 31
0.0
  0
LINE
  5
3FAE
  8
0
  6
BYBLOCK
 62
     0
 10
1.67494
 20
7.066514
 30
0.0
 11
1.822857
 21
7.066514
 31
0.0
  0
LINE
  5
3FAF
  8
0
  6
BYBLOCK
 62
     0
 10
3.32494
 20
7.066514
 30
0.0
 11
3.177024
 21
7.066514
 31
0.0
  0
SOLID
  5
3FB0
  8
0
  6
BYBLOCK
 62
     0
 10
1.67494
 20
7.097764
 30
0.0
 11
1.67494
 21
7.035264
 31
0.0
 12
1.48744
 22
7.066514
 32
0.0
 13
1.48744
 23
7.066514
 33
0.0
  0
SOLID
  5
3FB1
  8
0
  6
BYBLOCK
 62
     0
 10
3.32494
 20
7.097764
 30
0.0
 11
3.32494
 21
7.035264
 31
0.0
 12
3.51244
 22
7.066514
 32
0.0
 13
3.51244
 23
7.066514
 33
0.0
  0
TEXT
  5
3FB2
  8
0
  6
BYBLOCK
 62
     0
 10
1.916607
 20
7.004014
 30
0.0
 40
0.125
  1
2 1/32 [51]
  0
POINT
  5
3FB3
  8
DEFPOINTS
  6
BYBLOCK
 62
     0
 10
1.48744
 20
6.637652
 30
0.0
  0
POINT
  5
3FB4
  8
DEFPOINTS
  6
BYBLOCK
 62
     0
 10
3.51244
 20
6.637652
 30
0.0
  0
POINT
  5
3FB5
  8
DEFPOINTS
  6
BYBLOCK
 62
     0
 10
3.51244
 20
7.066514
 30
0.0
  0
ENDBLK
  5
3FB6
  8
0
  0
BLOCK
  8
0
  2
*D1
 70
     1
 10
0.0
 20
0.0
 30
0.0
  3
*D1
  1

  0
LINE
  5
3FC4
  8
0
  6
BYBLOCK
 62
     0
 10
3.57494
 20
4.612652
 30
0.0
 11
4.383611
 21
4.612652
 31
0.0
  0
LINE
  5
3FC5
  8
0
  6
BYBLOCK
 62
     0
 10
3.57494
 20
6.637652
 30
0.0
 11
4.383611
 21
6.637652
 31
0.0
  0
LINE
  5
3FC6
  8
0
  6
BYBLOCK
 62
     0
 10
4.196111
 20
4.800152
 30
0.0
 11
4.196111
 21
4.948069
 31
0.0
  0
LINE
  5
3FC7
  8
0
  6
BYBLOCK
 62
     0
 10
4.196111
 20
6.450152
 30
0.0
 11
4.196111
 21
6.302236
 31
0.0
  0
SOLID
  5
3FC8
  8
0
  6
BYBLOCK
 62
     0
 10
4.164861
 20
4.800152
 30
0.0
 11
4.227361
 21
4.800152
 31
0.0
 12
4.196111
 22
4.612652
 32
0.0
 13
4.196111
 23
4.612652
 33
0.0
  0
SOLID
  5
3FC9
  8
0
  6
BYBLOCK
 62
     0
 10
4.164861
 20
6.450152
 30
0.0
 11
4.227361
 21
6.450152
 31
0.0
 12
4.196111
 22
6.637652
 32
0.0
 13
4.196111
 23
6.637652
 33
0.0
  0
TEXT
  5
3FCA
  8
0
  6
BYBLOCK
 62
     0
 10
4.258611
 20
5.041819
 30
0.0
 40
0.125
  1
2 1/32 [51]
 50
90.0
  0
POINT
  5
3FCB
  8
DEFPOINTS
  6
BYBLOCK
 62
     0
 10
3.51244
 20
4.612652
 30
0.0
  0
POINT
  5
3FCC
  8
DEFPOINTS
  6
BYBLOCK
 62
     0
 10
3.51244
 20
6.637652
 30
0.0
  0
POINT
  5
3FCD
  8
DEFPOINTS
  6
BYBLOCK
 62
     0
 10
4.196111
 20
6.637652
 30
0.0
  0
ENDBLK
  5
3FCE
  8
0
  0
BLOCK
  8
0
  2
*D2
 70
     1
 10
0.0
 20
0.0
 30
0.0
  3
*D2
  1

  0
LINE
  5
3FDC
  8
0
  6
BYBLOCK
 62
     0
 10
2.792484
 20
2.83949
 30
0.0
 11
4.700948
 21
2.83949
 31
0.0
  0
LINE
  5
3FDD
  8
0
  6
BYBLOCK
 62
     0
 10
4.249359
 20
1.104073
 30
0.0
 11
4.700948
 21
1.104073
 31
0.0
  0
LINE
  5
3FDE
  8
0
  6
BYBLOCK
 62
     0
 10
4.513448
 20
3.02699
 30
0.0
 11
4.513448
 21
3.21449
 31
0.0
  0
LINE
  5
3FDF
  8
0
  6
BYBLOCK
 62
     0
 10
4.513448
 20
0.916573
 30
0.0
 11
4.513448
 21
0.729073
 31
0.0
  0
SOLID
  5
3FE0
  8
0
  6
BYBLOCK
 62
     0
 10
4.482198
 20
3.02699
 30
0.0
 11
4.544698
 21
3.02699
 31
0.0
 12
4.513448
 22
2.83949
 32
0.0
 13
4.513448
 23
2.83949
 33
0.0
  0
SOLID
  5
3FE1
  8
0
  6
BYBLOCK
 62
     0
 10
4.482198
 20
0.916573
 30
0.0
 11
4.544698
 21
0.916573
 31
0.0
 12
4.513448
 22
1.104073
 32
0.0
 13
4.513448
 23
1.104073
 33
0.0
  0
TEXT
  5
3FE2
  8
0
  6
BYBLOCK
 62
     0
 10
4.575948
 20
1.305115
 30
0.0
 40
0.125
  1
1 47/64 [44]
 50
90.0
  0
POINT
  5
3FE3
  8
DEFPOINTS
  6
BYBLOCK
 62
     0
 10
2.729984
 20
2.83949
 30
0.0
  0
POINT
  5
3FE4
  8
DEFPOINTS
  6
BYBLOCK
 62
     0
 10
4.186859
 20
1.104073
 30
0.0
  0
POINT
  5
3FE5
  8
DEFPOINTS
  6
BYBLOCK
 62
     0
 10
4.513448
 20
1.104073
 30
0.0
  0
ENDBLK
  5
3FE6
  8
0
  0
ENDSEC
  0
SECTION
  2
ENTITIES
  0
POLYLINE
  5
412E
  8
0
 66
     1
 10
0.0
 20
0.0
 30
0.0
 70
    16
 71
     6
 72
     3
  0
VERTEX
  5
412F
  8
0
 10
-0.216
 20
-1.1275
 30
1.19
 70
    64
  0
VERTEX
  5
4130
  8
0
 10
-0.216
 20
-1.1275
 30
0.395
 70
    64
  0
VERTEX
  5
4131
  8
0
 10
-0.216
 20
-1.1275
 30
0.395
 70
    64
  0
VERTEX
  5
4132
  8
0
 10
-0.216
 20
0.7725
 30
1.19
 70
    64
  0
VERTEX
  5
4133
  8
0
 10
-0.216
 20
0.7725
 30
0.395
 70
    64
  0
VERTEX
  5
4134
  8
0
 10
-0.216
 20
0.7725
 30
0.395
 70
    64
  0
VERTEX
  5
4135
  8
0
 10
0.216
 20
0.7725
 30
1.19
 70
    64
  0
VERTEX
  5
4136
  8
0
 10
0.216
 20
0.7725
 30
0.395
 70
    64
  0
VERTEX
  5
4137
  8
0
 10
-0.216
 20
0.7725
 30
0.395
 70
    64
  0
VERTEX
  5
4138
  8
0
 10
0.216
 20
-1.1275
 30
1.19
 70
    64
  0
VERTEX
  5
4139
  8
0
 10
0.216
 20
-1.1275
 30
0.395
 70
    64
  0
VERTEX
  5
413A
  8
0
 10
-0.216
 20
-1.1275
 30
0.395
 70
    64
  0
VERTEX
  5
413B
  8
0
 10
0.216
 20
-1.1275
 30
1.19
 70
    64
  0
VERTEX
  5
413C
  8
0
 10
0.216
 20
-1.1275
 30
1.19
 70
    64
  0
VERTEX
  5
413D
  8
0
 10
-0.216
 20
-1.1275
 30
1.19
 70
    64
  0
VERTEX
  5
413E
  8
0
 10
0.216
 20
0.7725
 30
1.19
 70
    64
  0
VERTEX
  5
413F
  8
0
 10
0.216
 20
0.7725
 30
1.19
 70
    64
  0
VERTEX
  5
4140
  8
0
 10
-0.216
 20
0.7725
 30
1.19
 70
    64
  0
SEQEND
  5
4141
  8
0
  0
POLYLINE
  5
4142
  8
0
 66
     1
 10
0.0
 20
0.0
 30
0.0
 70
    16
 71
     6
 72
     3
  0
VERTEX
  5
4143
  8
0
 10
1.215
 20
-1.215
 30
0.325
 70
    64
  0
VERTEX
  5
4144
  8
0
 10
1.215
 20
-1.215
 30
0.0
 70
    64
  0
VERTEX
  5
4145
  8
0
 10
1.215
 20
-1.215
 30
0.0
 70
    64
  0
VERTEX
  5
4146
  8
0
 10
-1.215
 20
-1.215
 30
0.325
 70
    64
  0
VERTEX
  5
4147
  8
0
 10
-1.215
 20
-1.215
 30
0.0
 70
    64
  0
VERTEX
  5
4148
  8
0
 10
-1.215
 20
-1.215
 30
0.0
 70
    64
  0
VERTEX
  5
4149
  8
0
 10
-1.215
 20
1.215
 30
0.325
 70
    64
  0
VERTEX
  5
414A
  8
0
 10
-1.215
 20
1.215
 30
0.0
 70
    64
  0
VERTEX
  5
414B
  8
0
 10
-1.215
 20
-1.215
 30
0.0
 70
    64
  0
VERTEX
  5
414C
  8
0
 10
1.215
 20
1.215
 30
0.325
 70
    64
  0
VERTEX
  5
414D
  8
0
 10
1.215
 20
1.215
 30
0.0
 70
    64
  0
VERTEX
  5
414E
  8
0
 10
1.215
 20
-1.215
 30
0.0
 70
    64
  0
VERTEX
  5
414F
  8
0
 10
1.215
 20
1.215
 30
0.325
 70
    64
  0
VERTEX
  5
4150
  8
0
 10
1.215
 20
1.215
 30
0.325
 70
    64
  0
VERTEX
  5
4151
  8
0
 10
1.215
 20
-1.215
 30
0.325
 70
    64
  0
VERTEX
  5
4152
  8
0
 10
-1.215
 20
1.215
 30
0.325
 70
    64
  0
VERTEX
  5
4153
  8
0
 10
-1.215
 20
1.215
 30
0.325
 70
    64
  0
VERTEX
  5
4154
  8
0
 10
-1.215
 20
-1.215
 30
0.325
 70
    64
  0
SEQEND
  5
4155
  8
0
  0
ARC
  5
4156
  8
0
 39
0.15
 10
0.0
 20
0.0
 30
0.395
 40
0.5575
 50
292.795547
 51
67.204453
  0
LINE
  5
4157
  8
0
 10
0.216
 20
-0.513955
 30
0.545
 11
0.216
 21
0.513955
 31
0.545
  0
ARC
  5
4158
  8
0
 39
0.15
 10
0.0
 20
0.0
 30
0.395
 40
0.5575
 50
112.795547
 51
247.204453
  0
LINE
  5
4159
  8
0
 10
-0.216
 20
0.513955
 30
0.545
 11
-0.216
 21
-0.513955
 31
0.545
  0
CIRCLE
  5
415A
  8
0
 10
0.0
 20
0.0
 30
0.545
 40
0.5575
  0
LINE
  5
415B
  8
0
 10
0.03
 20
0.7725
 30
1.19
 11
0.03
 21
0.4505
 31
1.19
  0
LINE
  5
415C
  8
0
 10
-0.03
 20
0.7725
 30
1.19
 11
-0.03
 21
0.4505
 31
1.19
  0
LINE
  5
415D
  8
0
 10
0.03
 20
0.4505
 30
1.19
 11
-0.03
 21
0.4505
 31
1.19
  0
POINT
  5
415E
  8
DIMS-MTG-HOLES
 10
0.0
 20
0.0
 30
0.0
  0
TEXT
  5
415F
  8
0
 10
0.514318
 20
0.573063
 30
0.325
 40
0.15
  1
3
  0
TEXT
  5
4160
  8
0
 10
-0.757568
 20
0.573063
 30
0.325
 40
0.15
  1
2
  0
TEXT
  5
4161
  8
0
 10
-1.093386
 20
-0.063353
 30
0.325
 40
0.15
  1
1
  0
TEXT
  5
4162
  8
0
 10
0.990055
 20
-0.063353
 30
0.325
 40
0.15
  1
4
  0
TEXT
  5
4163
  8
0
 10
-0.757568
 20
-0.733985
 30
0.325
 40
0.15
  1
6
  0
TEXT
  5
4164
  8
0
 10
0.514318
 20
-0.733985
 30
0.325
 40
0.15
  1
5
  0
VIEWPORT
  5
22E
 67
     1
  8
0
 10
5.000031
 20
4.5277
 30
0.0
 40
16.56497
 41
9.181171
 68
     1
 69
     1
1001
ACAD
1000
MVIEW
1002
{
1070
    16
1010
0.0
1020
0.0
1030
0.0
1010
0.0
1020
0.0
1030
1.0
1040
0.0
1040
9.181171
1040
5.000031
1040
4.5277
1040
50.0
1040
0.0
1040
0.0
1070
     0
1070
   100
1070
     1
1070
     0
1070
     0
1070
     0
1070
     0
1070
     0
1040
0.0
1040
0.0
1040
0.0
1040
1.0
1040
1.0
1040
0.0
1040
0.0
1070
     0
1002
{
1002
}
1002
}
  0
VIEWPORT
  5
22F
 67
     1
  8
0
 10
2.5
 20
5.625
 30
0.0
 40
5.0
 41
3.75
 68
    -1
 69
     2
1001
ACAD
1000
MVIEW
1002
{
1070
    16
1010
0.0
1020
0.0
1030
0.0
1010
0.0
1020
0.0
1030
1.0
1040
0.0
1040
4.5
1040
0.000071
1040
-0.000183
1040
50.0
1040
0.0
1040
0.0
1070
     0
1070
   100
1070
     1
1070
     0
1070
     0
1070
     0
1070
     0
1070
     0
1040
0.0
1040
0.0
1040
0.0
1040
1.0
1040
1.0
1040
0.0
1040
0.0
1070
     0
1002
{
1003
AREA2
1002
}
1002
}
  0
VIEWPORT
  5
230
 67
     1
  8
0
 10
2.5
 20
1.875
 30
0.0
 40
5.0
 41
3.75
 68
     2
 69
     3
1001
ACAD
1000
MVIEW
1002
{
1070
    16
1010
0.0
1020
0.0
1030
0.0
1010
0.0
1020
-1.0
1030
0.0
1040
0.0
1040
2.571429
1040
0.058297
1040
0.528635
1040
50.0
1040
0.0
1040
0.0
1070
     0
1070
   100
1070
     1
1070
     0
1070
     0
1070
     0
1070
     0
1070
     0
1040
0.0
1040
0.0
1040
0.0
1040
1.0
1040
1.0
1040
0.0
1040
0.0
1070
     0
1002
{
1003
AREA1
1003
UL-DIMS
1002
}
1002
}
  0
VIEWPORT
  5
231
 67
     1
  8
0
 10
7.5
 20
3.75
 30
0.0
 40
5.0
 41
7.5
 68
     3
 69
     4
1001
ACAD
1000
MVIEW
1002
{
1070
    16
1010
0.0
1020
0.0
1030
0.0
1010
-0.61
1020
-0.61
1030
0.5
1040
0.0
1040
5.285494
1040
0.0
1040
0.514784
1040
50.0
1040
0.0
1040
0.0
1070
     0
1070
   100
1070
     1
1070
     0
1070
     0
1070
     0
1070
     0
1070
     0
1040
0.0
1040
0.0
1040
0.0
1040
1.0
1040
1.0
1040
0.0
1040
0.0
1070
     0
1002
{
1003
AREA1
1003
AREA2
1003
UL-DIMS
1002
}
1002
}
  0
TEXT
  5
232
 67
     1
  8
0
 10
5.197485
 20
7.078068
 30
0.0
 40
0.2
  1
194L-HE6A-453
  0
DIMENSION
  5
2F0A
 67
     1
  8
0
  2
*D0
 10
3.51244
 20
7.066514
 30
0.0
 11
2.49994
 21
7.066514
 31
0.0
 13
1.48744
 23
6.637652
 33
0.0
 14
3.51244
 24
6.637652
 34
0.0
1001
ACAD
1000
DSTYLE
1002
{
1070
    78
1070
     4
1070
   270
1070
     7
1070
   140
1040
0.125
1070
   174
1070
     1
1070
    73
1070
     0
1070
   146
1040
1.5
1070
   147
1040
0.09375
1070
    44
1040
0.1875
1070
    43
1040
0.375
1070
   141
1040
0.09375
1070
    41
1040
0.1875
1070
   171
1070
     0
1070
   170
1070
     1
1002
}
  0
DIMENSION
  5
2F18
 67
     1
  8
0
  2
*D1
 10
4.196111
 20
6.637652
 30
0.0
 11
4.196111
 21
5.625152
 31
0.0
 13
3.51244
 23
4.612652
 33
0.0
 14
3.51244
 24
6.637652
 34
0.0
 50
90.0
1001
ACAD
1000
DSTYLE
1002
{
1070
    78
1070
     4
1070
   270
1070
     7
1070
   140
1040
0.125
1070
   174
1070
     1
1070
    73
1070
     0
1070
   146
1040
1.5
1070
   147
1040
0.09375
1070
    44
1040
0.1875
1070
    43
1040
0.375
1070
   141
1040
0.09375
1070
    41
1040
0.1875
1070
   171
1070
     0
1070
   170
1070
     1
1002
}
  0
DIMENSION
  5
2F26
 67
     1
  8
0
  2
*D2
 10
4.513448
 20
1.104073
 30
0.0
 11
4.513448
 21
1.971782
 31
0.0
 13
2.729984
 23
2.83949
 33
0.0
 14
4.186859
 24
1.104073
 34
0.0
 50
90.0
1001
ACAD
1000
DSTYLE
1002
{
1070
    78
1070
     4
1070
   270
1070
     7
1070
   140
1040
0.125
1070
   174
1070
     1
1070
    73
1070
     0
1070
   146
1040
1.5
1070
   147
1040
0.09375
1070
    44
1040
0.1875
1070
    43
1040
0.375
1070
   141
1040
0.09375
1070
    41
1040
0.1875
1070
   171
1070
     0
1070
   170
1070
     1
1002
}
  0
ENDSEC
  0
EOF
