  0
SECTION
  2
HEADER
  9
$ACADVER
  1
AC1015
  9
$ACADMAINTVER
 70
    20
  9
$DWGCODEPAGE
  3
ANSI_1252
  9
$INSBASE
 10
0.0
 20
0.0
 30
0.0
  9
$EXTMIN
 10
223.2396588773627
 20
-217.381406852518
 30
-0.0000000000000151
  9
$EXTMAX
 10
835.4762151907852
 20
131.8787841783469
 30
0.0000000000000155
  9
$LIMMIN
 10
742.6081477152474
 20
77.00514986831695
  9
$LIMMAX
 10
2002.608147715247
 20
968.0051498683171
  9
$ORTHOMODE
 70
     0
  9
$REGENMODE
 70
     1
  9
$FILLMODE
 70
     1
  9
$QTEXTMODE
 70
     0
  9
$MIRRTEXT
 70
     1
  9
$LTSCALE
 40
3.0
  9
$ATTMODE
 70
     1
  9
$TEXTSIZE
 40
0.2
  9
$TRACEWID
 40
0.05
  9
$TEXTSTYLE
  7
Standard
  9
$CLAYER
  8
0
  9
$CELTYPE
  6
ByLayer
  9
$CECOLOR
 62
   256
  9
$CELTSCALE
 40
1.0
  9
$DISPSILH
 70
     0
  9
$DIMSCALE
 40
3.0
  9
$DIMASZ
 40
2.5
  9
$DIMEXO
 40
1.0
  9
$DIMDLI
 40
10.0
  9
$DIMRND
 40
0.0
  9
$DIMDLE
 40
0.0
  9
$DIMEXE
 40
1.0
  9
$DIMTP
 40
0.1
  9
$DIMTM
 40
0.1
  9
$DIMTXT
 40
3.5
  9
$DIMCEN
 40
0.0
  9
$DIMTSZ
 40
0.0
  9
$DIMTOL
 70
     0
  9
$DIMLIM
 70
     0
  9
$DIMTIH
 70
     0
  9
$DIMTOH
 70
     0
  9
$DIMSE1
 70
     0
  9
$DIMSE2
 70
     0
  9
$DIMTAD
 70
     1
  9
$DIMZIN
 70
     8
  9
$DIMBLK
  1

  9
$DIMASO
 70
     1
  9
$DIMSHO
 70
     1
  9
$DIMPOST
  1

  9
$DIMAPOST
  1
"
  9
$DIMALT
 70
     0
  9
$DIMALTD
 70
     2
  9
$DIMALTF
 40
0.0393701
  9
$DIMLFAC
 40
1.0
  9
$DIMTOFL
 70
     1
  9
$DIMTVP
 40
0.0
  9
$DIMTIX
 70
     0
  9
$DIMSOXD
 70
     0
  9
$DIMSAH
 70
     0
  9
$DIMBLK1
  1

  9
$DIMBLK2
  1

  9
$DIMSTYLE
  2
AM_ISO
  9
$DIMCLRD
 70
   256
  9
$DIMCLRE
 70
   256
  9
$DIMCLRT
 70
     2
  9
$DIMTFAC
 40
0.71
  9
$DIMGAP
 40
1.5
  9
$DIMJUST
 70
     0
  9
$DIMSD1
 70
     0
  9
$DIMSD2
 70
     0
  9
$DIMTOLJ
 70
     0
  9
$DIMTZIN
 70
     0
  9
$DIMALTZ
 70
     0
  9
$DIMALTTZ
 70
     0
  9
$DIMUPT
 70
     0
  9
$DIMDEC
 70
     1
  9
$DIMTDEC
 70
     3
  9
$DIMALTU
 70
     2
  9
$DIMALTTD
 70
     4
  9
$DIMTXSTY
  7
Standard
  9
$DIMAUNIT
 70
     0
  9
$DIMADEC
 70
     0
  9
$DIMALTRND
 40
0.0
  9
$DIMAZIN
 70
     2
  9
$DIMDSEP
 70
    46
  9
$DIMATFIT
 70
     3
  9
$DIMFRAC
 70
     0
  9
$DIMLDRBLK
  1

  9
$DIMLUNIT
 70
     2
  9
$DIMLWD
 70
    -1
  9
$DIMLWE
 70
    -1
  9
$DIMTMOVE
 70
     0
  9
$LUNITS
 70
     2
  9
$LUPREC
 70
     4
  9
$SKETCHINC
 40
0.1
  9
$FILLETRAD
 40
1.5
  9
$AUNITS
 70
     0
  9
$AUPREC
 70
     0
  9
$MENU
  1
.
  9
$ELEVATION
 40
0.0
  9
$PELEVATION
 40
0.0
  9
$THICKNESS
 40
0.0
  9
$LIMCHECK
 70
     0
  9
$CHAMFERA
 40
1.5
  9
$CHAMFERB
 40
1.5
  9
$CHAMFERC
 40
1.0
  9
$CHAMFERD
 40
0.0
  9
$SKPOLY
 70
     0
  9
$TDCREATE
 40
2453349.612755093
  9
$TDUCREATE
 40
2453349.529421759
  9
$TDUPDATE
 40
2453503.405276227
  9
$TDUUPDATE
 40
2453503.321942893
  9
$TDINDWG
 40
0.1672098495
  9
$TDUSRTIMER
 40
0.1672094907
  9
$USRTIMER
 70
     1
  9
$ANGBASE
 50
0.0
  9
$ANGDIR
 70
     0
  9
$PDMODE
 70
    35
  9
$PDSIZE
 40
-3.0
  9
$PLINEWID
 40
0.0
  9
$SPLFRAME
 70
     0
  9
$SPLINETYPE
 70
     6
  9
$SPLINESEGS
 70
     8
  9
$HANDSEED
  5
C19E
  9
$SURFTAB1
 70
     6
  9
$SURFTAB2
 70
     6
  9
$SURFTYPE
 70
     6
  9
$SURFU
 70
     6
  9
$SURFV
 70
     6
  9
$UCSBASE
  2

  9
$UCSNAME
  2

  9
$UCSORG
 10
0.0
 20
0.0
 30
0.0
  9
$UCSXDIR
 10
1.0
 20
0.0
 30
0.0
  9
$UCSYDIR
 10
0.0
 20
1.0
 30
0.0
  9
$UCSORTHOREF
  2

  9
$UCSORTHOVIEW
 70
     0
  9
$UCSORGTOP
 10
0.0
 20
0.0
 30
0.0
  9
$UCSORGBOTTOM
 10
0.0
 20
0.0
 30
0.0
  9
$UCSORGLEFT
 10
0.0
 20
0.0
 30
0.0
  9
$UCSORGRIGHT
 10
0.0
 20
0.0
 30
0.0
  9
$UCSORGFRONT
 10
0.0
 20
0.0
 30
0.0
  9
$UCSORGBACK
 10
0.0
 20
0.0
 30
0.0
  9
$PUCSBASE
  2

  9
$PUCSNAME
  2

  9
$PUCSORG
 10
0.0
 20
0.0
 30
0.0
  9
$PUCSXDIR
 10
1.0
 20
0.0
 30
0.0
  9
$PUCSYDIR
 10
0.0
 20
1.0
 30
0.0
  9
$PUCSORTHOREF
  2

  9
$PUCSORTHOVIEW
 70
     0
  9
$PUCSORGTOP
 10
0.0
 20
0.0
 30
0.0
  9
$PUCSORGBOTTOM
 10
0.0
 20
0.0
 30
0.0
  9
$PUCSORGLEFT
 10
0.0
 20
0.0
 30
0.0
  9
$PUCSORGRIGHT
 10
0.0
 20
0.0
 30
0.0
  9
$PUCSORGFRONT
 10
0.0
 20
0.0
 30
0.0
  9
$PUCSORGBACK
 10
0.0
 20
0.0
 30
0.0
  9
$USERI1
 70
     0
  9
$USERI2
 70
     0
  9
$USERI3
 70
     0
  9
$USERI4
 70
     0
  9
$USERI5
 70
     0
  9
$USERR1
 40
0.0
  9
$USERR2
 40
0.0
  9
$USERR3
 40
0.0
  9
$USERR4
 40
0.0
  9
$USERR5
 40
0.0
  9
$WORLDVIEW
 70
     1
  9
$SHADEDGE
 70
     3
  9
$SHADEDIF
 70
    70
  9
$TILEMODE
 70
     1
  9
$MAXACTVP
 70
    64
  9
$PINSBASE
 10
0.0
 20
0.0
 30
0.0
  9
$PLIMCHECK
 70
     0
  9
$PEXTMIN
 10
0.0003713471514857
 20
0.0025965273003976
 30
0.0
  9
$PEXTMAX
 10
410.8932691974858
 20
290.5625742928941
 30
0.0
  9
$PLIMMIN
 10
-3.17498779296875
 20
-3.174999952316284
  9
$PLIMMAX
 10
416.9833374023437
 20
293.8780090808868
  9
$UNITMODE
 70
     0
  9
$VISRETAIN
 70
     1
  9
$PLINEGEN
 70
     0
  9
$PSLTSCALE
 70
     1
  9
$TREEDEPTH
 70
  3020
  9
$CMLSTYLE
  2
Standard
  9
$CMLJUST
 70
     0
  9
$CMLSCALE
 40
1.0
  9
$PROXYGRAPHICS
 70
     1
  9
$MEASUREMENT
 70
     1
  9
$CELWEIGHT
370
    -1
  9
$ENDCAPS
280
     0
  9
$JOINSTYLE
280
     0
  9
$LWDISPLAY
290
     0
  9
$INSUNITS
 70
     4
  9
$HYPERLINKBASE
  1

  9
$STYLESHEET
  1

  9
$XEDIT
290
     1
  9
$CEPSNTYPE
380
     0
  9
$PSTYLEMODE
290
     1
  9
$FINGERPRINTGUID
  2
{FDEAD576-A652-11D2-9A35-0060089B3A3F}
  9
$VERSIONGUID
  2
{E8D25508-87EC-4C35-9AFE-DEE62B968377}
  9
$EXTNAMES
290
     1
  9
$PSVPSCALE
 40
0.0
  9
$OLESTARTUP
290
     0
  0
ENDSEC
  0
SECTION
  2
CLASSES
  0
CLASS
  1
ACDBDICTIONARYWDFLT
  2
AcDbDictionaryWithDefault
  3
ObjectDBX Classes
 90
        0
280
     0
281
     0
  0
CLASS
  1
ACDBPLACEHOLDER
  2
AcDbPlaceHolder
  3
ObjectDBX Classes
 90
        0
280
     0
281
     0
  0
CLASS
  1
LAYOUT
  2
AcDbLayout
  3
ObjectDBX Classes
 90
        0
280
     0
281
     0
  0
CLASS
  1
ACME_DOCUMENT
  2
AcMeDbDoc
  3
AcMeServices
 90
        0
280
     0
281
     0
  0
CLASS
  1
AMGSETTINGSOBJ
  2
AmgSettingsObj
  3
"AcadM|Product Description: AutoCAD Mechanical 2000|Company: Autodesk"
 90
        0
280
     0
281
     0
  0
CLASS
  1
ACMESCOPE
  2
AcMeScope
  3
AcMeServices
 90
        0
280
     0
281
     0
  0
CLASS
  1
ACMECOMMANDHISTORY
  2
AcMeCommandHistory
  3
AcMeServices
 90
        0
280
     0
281
     0
  0
CLASS
  1
DICTIONARYVAR
  2
AcDbDictionaryVar
  3
ObjectDBX Classes
 90
        0
280
     0
281
     0
  0
CLASS
  1
ACIMSYSVARMAN
  2
AcImSysVarManager
  3
AcMeServices
 90
        0
280
     0
281
     0
  0
CLASS
  1
ACIMREALSYSVAR
  2
AcImRealSysVar
  3
AcMeServices
 90
        0
280
     0
281
     0
  0
CLASS
  1
ACIMINTSYSVAR
  2
AcImIntSysVar
  3
AcMeServices
 90
        0
280
     0
281
     0
  0
CLASS
  1
ACMEDRAWINGMAN
  2
AcMeDrawingMan
  3
AcMeServices
 90
        0
280
     0
281
     0
  0
CLASS
  1
ACMEVIEW
  2
AcMeView
  3
AcMeServices
 90
        0
280
     0
281
     0
  0
CLASS
  1
ACDBENTITYCACHE
  2
AcMeEntityCache
  3
AcMeServices
 90
        0
280
     0
281
     0
  0
CLASS
  1
GSMANAGER
  2
AcMeGSManager
  3
AcMeServices
 90
        0
280
     0
281
     0
  0
CLASS
  1
AMDTINTERNALREACTOR
  2
AmdtInternalReactor
  3
AcMeServices
 90
        0
280
     0
281
     0
  0
CLASS
  1
ACMESTATEMGR
  2
AcMeStateMgr
  3
AcMeServices
 90
        0
280
     0
281
     0
  0
CLASS
  1
ACME_DATABASE
  2
AcMeDbDatabase
  3
AcMeServices
 90
        0
280
     0
281
     0
  0
CLASS
  1
ACRFINSADJUSTERMGR
  2
AcRfInsAdjusterMgr
  3
AcMeServices
 90
        0
280
     0
281
     0
  0
CLASS
  1
ACMDATADICTIONARY
  2
AcmDataDictionary
  3
"AcmSymBB|Product Description: AutoCAD Mechanical 2004|Company: Autodesk"
 90
        0
280
     0
281
     0
  0
CLASS
  1
ACMDATAENTRYBLOCK
  2
AcmDataEntryBlock
  3
"AcmSymBB|Product Description: AutoCAD Mechanical 2004|Company: Autodesk"
 90
        0
280
     0
281
     0
  0
CLASS
  1
AMGOBJPROPCFG
  2
AmgObjPropCfg
  3
"AmgLay|Product Description: AutoCAD Mechanical 2000|Company: Autodesk"
 90
        1
280
     0
281
     0
  0
CLASS
  1
ACIMSTRSYSVAR
  2
AcImStrSysVar
  3
AcMeServices
 90
        0
280
     0
281
     0
  0
CLASS
  1
LAYER_INDEX
  2
AcDbLayerIndex
  3
ObjectDBX Classes
 90
        0
280
     0
281
     0
  0
CLASS
  1
IDBUFFER
  2
AcDbIdBuffer
  3
ObjectDBX Classes
 90
        0
280
     0
281
     0
  0
CLASS
  1
ACAMGFILTERDAT
  2
AcAmgFilterDat
  3
"AcadM|Product Description: AutoCAD Mechanical 2000|Company: Autodesk"
 90
        0
280
     0
281
     0
  0
CLASS
  1
AMLOADER
  2
AMLoader
  3
AMAcad
 90
        0
280
     0
281
     0
  0
CLASS
  1
ACGREFMASTER
  2
AcGrefMaster
  3
AcAttribServices
 90
        0
280
     0
281
     0
  0
CLASS
  1
AM_DRAWING_MGR
  2
AcDmDwgMgr
  3
AcMechDwgViewMgmt
 90
        0
280
     0
281
     0
  0
CLASS
  1
AM_DWG_DOCUMENT
  2
AcDmDwgDocument
  3
AcMechDwgViewMgmt
 90
        0
280
     0
281
     0
  0
CLASS
  1
AM_DWG_SHEET
  2
AcDmSheet
  3
AcMechDwgViewMgmt
 90
        0
280
     0
281
     0
  0
CLASS
  1
AM_VIEWDIMPARMAP
  2
AcDmViewDimParMap
  3
AcMechDwgViewMgmt
 90
        0
280
     0
281
     0
  0
CLASS
  1
AM_DWGMGR_NAME
  2
AcDmDwgMgrName
  3
AcMechDwgViewMgmt
 90
        0
280
     0
281
     0
  0
CLASS
  1
ACGREFACADMASTER
  2
AcGrefacadMaster
  3
AcGrefServices
 90
        0
280
     0
281
     0
  0
CLASS
  1
AMDTMENUSTATEMGR
  2
AmdtMenuStateMgr
  3
McadcomServices
 90
        0
280
     0
281
     0
  0
CLASS
  1
AMDTMCOMMENUSTATE
  2
AmdtMcomMenuState
  3
McadcomServices
 90
        0
280
     0
281
     0
  0
CLASS
  1
AMIMASTER
  2
AmiMaster
  3
AmiServices
 90
        0
280
     0
281
     0
  0
CLASS
  1
MAPIAMMOUDLE
  2
MApiAmModule
  3
MApiAmServices
 90
        0
280
     0
281
     0
  0
CLASS
  1
AMDTADMENUSTATE
  2
AmdtAdMenuState
  3
DesignerServices
 90
        0
280
     0
281
     0
  0
CLASS
  1
ADAPPL
  2
AcAdAppl
  3
DesignerServices
 90
        0
280
     0
281
     0
  0
CLASS
  1
DEPMGR
  2
AcAdDepMgr
  3
DesignerServices
 90
        0
280
     0
281
     0
  0
CLASS
  1
PARAMMGR
  2
AcAdParamMgr
  3
DesignerServices
 90
        0
280
     0
281
     0
  0
CLASS
  1
PARAMSCOPE
  2
AcAdParamScope
  3
DesignerServices
 90
        0
280
     0
281
     0
  0
CLASS
  1
NAMEDAPPL
  2
AcAdNamedAppl
  3
DesignerServices
 90
        0
280
     0
281
     0
  0
CLASS
  1
AMDTDMMENUSTATE
  2
AmdtDmMenuState
  3
AcMechDwgViewMgmt
 90
        0
280
     0
281
     0
  0
CLASS
  1
AMDTAMMENUSTATE
  2
AmdtAmMenuState
  3
DesignerAssemblies
 90
        0
280
     0
281
     0
  0
CLASS
  1
ACAMPROJECT
  2
AcAmProject
  3
DesignerAssemblies
 90
        0
280
     0
281
     0
  0
CLASS
  1
ACAMGRCOMPDEF
  2
AcAmGrCompDef
  3
DesignerAssemblies
 90
        0
280
     0
281
     0
  0
CLASS
  1
ACCMCONTEXT
  2
AcCmContext
  3
DesignerAssemblies
 90
        0
280
     0
281
     0
  0
CLASS
  1
ACAMCOMPDEF
  2
AcAmCompDef
  3
DesignerAssemblies
 90
        0
280
     0
281
     0
  0
CLASS
  1
ACAMCOMPDEFMGR
  2
AcAmCompDefMgr
  3
DesignerAssemblies
 90
        0
280
     0
281
     0
  0
CLASS
  1
AMCONTEXTMGR
  2
AcAmContextMgr
  3
DesignerAssemblies
 90
        0
280
     0
281
     0
  0
CLASS
  1
ACAMCONTEXTMODELER
  2
AcAmContextModeler
  3
DesignerAssemblies
 90
        0
280
     0
281
     0
  0
CLASS
  1
CATALOGSTATE
  2
AcAmCatalogState
  3
DesignerAssemblies
 90
        0
280
     0
281
     0
  0
CLASS
  1
ACAMGRCOMPDEFSET
  2
AcAmGrCompDefSet
  3
DesignerAssemblies
 90
        0
280
     0
281
     0
  0
CLASS
  1
AMDTBROWSERDBTAB
  2
AmdtBrowserDbTab
  3
McadcomServices
 90
        0
280
     0
281
     0
  0
CLASS
  1
CBROWSERAPPOBJECT
  2
CBrowserAppObject
  3
McadcomServices
 90
        0
280
     0
281
     0
  0
CLASS
  1
DM_PLACEHOLDER
  2
AcDmSelsetPlaceholder
  3
AcMechDwgViewMgmt
 90
        0
280
     0
281
     0
  0
CLASS
  1
ACMSTANDARDISO
  2
AcmStandardISO
  3
"Amdt_StdImp|Product Description: AutoCAD Mechanical 2004|Company: Autodesk"
 90
        0
280
     0
281
     0
  0
CLASS
  1
AMDTEDGESTANDARDISO
  2
AmdtEdgeStdISO
  3
"Amdt_StdImp|Product Description: AutoCAD Mechanical 2004|Company: Autodesk"
 90
        0
280
     0
281
     0
  0
CLASS
  1
ACMSURFSTANDARDISO
  2
AcmSurfTextStdISO
  3
"Amdt_StdImp|Product Description: AutoCAD Mechanical 2004|Company: Autodesk"
 90
        0
280
     0
281
     0
  0
CLASS
  1
ACMFCFSTANDARDISO
  2
AcmFCFStdISO
  3
"Amdt_StdImp|Product Description: AutoCAD Mechanical 2004|Company: Autodesk"
 90
        0
280
     0
281
     0
  0
CLASS
  1
ACMWELDSTANDARDISO
  2
AcmWeldingStdISO
  3
"Amdt_StdImp|Product Description: AutoCAD Mechanical 2004|Company: Autodesk"
 90
        0
280
     0
281
     0
  0
CLASS
  1
ACMIDSTANDARDISO
  2
AcmIdStdISO
  3
"Amdt_StdImp|Product Description: AutoCAD Mechanical 2004|Company: Autodesk"
 90
        0
280
     0
281
     0
  0
CLASS
  1
ACMDATUMSTANDARDISO
  2
AcmDatumStdISO
  3
"Amdt_StdImp|Product Description: AutoCAD Mechanical 2004|Company: Autodesk"
 90
        0
280
     0
281
     0
  0
CLASS
  1
ACMBOMSTANDARDISO
  2
AcmBOMStdISO
  3
"Amdt_StdImp|Product Description: AutoCAD Mechanical 2004|Company: Autodesk"
 90
        0
280
     0
281
     0
  0
CLASS
  1
ACMDETAILSTANDARDISO
  2
AmdtDetailSymStdISO
  3
"Amdt_StdImp|Product Description: AutoCAD Mechanical 2004|Company: Autodesk"
 90
        0
280
     0
281
     0
  0
CLASS
  1
ACMSECTIONSTANDARDISO
  2
AmdtSectionSymStdISO
  3
"Amdt_StdImp|Product Description: AutoCAD Mechanical 2004|Company: Autodesk"
 90
        0
280
     0
281
     0
  0
CLASS
  1
ACMCENTERLINESTANDARDISO
  2
AmdtCenterLineStdISO
  3
"Amdt_StdImp|Product Description: AutoCAD Mechanical 2004|Company: Autodesk"
 90
        0
280
     0
281
     0
  0
CLASS
  1
ACMTHREADLINESTANDARDISO
  2
AmdtThreadLineStdISO
  3
"Amdt_StdImp|Product Description: AutoCAD Mechanical 2004|Company: Autodesk"
 90
        0
280
     0
281
     0
  0
CLASS
  1
ACMNOTESTANDARDISO
  2
AmdtNoteStdISO
  3
"Amdt_StdImp|Product Description: AutoCAD Mechanical 2004|Company: Autodesk"
 90
        0
280
     0
281
     0
  0
CLASS
  1
AMDTNOTETEMPLATEDB
  2
AmdtNoteTemplateDB
  3
AMDT_STDIMP_MODULE_NAME
 90
        0
280
     0
281
     0
  0
CLASS
  1
ACAMGLAYSTD
  2
AcAmgLayStd
  3
"AcAmgLayStd|Product Description: AutoCAD Mechanical 2000|Company: Autodesk"
 90
        0
280
     0
281
     0
  0
CLASS
  1
ACAMGDIMSTD
  2
AcAmgDimStd
  3
"AcAmgDimStd|Product Description: AutoCAD Mechanical 2000|Company: Autodesk"
 90
        0
280
     0
281
     0
  0
CLASS
  1
ACAMGHOLECHARTSTDISO
  2
AcAmgHoleChartStdISO
  3
ACMSYMBB_MODULE_NAME
 90
        0
280
     0
281
     0
  0
CLASS
  1
ACAMGTITLESTD
  2
AcAmgTitleStd
  3
"TITLEAPP"
 90
        0
280
     0
281
     0
  0
CLASS
  1
ACMBOM
  2
AcmBom
  3
"AcmSymBB|Product Description: AutoCAD Mechanical 2004|Company: Autodesk"
 90
        0
280
     0
281
     0
  0
CLASS
  1
AMDTFORMULAUPDATEDISPATCHER
  2
AmdtFormulaUpdateDispatcher
  3
AcMeServices
 90
        0
280
     0
281
     0
  0
CLASS
  1
ACMDATAENTRYPART
  2
AcmDataEntryPart
  3
"AcmSymBB|Product Description: AutoCAD Mechanical 2004|Company: Autodesk"
 90
    32768
280
     0
281
     0
  0
CLASS
  1
ACMPARTREF
  2
AcmPartRef
  3
"AcmSymBB|Product Description: AutoCAD Mechanical 2004|Company: Autodesk"
 90
    33791
280
     0
281
     1
  0
CLASS
  1
ACMBOMROW
  2
AcmBomRow
  3
"AcmSymBB|Product Description: AutoCAD Mechanical 2004|Company: Autodesk"
 90
    32768
280
     0
281
     0
  0
CLASS
  1
ACMBALLOON
  2
AcmBalloon
  3
"AcmSymBB|Product Description: AutoCAD Mechanical 2004|Company: Autodesk"
 90
    33791
280
     0
281
     1
  0
CLASS
  1
ACMPARTLIST
  2
AcmPartList
  3
"AcmSymBB|Product Description: AutoCAD Mechanical 2004|Company: Autodesk"
 90
    33791
280
     0
281
     1
  0
CLASS
  1
ACDBLINERES
  2
AcDbLineRes
  3
AcGrefServices
 90
    32768
280
     0
281
     0
  0
CLASS
  1
ACRFINSADJ
  2
AcRfInsAdjuster
  3
AcMeServices
 90
    32768
280
     0
281
     0
  0
CLASS
  1
ACMPICKOBJ
  2
AcmPickEnt
  3
"AcmSymBB|Product Description: AutoCAD Mechanical 2004|Company: Autodesk"
 90
    32768
280
     0
281
     1
  0
CLASS
  1
ACMSTANDARDANSI
  2
AcmStandardANSI
  3
"Amdt_StdImp|Product Description: AutoCAD Mechanical 2004|Company: Autodesk"
 90
        0
280
     0
281
     0
  0
CLASS
  1
ACMSURFSTANDARDANSI
  2
AcmSurfTextStdANSI
  3
"Amdt_StdImp|Product Description: AutoCAD Mechanical 2004|Company: Autodesk"
 90
        0
280
     0
281
     0
  0
CLASS
  1
ACMFCFSTANDARDANSI
  2
AcmFCFStdANSI
  3
"Amdt_StdImp|Product Description: AutoCAD Mechanical 2004|Company: Autodesk"
 90
        0
280
     0
281
     0
  0
CLASS
  1
ACMWELDSTANDARDANSI
  2
AcmWeldingStdANSI
  3
"Amdt_StdImp|Product Description: AutoCAD Mechanical 2004|Company: Autodesk"
 90
        0
280
     0
281
     0
  0
CLASS
  1
ACMIDSTANDARDANSI
  2
AcmIdStdANSI
  3
"Amdt_StdImp|Product Description: AutoCAD Mechanical 2004|Company: Autodesk"
 90
        0
280
     0
281
     0
  0
CLASS
  1
ACMDATUMSTANDARDANSI
  2
AcmDatumStdANSI
  3
"Amdt_StdImp|Product Description: AutoCAD Mechanical 2004|Company: Autodesk"
 90
        0
280
     0
281
     0
  0
CLASS
  1
ACMBOMSTANDARDANSI
  2
AcmBOMStdANSI
  3
"Amdt_StdImp|Product Description: AutoCAD Mechanical 2004|Company: Autodesk"
 90
        0
280
     0
281
     0
  0
CLASS
  1
ACMDETAILSTANDARDANSI
  2
AmdtDetailSymStdANSI
  3
"Amdt_StdImp|Product Description: AutoCAD Mechanical 2004|Company: Autodesk"
 90
        0
280
     0
281
     0
  0
CLASS
  1
ACMSECTIONSTANDARDANSI
  2
AmdtSectionSymStdANSI
  3
"Amdt_StdImp|Product Description: AutoCAD Mechanical 2004|Company: Autodesk"
 90
        0
280
     0
281
     0
  0
CLASS
  1
ACMCENTERLINESTANDARDANSI
  2
AmdtCenterLineStdANSI
  3
"Amdt_StdImp|Product Description: AutoCAD Mechanical 2004|Company: Autodesk"
 90
        0
280
     0
281
     0
  0
CLASS
  1
ACMTHREADLINESTANDARDANSI
  2
AmdtThreadLineStdANSI
  3
"Amdt_StdImp|Product Description: AutoCAD Mechanical 2004|Company: Autodesk"
 90
        0
280
     0
281
     0
  0
CLASS
  1
ACMNOTESTANDARDANSI
  2
AmdtNoteStdANSI
  3
"Amdt_StdImp|Product Description: AutoCAD Mechanical 2004|Company: Autodesk"
 90
        0
280
     0
281
     0
  0
CLASS
  1
ACAMGHOLECHARTSTDANSI
  2
AcAmgHoleChartStdANSI
  3
ACMSYMBB_MODULE_NAME
 90
        0
280
     0
281
     0
  0
CLASS
  1
ACRFATTGENMGR
  2
AcRfAttGeneralMgr
  3
AcAttribServices
 90
    32768
280
     0
281
     0
  0
CLASS
  1
DIMASSOC
  2
AcDbDimAssoc
  3
"AcDbDimAssoc|Product Desc:     AcDim ARX App For Dimension|Company:          Autodesk, Inc.|WEB Address:      www.autodesk.com"
 90
    32768
280
     0
281
     0
  0
CLASS
  1
SORTENTSTABLE
  2
AcDbSortentsTable
  3
ObjectDBX Classes
 90
        0
280
     0
281
     0
  0
ENDSEC
  0
SECTION
  2
TABLES
  0
TABLE
  2
VPORT
  5
8
330
0
100
AcDbSymbolTable
 70
     3
  0
VPORT
  5
C191
330
8
100
AcDbSymbolTableRecord
100
AcDbViewportTableRecord
  2
*Active
 70
     0
 10
0.0
 20
0.0
 11
1.0
 21
1.0
 12
529.3579370340739
 22
-42.75131133708555
 13
0.0
 23
0.0
 14
7.5
 24
7.5
 15
30.0
 25
30.0
 16
0.0
 26
0.0
 36
1.0
 17
0.0
 27
0.0
 37
0.0
 40
401.5126805597372
 41
1.532401524777636
 42
50.0
 43
0.0
 44
0.0
 50
0.0
 51
0.0
 71
    16
 72
   100
 73
     1
 74
     3
 75
     0
 76
     0
 77
     0
 78
     0
281
     0
 65
     1
110
0.0
120
0.0
130
0.0
111
1.0
121
0.0
131
0.0
112
0.0
122
1.0
132
0.0
 79
     0
146
0.0
  0
ENDTAB
  0
TABLE
  2
LTYPE
  5
5
330
0
100
AcDbSymbolTable
 70
    16
  0
LTYPE
  5
14
330
5
100
AcDbSymbolTableRecord
100
AcDbLinetypeTableRecord
  2
ByBlock
 70
     0
  3

 72
    65
 73
     0
 40
0.0
  0
LTYPE
  5
15
330
5
100
AcDbSymbolTableRecord
100
AcDbLinetypeTableRecord
  2
ByLayer
 70
     0
  3

 72
    65
 73
     0
 40
0.0
  0
LTYPE
  5
16
330
5
100
AcDbSymbolTableRecord
100
AcDbLinetypeTableRecord
  2
Continuous
 70
     0
  3
Solid line
 72
    65
 73
     0
 40
0.0
  0
LTYPE
  5
66
330
5
100
AcDbSymbolTableRecord
100
AcDbLinetypeTableRecord
  2
AM_ISO02W050
 70
     0
  3
__ __ __ __ __ __ __ __ __ __ __ __ __ __ __
 72
    65
 73
     2
 40
7.5
 49
6.0
 74
     0
 49
-1.5
 74
     0
  0
LTYPE
  5
67
330
5
100
AcDbSymbolTableRecord
100
AcDbLinetypeTableRecord
  2
AM_ISO08W050
 70
     0
  3
____ . ____ . ____ . ____ . ____ . ____ . ____
 72
    65
 73
     4
 40
18.0
 49
12.0
 74
     0
 49
-1.5
 74
     0
 49
3.0
 74
     0
 49
-1.5
 74
     0
  0
LTYPE
  5
68
330
5
100
AcDbSymbolTableRecord
100
AcDbLinetypeTableRecord
  2
AM_ISO09W050
 70
     0
  3
_____ . . _____ . . _____ . . ____ .. ____
 72
    65
 73
     6
 40
22.5
 49
12.0
 74
     0
 49
-1.5
 74
     0
 49
3.0
 74
     0
 49
-1.5
 74
     0
 49
3.0
 74
     0
 49
-1.5
 74
     0
  0
LTYPE
  5
69
330
5
100
AcDbSymbolTableRecord
100
AcDbLinetypeTableRecord
  2
Amconstr
 70
     0
  3
_______________________
 72
    65
 73
     2
 40
9999.0
 49
9999.0
 74
     0
 49
0.0
 74
     0
  0
LTYPE
  5
6A
330
5
100
AcDbSymbolTableRecord
100
AcDbLinetypeTableRecord
  2
AM_ISO02W050x2
 70
     0
  3
 _ _ _ _ _ _ _ _ _ _ _ _
 72
    65
 73
     2
 40
3.75
 49
3.0
 74
     0
 49
-0.75
 74
     0
  0
LTYPE
  5
6B
330
5
100
AcDbSymbolTableRecord
100
AcDbLinetypeTableRecord
  2
AM_ISO08W050x2
 70
     0
  3
__ . __ . __ . __ . __ . __
 72
    65
 73
     4
 40
9.0
 49
6.0
 74
     0
 49
-0.75
 74
     0
 49
1.5
 74
     0
 49
-0.75
 74
     0
  0
LTYPE
  5
6E
330
5
100
AcDbSymbolTableRecord
100
AcDbLinetypeTableRecord
  2
Amzigzag
 70
     0
  3
/\/-/\/-/\/-/\/-/\/-/\/
 72
    65
 73
     2
 40
11.0001
 49
0.0001
 74
     4
 75
   135
340
6D
 46
0.04
 50
0.0
 44
0.0
 45
0.0
 49
-11.0
 74
     0
  0
LTYPE
  5
75B
330
5
100
AcDbSymbolTableRecord
100
AcDbLinetypeTableRecord
  2
HIDDEN
 70
     0
  3
Caché __ __ __ __ __ __ __ __ __ __ __ __ __ __
 72
    65
 73
     2
 40
9.525
 49
6.349999999999999
 74
     0
 49
-3.174999999999999
 74
     0
  0
LTYPE
  5
75C
330
5
100
AcDbSymbolTableRecord
100
AcDbLinetypeTableRecord
  2
PHANTOM2
 70
     0
  3
Fantôme (.5x) ___ _ _ ___ _ _ ___ _ _ ___ _ _
 72
    65
 73
     6
 40
31.75
 49
15.875
 74
     0
 49
-3.174999999999999
 74
     0
 49
3.174999999999999
 74
     0
 49
-3.174999999999999
 74
     0
 49
3.174999999999999
 74
     0
 49
-3.174999999999999
 74
     0
  0
LTYPE
  5
75D
330
5
100
AcDbSymbolTableRecord
100
AcDbLinetypeTableRecord
  2
CENTER
 70
     0
  3
Centre ____ _ ____ _ ____ _ ____ _ ____ _ ____
 72
    65
 73
     4
 40
50.8
 49
31.75
 74
     0
 49
-6.349999999999999
 74
     0
 49
6.349999999999999
 74
     0
 49
-6.349999999999999
 74
     0
  0
LTYPE
  5
7AD
330
5
100
AcDbSymbolTableRecord
100
AcDbLinetypeTableRecord
  2
ACISOWELD
 70
     0
  3
_ _ _ _ _
 72
    65
 73
     2
 40
2.0
 49
2.0
 74
     0
 49
-1.0
 74
     0
  0
LTYPE
  5
7AE
330
5
100
AcDbSymbolTableRecord
100
AcDbLinetypeTableRecord
  2
ACISOTGB
 70
     0
  3
__ . . __ . .
 72
    65
 73
     6
 40
9.0
 49
4.0
 74
     0
 49
-1.0
 74
     0
 49
1.0
 74
     0
 49
-1.0
 74
     0
 49
1.0
 74
     0
 49
-1.0
 74
     0
  0
LTYPE
  5
7AF
330
5
100
AcDbSymbolTableRecord
100
AcDbLinetypeTableRecord
  2
ACISOTGL
 70
     0
  3
_ _ _ _ _
 72
    65
 73
     2
 40
3.0
 49
2.0
 74
     0
 49
-1.0
 74
     0
  0
LTYPE
  5
2679
330
5
100
AcDbSymbolTableRecord
100
AcDbLinetypeTableRecord
  2
ACANSTGB
 70
     0
  3
__ . . __ . .
 72
    65
 73
     6
 40
0.35433070866
 49
0.15748031496
 74
     0
 49
-0.03937007874
 74
     0
 49
0.03937007874
 74
     0
 49
-0.03937007874
 74
     0
 49
0.03937007874
 74
     0
 49
-0.03937007874
 74
     0
  0
LTYPE
  5
267A
330
5
100
AcDbSymbolTableRecord
100
AcDbLinetypeTableRecord
  2
ACANSTGL
 70
     0
  3
_ _ _ _ _
 72
    65
 73
     2
 40
0.11811023622
 49
0.07874015748
 74
     0
 49
-0.03937007874
 74
     0
  0
ENDTAB
  0
TABLE
  2
LAYER
  5
2
330
0
100
AcDbSymbolTable
 70
     8
  0
LAYER
  5
10
330
2
100
AcDbSymbolTableRecord
100
AcDbLayerTableRecord
  2
0
 70
     0
 62
     7
  6
Continuous
370
    -3
390
F
  0
LAYER
  5
267B
330
2
100
AcDbSymbolTableRecord
100
AcDbLayerTableRecord
  2
S3_EXTERN HANDLE FRONT
 70
     0
 62
     5
  6
Continuous
370
    30
390
F
  0
LAYER
  5
267C
330
2
100
AcDbSymbolTableRecord
100
AcDbLayerTableRecord
  2
AXIS
 70
     0
 62
     4
  6
CENTER
370
    15
390
F
  0
LAYER
  5
2A81
330
2
100
AcDbSymbolTableRecord
100
AcDbLayerTableRecord
  2
QUOTATION
 70
     0
 62
     3
  6
Continuous
370
    25
390
F
  0
LAYER
  5
2A91
330
2
100
AcDbSymbolTableRecord
100
AcDbLayerTableRecord
  2
Defpoints
 70
     0
 62
     7
  6
Continuous
290
     0
370
    -3
390
F
  0
LAYER
  5
AC8F
330
2
100
AcDbSymbolTableRecord
100
AcDbLayerTableRecord
  2
HANDLE FIXING HOLES
 70
     0
 62
     1
  6
Continuous
370
    -3
390
F
  0
LAYER
  5
AD55
330
2
100
AcDbSymbolTableRecord
100
AcDbLayerTableRecord
  2
MOVING S3 0-1 FRONT
 70
     0
 62
     1
  6
AM_ISO02W050
370
    -3
390
F
  0
LAYER
  5
B672
330
2
100
AcDbSymbolTableRecord
100
AcDbLayerTableRecord
  2
POINT D'ACCROCHAGE
 70
     0
 62
    30
  6
Continuous
290
     0
370
    -3
390
F
  0
ENDTAB
  0
TABLE
  2
STYLE
  5
3
330
0
100
AcDbSymbolTable
 70
     6
  0
STYLE
  5
11
330
3
100
AcDbSymbolTableRecord
100
AcDbTextStyleTableRecord
  2
Standard
 70
     0
 40
0.0
 41
1.0
 50
0.0
 71
     0
 42
0.2
  3
isocp.shx
  4

  0
STYLE
  5
6D
330
3
100
AcDbSymbolTableRecord
100
AcDbTextStyleTableRecord
  2

 70
     1
 40
0.0
 41
1.0
 50
0.0
 71
     0
 42
0.2
  3
ltypeshp.shx
  4

  0
STYLE
  5
79F
330
3
100
AcDbSymbolTableRecord
100
AcDbTextStyleTableRecord
  2
ACISOTS
 70
     0
 40
1.0
 41
1.0
 50
0.0
 71
     0
 42
0.2
  3
isocp.shx
  4

  0
STYLE
  5
7AC
330
3
100
AcDbSymbolTableRecord
100
AcDbTextStyleTableRecord
  2
ACISOGDT
 70
     0
 40
0.0
 41
1.0
 50
0.0
 71
     0
 42
0.2
  3
amgdt.shx
  4

  0
STYLE
  5
267F
330
3
100
AcDbSymbolTableRecord
100
AcDbTextStyleTableRecord
  2
ACANSTS
 70
     0
 40
1.0
 41
1.0
 50
0.0
 71
     0
 42
0.2
  3
romans.shx
  4

  0
STYLE
  5
2680
330
3
100
AcDbSymbolTableRecord
100
AcDbTextStyleTableRecord
  2
ACANSGDT
 70
     0
 40
0.0
 41
1.0
 50
0.0
 71
     0
 42
0.2
  3
amgdtans.shx
  4

  0
ENDTAB
  0
TABLE
  2
VIEW
  5
6
330
0
100
AcDbSymbolTable
 70
     6
  0
VIEW
  5
B57
330
6
100
AcDbSymbolTableRecord
100
AcDbViewTableRecord
  2
AM_VIEW1
 70
     0
 40
445.5
 10
1083.800089339613
 20
745.2551498683171
 41
682.3838832487311
 11
0.0
 21
0.0
 31
1.0
 12
0.0
 22
0.0
 32
0.0
 42
50.0
 43
0.0
 44
0.0
 50
0.0
 71
    16
281
     0
 72
     0
  0
VIEW
  5
B58
330
6
100
AcDbSymbolTableRecord
100
AcDbViewTableRecord
  2
AM_VIEW2
 70
     0
 40
445.5
 10
1661.416206090882
 20
745.2551498683171
 41
682.3838832487311
 11
0.0
 21
0.0
 31
1.0
 12
0.0
 22
0.0
 32
0.0
 42
50.0
 43
0.0
 44
0.0
 50
0.0
 71
    16
281
     0
 72
     0
  0
VIEW
  5
B59
330
6
100
AcDbSymbolTableRecord
100
AcDbViewTableRecord
  2
AM_VIEW3
 70
     0
 40
445.5
 10
1083.800089339613
 20
299.755149868317
 41
682.3838832487311
 11
0.0
 21
0.0
 31
1.0
 12
0.0
 22
0.0
 32
0.0
 42
50.0
 43
0.0
 44
0.0
 50
0.0
 71
    16
281
     0
 72
     0
  0
VIEW
  5
B5A
330
6
100
AcDbSymbolTableRecord
100
AcDbViewTableRecord
  2
AM_VIEW4
 70
     0
 40
445.5
 10
1661.416206090882
 20
299.755149868317
 41
682.3838832487311
 11
0.0
 21
0.0
 31
1.0
 12
0.0
 22
0.0
 32
0.0
 42
50.0
 43
0.0
 44
0.0
 50
0.0
 71
    16
281
     0
 72
     0
  0
VIEW
  5
B5B
330
6
100
AcDbSymbolTableRecord
100
AcDbViewTableRecord
  2
AM_VIEW5
 70
     0
 40
445.5000000000001
 10
1372.608147715247
 20
522.505149868317
 41
682.3838832487308
 11
0.0
 21
0.0
 31
1.0
 12
0.0
 22
0.0
 32
0.0
 42
50.0
 43
0.0
 44
0.0
 50
0.0
 71
    16
281
     0
 72
     0
  0
VIEW
  5
B5C
330
6
100
AcDbSymbolTableRecord
100
AcDbViewTableRecord
  2
AM_VIEW6
 70
     0
 40
890.9910900000001
 10
1372.608147715247
 20
522.505149868317
 41
1364.754118819797
 11
0.0
 21
0.0
 31
1.0
 12
0.0
 22
0.0
 32
0.0
 42
50.0
 43
0.0
 44
0.0
 50
0.0
 71
    16
281
     0
 72
     0
  0
ENDTAB
  0
TABLE
  2
UCS
  5
7
330
0
100
AcDbSymbolTable
 70
     0
  0
ENDTAB
  0
TABLE
  2
APPID
  5
9
330
0
100
AcDbSymbolTable
 70
    24
  0
APPID
  5
12
330
9
100
AcDbSymbolTableRecord
100
AcDbRegAppTableRecord
  2
ACAD
 70
     0
  0
APPID
  5
4E
330
9
100
AcDbSymbolTableRecord
100
AcDbRegAppTableRecord
  2
MCAD_NO_VIS
 70
     0
  0
APPID
  5
4F
330
9
100
AcDbSymbolTableRecord
100
AcDbRegAppTableRecord
  2
ACAD_TEMP_GRAPHIC
 70
     0
  0
APPID
  5
167
330
9
100
AcDbSymbolTableRecord
100
AcDbRegAppTableRecord
  2
GENIUS_GENOENT_13
 70
     0
  0
APPID
  5
168
330
9
100
AcDbSymbolTableRecord
100
AcDbRegAppTableRecord
  2
GENIUS_GENODEF_13
 70
     0
  0
APPID
  5
169
330
9
100
AcDbSymbolTableRecord
100
AcDbRegAppTableRecord
  2
GENIUS_GENOBJ_13
 70
     0
  0
APPID
  5
16A
330
9
100
AcDbSymbolTableRecord
100
AcDbRegAppTableRecord
  2
GENIUS_GENOLIS_13
 70
     0
  0
APPID
  5
16B
330
9
100
AcDbSymbolTableRecord
100
AcDbRegAppTableRecord
  2
GENIUS_GENOREF_13
 70
     0
  0
APPID
  5
16C
330
9
100
AcDbSymbolTableRecord
100
AcDbRegAppTableRecord
  2
GENIUS_GENOBJ-N-CRS_13
 70
     0
  0
APPID
  5
16D
330
9
100
AcDbSymbolTableRecord
100
AcDbRegAppTableRecord
  2
GENIUS_GENOBJ-N-FIL_13
 70
     0
  0
APPID
  5
448
330
9
100
AcDbSymbolTableRecord
100
AcDbRegAppTableRecord
  2
AMACAD
 70
     0
  0
APPID
  5
772
330
9
100
AcDbSymbolTableRecord
100
AcDbRegAppTableRecord
  2
AD_DRAW
 70
     0
  0
APPID
  5
775
330
9
100
AcDbSymbolTableRecord
100
AcDbRegAppTableRecord
  2
ACATTRIBSERVICES
 70
     0
  0
APPID
  5
793
330
9
100
AcDbSymbolTableRecord
100
AcDbRegAppTableRecord
  2
DESIGNERASSEMBLIES
 70
     0
  0
APPID
  5
797
330
9
100
AcDbSymbolTableRecord
100
AcDbRegAppTableRecord
  2
ACADM_DIM_EDIT
 70
     0
  0
APPID
  5
798
330
9
100
AcDbSymbolTableRecord
100
AcDbRegAppTableRecord
  2
AMDT_DM_ADJ
 70
     0
  0
APPID
  5
7D5
330
9
100
AcDbSymbolTableRecord
100
AcDbRegAppTableRecord
  2
DCO15
 70
     0
  0
APPID
  5
8A6
330
9
100
AcDbSymbolTableRecord
100
AcDbRegAppTableRecord
  2
GENIUS_GENSCREG_15
 70
     0
  0
APPID
  5
8A7
330
9
100
AcDbSymbolTableRecord
100
AcDbRegAppTableRecord
  2
GENIUS_GENOBJ-N-SDF_13
 70
     0
  0
APPID
  5
8A8
330
9
100
AcDbSymbolTableRecord
100
AcDbRegAppTableRecord
  2
GENIUS_GENOBJ-N-TIT_13
 70
     0
  0
APPID
  5
8A9
330
9
100
AcDbSymbolTableRecord
100
AcDbRegAppTableRecord
  2
GENIUS_GENTITLE_13
 70
     0
  0
APPID
  5
2687
330
9
100
AcDbSymbolTableRecord
100
AcDbRegAppTableRecord
  2
GENIUS_GENOBJ-N-CEN_13
 70
     0
  0
APPID
  5
92C9
330
9
100
AcDbSymbolTableRecord
100
AcDbRegAppTableRecord
  2
GENIUS_GE3MANIP_13
 70
     0
  0
APPID
  5
92DC
330
9
100
AcDbSymbolTableRecord
100
AcDbRegAppTableRecord
  2
GENIUS_GENDTOL_13
 70
     0
  0
ENDTAB
  0
TABLE
  2
DIMSTYLE
  5
A
330
0
100
AcDbSymbolTable
 70
    14
100
AcDbDimStyleTable
 71
     2
340
74
340
C38
  0
DIMSTYLE
105
74
102
{ACAD_REACTORS
330
79E
330
2A90
330
2AED
330
2B2E
330
9315
330
9368
102
}
330
A
100
AcDbSymbolTableRecord
100
AcDbDimStyleTableRecord
  2
AM_ISO
 70
     0
  4
"
 41
2.5
 42
1.0
 43
10.0
 44
1.0
 47
0.1
 48
0.1
 73
     0
 74
     0
 77
     1
 78
     8
 79
     2
140
3.5
141
0.0
143
0.0393701
146
0.71
147
1.5
172
     1
176
   256
177
   256
178
     2
271
     2
272
     3
274
     4
283
     0
340
11
371
    -1
372
    -1
  0
DIMSTYLE
105
75
102
{ACAD_REACTORS
330
2B86
330
93B0
330
93E0
102
}
330
A
100
AcDbSymbolTableRecord
100
AcDbDimStyleTableRecord
  2
AM_ISO$3
 70
     0
  4
"
 41
2.5
 42
1.0
 43
10.0
 44
1.0
 47
0.1
 48
0.1
 73
     0
 77
     1
 78
     8
 79
     2
140
3.5
141
0.0
143
0.0393701
146
0.71
147
1.5
176
   256
177
   256
178
     2
271
     2
272
     3
274
     4
283
     0
288
     1
289
     0
340
11
371
    -1
372
    -1
  0
DIMSTYLE
105
76
330
A
100
AcDbSymbolTableRecord
100
AcDbDimStyleTableRecord
  2
AM_ISO$4
 70
     0
  4
"
 41
2.5
 42
1.0
 43
10.0
 44
1.0
 47
0.1
 48
0.1
 73
     0
 77
     1
 78
     8
 79
     2
140
3.5
141
0.0
143
0.0393701
146
0.71
147
1.5
176
   256
177
   256
178
     2
271
     2
272
     3
274
     4
283
     0
288
     1
289
     0
340
11
371
    -1
372
    -1
  0
DIMSTYLE
105
77
330
A
100
AcDbSymbolTableRecord
100
AcDbDimStyleTableRecord
  2
AM_ISO$6
 70
     0
  4
"
 41
2.5
 42
1.0
 43
10.0
 44
1.0
 47
0.1
 48
0.1
 73
     0
 74
     0
 78
     8
 79
     2
140
3.5
141
0.0
143
0.0393701
146
0.71
147
1.5
172
     1
176
   256
177
   256
178
     2
271
     2
272
     3
274
     4
283
     0
340
11
371
    -1
372
    -1
  0
DIMSTYLE
105
78
330
A
100
AcDbSymbolTableRecord
100
AcDbDimStyleTableRecord
  2
AM_ISO$7
 70
     0
  4
"
 41
2.5
 42
1.0
 43
10.0
 44
1.0
 47
0.1
 48
0.1
 73
     0
 74
     0
 77
     1
 78
     8
 79
     2
140
3.5
141
0.0
143
0.0393701
146
0.71
147
1.5
172
     1
176
   256
177
   256
178
     2
271
     2
272
     3
274
     4
283
     0
340
11
371
    -1
372
    -1
  0
DIMSTYLE
105
79
330
A
100
AcDbSymbolTableRecord
100
AcDbDimStyleTableRecord
  2
AM_ISO$SF
 70
     0
  4
"
 41
2.5
 42
1.0
 43
10.0
 44
1.0
 47
0.1
 48
0.1
 73
     0
 74
     0
 75
     1
 76
     1
 77
     1
 78
     8
 79
     2
140
3.5
141
0.0
143
0.0393701
146
0.71
147
1.5
172
     1
176
   256
177
   256
178
     2
271
     2
272
     3
274
     4
283
     0
340
11
371
    -1
372
    -1
  0
DIMSTYLE
105
7E
330
A
100
AcDbSymbolTableRecord
100
AcDbDimStyleTableRecord
  2
AM_ISO$SH
 70
     0
  4
"
 41
2.5
 42
1.0
 43
10.0
 44
1.0
 47
0.1
 48
0.1
 73
     0
 74
     0
 75
     1
 76
     1
 77
     1
 78
     8
 79
     2
140
3.5
141
0.0
143
0.0393701
144
2.0
146
0.71
147
1.5
172
     1
173
     1
176
   256
177
   256
178
     2
271
     2
272
     3
274
     4
283
     0
340
11
343
7A
371
    -1
372
    -1
  0
DIMSTYLE
105
C38
330
A
100
AcDbSymbolTableRecord
100
AcDbDimStyleTableRecord
  2
GEN-ISO
 70
     0
 41
2.5
 42
1.0
 43
8.0
 44
2.0
 47
0.1
 48
0.1
 73
     0
 74
     0
 77
     1
 78
     8
140
3.5
141
2.0
146
0.71
147
1.5
172
     1
176
   256
177
   256
178
     2
340
11
  0
DIMSTYLE
105
2681
330
A
100
AcDbSymbolTableRecord
100
AcDbDimStyleTableRecord
  2
AM_ANSI
 70
     0
  4
mm
 41
0.1
 42
0.05
 43
0.5
 44
0.1
 47
0.1
 48
0.1
 78
     7
 79
     2
140
0.12
141
0.0
146
0.71
147
0.06
176
   256
177
   256
178
     2
274
     4
284
     7
340
11
371
    -1
372
    -1
  0
DIMSTYLE
105
2682
330
A
100
AcDbSymbolTableRecord
100
AcDbDimStyleTableRecord
  2
AM_ANSI$3
 70
     0
  4
mm
 41
0.1
 42
0.05
 43
0.5
 44
0.1
 47
0.1
 48
0.1
 78
     7
 79
     2
140
0.12
141
0.0
146
0.71
147
0.06
176
   256
177
   256
178
     2
274
     4
284
     7
288
     1
289
     0
340
11
371
    -1
372
    -1
  0
DIMSTYLE
105
2683
330
A
100
AcDbSymbolTableRecord
100
AcDbDimStyleTableRecord
  2
AM_ANSI$4
 70
     0
  4
mm
 41
0.1
 42
0.05
 43
0.5
 44
0.1
 47
0.1
 48
0.1
 78
     7
 79
     2
140
0.12
141
0.0
146
0.71
147
0.06
176
   256
177
   256
178
     2
274
     4
284
     7
288
     1
289
     0
340
11
371
    -1
372
    -1
  0
DIMSTYLE
105
2684
330
A
100
AcDbSymbolTableRecord
100
AcDbDimStyleTableRecord
  2
AM_ANSI$7
 70
     0
  4
mm
 41
0.1
 42
0.05
 43
0.5
 44
0.1
 47
0.1
 48
0.1
 78
     7
 79
     2
140
0.24
141
0.0
146
0.71
147
0.06
176
   256
177
   256
178
     2
274
     4
284
     7
340
11
371
    -1
372
    -1
  0
DIMSTYLE
105
2685
330
A
100
AcDbSymbolTableRecord
100
AcDbDimStyleTableRecord
  2
AM_ANSI$SF
 70
     0
  4
mm
 41
0.1
 42
0.05
 43
0.5
 44
0.1
 47
0.1
 48
0.1
 75
     1
 76
     1
 78
     7
 79
     2
140
0.12
141
0.0
146
0.71
147
0.06
176
   256
177
   256
178
     2
274
     4
284
     7
340
11
371
    -1
372
    -1
  0
DIMSTYLE
105
2686
330
A
100
AcDbSymbolTableRecord
100
AcDbDimStyleTableRecord
  2
AM_ANSI$SH
 70
     0
  4
mm
 41
0.1
 42
0.05
 43
0.5
 44
0.1
 47
0.1
 48
0.1
 75
     1
 76
     1
 78
     7
 79
     2
140
0.12
141
0.0
146
0.71
147
0.06
173
     1
176
   256
177
   256
178
     2
274
     4
284
     7
340
11
343
7A
371
    -1
372
    -1
  0
ENDTAB
  0
TABLE
  2
BLOCK_RECORD
  5
1
330
0
100
AcDbSymbolTable
 70
    18
  0
BLOCK_RECORD
  5
1F
102
{ACAD_XDICTIONARY
360
84
102
}
330
1
100
AcDbSymbolTableRecord
100
AcDbBlockTableRecord
  2
*Model_Space
340
22
  0
BLOCK_RECORD
  5
1B
330
1
100
AcDbSymbolTableRecord
100
AcDbBlockTableRecord
  2
*Paper_Space
340
1E
  0
BLOCK_RECORD
  5
23
330
1
100
AcDbSymbolTableRecord
100
AcDbBlockTableRecord
  2
*Paper_Space0
340
26
  0
BLOCK_RECORD
  5
7A
330
1
100
AcDbSymbolTableRecord
100
AcDbBlockTableRecord
  2
GENAXEH
340
0
  0
BLOCK_RECORD
  5
25CC
102
{ACAD_XDICTIONARY
360
964B
102
}
330
1
100
AcDbSymbolTableRecord
100
AcDbBlockTableRecord
  2
poignée S3 frontale right
340
0
310
2800000020000000200000000100080000000000000400000000000000000000000000000000000000000000000080000080000000808000800000008000800080800000C0C0C000C0DCC000F0CAA6000020400000206000002080000020A0000020C0000020E00000400000004020000040400000406000004080000040A0
310
000040C0000040E00000600000006020000060400000606000006080000060A0000060C0000060E00000800000008020000080400000806000008080000080A0000080C0000080E00000A0000000A0200000A0400000A0600000A0800000A0A00000A0C00000A0E00000C0000000C0200000C0400000C0600000C0800000C0
310
A00000C0C00000C0E00000E0000000E0200000E0400000E0600000E0800000E0A00000E0C00000E0E00040000000400020004000400040006000400080004000A0004000C0004000E00040200000402020004020400040206000402080004020A0004020C0004020E000404000004040200040404000404060004040800040
310
40A0004040C0004040E00040600000406020004060400040606000406080004060A0004060C0004060E00040800000408020004080400040806000408080004080A0004080C0004080E00040A0000040A0200040A0400040A0600040A0800040A0A00040A0C00040A0E00040C0000040C0200040C0400040C0600040C08000
310
40C0A00040C0C00040C0E00040E0000040E0200040E0400040E0600040E0800040E0A00040E0C00040E0E00080000000800020008000400080006000800080008000A0008000C0008000E00080200000802020008020400080206000802080008020A0008020C0008020E00080400000804020008040400080406000804080
310
008040A0008040C0008040E00080600000806020008060400080606000806080008060A0008060C0008060E00080800000808020008080400080806000808080008080A0008080C0008080E00080A0000080A0200080A0400080A0600080A0800080A0A00080A0C00080A0E00080C0000080C0200080C0400080C0600080C0
310
800080C0A00080C0C00080C0E00080E0000080E0200080E0400080E0600080E0800080E0A00080E0C00080E0E000C0000000C0002000C0004000C0006000C0008000C000A000C000C000C000E000C0200000C0202000C0204000C0206000C0208000C020A000C020C000C020E000C0400000C0402000C0404000C0406000C0
310
408000C040A000C040C000C040E000C0600000C0602000C0604000C0606000C0608000C060A000C060C000C060E000C0800000C0802000C0804000C0806000C0808000C080A000C080C000C080E000C0A00000C0A02000C0A04000C0A06000C0A08000C0A0A000C0A0C000C0A0E000C0C00000C0C02000C0C04000C0C06000
310
C0C08000C0C0A000F0FBFF00A4A0A000808080000000FF0000FF000000FFFF00FF000000FF00FF00FFFF0000FFFFFF000000000000000000000000000000000000000000000000000000000000000000000000000000000000000000FF00000000000000000000000000000000000000000000000000000000000000FFFFFF
310
0000000000000000000000000000000000000000000000000000000000FFFFFF0000000000000000000000000000000000000000000000000000000000FFFFFF0000000000000000000000000000000000000000000000000000000000FFFFFF0000000000000000000000000000000000000000000000000000000000FFFF
310
FF0000000000000000000000000000000000000000000000000000000000FFFFFF0000000000000000000000000000000000000000000000000000000000FFFFFF0000000000000000000000000000000000000000000000000000000000FFFFFF0000000000000000000000000000000000000000000000000000000000FF
310
FFFF0000000000000000000000000000000000000000000000000000000000FFFFFFFF00000000000000000000000000000000000000000000000000000000FFFFFFFF0000000000000000000000000000000000000000000000000000000000FFFFFF00000000000000000000000000000000000000000000000000000000
310
00FFFFFF0000000000000000000000000000000000000000000000000000000000FFFFFF0000000000000000000000000000000000000000000000000000000000FFFFFF0000000000000000000000000000000000000000000000000000000000FFFFFFFF0000000000000000000000000000000000000000000000000000
310
000000FFFFFF0000000000000000000000000000000000000000000000000000000000FFFFFF0000000000000000000000000000000000000000000000000000000000FFFFFFFF00000000000000000000000000000000000000000000000000000000FFFFFFFFFFFF00000000000000000000000000000000000000000000
310
00000000FF00FFFF00FF0000000000000000000000000000000000000000000000000000FFFFFFFF00FF0000000000000000000000000000000000000000000000000000FFFFFFFFFFFF0000000000000000000000000000000000000000000000000000FFFFFFFFFEFF000000000000000000000000000000000000000000
310
0000000000FF00FFFFFFFF0000000000000000000000000000000000000000000000000000FFFFFFFFFFFF0000000000000000000000000000000000000000000000000000FF0000FF00FF000000000000000000000000000000000000000000000000000000FFFFFFFFFF0000000000000000000000000000000000000000
310
0000000000000000000000FF0000000000000000000000000000000000000000000000000000000000000000000000000000000000000000
102
{BLKREFS
331
26DD
102
}
  0
BLOCK_RECORD
  5
2A92
330
1
100
AcDbSymbolTableRecord
100
AcDbBlockTableRecord
  2
*D4
340
0
  0
BLOCK_RECORD
  5
2AEE
330
1
100
AcDbSymbolTableRecord
100
AcDbBlockTableRecord
  2
*D5
340
0
  0
BLOCK_RECORD
  5
2B2F
330
1
100
AcDbSymbolTableRecord
100
AcDbBlockTableRecord
  2
*D6
340
0
  0
BLOCK_RECORD
  5
2B87
330
1
100
AcDbSymbolTableRecord
100
AcDbBlockTableRecord
  2
*D7
340
0
  0
BLOCK_RECORD
  5
9043
102
{ACAD_XDICTIONARY
360
92C1
102
}
330
1
100
AcDbSymbolTableRecord
100
AcDbBlockTableRecord
  2
poignée S3 frontale front
340
0
310
2800000020000000200000000100080000000000000400000000000000000000000000000000000000000000000080000080000000808000800000008000800080800000C0C0C000C0DCC000F0CAA6000020400000206000002080000020A0000020C0000020E00000400000004020000040400000406000004080000040A0
310
000040C0000040E00000600000006020000060400000606000006080000060A0000060C0000060E00000800000008020000080400000806000008080000080A0000080C0000080E00000A0000000A0200000A0400000A0600000A0800000A0A00000A0C00000A0E00000C0000000C0200000C0400000C0600000C0800000C0
310
A00000C0C00000C0E00000E0000000E0200000E0400000E0600000E0800000E0A00000E0C00000E0E00040000000400020004000400040006000400080004000A0004000C0004000E00040200000402020004020400040206000402080004020A0004020C0004020E000404000004040200040404000404060004040800040
310
40A0004040C0004040E00040600000406020004060400040606000406080004060A0004060C0004060E00040800000408020004080400040806000408080004080A0004080C0004080E00040A0000040A0200040A0400040A0600040A0800040A0A00040A0C00040A0E00040C0000040C0200040C0400040C0600040C08000
310
40C0A00040C0C00040C0E00040E0000040E0200040E0400040E0600040E0800040E0A00040E0C00040E0E00080000000800020008000400080006000800080008000A0008000C0008000E00080200000802020008020400080206000802080008020A0008020C0008020E00080400000804020008040400080406000804080
310
008040A0008040C0008040E00080600000806020008060400080606000806080008060A0008060C0008060E00080800000808020008080400080806000808080008080A0008080C0008080E00080A0000080A0200080A0400080A0600080A0800080A0A00080A0C00080A0E00080C0000080C0200080C0400080C0600080C0
310
800080C0A00080C0C00080C0E00080E0000080E0200080E0400080E0600080E0800080E0A00080E0C00080E0E000C0000000C0002000C0004000C0006000C0008000C000A000C000C000C000E000C0200000C0202000C0204000C0206000C0208000C020A000C020C000C020E000C0400000C0402000C0404000C0406000C0
310
408000C040A000C040C000C040E000C0600000C0602000C0604000C0606000C0608000C060A000C060C000C060E000C0800000C0802000C0804000C0806000C0808000C080A000C080C000C080E000C0A00000C0A02000C0A04000C0A06000C0A08000C0A0A000C0A0C000C0A0E000C0C00000C0C02000C0C04000C0C06000
310
C0C08000C0C0A000F0FBFF00A4A0A000808080000000FF0000FF000000FFFF00FF000000FF00FF00FFFF0000FFFFFF00A4A4A4A4A4A4A4A4A4A4A4A4A4A4A4A4A4A4A4A4A4A4A4A4A4A4A4A4A4A4A4A4A4A4A4A4A4A4A4A4A4A4A4A4A4A4A4FFFFA4A4A4A4A4A4A4A4A4A4A4A4A4A4A4A4A4A4A4A4A4A4A4A4A4A4A4A4FFFF
310
FFFFFFFFA4A4A4A4A4A4A4A4A4A4A4A4A4A4A4A4A4A4A4A4A4A4A4A4A4A4FFA4A4A4A4FFA4A4A4A4A4A4A4A4A4A4A4A4A4A4A4A4A4A4A4A4A4A4A4A4A4A4FFA4A4A4A4FFA4A4A4A4A4A4A4A4A4A4A4A4A4A4A4A4A4A4A4A4A4A4A4A4A4A4FFA4A4A4A4FFA4A4A4A4A4A4A4A4A4A4A4A4A4A4A4A4A4A4A4A4A4A4A4A4A4A4FF
310
A4A4A4A4FFA4A4A4A4A4A4A4A4A4A4A4A4A4A4A4A4A4A4A4A4A4A4A4A4A4A4FFA4A4A4A4FFA4A4A4A4A4A4A4A4A4A4A4A4A4A4A4A4A4A4A4A4A4A4A4A4A4A4FFA4A4A4A4FFA4A4A4A4A4A4A4A4A4A4A4A4A4A4A4A4A4A4A4A4A4A4A4A4A4A4FFA4A4A4A4FFA4A4A4A4A4A4A4A4A4A4A4A4A4A4A4A4A4A4A4A4A4A4A4A4A4A4
310
FFA4A4A4A4FFA4A4A4A4A4A4A4A4A4A4A4A4A4A4A4A4A4A4A4A4A4A4A4A4A4A4FFA4A4A4A4FFA4A4A4A4A4A4A4A4A4A4A4A4A4A4A4A4A4A4A4A4A4A4A4A4A4A4FFA4A4A4A4FFA4A4A4A4A4A4A4A4A4A4A4A4A4A4A4A4A4A4A4A4A4A4A4A4A4A4FFA4A4A4A4FFA4A4A4A4A4A4A4A4A4A4A4A4A4A4A4A4A4A4A4A4A4A4A4A4A4
310
A4FFA4A4A4A4FFA4A4A4A4A4A4A4A4A4A4A4A4A4A4A4A4A4A4A4A4A4A4A4A4A4A4FFA4A4A4A4FFA4A4A4A4A4A4A4A4A4A4A4A4A4A4A4A4A4A4A4A4A4A4A4A4A4A4FFA4A4A4A4FFA4A4A4A4A4A4A4A4A4A4A4A4A4A4A4A4A4A4A4A4A4A4A4A4A4A4FFFFFFFFFFFFA4A4A4A4A4A4A4A4A4A4A4A4A4A4A4A4A4A4A4A4A4A4A4A4
310
A4A4FFFFFFFFFFFFA4A4A4A4A4A4A4A4A4A4A4A4A4A4A4A4A4A4A4A4A4A4A4A4A4A4FFFFFFFFFFFFA4A4A4A4A4A4A4A4A4A4A4A4A4A4A4A4A4A4A4A4A4A4A4A4A4A4FFFFFFFFFFFFA4A4A4A4A4A4A4A4A4A4A4A4A4A4A4A4A4A4A4A4A4A4A4A4A4A4FFFFFFFFFFFFA4A4A4A4A4A4A4A4A4A4A4A4A4A4A4A4A4A4A4A4A4A4A4
310
A4A4A4FFFFFFFFFFFFA4A4A4A4A4A4A4A4A4A4A4A4A4A4A4A4A4A4A4A4A4A4A4A4A4FFFFFFFFFFFFA4FFA4A4A4A4A4A4A4A4A4A4A4A4A4A4A4A4A4A4A4A4A4A4A4A4FFFFFFFFFFFFFFFFA4A4A4A4A4A4A4A4A4A4A4A4A4A4A4A4A4A4A4A4A4A4A4A4FFFFFFFFFFFFFFFFFFA4A4A4A4A4A4A4A4A4A4A4A4A4A4A4A4A4A4A4A4
310
A4A4FFFFFFFFFFFFA4FFFFFFA4A4A4A4A4A4A4A4A4A4A4A4A4A4A4A4A4A4A4A4A4A4A4FFFFFFA4A4FFFFFFA4A4A4A4A4A4A4A4A4A4A4A4A4A4A4A4A4A4A4A4A4A4A4A4FFFFFFFFFFFFFFFFA4A4A4A4A4A4A4A4A4A4A4A4A4A4A4A4A4A4A4A4A4A4A4A4A4FFFFFFFFFFFFA4A4A4A4A4A4A4A4A4A4A4A4A4A4A4A4A4A4A4A4A4
310
A4A4A4A4A4A4A4A4A4A4A4A4A4A4A4A4A4A4A4A4A4A4A4A4A4A4A4A4A4A4A4A4A4A4A4A4A4A4A4A4A4A4A4A4A4A4A4A4A4A4A4A4A4A4A4A4
102
{BLKREFS
331
9090
102
}
1001
ACAD
1000
DesignCenter Data
1002
{
1070
     1
1070
     4
1002
}
  0
BLOCK_RECORD
  5
9316
330
1
100
AcDbSymbolTableRecord
100
AcDbBlockTableRecord
  2
*D9
340
0
  0
BLOCK_RECORD
  5
9369
330
1
100
AcDbSymbolTableRecord
100
AcDbBlockTableRecord
  2
*D10
340
0
  0
BLOCK_RECORD
  5
93B1
330
1
100
AcDbSymbolTableRecord
100
AcDbBlockTableRecord
  2
*D11
340
0
  0
BLOCK_RECORD
  5
93E1
330
1
100
AcDbSymbolTableRecord
100
AcDbBlockTableRecord
  2
*D12
340
0
  0
BLOCK_RECORD
  5
9DF2
102
{ACAD_XDICTIONARY
360
ABE1
102
}
330
1
100
AcDbSymbolTableRecord
100
AcDbBlockTableRecord
  2
poignée S3 frontale back
340
0
310
2800000020000000200000000100080000000000000400000000000000000000000000000000000000000000000080000080000000808000800000008000800080800000C0C0C000C0DCC000F0CAA6000020400000206000002080000020A0000020C0000020E00000400000004020000040400000406000004080000040A0
310
000040C0000040E00000600000006020000060400000606000006080000060A0000060C0000060E00000800000008020000080400000806000008080000080A0000080C0000080E00000A0000000A0200000A0400000A0600000A0800000A0A00000A0C00000A0E00000C0000000C0200000C0400000C0600000C0800000C0
310
A00000C0C00000C0E00000E0000000E0200000E0400000E0600000E0800000E0A00000E0C00000E0E00040000000400020004000400040006000400080004000A0004000C0004000E00040200000402020004020400040206000402080004020A0004020C0004020E000404000004040200040404000404060004040800040
310
40A0004040C0004040E00040600000406020004060400040606000406080004060A0004060C0004060E00040800000408020004080400040806000408080004080A0004080C0004080E00040A0000040A0200040A0400040A0600040A0800040A0A00040A0C00040A0E00040C0000040C0200040C0400040C0600040C08000
310
40C0A00040C0C00040C0E00040E0000040E0200040E0400040E0600040E0800040E0A00040E0C00040E0E00080000000800020008000400080006000800080008000A0008000C0008000E00080200000802020008020400080206000802080008020A0008020C0008020E00080400000804020008040400080406000804080
310
008040A0008040C0008040E00080600000806020008060400080606000806080008060A0008060C0008060E00080800000808020008080400080806000808080008080A0008080C0008080E00080A0000080A0200080A0400080A0600080A0800080A0A00080A0C00080A0E00080C0000080C0200080C0400080C0600080C0
310
800080C0A00080C0C00080C0E00080E0000080E0200080E0400080E0600080E0800080E0A00080E0C00080E0E000C0000000C0002000C0004000C0006000C0008000C000A000C000C000C000E000C0200000C0202000C0204000C0206000C0208000C020A000C020C000C020E000C0400000C0402000C0404000C0406000C0
310
408000C040A000C040C000C040E000C0600000C0602000C0604000C0606000C0608000C060A000C060C000C060E000C0800000C0802000C0804000C0806000C0808000C080A000C080C000C080E000C0A00000C0A02000C0A04000C0A06000C0A08000C0A0A000C0A0C000C0A0E000C0C00000C0C02000C0C04000C0C06000
310
C0C08000C0C0A000F0FBFF00A4A0A000808080000000FF0000FF000000FFFF00FF000000FF00FF00FFFF0000FFFFFF00A4A4A4A4A4A4A4A4A4A4A4A4A4A4A4A4A4A4A4A4A4A4A4A4A4A4A4A4A4A4A4A4A4A4A4A4A4A4A4A4A4A4A4A4A4A4A4A4A4A4A4A4A4A4A4A4A4A4A4A4A4A4A4A4A4A4A4A4A4A4A4A4A4A4A4A4A4A4A4
310
A4A4A4A4A4A4A4A4A4A4A4A4A4A4A4A4A4A4A4A4A4A4A4A4A4A4A4A4A4A4A4A4FEA4A4A4A4A4A4A4A4A4A4A4A4A4A4A4A4A4A4A4A4A4A4A4A4A4A4A4A4A4A4A4FEA4A4A4A4A4A4A4A4A4A4A4A4A4A4A4A4A4A4A4A4A4A4A4A4A4A4A4A4A4A4A4FEA4A4A4A4A4A4A4A4A4A4A4A4A4A4A4A4A4FFFFFFFFFFFFFFFFFFFFFFFFFF
310
FFFFFFFFFFFFFFFFFFFFFFFFFFFFFFFFFFA4A4FFA4A4A4A4A4A4A4A4A4A4A4A4A4FEA4A4A4A4A4A4A4A4A4A4A4A4A4A4FFA4A4A4FFA4A4A4A4A4A4A4A4A4A4A4A4FEA4A4A4A4A4A4A4A4A4A4A4A4A4FFA4A4A4A4FFA4A4A4A4A4A4A4A4A4A4A4A4FEA4A4A4A4A4A4A4A4A4A4A4A4A4FFA4A4A4A4FFA4A4A4A4A4A4A4A4A4A4
310
A4A4FFFFA4A4A4A4A4A4A4A4A4A4A4A4FFA4A4A4A4A4FFA4A4A4A4A4A4A4A4A4A4A4FFFFA4A4A4A4A4A4A4A4A4A4A4FFA4A4A4A4A4A4FFFFFFFFFFFFFFFFFFFFFFFFFFFFFFFFFFFFFFFFFFFFFFFFFFFFA4A4A4A4A4A4A4FFFFA4A4A4A4A4A4A4A4A4FFFFA4A4A4A4A4A4A4A4A4FFFFA4A4A4A4A4A4A4A4A4FFFFA4A4A4A4A4
310
FFFFFFFFFFFFFFFFA4A4A4A4A4A4FFA4A4A4A4A4A4A4A4A4A4A4FFA4A4A4A4A4FFFFFFFFFFFFFFFFFFA4A4A4A4FFA4A4A4A4A4A4A4A4A4A4A4A4FFFFA4FFFFFFA4A4FFFFFFA4A4A4A4FFFFA4FFFFA4A4A4A4A4A4A4A4A4A4A4A4A4FFA4FFA4A4FFFFA4A4A4FFFFFFA4A4A4FFFFA4A4A4A4A4A4A4A4A4A4A4A4A4A4A4FFA4FF
310
FFA4A4A4A4A4A4A4A4FFFFA4FFFFA4A4A4A4A4A4A4A4A4A4A4A4A4A4A4FFA4FFA4A4A4A4A4A4A4A4A4A4A4FFFFA4A4A4A4A4A4A4A4A4A4A4A4A4A4A4A4FFFFA4A4A4A4FFFFFFA4A4A4A4A4FFFFA4A4A4A4A4A4A4A4A4A4A4A4A4A4A4A4A4FFA4A4FFFFFFFFFFFFFFFFFFA4FFA4A4A4A4A4A4A4A4A4A4A4A4A4A4A4A4A4A4FF
310
FFFFFFFFA4A4A4A4A4FFFFFFFFA4A4A4A4A4A4A4A4A4A4A4A4A4A4A4A4A4A4FFFFFFA4A4A4A4A4A4A4A4A4FFFFA4A4A4A4A4A4A4A4A4A4A4A4A4A4A4A4A4A4FFFFA4A4A4A4A4A4A4A4A4A4A4FFA4A4A4A4A4A4A4A4A4A4A4A4A4A4A4A4A4A4FFA4A4A4A4A4A4A4A4A4A4A4A4FFA4A4A4A4A4A4A4A4A4A4A4A4A4A4A4A4A4A4
310
FFFFFFFFFFFFFFFFFFFFFFFFFFFFA4A4A4A4A4A4A4A4A4A4A4A4A4A4A4A4A4A4FFFFFFFFFFFFFFFFFFFFFFFFFFFFA4A4A4A4A4A4A4A4A4A4A4A4A4A4A4A4A4A4A4FFFFFFFFFFFFFFFFFFFFFFA4A4A4A4A4A4A4A4A4A4A4A4A4A4A4A4A4A4A4A4A4A4A4A4A4A4A4A4A4A4A4A4A4A4A4A4A4A4A4A4A4A4A4A4A4A4A4A4A4A4A4
310
A4A4A4A4A4A4A4A4A4A4A4A4A4A4A4A4A4A4A4A4A4A4A4A4A4A4A4A4A4A4A4A4A4A4A4A4A4A4A4A4A4A4A4A4A4A4A4A4A4A4A4A4A4A4A4A4
102
{BLKREFS
331
9E20
102
}
1001
ACAD
1000
DesignCenter Data
1002
{
1070
     1
1070
     4
1002
}
  0
BLOCK_RECORD
  5
AC6B
330
1
100
AcDbSymbolTableRecord
100
AcDbBlockTableRecord
  2
Percage S1 à S4 Frontale
340
0
310
2800000020000000200000000100080000000000000400000000000000000000000000000000000000000000000080000080000000808000800000008000800080800000C0C0C000C0DCC000F0CAA6000020400000206000002080000020A0000020C0000020E00000400000004020000040400000406000004080000040A0
310
000040C0000040E00000600000006020000060400000606000006080000060A0000060C0000060E00000800000008020000080400000806000008080000080A0000080C0000080E00000A0000000A0200000A0400000A0600000A0800000A0A00000A0C00000A0E00000C0000000C0200000C0400000C0600000C0800000C0
310
A00000C0C00000C0E00000E0000000E0200000E0400000E0600000E0800000E0A00000E0C00000E0E00040000000400020004000400040006000400080004000A0004000C0004000E00040200000402020004020400040206000402080004020A0004020C0004020E000404000004040200040404000404060004040800040
310
40A0004040C0004040E00040600000406020004060400040606000406080004060A0004060C0004060E00040800000408020004080400040806000408080004080A0004080C0004080E00040A0000040A0200040A0400040A0600040A0800040A0A00040A0C00040A0E00040C0000040C0200040C0400040C0600040C08000
310
40C0A00040C0C00040C0E00040E0000040E0200040E0400040E0600040E0800040E0A00040E0C00040E0E00080000000800020008000400080006000800080008000A0008000C0008000E00080200000802020008020400080206000802080008020A0008020C0008020E00080400000804020008040400080406000804080
310
008040A0008040C0008040E00080600000806020008060400080606000806080008060A0008060C0008060E00080800000808020008080400080806000808080008080A0008080C0008080E00080A0000080A0200080A0400080A0600080A0800080A0A00080A0C00080A0E00080C0000080C0200080C0400080C0600080C0
310
800080C0A00080C0C00080C0E00080E0000080E0200080E0400080E0600080E0800080E0A00080E0C00080E0E000C0000000C0002000C0004000C0006000C0008000C000A000C000C000C000E000C0200000C0202000C0204000C0206000C0208000C020A000C020C000C020E000C0400000C0402000C0404000C0406000C0
310
408000C040A000C040C000C040E000C0600000C0602000C0604000C0606000C0608000C060A000C060C000C060E000C0800000C0802000C0804000C0806000C0808000C080A000C080C000C080E000C0A00000C0A02000C0A04000C0A06000C0A08000C0A0A000C0A0C000C0A0E000C0C00000C0C02000C0C04000C0C06000
310
C0C08000C0C0A000F0FBFF00A4A0A000808080000000FF0000FF000000FFFF00FF000000FF00FF00FFFF0000FFFFFF00A4A4A4A4A4A4A4A4A4A4A4A4A4A4A4A4A4A4A4A4A4A4A4A4A4A4A4A4A4A4A4A4A4A4A4A4A4A4A4A4A4A4A4A4A4A4A4A4A4A4A4A4A4A4A4A4A4A4A4A4A4A4A4A4A4A4A4A4A4A4A4A4A4A4A4A4A4A4A4
310
A4A4A4A4A4A4A4A4A4A4A4A4A4A4A4A4A4A4A4A4A4A4A4A4A4A4A4A4A4A4A4A4A4A4A4A4A4A4A4A4A4A4A4A4A4A4A4A4A4A4A4A4A4A4A4A4A4A4A4A4A4A4A4A4A4A4A4A4A4A4A4A4A4A4A4A4A4A4A4A4A4A4A4A4A4FEA4A4A4A4A4A4A4A4A4A4A4A4A4A4A4A4A4A4A4A4A4A4FEA4A4A4A4A4A4A4A4FEA4A4A4A4A4A4A4A4A4
310
A4A4A4A4A4A4A4A4A4A4A4A4A4FEA4A4A4A4A4A4A4A4FEA4A4A4A4A4A4A4A4A4A4A4A4F9F9A4A4A4A4A4A4A4A4FEA4A4A4A4A4FEF9F9F9F9F9FEA4A4A4A4A4F9F9F9F9A4A4F9A4A4A4A4FEF9F9F9F9F9FEA4A4A4A4A4FEA4A4A4A4A4F9F9F9A4A4A4A4A4A4F9A4A4A4A4A4A4A4FEA4A4A4A4A4A4A4A4FEA4A4A4F9F9A4A4A4
310
A4A4A4FEA4A4A4F9A4A4A4A4A4A4FEA4A4A4A4A4A4A4A4A4A4A4A4F9A4A4A4A4A4A4A4FEA4A4A4A4F9A4A4A4A4A4A4A4A4A4A4A4A4A4A4A4A4A4A4F9A4A4A4A4A4A4A4FEA4A4A4A4F9A4A4A4A4A4A4A4A4A4A4A4A4A4A4A4A4A4A4F9A4A4A4A4A4A4A4FEA4A4A4A4A4F9A4A4A4A4A4A4A4A4A4A4A4A4A4A4A4A4A4F9A4A4A4
310
A4A4A4A4FEA4A4A4A4A4A4F9A4A4A4A4A4A4A4A4A4A4A4A4A4A4A4A4F9A4A4A4A4A4A4A4FEA4A4A4A4A4A4F9A4A4A4A4A4A4A4A4A4A4A4A4A4A4A4A4F9A4FEFEFEFEFEFEFEFEFEFEFEFEA4A4F9A4A4A4A4A4A4A4A4A4A4A4A4A4A4A4F9A4A4A4A4A4A4A4FEA4A4A4A4A4A4F9A4A4A4A4A4A4A4A4A4A4A4A4A4A4A4A4F9A4A4
310
A4A4A4A4A4FEA4A4A4A4A4A4F9A4A4A4A4A4A4A4A4A4A4A4A4A4A4A4A4F9A4A4A4A4A4A4A4FEA4A4A4A4A4F9A4A4A4A4A4A4A4A4A4A4A4A4A4A4A4A4A4F9A4A4A4A4A4A4A4FEA4A4A4A4F9A4A4A4A4A4A4A4A4A4A4A4A4A4A4FEA4A4A4F9F9A4A4A4A4A4A4FEA4A4A4F9A4A4A4A4A4A4FEA4A4A4A4A4A4A4A4FEA4A4A4A4A4
310
F9F9F9F9A4A4A4A4A4A4F9A4A4A4A4A4A4FEA4A4A4A4A4FEFEFEFEFEFEFEA4A4A4A4A4A4F9F9F9A4A4F9A4A4A4A4FEF9F9F9F9F9FEA4A4A4A4A4FEA4A4A4A4A4A4A4A4A4A4A4A4F9F9A4A4A4A4A4A4A4A4FEA4A4A4A4A4A4A4A4FEA4A4A4A4A4A4A4A4A4A4A4A4A4A4A4A4A4A4A4A4A4A4FEA4A4A4A4A4A4A4A4FEA4A4A4A4
310
A4A4A4A4A4A4A4A4A4A4A4A4A4A4A4A4A4A4FEA4A4A4A4A4A4A4A4A4A4A4A4A4A4A4A4A4A4A4A4A4A4A4A4A4A4A4A4A4A4A4A4A4A4A4A4A4A4A4A4A4A4A4A4A4A4A4A4A4A4A4A4A4A4A4A4A4A4A4A4A4A4A4A4A4A4A4A4A4A4A4A4A4A4A4A4A4A4A4A4A4A4A4A4A4A4A4A4A4A4A4A4A4A4A4A4A4A4A4A4A4A4A4A4A4A4A4A4
310
A4A4A4A4A4A4A4A4A4A4A4A4A4A4A4A4A4A4A4A4A4A4A4A4A4A4A4A4A4A4A4A4A4A4A4A4A4A4A4A4A4A4A4A4A4A4A4A4A4A4A4A4A4A4A4A4
102
{BLKREFS
331
AC96
102
}
1001
ACAD
1000
DesignCenter Data
1002
{
1070
     1
1070
     4
1002
}
  0
BLOCK_RECORD
  5
B682
330
1
100
AcDbSymbolTableRecord
100
AcDbBlockTableRecord
  2
moving 0-1 S3 frontale back
340
0
310
2800000020000000200000000100080000000000000400000000000000000000000000000000000000000000000080000080000000808000800000008000800080800000C0C0C000C0DCC000F0CAA6000020400000206000002080000020A0000020C0000020E00000400000004020000040400000406000004080000040A0
310
000040C0000040E00000600000006020000060400000606000006080000060A0000060C0000060E00000800000008020000080400000806000008080000080A0000080C0000080E00000A0000000A0200000A0400000A0600000A0800000A0A00000A0C00000A0E00000C0000000C0200000C0400000C0600000C0800000C0
310
A00000C0C00000C0E00000E0000000E0200000E0400000E0600000E0800000E0A00000E0C00000E0E00040000000400020004000400040006000400080004000A0004000C0004000E00040200000402020004020400040206000402080004020A0004020C0004020E000404000004040200040404000404060004040800040
310
40A0004040C0004040E00040600000406020004060400040606000406080004060A0004060C0004060E00040800000408020004080400040806000408080004080A0004080C0004080E00040A0000040A0200040A0400040A0600040A0800040A0A00040A0C00040A0E00040C0000040C0200040C0400040C0600040C08000
310
40C0A00040C0C00040C0E00040E0000040E0200040E0400040E0600040E0800040E0A00040E0C00040E0E00080000000800020008000400080006000800080008000A0008000C0008000E00080200000802020008020400080206000802080008020A0008020C0008020E00080400000804020008040400080406000804080
310
008040A0008040C0008040E00080600000806020008060400080606000806080008060A0008060C0008060E00080800000808020008080400080806000808080008080A0008080C0008080E00080A0000080A0200080A0400080A0600080A0800080A0A00080A0C00080A0E00080C0000080C0200080C0400080C0600080C0
310
800080C0A00080C0C00080C0E00080E0000080E0200080E0400080E0600080E0800080E0A00080E0C00080E0E000C0000000C0002000C0004000C0006000C0008000C000A000C000C000C000E000C0200000C0202000C0204000C0206000C0208000C020A000C020C000C020E000C0400000C0402000C0404000C0406000C0
310
408000C040A000C040C000C040E000C0600000C0602000C0604000C0606000C0608000C060A000C060C000C060E000C0800000C0802000C0804000C0806000C0808000C080A000C080C000C080E000C0A00000C0A02000C0A04000C0A06000C0A08000C0A0A000C0A0C000C0A0E000C0C00000C0C02000C0C04000C0C06000
310
C0C08000C0C0A000F0FBFF00A4A0A000808080000000FF0000FF000000FFFF00FF000000FF00FF00FFFF0000FFFFFF00A4A4A4A4A4A4A4A4A4A4A4A4A4A4A4A4A4A4A4A4A4A4A4A4A4A4A4A4A4A4A4A4A4A4A4A4A4A4A4A4A4A4A4A4A4A4A4A4A4A4A4A4A4A4A4A4A4A4A4A4A4A4A4A4A4A4A4A4A4A4A4A4A4A4A4A4A4A4A4
310
A4A4A4A4A4A4A4A4A4A4A4A4A4A4A4A4A4A4A4A4A4A4A4A4A4A4A4A4A4A4A4A4A4A4A4A4A4A4A4A4A4A4A4A4A4A4A4A4A4A4A4A4A4A4A4A4A4A4A4A4A4A4A4A4A4A4A4A4A4A4A4A4A4A4A4A4A4A4A4A4A4A4A4A4A4A4A4A4A4A4A4A4A4A4A4A4A4A4A4A4A4A4A4A4A4A4A4A4A4A4A4A4A4A4A4A4A4A4A4A4A4A4A4A4A4A4A4
310
A4A4A4A4A4A4A4A4A4A4A4A4A4A4A4A4A4A4A4A4A4A4A4A4A4A4A4A4A4A4A4A4A4A4A4A4A4A4A4A4A4A4A4A4A4A4A4A4A4A4A4A4A4A4A4A4A4A4A4A4A4A4A4A4A4A4A4A4A4A4A4A4A4A4A4A4A4A4A4A4A4A4A4A4A4A4A4A4A4A4A4A4A4A4A4A4A4A4A4A4A4A4A4A4A4A4A4A4A4A4A4A4A4A4A4A4A4A4A4A4A4A4A4A4A4A4A4
310
A4A4A4A4A4A4A4A4A4A4A4A4A4A4A4A4A4A4A4A4A4A4A4A4A4A4A4A4A4A4A4A4A4A4A4A4A4A4A4A4A4A4A4A4A4A4A427A4A4A4A4A4A4A4A4A4A4A4A4A4A4A4A4A4A4A4A4A4A4A4A4A4A4A4A4A4A4A427A4A4A4A4A4A4A4A4A4A4A4A4A4A4A4A4A4A4A4A4A4A4A4A4A4A4F9A4A4A4A4A4A4A4A4A4A4A4A4A4A4A4A4A4A4A4A4
310
A4A4A4A4A4A4A4A4A4A4F9F9F9A4A4A4A4A4F9A4A4A4A4A4A4A4A4A4A4A4A4A4A4A4A4A4A4F9F9F9F9F9F9F9F9F9A4A4A4A4A4A4A4A4A4A4A4A4A4A4A4F9F9F9F9F9F9F9F9F9A4A4A4F9F9A4F9F9A4A4A4A4A4A4A4A4F9F9F9F9F9F9F9F9A4A4A4A4A4A4A4F9F9F9F9F9F9F9F9F9F9A4A4A4A4A4A4A4F9A4A4A4A4A4A4A4F9
310
F9F9F9F9F9F9F9F9A4A4A4A4A4A4A4A4A4A4A4A4A4A4F9F9F9F9F9F9F9F9F9F9F9F9F9F9A4A4A4A4A4A4A4A4A4A4A4A4A4A4A4A4A4A4A4A4A4A4A4A4A4A4A4A4A4A4A4A4A4A4A4A4A4A4A4A4A4A4A4A4A4A4A4A4A4A4A4A4A4A4A4A4A4A4A4A4A4A4A4A4A4A4A4A4A4A4A4A4A4A4A4A4A4A4A4A4A4A4A4A4A4A4A4A4A4A4A4
310
A4A4A4A4A4A4A4A4A4A4A4A4A4A4A4A4A4A4A4A4A4A4A4A4A4A4A4A4A4A4A4A4A4A4A4A4A4A4A4A4A4A4A4A4A4A4A4A4A4A4A4A4A4A4A4A4A4A4A4A4A4A4A4A4A4A4A4A4A4A4A4A4A4A4A4A4A4A4A4A4A4A4A4A4A4A4A4A4A4A4A4A4A4A4A4A4A4A4A4A4A4A4A4A4A4A4A4A4A4A4A4A4A4A4A4A4A4A4A4A4A4A4A4A4A4A4A4
310
A4A4A4A4A4A4A4A4A4A4A4A4A4A4A4A4A4A4A4A4A4A4A4A4A4A4A4A4A4A4A4A4A4A4A4A4A4A4A4A4A4A4A4A4A4A4A4A4A4A4A4A4A4A4A4A4A4A4A4A4A4A4A4A4A4A4A4A4A4A4A4A4A4A4A4A4A4A4A4A4A4A4A4A4A4A4A4A4A4A4A4A4A4A4A4A4A4A4A4A4A4A4A4A4A4A4A4A4A4A4A4A4A4A4A4A4A4A4A4A4A4A4A4A4A4A4A4
310
A4A4A4A4A4A4A4A4A4A4A4A4A4A4A4A4A4A4A4A4A4A4A4A4A4A4A4A4A4A4A4A4A4A4A4A4A4A4A4A4A4A4A4A4A4A4A4A4A4A4A4A4A4A4A4A4
102
{BLKREFS
331
B7D1
102
}
1001
ACAD
1000
DesignCenter Data
1002
{
1070
     1
1070
     4
1002
}
  0
BLOCK_RECORD
  5
B864
330
1
100
AcDbSymbolTableRecord
100
AcDbBlockTableRecord
  2
moving 0-1 S3 frontale front
340
0
310
2800000020000000200000000100080000000000000400000000000000000000000000000000000000000000000080000080000000808000800000008000800080800000C0C0C000C0DCC000F0CAA6000020400000206000002080000020A0000020C0000020E00000400000004020000040400000406000004080000040A0
310
000040C0000040E00000600000006020000060400000606000006080000060A0000060C0000060E00000800000008020000080400000806000008080000080A0000080C0000080E00000A0000000A0200000A0400000A0600000A0800000A0A00000A0C00000A0E00000C0000000C0200000C0400000C0600000C0800000C0
310
A00000C0C00000C0E00000E0000000E0200000E0400000E0600000E0800000E0A00000E0C00000E0E00040000000400020004000400040006000400080004000A0004000C0004000E00040200000402020004020400040206000402080004020A0004020C0004020E000404000004040200040404000404060004040800040
310
40A0004040C0004040E00040600000406020004060400040606000406080004060A0004060C0004060E00040800000408020004080400040806000408080004080A0004080C0004080E00040A0000040A0200040A0400040A0600040A0800040A0A00040A0C00040A0E00040C0000040C0200040C0400040C0600040C08000
310
40C0A00040C0C00040C0E00040E0000040E0200040E0400040E0600040E0800040E0A00040E0C00040E0E00080000000800020008000400080006000800080008000A0008000C0008000E00080200000802020008020400080206000802080008020A0008020C0008020E00080400000804020008040400080406000804080
310
008040A0008040C0008040E00080600000806020008060400080606000806080008060A0008060C0008060E00080800000808020008080400080806000808080008080A0008080C0008080E00080A0000080A0200080A0400080A0600080A0800080A0A00080A0C00080A0E00080C0000080C0200080C0400080C0600080C0
310
800080C0A00080C0C00080C0E00080E0000080E0200080E0400080E0600080E0800080E0A00080E0C00080E0E000C0000000C0002000C0004000C0006000C0008000C000A000C000C000C000E000C0200000C0202000C0204000C0206000C0208000C020A000C020C000C020E000C0400000C0402000C0404000C0406000C0
310
408000C040A000C040C000C040E000C0600000C0602000C0604000C0606000C0608000C060A000C060C000C060E000C0800000C0802000C0804000C0806000C0808000C080A000C080C000C080E000C0A00000C0A02000C0A04000C0A06000C0A08000C0A0A000C0A0C000C0A0E000C0C00000C0C02000C0C04000C0C06000
310
C0C08000C0C0A000F0FBFF00A4A0A000808080000000FF0000FF000000FFFF00FF000000FF00FF00FFFF0000FFFFFF00A4A4A4A4A4A4A4A4A4A4A4A4A4A4A4A4A4A4A4A4A4A4A4A4A4A4A4A4A4A4A4A4A4A4A4A4A4A4A4A4A4A4A4A4A4A4A4A4A4A4A4A4A4A4A4A4A4A4A4A4A4A4A4A4A4A4A4A4A4A4A4A4A4A4A4A4A4A4A4
310
A4A4A4A4A4A4A4A4A4A4A4A4A4A4A4A4A4A4A4A4A4A4A4A4A4A4A4A4A4A4A4A4A4A4A4A4A4A4A4A4A4A4A4A4A4A4A4A4A4A4A4A4A4A4A4A4A4A4A4A4A4A4A4A4A4A4A4A4A4A4A4A4A4A4A4A4A4A4A4A4A4A4A4A4A4A4A4A4A4A4A4A4A4A4A4A4A4A4A4A4A4A4A4A4A4A4A4A4A4A4A4A4A4A4A4A4A4A4A4A4A4A4A4A4A4A4A4
310
A4A4A4A4A4A4A4A4A4A4A4A4A4A4A4A4A4A4A4A4A4A4A4A4A4A4A4A4A4A4A4A4A4A4A4A4A4A4A4A4A4A4A4A4A4A4A4A4A4A4A4A4A4A4A4A4A4A4A4A4A4A4A4A4A4A4A4A4A4A4A4A4A4A4A4A4A4A4A4A4A4A4A4A4A4A4A4A4A4A4A4A4A4A4A4A4A4A4A4A4A4A4A4A4A4A4A4A4A4A4A4A4A4A4A4A4A4A4A4A4A4A4A4A4A4A4A4
310
A4A4A4A4A4A4A4A4A4A4A4A4A4A4A4A4A4A4A4A4A4A4A4A4A4A4A4A4A4A4A4A4A4A4A4A4A4A4A4A4A4A4A4A4A4A4A4A4A4A4A4A4A4A4A4A4A4A4A4A4A4A4A4A4A4A4A4A4A4A4A4A4A4A4A4F9F9F9A4A4A4A4A4A4A4F9F9F9F9F9F9F9F9F9F9F9F9F9F9F9F9F9F9F9F9F9F9F9F9A4A4A4A4A4A4A4A4F9A4A4A4A4A4A4A4A4A4
310
A4A4A4A4A4A4A4A4F9F9F9F9F9F9A4A4A4A4A4A4A4F9F9A4A4A4A4A4A4A4A4A4A4A4A4A4A4A4A4A4F9F9F9F9F9A4A4A4A42727A4A4F9F9A4A4A4A4A4A4A4A4A4A4A4A4A4A4A4A4A4F9F9A4F9F9A4A4A4A42727A4A4A4F9A4A4A4A4A4A4A4A4A4A4A4A4A4A4A4A4A4F9F9F9F9F9F9A4A4A4A4A4A4A4A4F9F9F9F9F9F9F9F9F9
310
F9F9F9F9F9F9F9F9F9F9F9F9F9F9A4A4A4A4A4A4A4A4A4A4A4A4A4A4A4A4A4A4A4A4A4A4A4A4A4A4A4A4A4A4A4F9F9F9A4A4A4A4A4A4A4A4A4A4A4A4A4A4A4A4A4A4A4A4A4A4A4A4A4A4A4A4A4A4A4A4A4A4A4A4A4A4A4A4A4A4A4A4A4A4A4A4A4A4A4A4A4A4A4A4A4A4A4A4A4A4A4A4A4A4A4A4A4A4A4A4A4A4A4A4A4A4A4
310
A4A4A4A4A4A4A4A4A4A4A4A4A4A4A4A4A4A4A4A4A4A4A4A4A4A4A4A4A4A4A4A4A4A4A4A4A4A4A4A4A4A4A4A4A4A4A4A4A4A4A4A4A4A4A4A4A4A4A4A4A4A4A4A4A4A4A4A4A4A4A4A4A4A4A4A4A4A4A4A4A4A4A4A4A4A4A4A4A4A4A4A4A4A4A4A4A4A4A4A4A4A4A4A4A4A4A4A4A4A4A4A4A4A4A4A4A4A4A4A4A4A4A4A4A4A4A4
310
A4A4A4A4A4A4A4A4A4A4A4A4A4A4A4A4A4A4A4A4A4A4A4A4A4A4A4A4A4A4A4A4A4A4A4A4A4A4A4A4A4A4A4A4A4A4A4A4A4A4A4A4A4A4A4A4A4A4A4A4A4A4A4A4A4A4A4A4A4A4A4A4A4A4A4A4A4A4A4A4A4A4A4A4A4A4A4A4A4A4A4A4A4A4A4A4A4A4A4A4A4A4A4A4A4A4A4A4A4A4A4A4A4A4A4A4A4A4A4A4A4A4A4A4A4A4A4
310
A4A4A4A4A4A4A4A4A4A4A4A4A4A4A4A4A4A4A4A4A4A4A4A4A4A4A4A4A4A4A4A4A4A4A4A4A4A4A4A4A4A4A4A4A4A4A4A4A4A4A4A4A4A4A4A4
102
{BLKREFS
331
B8F3
102
}
1001
ACAD
1000
DesignCenter Data
1002
{
1070
     1
1070
     4
1002
}
  0
BLOCK_RECORD
  5
BA32
102
{ACAD_XDICTIONARY
360
BA4A
102
}
330
1
100
AcDbSymbolTableRecord
100
AcDbBlockTableRecord
  2
moving 0-1 S3 frontale right
340
0
310
2800000020000000200000000100080000000000000400000000000000000000000000000000000000000000000080000080000000808000800000008000800080800000C0C0C000C0DCC000F0CAA6000020400000206000002080000020A0000020C0000020E00000400000004020000040400000406000004080000040A0
310
000040C0000040E00000600000006020000060400000606000006080000060A0000060C0000060E00000800000008020000080400000806000008080000080A0000080C0000080E00000A0000000A0200000A0400000A0600000A0800000A0A00000A0C00000A0E00000C0000000C0200000C0400000C0600000C0800000C0
310
A00000C0C00000C0E00000E0000000E0200000E0400000E0600000E0800000E0A00000E0C00000E0E00040000000400020004000400040006000400080004000A0004000C0004000E00040200000402020004020400040206000402080004020A0004020C0004020E000404000004040200040404000404060004040800040
310
40A0004040C0004040E00040600000406020004060400040606000406080004060A0004060C0004060E00040800000408020004080400040806000408080004080A0004080C0004080E00040A0000040A0200040A0400040A0600040A0800040A0A00040A0C00040A0E00040C0000040C0200040C0400040C0600040C08000
310
40C0A00040C0C00040C0E00040E0000040E0200040E0400040E0600040E0800040E0A00040E0C00040E0E00080000000800020008000400080006000800080008000A0008000C0008000E00080200000802020008020400080206000802080008020A0008020C0008020E00080400000804020008040400080406000804080
310
008040A0008040C0008040E00080600000806020008060400080606000806080008060A0008060C0008060E00080800000808020008080400080806000808080008080A0008080C0008080E00080A0000080A0200080A0400080A0600080A0800080A0A00080A0C00080A0E00080C0000080C0200080C0400080C0600080C0
310
800080C0A00080C0C00080C0E00080E0000080E0200080E0400080E0600080E0800080E0A00080E0C00080E0E000C0000000C0002000C0004000C0006000C0008000C000A000C000C000C000E000C0200000C0202000C0204000C0206000C0208000C020A000C020C000C020E000C0400000C0402000C0404000C0406000C0
310
408000C040A000C040C000C040E000C0600000C0602000C0604000C0606000C0608000C060A000C060C000C060E000C0800000C0802000C0804000C0806000C0808000C080A000C080C000C080E000C0A00000C0A02000C0A04000C0A06000C0A08000C0A0A000C0A0C000C0A0E000C0C00000C0C02000C0C04000C0C06000
310
C0C08000C0C0A000F0FBFF00A4A0A000808080000000FF0000FF000000FFFF00FF000000FF00FF00FFFF0000FFFFFF00A4A4A4A4A4A4A4A4A4A4A4A4A4A4A4A4A4A4A4A4A4A4A4A4A4A4A4A4A4A4A4A4A4A4A4A4A4A4A4A4A4A4A4A4F9F9F9F9F9F9F9F9F9F9F9A4A4A4A4A4A4A4A4A4A4A4A4A4A4A4A4A4A4A4F9F9F9A4F9
310
F9F9A4A4A4A4A4A4A4A4A4A4A4A4A4A4A4A4A4A4A4A4A4A4A4A4A4F9F9F9F9F9F9A4F9A4A4A4A4A4A4A4A4A4A4A4A4A4A4A4A4A4A4A4A4A4A4A4F9F9A4F9A4A4A4F9F9F9F9A4A4A4A4A4A4A4A4A4A4A4A4A4A4A4A4A4A4A4A4A4F9F9A4F9A4A4A4A4A4F9F9F9A4A4A4A4A4A4A4A4A4A4A4A4A4A4A4A4A4A4A4A4F9F9A4F9A4
310
A4A4A4A4A4A4F9F9A4A4A4A4A4A4A4A4A4A4A4A4A4A4A4A4A4A4A4F9F9A4F9A4A4A4A4A4A4A4A4F9F9A4A4A4A4A4A4A4A4A4A4A4A4A4A4A4A4A4A4F9F9A4F9A4A4A4A4A4A4A4A4F9A4A4A4A4A4A4A4A4A4A4A4A4A4A4A4A4A4A4A4F9F9A4F9A4A4A4A4A4A4A4A4A4F9A4A4A4A4A4A4A4A4A4A4A4A4A4A4A4A4A4A4F9F9A4F9
310
A4A4A4A4A4A4A4A4A4A4A4A4A4A4A4A4A4A4A4A4A4A4A4A4A4A4A4A4F9F9A4F9A4A4A4A4A4A4A4A4A4A4A4A4A4A4A4A4A4A4A4A4A4A4A4A4A4A4A4A4F9F9A4F9A4A4A4A4A4A4A4A4A4A4A4A4A4A4A4A4A4A4A4A4A4A4A4A4A4A4A4F9F9A4A4F9A4A4A4A4A4A4A4A4A4A4A4A4A4A4A4A4A4A4A4A4A4A4A4A4A4A4A4F9F9A4A4
310
F9A4A4A4A4A4A4A4A4A4A4A4A4A4A4A4A4A4A4A4A4A4A4A4A4A4A4A4F9F9A4A4F9A4A4A4A4A4A4A4A4A4A4A4A4A4A4A4A4A4A4A4A4A4A4A4A4A4A4A4F9F9A4A4F9A4A4A4A4A4A4A4A4A4A4A4A4A4A4A4A4A4A4A4A4A4A4A4A4A4A4A4F9F9A4A4F9A4A4A4A4A4A4A4A4A4A4A4A4A4A4A4A4A4A4A4A4A4A4A4A4A4A4A4F9F9A4
310
A4F9A4A4A4A4A4A4A4A4A4A4A4A4A4A4A4A4A4A4A4A4A4A4A4A4A4A4A4A4F9F9A4F9A4A4A4A4A4A4A4A4A4A4A4A4A4A4A4A4A4A4A4A4A4A4A4A4A4A4A4A4F9F9A4F9A4A4A4A4A4A4A4A4A4F9A4A4A4A4A4A4A4A4A4A4A4A4A4A4A4A4A4A4F9F9A4F9A4A4A4A4A4A4A4A4A4F9A4A4A4A4A4A4A4A4A4A4A4A4A4A4A4A4A4A4F9
310
F9A4F9A4A4A4A4A4A4A4A4A4F9A4A4A4A4A4A4A4A4A4A4A4A4A4A4A4A4A4A4F9F9A4F9A4A4A4A4A4A4A4A4F9A4A4A4A4A4A4A4A4A4A4A4A4A4A4A4A4A4A4A4F9F9A4F9A4A4A4A4A4A4A4A4F9A4A4A4A4A4A4A4A4A4A4A4A4A4A4A4A4A4A4A4F9F9A4F9A4A4A4A4A4A4A4F9A4A4A4A4A4A4A4A4A4A4A4A4A4A4A4A4A4A4A4A4
310
F9F9A4F9A4A4A4A4A4F9F9A4A4A4A4A4A4A4A4A4A4A4A4A4A4A4A4A4A4A4A4A4F9F9A4F9A4A4A4F9F9A4A4A4A4A4A4A4A4A4A4A4A4A4A4A4A4A4A4A4A4A4A4A4A4F9F9F9A4F9F9A4A4A4A4A4A4A4A4A4A4A4A4A4A4A4A4A4A4A4A4A4A4A4A4A4A4F9F9F9F9A4A4A4A4A4A4A4A4A4A4A4A4A4A4A4A4A4A4A4A4A4A4A4A4A4A4
310
A4A4A4F9F9F9F9F9F9F9F9F9F9F9F9F9A4A4A4A4A4A4A4A4A4A4A4A4A4A4A4A4A4A4A4A4A4A4A4A4A4A4A4A4A4A4A4A4A4A4A4A4A4A4A4A4
102
{BLKREFS
331
BA78
102
}
1001
ACAD
1000
DesignCenter Data
1002
{
1070
     1
1070
     4
1002
}
  0
ENDTAB
  0
ENDSEC
  0
SECTION
  2
BLOCKS
  0
BLOCK
  5
20
330
1F
100
AcDbEntity
  8
0
100
AcDbBlockBegin
  2
*Model_Space
 70
     0
 10
0.0
 20
0.0
 30
0.0
  3
*Model_Space
  1

  0
ENDBLK
  5
21
330
1F
100
AcDbEntity
  8
0
100
AcDbBlockEnd
  0
BLOCK
  5
1C
330
1B
100
AcDbEntity
 67
     1
  8
0
100
AcDbBlockBegin
  2
*Paper_Space
 70
     0
 10
0.0
 20
0.0
 30
0.0
  3
*Paper_Space
  1

  0
ENDBLK
  5
1D
330
1B
100
AcDbEntity
 67
     1
  8
0
100
AcDbBlockEnd
  0
BLOCK
  5
24
330
23
100
AcDbEntity
  8
0
100
AcDbBlockBegin
  2
*Paper_Space0
 70
     0
 10
0.0
 20
0.0
 30
0.0
  3
*Paper_Space0
  1

  0
ENDBLK
  5
25
330
23
100
AcDbEntity
  8
0
100
AcDbBlockEnd
  0
BLOCK
  5
7C
330
7A
100
AcDbEntity
  8
0
100
AcDbBlockBegin
  2
GENAXEH
 70
     0
 10
0.0
 20
0.0
 30
0.0
  3
GENAXEH
  1

  0
LINE
  5
7B
330
7A
100
AcDbEntity
  8
0
100
AcDbLine
 10
-1.0
 20
0.0
 30
0.0
 11
1.0
 21
0.0
 31
0.0
  0
ENDBLK
  5
7D
330
7A
100
AcDbEntity
  8
0
100
AcDbBlockEnd
  0
BLOCK
  5
25CD
330
25CC
100
AcDbEntity
  8
0
100
AcDbBlockBegin
  2
poignée S3 frontale right
 70
     0
 10
0.0
 20
0.0
 30
0.0
  3
poignée S3 frontale right
  1

  0
LINE
  5
25D0
330
25CC
100
AcDbEntity
  8
S3_EXTERN HANDLE FRONT
100
AcDbLine
 10
-38.07572069548604
 20
-53.70365628714552
 30
0.0000000000000012
 11
-38.07932005784579
 21
-53.70021429117286
 31
0.0
  0
LINE
  5
25D1
330
25CC
100
AcDbEntity
  8
S3_EXTERN HANDLE FRONT
100
AcDbLine
 10
-38.06847358426478
 20
-53.70879273377688
 30
0.0000000000000012
 11
-38.07572069548604
 21
-53.70365628714552
 31
0.0000000000000012
  0
LINE
  5
25D2
330
25CC
100
AcDbEntity
  8
S3_EXTERN HANDLE FRONT
100
AcDbLine
 10
-38.03715316787247
 20
-53.72477221248932
 30
0.0000000000000012
 11
-38.06847358426478
 21
-53.70879273377688
 31
0.0000000000000012
  0
LINE
  5
25D3
330
25CC
100
AcDbEntity
  8
S3_EXTERN HANDLE FRONT
100
AcDbLine
 10
-37.99672326705274
 20
-53.74123318130393
 30
0.0000000000000012
 11
-38.03715316787247
 21
-53.72477221248932
 31
0.0000000000000012
  0
LINE
  5
25D4
330
25CC
100
AcDbEntity
  8
S3_EXTERN HANDLE FRONT
100
AcDbLine
 10
-37.90656515982056
 20
-53.77269386440281
 30
0.0000000000000012
 11
-37.99672326705274
 21
-53.74123318130393
 31
0.0000000000000012
  0
LINE
  5
25D5
330
25CC
100
AcDbEntity
  8
S3_EXTERN HANDLE FRONT
100
AcDbLine
 10
-37.80949149727894
 20
-53.80299909319456
 30
0.0000000000000012
 11
-37.90656515982056
 21
-53.77269386440281
 31
0.0000000000000012
  0
LINE
  5
25D6
330
25CC
100
AcDbEntity
  8
S3_EXTERN HANDLE FRONT
100
AcDbLine
 10
-37.60154378339081
 20
-53.86196205571764
 30
0.0000000000000012
 11
-37.80949149727894
 21
-53.80299909319456
 31
0.0000000000000012
  0
LINE
  5
25D7
330
25CC
100
AcDbEntity
  8
S3_EXTERN HANDLE FRONT
100
AcDbLine
 10
-37.60338418983128
 20
-53.87338560657394
 30
0.0000000000000012
 11
-37.60154378339081
 21
-53.86196205571764
 31
0.0000000000000012
  0
LWPOLYLINE
  5
2622
330
25CC
100
AcDbEntity
  8
S3_EXTERN HANDLE FRONT
100
AcDbPolyline
 90
       32
 70
   128
 43
0.0
 10
-22.49864969733784
 20
-49.38651877744115
 10
-23.17319867752104
 20
-51.68044688731459
 10
-23.23874058268371
 20
-51.87562211525307
 10
-23.29650894724472
 20
-52.03463417732525
 10
-23.35881811905875
 20
-52.18291282057993
 10
-23.39588540272763
 20
-52.24868824646313
 10
-23.40640660136683
 20
-52.26123929138594
 42
-0.1784564583914202
 10
-23.42131936942809
 20
-52.26977688604489
 10
-23.80241598884021
 20
-52.27981073826777
 42
-0.3179612852453217
 10
-23.84268823486917
 20
-52.25288224737875
 42
-0.0718592686710914
 10
-23.86014852016217
 20
-52.20672896581084
 42
-0.0247996468754518
 10
-23.86724741111567
 20
-52.16914905082655
 42
-0.019994941565925
 10
-23.87226104657543
 20
-52.11792668880247
 42
-0.0271370323365009
 10
-23.87186818401659
 20
-51.97833306827186
 42
-0.0236726591809956
 10
-23.84436231791381
 20
-51.71810443984998
 42
-0.0287702772869678
 10
-23.70530339357549
 20
-51.075974817499
 42
-0.0108141976600968
 10
-23.59318123531068
 20
-50.69962997919623
 42
-0.0018271066781779
 10
-22.94956554350898
 20
-48.67136909398471
 42
-0.0010006810914617
 10
-22.63188492798434
 20
-47.68983919356185
 42
-0.0012957048667357
 10
-22.14499848214609
 20
-46.21028528569985
 42
0.0271645312317467
 10
-21.81549793610622
 20
-45.2252814697569
 42
-0.0352643657443493
 10
-21.49959497405069
 20
-44.32938590768083
 42
-0.0010300224036126
 10
-21.22333560564261
 20
-43.69646872997009
 42
-0.0457836909794731
 10
-21.07421801472896
 20
-43.42680319498413
 42
-0.0422848098826819
 10
-20.99656707718202
 20
-43.33100373298805
 42
-0.1890631049343681
 10
-20.97146835264488
 20
-43.31944986217246
 10
-20.69001428520357
 20
-43.31705923393508
 42
-0.3200882926459823
 10
-20.6810743789444
 20
-43.33675382091678
 42
-0.0456033374549251
 10
-20.68680960071362
 20
-43.39907405406842
 42
-0.0206223280267079
 10
-20.73993134992662
 20
-43.63243684870917
 42
-0.0070896284407453
 10
-20.82682659729858
 20
-43.94278457961343
 10
-21.99626693587203
 20
-47.69692260262428
  0
LWPOLYLINE
  5
2639
330
25CC
100
AcDbEntity
  8
S3_EXTERN HANDLE FRONT
100
AcDbPolyline
 90
       18
 70
   128
 43
0.0
 10
-41.43110100657145
 20
-207.9204456599196
 10
-41.44651740807666
 20
-207.8663539785219
 10
-41.50639114292499
 20
-207.7528305120666
 42
0.0560083672629136
 10
-41.82755892694598
 20
-207.3797280035572
 42
0.0256823852947332
 10
-42.26738632018776
 20
-207.0028671322858
 42
0.0232850786706728
 10
-43.0765675158932
 20
-206.43696968432
 42
0.0358627154376298
 10
-45.3043879042259
 20
-205.24856905513
 42
0.0400283246904021
 10
-48.32983581691809
 20
-204.1684772662808
 42
0.051176120755474
 10
-52.1895529997634
 20
-203.5529183127708
 42
0.021761828577148
 10
-54.72046456781476
 20
-203.5245063124559
 42
0.0038619277585531
 10
-56.25029248447384
 20
-203.5812601238829
 42
0.0339288716881199
 10
-56.70585502594497
 20
-203.5777097069211
 42
0.1290083284945847
 10
-56.86239566893959
 20
-203.6290021412778
 42
0.1278682018314152
 10
-57.76500999065911
 20
-204.6111933090667
 42
0.0364395663790612
 10
-58.38741420731418
 20
-205.8045697377074
 42
0.0204065748677911
 10
-58.90336705176872
 20
-207.129313915585
 42
0.0114641174756566
 10
-59.29790774349197
 20
-208.3622668405026
 42
0.0148585590086725
 10
-59.44813092894623
 20
-208.9104528481215
 42
-12.79954603616447
  0
LWPOLYLINE
  5
263A
330
25CC
100
AcDbEntity
  8
S3_EXTERN HANDLE FRONT
100
AcDbPolyline
 90
       13
 70
   128
 43
0.0
 10
-61.11215694935691
 20
-206.5428642705295
 42
-0.0290384921453598
 10
-60.34482744515384
 20
-204.1407511946593
 42
-0.1002198097621799
 10
-59.14672070489046
 20
-202.1232916424956
 42
-0.1759314817118216
 10
-58.0777769981417
 20
-201.6461273098165
 42
-0.0085085590686885
 10
-55.61471686856555
 20
-201.5997836602108
 42
-0.0137690017533559
 10
-52.86941876752575
 20
-201.5931922709406
 42
-0.0255746008027992
 10
-49.84823608876621
 20
-201.8289415204219
 42
-0.0322939045298883
 10
-46.59452693238068
 20
-202.4703341906077
 42
-0.0380356281109953
 10
-43.01162503884348
 20
-203.7195041992474
 42
-0.0443262076124529
 10
-40.61444380283552
 20
-205.0046974415284
 42
-0.0442558168418138
 10
-39.94887446016202
 20
-205.5380790231924
 42
-0.0701127898887379
 10
-39.71495601266145
 20
-205.8340017382757
 42
-0.0861312059815521
 10
-39.67484915085874
 20
-205.9443363628185
 42
1.548588851375172
  0
LWPOLYLINE
  5
263B
330
25CC
100
AcDbEntity
  8
S3_EXTERN HANDLE FRONT
100
AcDbPolyline
 90
       14
 70
   128
 43
0.0
 10
-21.90641889043809
 20
-47.70477789104552
 10
-21.07697700000011
 20
-45.0031505
 10
-20.87403859550403
 20
-44.35682941848779
 10
-20.62576068555774
 20
-43.5969390874572
 10
-20.2684406800127
 20
-42.54301672464549
 10
-20.03287039035285
 20
-41.86653544132815
 10
-19.50571546303013
 20
-40.40897220306454
 10
-18.99863298018942
 20
-39.08346413779554
 10
-18.36351753977652
 20
-37.53584940782355
 10
-17.58614757784539
 20
-35.86407179852546
 10
-17.36771937774216
 20
-35.41090506289947
 10
-16.4999997356702
 20
-33.6734419261648
 10
-16.26764623709294
 20
-33.50000007687203
 10
-16.19999999999993
 20
-33.4418215507564
  0
LWPOLYLINE
  5
263C
330
25CC
100
AcDbEntity
  8
S3_EXTERN HANDLE FRONT
100
AcDbPolyline
 90
        4
 70
   128
 43
0.0
 10
-23.18216222967516
 20
-49.39844938395663
 10
-21.50000000000006
 20
-49.36908749999997
 10
-21.50000000000006
 20
-47.70000049999999
 10
-22.63519597077328
 20
-47.70000049999999
  0
LWPOLYLINE
  5
263D
330
25CC
100
AcDbEntity
  8
S3_EXTERN HANDLE FRONT
100
AcDbPolyline
 90
      108
 70
   128
 43
0.0
 10
-42.85791427529153
 20
-61.80863860837615
 42
0.0224360496996523
 10
-43.14746664174811
 20
-62.06781352971422
 42
0.0287656242197755
 10
-43.47093354206236
 20
-62.4229252797383
 42
0.0481099988674187
 10
-43.75598680636824
 20
-62.8412551120229
 10
-44.46805096112558
 20
-67.28818917875639
 10
-45.08680070214262
 20
-70.56076686945471
 10
-45.64746821139886
 20
-73.15640149916442
 10
-46.08866908441012
 20
-75.00000007687219
 10
-47.35783191294951
 20
-80.11992019327857
 10
-49.60861016604764
 20
-89.54987741987276
 10
-52.50068480164765
 20
-102.9509819749467
 10
-55.16872860547977
 20
-117.7019855261424
 10
-57.09856489846607
 20
-131.0456802341706
 10
-58.62115183764405
 20
-144.692677751399
 10
-60.07290914666327
 20
-163.941155057023
 10
-60.85239902926918
 20
-183.7792434271931
 10
-61.08819697291221
 20
-200.2165767565621
 10
-61.11215694935691
 20
-206.5428642705295
 42
0.3163079036915459
 10
-59.45320616386045
 20
-208.921962880294
 42
0.0102967171168954
 10
-57.8886699168849
 20
-209.455391985797
 42
0.067053730968973
 10
-56.26208000000002
 20
-209.7414615
 10
-41.43110100657139
 20
-207.9204456599196
 42
0.3775808435308414
 10
-39.67484915085874
 20
-205.9443363628155
 10
-39.74799007483961
 20
-201.3307037691831
 10
-39.65563399953083
 20
-197.7575243739088
 10
-39.65583227005288
 20
-194.1630762772341
 10
-39.7285015568533
 20
-191.169838161231
 10
-39.60997223182449
 20
-188.7728830125276
 10
-39.47195836049565
 20
-186.6669244789443
 10
-39.58144723531887
 20
-184.6733965266904
 10
-39.60382268549017
 20
-182.9680121531525
 10
-39.55444204556318
 20
-181.5115734849503
 10
-39.40689198285657
 20
-179.5971848932919
 10
-39.32257238182121
 20
-178.1184929675215
 10
-39.37523993370951
 20
-176.709317331209
 10
-39.40194208390312
 20
-174.2449922467693
 10
-39.31349500887342
 20
-172.5136253672587
 10
-39.06984029865652
 20
-170.1973596652202
 10
-39.0417006349449
 20
-169.4756562136816
 10
-39.11686062126643
 20
-168.0858353078018
 10
-39.13752666156592
 20
-166.9515449525052
 10
-39.11384190785407
 20
-165.5309435125577
 10
-39.00308624263744
 20
-163.8241876552409
 10
-38.73471085404941
 20
-161.6022293408871
 10
-38.70656813917748
 20
-160.8804476356483
 10
-38.77224939561302
 20
-159.0918611838178
 10
-38.73364066769295
 20
-156.9343235098023
 10
-38.64566414426838
 20
-155.6774133683282
 10
-38.44707459578206
 20
-153.8696410849907
 10
-38.34063096117978
 20
-152.955319048057
 10
-38.26105548306413
 20
-152.2872085632786
 10
-38.31508170237839
 20
-150.5676302514291
 10
-38.26818278441459
 20
-148.6818862191832
 10
-38.14603823385005
 20
-147.0973228498046
 10
-37.9680711576359
 20
-145.6021289330305
 10
-37.76394799436747
 20
-143.7448867585577
 10
-37.75070652622929
 20
-142.2175563891791
 10
-37.68150374888524
 20
-140.2081852845245
 10
-37.56459404225365
 20
-138.8174171915075
 10
-37.35824171465083
 20
-137.1804655457139
 10
-37.12732699305747
 20
-135.8198854893755
 10
-37.06555488909163
 20
-135.0996753785624
 10
-37.06715257418216
 20
-133.5965192112277
 10
-36.97586006701442
 20
-131.7270170127907
 10
-36.81943811124381
 20
-130.1331777095185
 10
-36.52933351464731
 20
-128.1255105226938
 10
-36.3070009969926
 20
-126.2541437915637
 10
-36.22454753534868
 20
-124.3544249002328
 10
-36.03163465909972
 20
-122.148911008567
 10
-35.64615568136765
 20
-119.5844978830863
 10
-35.47972139460745
 20
-118.583227809167
 10
-35.37123651276573
 20
-117.9137893308716
 10
-35.25615968430861
 20
-115.5923567131786
 10
-35.02703715077667
 20
-113.4694502178233
 10
-34.85173144492967
 20
-112.3145309553044
 10
-34.43829960291675
 20
-109.9911335337772
 10
-34.31158380950598
 20
-109.3230132537267
 10
-34.16878147019094
 20
-107.1246353754603
 10
-34.03639034577225
 20
-105.9293290789198
 10
-33.78171562484596
 20
-104.2092433915451
 10
-33.43516302372723
 20
-102.3550759296461
 10
-33.16147747600826
 20
-100.7825814580966
 10
-32.99035332259825
 20
-99.13234593452409
 10
-32.70035430237425
 20
-96.8904579715989
 10
-32.39533669754627
 20
-95.15646920558607
 10
-31.87965297921806
 20
-92.85528052631638
 10
-31.76439835327148
 20
-92.14025854253874
 10
-31.55971985639894
 20
-90.21251771052755
 10
-31.19932104263074
 20
-87.92703158563677
 10
-30.90448924127287
 20
-86.44039888926375
 10
-30.38565509930487
 20
-84.26279549222597
 10
-30.25022792057433
 20
-83.5510581380562
 10
-29.98337286455996
 20
-81.50664927927039
 10
-29.59326073750748
 20
-79.34334020603478
 10
-28.93564879294962
 20
-76.42535956901389
 10
-28.62315908263298
 20
-75.00000006666841
 10
-28.11212996683634
 20
-72.19081777761084
 10
-27.73396986320268
 20
-70.4074554596873
 10
-26.76529072729949
 20
-66.4197093410628
 10
-26.39979602573294
 20
-64.62664637480315
 10
-25.90603506619664
 20
-62.41081603338819
 10
-25.56339894822844
 20
-61.0463009161441
 10
-24.76853014864423
 20
-58.12800424784512
 10
-24.19261592618938
 20
-55.66276510092905
 10
-23.73427460233853
 20
-53.87338886628914
 10
-23.27296923927594
 20
-52.28945459572202
 10
-23.18270748938977
 20
-52.14763438611618
 10
-22.39279388460011
 20
-49.38467076964531
  0
LWPOLYLINE
  5
263E
330
25CC
100
AcDbEntity
  8
S3_EXTERN HANDLE FRONT
100
AcDbPolyline
 90
       21
 70
   128
 43
0.0
 10
-39.48909900000001
 20
-49.88516800000002
 42
0.1424566246956389
 10
-39.50553300000001
 20
-49.70415599999995
 42
0.2308339603466974
 10
-39.64489034560427
 20
-49.57097988991165
 42
0.0612072933662853
 10
-39.86902803086781
 20
-49.52661036254852
 42
0.0845947396808862
 10
-40.16544000000004
 20
-49.53211449999997
 42
0.1341254950252946
 10
-40.28711950000001
 20
-49.60128400000002
 42
0.1151205181438707
 10
-40.35594199999997
 20
-49.7116145
 10
-41.13977786609524
 20
-53.74979945311065
 10
-41.75782234231053
 20
-57.09711346139653
 10
-42.23972979171622
 20
-60.02291656072464
 42
0.3654641538966137
 10
-42.05549999999999
 20
-60.33199049999996
 42
0.0860439241502485
 10
-41.90832199999994
 20
-60.35586849999998
 42
0.1390072555641193
 10
-41.71880698859559
 20
-60.29991862623171
 42
-0.2214526319819587
 10
-41.53266490683409
 20
-60.27606643446154
 42
0.4611813523474527
 10
-41.44414200000006
 20
-60.22108350000002
 42
-0.1790356221758821
 10
-41.36992400000003
 20
-60.08685550000001
 10
-41.11499446536737
 20
-58.53117302215259
 10
-40.6581961116799
 20
-55.93890009293159
 10
-40.15941780767718
 20
-53.312198960302
 10
-39.66723250671777
 20
-50.79183405063218
 10
-39.48827499999999
 20
-49.88070350000004
  0
LWPOLYLINE
  5
263F
330
25CC
100
AcDbEntity
  8
S3_EXTERN HANDLE FRONT
100
AcDbPolyline
 90
        9
 70
   128
 43
0.0
 10
-39.64489034560427
 20
-49.57097988991165
 10
-39.51996338590362
 20
-49.6165315604091
 10
-39.23773973699616
 20
-49.72179539383626
 10
-39.0318808330203
 20
-49.82556090207191
 10
-38.86351609050559
 20
-49.94080652438362
 10
-38.76614443288224
 20
-50.03992242385675
 42
-0.2605318177054227
 10
-38.68023100910802
 20
-50.35427326572676
 10
-40.20909088334815
 20
-60.25841601843438
 42
-0.2879651252543052
 10
-40.61082065033519
 20
-60.72211440500024
 42
-70.04174359415866
  0
LWPOLYLINE
  5
2640
330
25CC
100
AcDbEntity
  8
S3_EXTERN HANDLE FRONT
100
AcDbPolyline
 90
       14
 70
   128
 43
0.0
 10
-32.02223234769548
 20
-45.97768496297578
 42
-0.1431997976225031
 10
-33.5372866933194
 20
-47.92362679114967
 42
-0.1392112476137746
 10
-35.85731959045171
 20
-48.75602712181984
 42
0.0032993100068716
 10
-36.32657509141103
 20
-48.79339299283333
 42
0.0219912635326048
 10
-36.72392292865686
 20
-48.83839410990794
 42
0.1232976703424249
 10
-36.97179213564169
 20
-48.92409665826767
 10
-38.07932005784522
 20
-53.70021429117048
 10
-39.00268267542657
 20
-57.60407093483923
 10
-39.47847042343978
 20
-59.80486294623199
 42
-0.1145254353463568
 10
-39.77193094550234
 20
-60.30884542989833
 42
-0.1530662078931448
 10
-40.41804389363898
 20
-60.68817250402685
 42
0.0607471927690523
 10
-41.68086367992583
 20
-61.01094114828391
 42
0.0655053728523235
 10
-42.58980134444795
 20
-61.54006015281339
 42
-0.0501579449903721
 10
-42.85791427529153
 20
-61.80863860837615
 42
4120.511404390934
  0
LWPOLYLINE
  5
2641
330
25CC
100
AcDbEntity
  8
S3_EXTERN HANDLE FRONT
100
AcDbPolyline
 90
       24
 70
   128
 43
0.0
 10
-16.20000300511793
 20
-10.58354899304851
 10
-17.30047317035093
 20
-12.56046978466889
 10
-18.31975511871161
 20
-14.57864138524985
 10
-19.23602420148751
 20
-16.48569650180269
 10
-20.34048212596827
 20
-18.84888291569655
 10
-23.02008394254869
 20
-24.75794762255447
 10
-25.6051285858224
 20
-30.62679432876001
 10
-27.97361450089608
 20
-36.1393910374311
 10
-29.71671814391198
 20
-40.29509622305414
 10
-31.76827234901492
 20
-45.3378152222698
 10
-33.05187411549781
 20
-48.62207132679845
 10
-34.99957056547811
 20
-53.87338885928222
 10
-36.88524204244243
 20
-59.65681269325546
 10
-38.96959742859826
 20
-67.04694350265924
 10
-40.32217396700412
 20
-72.16936510432844
 10
-42.81144703516605
 20
-82.28695489077962
 10
-47.36639527206472
 20
-103.6840006444324
 10
-49.76292084980906
 20
-117.19583500979
 10
-52.69167824193607
 20
-137.8211698905394
 10
-54.83080306386558
 20
-159.9689266652764
 10
-55.80131792403188
 20
-177.5936009347274
 10
-56.12192820489963
 20
-189.1331729537581
 10
-56.24335294542061
 20
-199.5345193825776
 10
-56.26085602630872
 20
-209.7413112148785
  0
LWPOLYLINE
  5
2642
330
25CC
100
AcDbEntity
  8
S3_EXTERN HANDLE FRONT
100
AcDbPolyline
 90
        4
 70
   128
 43
0.0
 10
-41.88535281473479
 20
-49.17982849999998
 10
-41.85317184497302
 20
-49.88281459564439
 10
-42.15277145778339
 20
-49.89650352994482
 42
0.4234042602928488
 10
-42.17882209385862
 20
-49.9259609307548
 42
472.5730291308344
  0
LWPOLYLINE
  5
2643
330
25CC
100
AcDbEntity
  8
S3_EXTERN HANDLE FRONT
100
AcDbPolyline
 90
        8
 70
   128
 43
0.0
 10
-20.87403859550403
 20
-44.35682941848779
 10
-18.361439867135
 20
-43.18518534215615
 10
-13.32407300000005
 20
-40.83622250000002
 42
0.2944007140681518
 10
-12.45808722051765
 20
-39.46058477913721
 42
0.2944009414689415
 10
-13.35353894842063
 20
-38.10394338285602
 42
-0.013261852661699
 10
-14.9505095352834
 20
-37.34961028054494
 42
-0.0139159539956546
 10
-16.5807302839745
 20
-36.46822740974471
 42
-0.0088066602204178
 10
-17.58614757784539
 20
-35.86407179852546
 42
0.0000004675304253
  0
ARC
  5
2644
330
25CC
100
AcDbEntity
  8
S3_EXTERN HANDLE FRONT
100
AcDbCircle
 10
0.0654457374323556
 20
-7.627503866256859
 30
0.0
 40
32.79988762155351
100
AcDbArc
 50
237.8930888509686
 51
246.2357790041483
  0
LWPOLYLINE
  5
2645
330
25CC
100
AcDbEntity
  8
S3_EXTERN HANDLE FRONT
100
AcDbPolyline
 90
        4
 70
   128
 43
0.0
 10
-21.07697700000011
 20
-45.0031505
 10
-13.11276300000003
 20
-41.2893765
 42
0.2944009334896657
 10
-11.95811629402351
 20
-39.45519287218292
 42
0.2944005558118698
 10
-13.15205163530083
 20
-37.64633845798193
  0
LWPOLYLINE
  5
2646
330
25CC
100
AcDbEntity
  8
S3_EXTERN HANDLE FRONT
100
AcDbPolyline
 90
       24
 70
   128
 43
0.0
 10
-41.42813349423881
 20
-48.97001351741386
 42
-0.8901608180939513
 10
-41.57640909207379
 20
-48.90155549960525
 42
0.3192265149537504
 10
-41.62495182076526
 20
-48.7454914071086
 10
-41.55388871871224
 20
-48.29114301639322
 10
-41.46949186562937
 20
-47.75677116437236
 10
-41.30727291939632
 20
-46.74468986857294
 10
-40.90309582388619
 20
-44.30162068824706
 10
-40.65452257730368
 20
-42.85118775846496
 10
-40.13563139591338
 20
-39.94761321182347
 10
-39.52296270234837
 20
-36.73532016867893
 10
-38.26076659433141
 20
-30.8300375315198
 10
-37.33439452889053
 20
-27.04075246356496
 10
-36.1726594783301
 20
-22.82514520327231
 10
-34.63164964190923
 20
-17.97212198200225
 10
-32.8150140242156
 20
-13.08622502383571
 10
-29.52860608580102
 20
-5.889509451514641
 10
-27.34191347435922
 20
-1.944629269849031
 10
-24.93378432017784
 20
1.834976539281115
 10
-22.95871274542173
 20
4.593056539040219
 10
-20.71272809159081
 20
7.446828470509956
 10
-18.39490496734476
 20
10.16940695124435
 10
-17.22403378966624
 20
11.49148258686659
 10
-16.52328450300109
 20
12.27491681050134
 10
-16.50000349615521
 20
11.79249989918753
  0
LWPOLYLINE
  5
2647
330
25CC
100
AcDbEntity
  8
S3_EXTERN HANDLE FRONT
100
AcDbPolyline
 90
       10
 70
   128
 43
0.0
 10
-16.50000071089727
 20
13.34813240136117
 42
0.1101998614836938
 10
-17.11953545627813
 20
15.45300668390308
 42
0.1038369028996702
 10
-18.81102202627369
 20
17.3094234229992
 42
0.0687798766003848
 10
-21.58220869022864
 20
18.79419851663061
 42
0.0622895482594748
 10
-26.00053200420479
 20
19.84303191284528
 42
0.0402688722739769
 10
-29.54392061883141
 20
19.95778139236859
 42
0.0409900797384919
 10
-33.49571974204508
 20
19.43764409008833
 42
0.019645365115311
 10
-35.88951680867052
 20
18.82054801528295
 42
0.0048438227936996
 10
-36.78439592074506
 20
18.54441665526178
 42
0.1932562280814762
 10
-37.05148419705415
 20
18.21482919439995
 42
212886.3346914343
  0
LWPOLYLINE
  5
2648
330
25CC
100
AcDbEntity
  8
S3_EXTERN HANDLE FRONT
100
AcDbPolyline
 90
       32
 70
   128
 43
0.0
 10
-35.01676648920636
 20
-47.72002110065506
 10
-35.22189114163012
 20
-47.73366722417949
 10
-35.57304351002114
 20
-47.75942654470924
 10
-36.17378793831949
 20
-47.81140450492796
 10
-36.72001014540126
 20
-47.8684740351561
 10
-37.21858178036661
 20
-47.92963886892198
 10
-38.02146972850943
 20
-48.04842513636834
 10
-38.87309419959752
 20
-48.20535710544266
 10
-39.71022859670274
 20
-48.39674566086
 10
-40.33906149948779
 20
-48.57091236351783
 10
-40.87723500426437
 20
-48.74765683519695
 10
-41.19719870866504
 20
-48.86984394400508
 10
-41.42813349423863
 20
-48.9700135174138
 10
-41.49400768366826
 20
-48.99944057980582
 42
-0.0610448069490052
 10
-41.6721315309224
 20
-49.03971995299946
 42
-0.0095920544447658
 10
-41.76834300000002
 20
-49.05090000000001
 42
-0.1931363482816026
 10
-41.90127000000001
 20
-48.98408949999998
 42
-0.1797223915679755
 10
-41.95178941296063
 20
-48.85310058184273
 10
-41.95321547314023
 20
-48.38694427196498
 10
-41.95735990454096
 20
-46.88357466053065
 10
-41.95781860387302
 20
-43.63325444372537
 10
-41.93169930228356
 20
-40.00893278107923
 10
-41.78832190510087
 20
-33.81083478475097
 10
-41.44847068582174
 20
-26.84133665262868
 10
-40.75270066925566
 20
-17.98140147344662
 10
-39.95558376701302
 20
-10.06997937949143
 10
-39.28887980504106
 20
-4.022523184428109
 10
-38.20086193902648
 20
5.823887373515105
 10
-37.45486394902054
 20
13.19591571285713
 10
-37.00729808667012
 20
17.93066793256406
 42
0.1248959433087829
 10
-37.05148279887641
 20
18.21482753832566
 10
-41.31151216442998
 20
26.30494546333449
  0
LWPOLYLINE
  5
2649
330
25CC
100
AcDbEntity
  8
S3_EXTERN HANDLE FRONT
100
AcDbPolyline
 90
       11
 70
     0
 43
0.0
 10
-35.10036415155679
 20
-47.93662050194058
 42
0.0006632795732037
 10
-35.17885096065084
 20
-47.94256256898859
 42
-0.0034882931221304
 10
-35.77398177650144
 20
-48.08866419511037
 42
-0.0033778517171059
 10
-36.34831030603328
 20
-48.2213241285973
 42
-0.0029793188030602
 10
-36.85330748819655
 20
-48.33122512789754
 42
0.0009491430186278
 10
-37.33981107708678
 20
-48.43331948513787
 42
0.0082623028589651
 10
-37.80242514497064
 20
-48.5427357051949
 42
0.0097493844910949
 10
-38.26124153876003
 20
-48.66876790921589
 42
0.0095068494168947
 10
-38.61640685977619
 20
-48.78117045846528
 42
0.0113838295019181
 10
-38.93230433125433
 20
-48.89573046107478
 42
0.0267515950693858
 10
-39.6056705722288
 20
-49.14575140850479
  0
LINE
  5
264A
330
25CC
100
AcDbEntity
  8
S3_EXTERN HANDLE FRONT
100
AcDbLine
 10
-35.10036415155679
 20
-47.93662050194058
 30
0.0
 11
-35.01676648920636
 21
-47.72002110065506
 31
0.0000000000000014
  0
LINE
  5
264B
330
25CC
100
AcDbEntity
  8
S3_EXTERN HANDLE FRONT
100
AcDbLine
 10
-39.65360600000003
 20
-49.1797095
 30
0.0
 11
-39.6056705722288
 21
-49.14575140850479
 31
0.0
  0
LWPOLYLINE
  5
264C
330
25CC
100
AcDbEntity
  8
S3_EXTERN HANDLE FRONT
100
AcDbPolyline
 90
        3
 70
     0
 43
0.0
 10
-35.09542504058539
 20
-47.52118690184334
 42
0.056646689730131
 10
-35.07854000000004
 20
-47.62517149999996
 42
0.1887643523656364
 10
-35.01676600000002
 20
-47.72002049999997
  0
LWPOLYLINE
  5
264D
330
25CC
100
AcDbEntity
  8
S3_EXTERN HANDLE FRONT
100
AcDbPolyline
 90
       19
 70
   128
 43
0.0
 10
-16.50001269108617
 20
-10.09466493486485
 42
-0.0006619775876582
 10
-17.24249869823001
 20
-11.40593689782577
 42
0.0109984752216649
 10
-18.23567712564841
 20
-13.28442501732076
 42
0.0035034941085036
 10
-18.87320016182218
 20
-14.57264920763407
 42
0.0051414632053
 10
-20.96855689763726
 20
-19.01658963943555
 42
0.0026251588428372
 10
-23.11171413227845
 20
-23.73798405542686
 42
0.0017311956788214
 10
-24.93116833851281
 20
-27.83785785797744
 42
0.0034301612852019
 10
-28.60090129133027
 20
-36.33825730854017
 42
0.0023993049101285
 10
-30.55395602482605
 20
-41.01209169343121
 42
0.0036243815315466
 10
-32.55005360564491
 20
-45.95285956755418
 42
-0.1072862106768904
 10
-33.40547843742809
 20
-46.92306050961383
 42
-0.0749578854334145
 10
-34.21519774089296
 20
-47.34906337761043
 42
-0.0707284914182174
 10
-35.09542504058305
 20
-47.52118690184324
 42
0.0213221746017253
 10
-37.77079160335222
 20
-47.76427256828879
 42
0.0248389068542904
 10
-39.76268812817392
 20
-48.13706518814626
 42
0.0283531593819579
 10
-41.15503462999027
 20
-48.55238834555939
 42
0.0196629525880173
 10
-41.62495182076526
 20
-48.74549140710854
 42
-0.089137067264369
 10
-41.79937434110707
 20
-48.82844123753404
 42
-0.0529027422967714
 10
-41.95178941296063
 20
-48.85310058184273
 42
36.5580657333085
  0
LWPOLYLINE
  5
264E
330
25CC
100
AcDbEntity
  8
S3_EXTERN HANDLE FRONT
100
AcDbPolyline
 90
       28
 70
   128
 43
0.0
 10
-41.78716167999062
 20
6.439956730132507
 42
0.0233283954800443
 10
-41.9405450743306
 20
5.845813242305382
 42
0.0404164241826472
 10
-42.07316351105094
 20
4.792156955446841
 42
-0.0001747558852002
 10
-42.17058547181437
 20
2.619724228437746
 42
-0.0000141827322586
 10
-42.28005716309468
 20
0.1993624809862808
 42
0.0002453040796664
 10
-42.41163350266435
 20
-2.737639062759853
 42
0.000374340651939
 10
-42.50729671963154
 20
-4.935743734632467
 42
0.0006826828884875
 10
-42.61649532406187
 20
-7.571501382038718
 42
0.0009456442884921
 10
-42.71901148597584
 20
-10.25673384036332
 42
0.0010054062875595
 10
-42.79842404462317
 20
-12.57521250650018
 42
0.0020827075205363
 10
-42.90820668492989
 20
-16.47047997479393
 42
0.0031317829199186
 10
-42.99579569399128
 20
-21.44057960332373
 42
0.0033297336861354
 10
-43.01574388001296
 20
-25.94605707249377
 42
0.0036185987146361
 10
-42.96853873723529
 20
-30.78358407334059
 42
0.003417849963973
 10
-42.85705530278346
 20
-35.38632244415913
 42
0.0037292204585475
 10
-42.62337240157734
 20
-41.39182999296838
 42
0.0016584528913121
 10
-42.42288946340488
 20
-45.43697376833785
 42
0.000546391098
 10
-42.25205169635233
 20
-48.60560386891842
 42
0.0000022734033299
 10
-42.17911788217423
 20
-49.9360114131714
 42
-0.0470719128816859
 10
-42.19330991167675
 20
-50.50781547240018
 42
-0.0003616556633896
 10
-42.37059451196097
 20
-51.95956825369887
 42
0.0003543480099016
 10
-42.53138216222214
 20
-53.27589393129852
 42
0.0009046425318124
 10
-42.80720532135058
 20
-55.60858741194834
 42
0.0039530526549914
 10
-43.12335548303735
 20
-58.48232472089017
 42
0.0029603385223296
 10
-43.30239589458409
 20
-60.36977988148834
 42
0.0006950645161791
 10
-43.38403121394679
 20
-61.29740587997298
 42
0.4819801173047681
 10
-43.04521782495072
 20
-61.6203622863494
 42
-0.0156153977111701
 10
-42.58980134444795
 20
-61.54006015281339
 42
-0.397853893942979
  0
LWPOLYLINE
  5
264F
330
25CC
100
AcDbEntity
  8
S3_EXTERN HANDLE FRONT
100
AcDbPolyline
 90
       35
 70
   128
 43
0.0
 10
-16.46371530780709
 20
-10.50959755442198
 42
0.041092885022534
 10
-16.48080246314049
 20
-10.30204120972962
 42
-0.0359654444250269
 10
-16.50001399231047
 20
-10.09467070162492
 10
-16.49999299999996
 20
33.67967049999999
 10
-16.99999984912773
 20
33.60909736479118
 10
-16.99999984912773
 20
33.6521413336186
 42
0.0040098406418947
 10
-20.67880350839698
 20
33.1145495874971
 42
0.0110665089814241
 10
-24.67501438726652
 20
32.40600201700477
 42
0.0146883113470913
 10
-28.40460597106466
 20
31.54187183316162
 42
0.0178369365163449
 10
-32.37505156621592
 20
30.34214657592332
 42
0.0108004359172106
 10
-34.88820167159889
 20
29.42148148385399
 42
0.0094062069298022
 10
-37.54323466576745
 20
28.32354678550456
 42
0.0053601683571797
 10
-39.35856621781727
 20
27.51507785363197
 42
0.0013927165347578
 10
-40.51439325118093
 20
26.98529596527544
 42
-0.0009139649016912
 10
-41.02660335859678
 20
26.73893276740972
 42
0.1805631555316502
 10
-41.23586165863571
 20
26.5666845293386
 42
0.0779253200560568
 10
-41.31809240577683
 20
26.30578180521036
 42
-0.0002158977042304
 10
-41.3459189573939
 20
25.23685941666759
 42
-0.0002426769031417
 10
-41.38030565268809
 20
23.96100285599278
 42
-0.0004567457988578
 10
-41.45643316463924
 20
21.27768387121358
 42
-0.0008492319575602
 10
-41.56875109256884
 20
17.63221380952689
 42
-0.0012269043137271
 10
-41.73092207628684
 20
13.02779879194781
 42
-0.0013540509209042
 10
-41.89357078760901
 20
8.961124604884332
 42
-0.3690790569223915
 10
-41.69780986251163
 20
8.686829995447396
 42
0.0237740061107517
 10
-41.78716167999062
 20
6.439956730132735
 42
-0.0217453316807661
 10
-41.89425745510862
 20
3.44059214539726
 42
0.0196174022964679
 10
-42.14518834544958
 20
-2.837971612014825
 42
-0.0185453422149712
 10
-42.31036032417501
 20
-7.20532388662832
 42
0.0206969454555856
 10
-42.45501240366024
 20
-11.52166281741876
 42
0.0067048015912722
 10
-42.69995832472801
 20
-24.84481187383796
 42
0.0083413935163051
 10
-42.51908948200957
 20
-39.04347644944886
 42
-0.0179028808852057
 10
-42.27653211683599
 20
-46.10673277556315
 42
0.0201429278007593
 10
-42.16468369777664
 20
-48.98755290164212
 42
0.3579003951856107
 10
-41.98028450000004
 20
-49.17906550000004
 10
-39.65395200000006
 20
-49.17982949999998
  0
LINE
  5
2650
330
25CC
100
AcDbEntity
  8
S3_EXTERN HANDLE FRONT
100
AcDbLine
 10
-16.5000000509612
 20
-33.67344162907594
 30
-0.0000000000000002
 11
-16.50001312843921
 21
-11.10945112762715
 31
-0.000000000000001
  0
LWPOLYLINE
  5
2656
330
25CC
100
AcDbEntity
  8
S3_EXTERN HANDLE FRONT
100
AcDbPolyline
 90
        9
 70
   128
 43
0.0
 10
-16.99999984912773
 20
33.65214133576768
 10
-16.99999984906691
 20
36.23248958909848
 42
0.0152806302399046
 10
-21.03473532440904
 20
35.34350135853038
 42
0.016766817381818
 10
-25.38329409728584
 20
34.0882951050138
 42
0.0150646978779577
 10
-29.20675934997575
 20
32.71573770011475
 42
0.0122925964186864
 10
-32.27447952442572
 20
31.42101888982069
 42
0.0143219009342189
 10
-35.73077801218858
 20
29.74080109490228
 42
0.0108965691892628
 10
-38.25572517506714
 20
28.351487801085
 42
0.0105933357808074
 10
-40.5356620360705
 20
26.96815670991623
 42
0.4339419682239823
  0
LWPOLYLINE
  5
266D
330
25CC
100
AcDbEntity
  8
S3_EXTERN HANDLE FRONT
100
AcDbPolyline
 90
        2
 70
   128
 43
0.0
 10
-16.20000386560827
 20
33.25323752948236
 10
-16.49999299999996
 20
33.47726649999998
  0
LWPOLYLINE
  5
B571
330
25CC
100
AcDbEntity
  8
S3_EXTERN HANDLE FRONT
100
AcDbPolyline
 90
        2
 70
     0
 43
0.0
 10
-16.04873426611522
 20
-34.72753774735487
 10
-16.04853394336408
 20
34.87834813528293
  0
LWPOLYLINE
  5
B572
330
25CC
100
AcDbEntity
  8
S3_EXTERN HANDLE FRONT
100
AcDbPolyline
 90
       12
 70
   128
 43
0.0
 10
-16.04853394336408
 20
34.87834813528293
 42
-0.0634453973821163
 10
-8.735995542720104
 20
37.89810679924882
 42
-0.06344539708321
 10
-0.8998881286215123
 20
38.98787258369107
 10
0.0001121230745298
 20
39.07541924945049
 10
-0.0000000001732019
 20
0.0753589963963037
 10
-0.0001121230745298
 20
-38.92458075022721
 10
-0.9001118717174563
 20
-38.8371494159873
 42
-0.06344539708321
 10
-8.736213019640786
 20
-37.74733857471914
 42
-0.0634453973821163
 10
-16.04873405684975
 20
-34.72753786442949
 42
-0.273801555089026
 10
-16.20009930766002
 20
-34.46694542926069
 10
-16.1999006925526
 20
34.61775657045372
 42
-0.2693557064252803
 10
-16.04853435569959
 20
34.8783476747151
  0
LWPOLYLINE
  5
B573
330
25CC
100
AcDbEntity
  8
S3_EXTERN HANDLE FRONT
100
AcDbPolyline
 90
        3
 70
   128
 43
0.0
 10
-0.8998881286221944
 20
38.98787235400023
 10
-0.9000000001694843
 20
0.0753615838518869
 10
-0.9001118717167742
 20
-38.83714918629646
  0
LINE
  5
B574
330
25CC
100
AcDbEntity
  8
AXIS
  6
AM_ISO08W050x2
100
AcDbLine
 10
8.999999999962824
 20
0.0753933750559242
 30
0.0
 11
-20.95800010409738
 21
0.0754795028274344
 31
0.0
1001
GENIUS_GENODEF_13
1002
{
1000
HIER
1070
     0
1002
}
1002
{
1000
MANEDIT
1070
     0
1002
}
1002
{
1000
NOSEL
1070
     0
1002
}
1002
{
1000
BEHIND
1070
     0
1002
}
1002
{
1000
OTHER
1070
     0
1002
}
1002
{
1000
REACTOR
1002
}
1001
GENIUS_GENOBJ-N-CEN_13
1002
{
1000
OWNER
1000
GEN
1002
}
  0
INSERT
  5
BA78
330
25CC
100
AcDbEntity
  8
0
100
AcDbBlockReference
  2
moving 0-1 S3 frontale right
 10
-0.0000000001732019
 20
0.0753589963963037
 30
0.0
  0
LWPOLYLINE
  5
BD30
330
25CC
100
AcDbEntity
  8
S3_EXTERN HANDLE FRONT
  6
AM_ISO02W050
 62
     6
100
AcDbPolyline
 90
        9
 70
     0
 43
0.0
 10
0.0000388118335195
 20
12.07541924961166
 10
-18.49996118816648
 20
12.07541924961166
 10
-18.49996118816648
 20
6.075419249611666
 10
-23.49996118816648
 20
6.075419249611666
 10
-23.49996118816648
 20
-5.924580750388333
 10
-18.49996118816648
 20
-5.924580750388333
 10
-18.49996118816648
 20
-11.92458075038833
 10
0.0000388118335195
 20
-11.92458075038833
 10
-0.0000388118334058
 20
12.07541924961166
  0
ENDBLK
  5
2675
330
25CC
100
AcDbEntity
  8
0
100
AcDbBlockEnd
  0
BLOCK
  5
2A9C
330
2A92
100
AcDbEntity
  8
0
100
AcDbBlockBegin
  2
*D4
 70
     1
 10
0.0
 20
0.0
 30
0.0
  3
*D4
  1

  0
LINE
  5
BEE7
330
2A92
100
AcDbEntity
  8
QUOTATION
100
AcDbLine
 10
585.1723522757355
 20
-7.437650218952416
 30
0.0
 11
667.5773323564453
 21
-7.43765021895244
 31
0.0
  0
LINE
  5
BEE8
330
2A92
100
AcDbEntity
  8
QUOTATION
100
AcDbLine
 10
585.3596514744892
 20
-217.2543831318374
 30
0.0
 11
667.5773323564453
 21
-217.2543831318374
 31
0.0
  0
LINE
  5
BEE9
330
2A92
100
AcDbEntity
  8
QUOTATION
100
AcDbLine
 10
664.5773323564453
 20
-14.93765021895244
 30
0.0
 11
664.5773323564453
 21
-209.7543831318374
 31
0.0
  0
SOLID
  5
BEEA
330
2A92
100
AcDbEntity
  8
QUOTATION
100
AcDbTrace
 10
663.3273323564453
 20
-14.93765021895244
 30
0.0
 11
665.8273323564453
 21
-14.93765021895244
 31
0.0
 12
664.5773323564453
 22
-7.437650218952439
 32
0.0
 13
664.5773323564453
 23
-7.437650218952439
 33
0.0
  0
SOLID
  5
BEEB
330
2A92
100
AcDbEntity
  8
QUOTATION
100
AcDbTrace
 10
663.3273323564453
 20
-209.7543831318374
 30
0.0
 11
665.8273323564453
 21
-209.7543831318374
 31
0.0
 12
664.5773323564453
 22
-217.2543831318374
 32
0.0
 13
664.5773323564453
 23
-217.2543831318374
 33
0.0
  0
MTEXT
  5
BEEC
330
2A92
100
AcDbEntity
  8
QUOTATION
 62
     2
100
AcDbMText
 10
654.8262988918784
 20
-115.7145288099136
 30
0.0
 40
10.5
 41
0.0
 71
     5
 72
     1
  1
209.8
 11
0.0000000000000001
 21
1.0
 31
0.0
 73
     1
 44
1.0
1001
ACAD
1000
MTEXTBEGIN
1070
    73
1070
     1
1070
    44
1040
1.0
1070
    74
1070
     0
1000
MTEXTEND
  0
POINT
  5
BEED
330
2A92
100
AcDbEntity
  8
Defpoints
 62
     0
100
AcDbPoint
 10
582.1723522757355
 20
-7.437650218952416
 30
0.0
  0
POINT
  5
BEEE
330
2A92
100
AcDbEntity
  8
Defpoints
 62
     0
100
AcDbPoint
 10
582.3596514744893
 20
-217.2543831318374
 30
0.0
  0
POINT
  5
BEEF
330
2A92
100
AcDbEntity
  8
Defpoints
 62
     0
100
AcDbPoint
 10
664.5773323564453
 20
-217.2543831318374
 30
0.0
  0
ENDBLK
  5
2A9D
330
2A92
100
AcDbEntity
  8
0
100
AcDbBlockEnd
  0
BLOCK
  5
2AF8
330
2AEE
100
AcDbEntity
  8
0
100
AcDbBlockBegin
  2
*D5
 70
     1
 10
0.0
 20
0.0
 30
0.0
  3
*D5
  1

  0
LINE
  5
BEDE
330
2AEE
100
AcDbEntity
  8
QUOTATION
100
AcDbLine
 10
624.35094313446
 20
70.30696189299715
 30
0.0
 11
667.5773323564453
 21
70.30696189299715
 31
0.0
  0
LINE
  5
BEDF
330
2AEE
100
AcDbEntity
  8
QUOTATION
100
AcDbLine
 10
587.1723522757355
 20
131.4180174634707
 30
0.0
 11
667.5773323564453
 21
131.4180174634707
 31
0.0
  0
LINE
  5
BEE0
330
2AEE
100
AcDbEntity
  8
QUOTATION
100
AcDbLine
 10
664.5773323564453
 20
77.80696189299715
 30
0.0
 11
664.5773323564453
 21
123.9180174634707
 31
0.0
  0
SOLID
  5
BEE1
330
2AEE
100
AcDbEntity
  8
QUOTATION
100
AcDbTrace
 10
663.3273323564453
 20
77.80696189299715
 30
0.0
 11
665.8273323564453
 21
77.80696189299715
 31
0.0
 12
664.5773323564453
 22
70.30696189299715
 32
0.0
 13
664.5773323564453
 23
70.30696189299715
 33
0.0
  0
SOLID
  5
BEE2
330
2AEE
100
AcDbEntity
  8
QUOTATION
100
AcDbTrace
 10
663.3273323564453
 20
123.9180174634707
 30
0.0
 11
665.8273323564453
 21
123.9180174634707
 31
0.0
 12
664.5773323564453
 22
131.4180174634707
 32
0.0
 13
664.5773323564453
 23
131.4180174634707
 33
0.0
  0
MTEXT
  5
BEE3
330
2AEE
100
AcDbEntity
  8
QUOTATION
 62
     2
100
AcDbMText
 10
654.8273323564453
 20
96.66818110150371
 30
0.0
 40
10.5
 41
0.0
 71
     5
 72
     1
  1
61.1
 11
0.0000000000000001
 21
1.0
 31
0.0
 73
     1
 44
1.0
1001
ACAD
1000
MTEXTBEGIN
1070
    73
1070
     1
1070
    44
1040
1.0
1070
    74
1070
     0
1000
MTEXTEND
  0
POINT
  5
BEE4
330
2AEE
100
AcDbEntity
  8
Defpoints
 62
     0
100
AcDbPoint
 10
621.3509431344601
 20
70.30696189299715
 30
0.0
  0
POINT
  5
BEE5
330
2AEE
100
AcDbEntity
  8
Defpoints
 62
     0
100
AcDbPoint
 10
584.1723522757355
 20
131.4180174634707
 30
0.0
  0
POINT
  5
BEE6
330
2AEE
100
AcDbEntity
  8
Defpoints
 62
     0
100
AcDbPoint
 10
664.5773323564453
 20
131.4180174634707
 30
0.0
  0
ENDBLK
  5
2AF9
330
2AEE
100
AcDbEntity
  8
0
100
AcDbBlockEnd
  0
BLOCK
  5
2B39
330
2B2F
100
AcDbEntity
  8
0
100
AcDbBlockBegin
  2
*D6
 70
     1
 10
0.0
 20
0.0
 30
0.0
  3
*D6
  1

  0
LINE
  5
B052
330
2B2F
100
AcDbEntity
  8
QUOTATION
100
AcDbLine
 10
543.1724125289508
 20
67.30696189299715
 30
0.0
 11
543.1724125289508
 21
43.00147024621629
 31
0.0
  0
LINE
  5
B053
330
2B2F
100
AcDbEntity
  8
QUOTATION
100
AcDbLine
 10
621.1724125289508
 20
67.30696189299715
 30
0.0
 11
621.1724125289508
 21
43.00147024621629
 31
0.0
  0
LINE
  5
B054
330
2B2F
100
AcDbEntity
  8
QUOTATION
100
AcDbLine
 10
550.6724125289508
 20
46.00147024621628
 30
0.0
 11
613.6724125289508
 21
46.00147024621628
 31
0.0
  0
SOLID
  5
B055
330
2B2F
100
AcDbEntity
  8
QUOTATION
100
AcDbTrace
 10
550.6724125289508
 20
47.25147024621628
 30
0.0
 11
550.6724125289508
 21
44.75147024621628
 31
0.0
 12
543.1724125289508
 22
46.00147024621628
 32
0.0
 13
543.1724125289508
 23
46.00147024621628
 33
0.0
  0
SOLID
  5
B056
330
2B2F
100
AcDbEntity
  8
QUOTATION
100
AcDbTrace
 10
613.6724125289508
 20
47.25147024621628
 30
0.0
 11
613.6724125289508
 21
44.75147024621628
 31
0.0
 12
621.1724125289508
 22
46.00147024621628
 32
0.0
 13
621.1724125289508
 23
46.00147024621628
 33
0.0
  0
MTEXT
  5
B057
330
2B2F
100
AcDbEntity
  8
QUOTATION
 62
     2
100
AcDbMText
 10
582.1724125289509
 20
55.75147024621628
 30
0.0
 40
10.5
 41
0.0
 71
     5
 72
     1
  1
78
 73
     1
 44
1.0
1001
ACAD
1000
MTEXTBEGIN
1070
    73
1070
     1
1070
    44
1040
1.0
1070
    74
1070
     0
1000
MTEXTEND
  0
POINT
  5
B058
330
2B2F
100
AcDbEntity
  8
Defpoints
 62
     0
100
AcDbPoint
 10
543.1724125289508
 20
70.30696189299715
 30
0.0
  0
POINT
  5
B059
330
2B2F
100
AcDbEntity
  8
Defpoints
 62
     0
100
AcDbPoint
 10
621.1724125289508
 20
70.30696189299715
 30
0.0
  0
POINT
  5
B05A
330
2B2F
100
AcDbEntity
  8
Defpoints
 62
     0
100
AcDbPoint
 10
621.1724125289508
 20
46.00147024621628
 30
0.0
  0
ENDBLK
  5
2B3A
330
2B2F
100
AcDbEntity
  8
0
100
AcDbBlockEnd
  0
BLOCK
  5
2B8D
330
2B87
100
AcDbEntity
  8
0
100
AcDbBlockBegin
  2
*D7
 70
     1
 10
0.0
 20
0.0
 30
0.0
  3
*D7
  1

  0
LINE
  5
2BAD
330
2B87
100
AcDbEntity
  8
QUOTATION
100
AcDbLine
 10
621.6284252715325
 20
17.37473250192062
 30
0.0
 11
627.9632838135846
 21
21.38965058977601
 31
0.0
  0
LINE
  5
2BAE
330
2B87
100
AcDbEntity
  8
QUOTATION
100
AcDbLine
 10
627.9632838135846
 20
21.38965058977601
 30
0.0
 11
653.4632838135847
 21
21.38965058977601
 31
0.0
  0
SOLID
  5
2BAF
330
2B87
100
AcDbEntity
  8
QUOTATION
100
AcDbTrace
 10
620.9592722568899
 20
18.43054225892928
 30
0.0
 11
622.297578286175
 21
16.31892274491184
 31
0.0
 12
615.2935667294802
 22
13.35981441406517
 32
0.0
 13
615.2935667294802
 23
13.35981441406517
 33
0.0
  0
MTEXT
  5
2BB0
330
2B87
100
AcDbEntity
  8
QUOTATION
 62
     2
100
AcDbMText
 10
642.9632838135846
 20
31.13965058977601
 30
0.0
 40
10.5
 41
0.0
 71
     5
 72
     1
  1
\U+220578
 73
     1
 44
1.0
1001
ACAD
1000
MTEXTBEGIN
1070
    73
1070
     1
1070
    44
1040
1.0
1070
    74
1070
     0
1000
MTEXTEND
  0
POINT
  5
2BB1
330
2B87
100
AcDbEntity
  8
Defpoints
 62
     0
100
AcDbPoint
 10
615.2935667294802
 20
13.35981441406517
 30
0.0
  0
POINT
  5
2BB2
330
2B87
100
AcDbEntity
  8
Defpoints
 62
     0
100
AcDbPoint
 10
549.4258175394399
 20
-28.38596662807092
 30
0.0
  0
ENDBLK
  5
2B8E
330
2B87
100
AcDbEntity
  8
0
100
AcDbBlockEnd
  0
BLOCK
  5
9044
330
9043
100
AcDbEntity
  8
0
100
AcDbBlockBegin
  2
poignée S3 frontale front
 70
     0
 10
0.0
 20
0.0
 30
0.0
  3
poignée S3 frontale front
  1

  0
LWPOLYLINE
  5
9046
330
9043
100
AcDbEntity
  8
S3_EXTERN HANDLE FRONT
100
AcDbPolyline
 90
        9
 70
     0
 43
0.0
 10
-21.70487855780573
 20
17.93067913671137
 10
-21.9251099041611
 20
17.82627284572974
 10
-21.97518476900882
 20
17.79065442984204
 42
-0.1617584662038034
 10
-21.97901298119132
 20
18.25606021990693
 42
-0.1157309981094898
 10
-21.80355136147466
 20
18.54441671826555
 42
0.0824163263494873
 10
-21.7668184089066
 20
18.41606982448832
 42
0.041111234039361
 10
-21.69050131980748
 20
18.27898029255107
 42
0.0149393764772969
 10
-21.64537637221281
 20
18.21483136063772
 42
0.3248824763872081
 10
-21.70487855780573
 20
17.93067913671137
 42
0.0029198529261292
  0
LWPOLYLINE
  5
9047
330
9043
100
AcDbEntity
  8
S3_EXTERN HANDLE FRONT
100
AcDbPolyline
 90
        9
 70
     0
 43
0.0
 10
21.70487855780573
 20
17.93067913671137
 10
21.9251099041611
 20
17.82627284572974
 10
21.97518476900882
 20
17.79065442984204
 42
0.1617584662038034
 10
21.97901298119132
 20
18.25606021990693
 42
0.1157309981094898
 10
21.80355136147466
 20
18.54441671826555
 42
-0.0824163263494873
 10
21.7668184089066
 20
18.41606982448832
 42
-0.041111234039361
 10
21.69050131980748
 20
18.27898029255107
 42
-0.0149393764772969
 10
21.64537637221281
 20
18.21483136063772
 42
-0.3248824763872081
 10
21.70487855780573
 20
17.93067913671137
 42
-0.0029198529261292
  0
LWPOLYLINE
  5
9048
330
9043
100
AcDbEntity
  8
S3_EXTERN HANDLE FRONT
100
AcDbPolyline
 90
        8
 70
     0
 43
0.0
 10
-21.64537661382303
 20
18.21482803832566
 42
-0.0256305338562955
 10
-18.91263465784595
 20
20.33763386374729
 42
-0.0606975296620594
 10
-12.00333368927067
 20
24.0416620031975
 42
-0.0597234115387647
 10
-4.390490176859771
 20
26.01165690693825
 42
-0.033457367064385
 10
-0.0000002894842055
 20
26.30580979518616
 42
-0.06592766487712
 10
8.574791865478005
 20
25.16971585292099
 42
-0.0753365129604769
 10
17.69706281457138
 20
21.16121427380222
 42
-0.0407021020453119
 10
21.64537638408171
 20
18.21483135017638
  0
LWPOLYLINE
  5
9049
330
9043
100
AcDbEntity
  8
S3_EXTERN HANDLE FRONT
100
AcDbPolyline
 90
       20
 70
     0
 43
0.0
 10
31.44911161727942
 20
12.29387355931098
 10
31.17799863689516
 20
12.90906308694389
 10
30.57993974260126
 20
14.19547289442169
 10
30.06531857090852
 20
15.13316855822858
 10
29.37829572051044
 20
16.18944542454461
 42
0.0411195347021255
 10
28.08839872194017
 20
17.72279366349334
 42
0.0477499123021631
 10
26.85685655002771
 20
18.75127801280026
 42
0.0749258559733101
 10
25.55671905612462
 20
19.38891380384476
 42
0.0830126573840688
 10
24.41699908671888
 20
19.507199526619
 42
0.1841932859882815
 10
22.91660244842796
 20
18.82537006579602
 42
0.0208720831127508
 10
21.97518476900882
 20
17.79065442984203
 42
0.0043568985195628
 10
17.75733350470773
 20
6.583276523184283
 42
0.0135338631763239
 10
13.86080485938726
 20
-5.019845710095852
 42
0.0251535881482066
 10
10.26537487135897
 20
-19.30249576959715
 42
0.0266009954037538
 10
8.286481353652675
 20
-33.37454236535614
 42
0.0122154262345138
 10
7.676750693850635
 20
-43.30525895184075
 42
0.0015872653365591
 10
7.479416594785334
 20
-48.84935595071106
 42
-0.0792343383149364
 10
7.466022595605068
 20
-48.97376395079934
 42
-0.0728482406490279
 10
7.445804095905032
 20
-49.01928395093257
 42
-0.2046611204563392
 10
7.410713096082076
 20
-49.04613845116379
 42
-0.283330959385996
  0
LWPOLYLINE
  5
904A
330
9043
100
AcDbEntity
  8
S3_EXTERN HANDLE FRONT
100
AcDbPolyline
 90
       20
 70
     0
 43
0.0
 10
-31.44911342542457
 20
12.2938733520631
 10
-31.17800044909427
 20
12.90906288148263
 10
-30.57994156327777
 20
14.1954726929016
 10
-30.06532039776437
 20
15.13316836009982
 10
-29.37829755432711
 20
16.1894452309433
 42
-0.0411195347021255
 10
-28.08840056586155
 20
17.72279347839236
 42
-0.0477499123021631
 10
-26.85685840072677
 20
18.75127783581508
 42
-0.0749258559733101
 10
-25.55672091102565
 20
19.38891363542741
 42
-0.0830126573840688
 10
-24.41700094239934
 20
19.50719936571235
 42
-0.1841932859882815
 10
-22.9166042996153
 20
18.82536991477689
 42
-0.0208720831127508
 10
-21.97518661337745
 20
17.79065428502679
 42
-0.0043568985195628
 10
-17.75733527522027
 20
6.583276406164449
 42
-0.0135338631763239
 10
-13.86080655343596
 20
-5.019845801437782
 42
-0.0251535881482066
 10
-10.26537647128577
 20
-19.3024958372454
 42
-0.0266009954037538
 10
-8.286482860845467
 20
-33.37454241996359
 42
-0.0122154262345138
 10
-7.676752135600622
 20
-43.3052590024301
 42
-0.0015872653365591
 10
-7.479418000000009
 20
-48.849356
 42
0.0792343383149364
 10
-7.466023999999947
 20
-48.97376400000002
 42
0.0728482406490279
 10
-7.445805499999892
 20
-49.019284
 42
0.2046611204563392
 10
-7.410714499999926
 20
-49.04613849999998
 42
0.283330959385996
  0
LWPOLYLINE
  5
904B
330
9043
100
AcDbEntity
  8
S3_EXTERN HANDLE FRONT
100
AcDbPolyline
 90
       40
 70
     0
 43
0.0
 10
-8.716241365592736
 20
-48.97001302850026
 42
0.4601454222780787
 10
-8.729351938904187
 20
-48.93354015000646
 42
-0.6545863829386669
 10
-8.733398353984512
 20
-48.85001994319879
 42
0.5954022614546771
 10
-8.730174936965113
 20
-48.76225391575184
 42
-0.6204729539022261
 10
-8.728943499108822
 20
-48.74548899200807
 42
0.0042330570541979
 10
-9.688718030347104
 20
-44.65751848489173
 42
0.013672215030602
 10
-13.21231151291522
 20
-31.74188275897671
 42
0.0251314782370969
 10
-21.24358270862115
 20
-9.338988857634728
 42
0.0110001887029858
 10
-25.7557184869255
 20
0.867938474421745
 42
0.0120792983356213
 10
-31.44911342542457
 20
12.29387335206304
 42
-0.0484754108955297
 10
-29.88562818595403
 20
15.52343418438527
 42
-0.0568210682373584
 10
-27.9176487439911
 20
18.05639343249292
 42
-0.0726094286419996
 10
-26.04647411069289
 20
19.50311599399145
 42
-0.1457141617245326
 10
-24.11118979629964
 20
19.97328374541165
 42
-0.160073723875311
 10
-22.49788669012969
 20
19.25098830709958
 42
-0.0355800295985341
 10
-21.8035483095249
 20
18.54441991564653
 42
-0.0269866644126725
 10
-18.91804508563882
 20
20.79111169397569
 42
-0.0588549373871466
 10
-12.00333339978647
 20
24.48154001955282
 42
-0.0597234115387647
 10
-4.390489887375565
 20
26.45153492329358
 42
-0.033457367064385
 10
0.0
 20
26.74568781154149
 42
-0.06592766487712
 10
8.57479215496221
 20
25.60959386927631
 42
-0.0753365129604769
 10
17.69706310405559
 20
21.60109229015754
 42
-0.0378977341770266
 10
21.80354854298116
 20
18.54441916886026
 42
-0.1102294331923374
 10
23.28363882721976
 20
19.75865701953212
 42
-0.1938580309603613
 10
25.34656903247173
 20
19.8084746299377
 42
-0.1024173120592921
 10
27.57432766931345
 20
18.38707927514201
 42
-0.0543716145257008
 10
29.41715876569083
 20
16.24013724514476
 42
-0.0362282459365666
 10
30.64455550598916
 20
14.15282182165683
 42
-0.0239944406140657
 10
31.45437237495185
 20
12.29604342726926
 42
0.0040047113517868
 10
30.20536584399077
 20
9.912819760842545
 42
0.0075073675500147
 10
26.66650440363947
 20
2.791949592543303
 42
0.0124654755082761
 10
21.46227451160269
 20
-8.814733813021877
 42
0.016122519195717
 10
15.97491376360722
 20
-23.2021221778387
 42
0.0136239557222685
 10
12.09606565843626
 20
-35.54221242541018
 42
0.009140768940869
 10
9.795084738330274
 20
-44.22285139062078
 42
0.0046883896769843
 10
8.728944727457246
 20
-48.74548896970435
 42
-0.0084001535073594
 10
8.732015074854984
 20
-48.79480409972649
 42
-0.0193496169721035
 10
8.732882628447896
 20
-48.88583091663448
 42
-0.0274596848606887
 10
8.728667553276864
 20
-48.93845084770863
 42
-0.0680139887050513
 10
8.722123077780111
 20
-48.96422282142524
 42
2.94217067160525
  0
LWPOLYLINE
  5
904C
330
9043
100
AcDbEntity
  8
S3_EXTERN HANDLE FRONT
100
AcDbPolyline
 90
       23
 70
     0
 43
0.0
 10
-21.31646050583049
 20
-46.60672158151041
 10
-21.2571533132849
 20
-46.7839326970694
 10
-21.18496811210434
 20
-46.96641844097383
 42
0.1125720074977829
 10
-20.90094004064986
 20
-47.39633212154852
 42
0.1530368766239867
 10
-20.6227419999999
 20
-47.521186
 42
0.0040096747572152
 10
-15.48618812842073
 20
-48.1530373664545
 42
0.0071427689350316
 10
-11.36154639633935
 20
-48.55341288606067
 42
0.0047428844722984
 10
-8.728943499102797
 20
-48.74548899203569
 42
-0.0067465529729142
 10
-7.479619999999954
 20
-48.85549100000003
 10
-4.253542983377883
 20
-48.97504208802593
 10
-4.275070857695141
 20
8.459309165036749
 42
-0.4161980933939061
 10
-3.771870884554573
 20
8.959488353697338
 10
3.771868870053594
 20
8.959488777054843
 42
-0.4124493478933368
 10
4.275072118742514
 20
8.459309367665809
 10
4.245109384601846
 20
-48.92722563382172
 10
7.478641438662293
 20
-48.84940555133292
 10
8.728944727458042
 20
-48.7454889697043
 42
0.0078183381811641
 10
13.09301103221526
 20
-48.39986634363341
 42
0.0068130871392335
 10
17.29969948372331
 20
-47.94112582628434
 42
-0.0081972770987504
 10
20.62274285193132
 20
-47.52118640018227
 42
0.1633743723065915
 10
20.91008565538914
 20
-47.3882908531162
 42
0.0675231502921934
 10
21.0702088858709
 20
-47.18982179224293
 42
0.0066470350492587
 10
21.10029045196541
 20
-47.13856698003216
 42
-0.5814639282142156
  0
LWPOLYLINE
  5
9052
330
9043
100
AcDbEntity
  8
S3_EXTERN HANDLE FRONT
100
AcDbPolyline
 90
       15
 70
     0
 43
0.0
 10
-2.019454218440046
 20
33.65214183585909
 10
-1.817901061090537
 20
32.71190372808012
 10
-1.538626171983196
 20
31.49838415071367
 10
-1.286549783107943
 20
30.21895314726549
 10
-1.039429286504628
 20
28.93600918711602
 42
0.024886136896947
 10
-0.7816752831425902
 20
27.88296815644435
 42
0.0455279919322302
 10
-0.5387447395268055
 20
27.27616993326611
 42
0.2609446091053793
 10
-0.1873398587244992
 20
26.97382523721866
 42
0.2492806021213125
 10
0.131799568268093
 20
27.22195409891178
 42
0.0632353476584534
 10
0.4254054770818812
 20
27.94417708364345
 42
0.0216221152219047
 10
0.6978083220002418
 20
29.09807870596015
 10
0.9248312345647491
 20
30.28786399236009
 10
1.176731313178606
 20
31.55851605497104
 10
1.425753954225115
 20
32.6403875189955
 10
1.644775389930714
 20
33.65214183146964
  0
LWPOLYLINE
  5
905A
330
9043
100
AcDbEntity
  8
S3_EXTERN HANDLE FRONT
100
AcDbPolyline
 90
        2
 70
     0
 43
0.0
 10
3.487112362465836
 20
-49.92750253002125
 10
0.0000314264511871
 20
-49.98593606970605
  0
LWPOLYLINE
  5
905B
330
9043
100
AcDbEntity
  8
S3_EXTERN HANDLE FRONT
100
AcDbPolyline
 90
       14
 70
     0
 43
0.0
 10
14.67144655052311
 20
-49.77797523624545
 42
0.0635805413112904
 10
14.64293007363676
 20
-49.64067829923688
 42
0.0696753173702904
 10
14.60145073208616
 20
-49.55344564328435
 42
0.128076552014796
 10
14.56408463608181
 20
-49.51895248236246
 42
0.218391940417447
 10
14.53269120938569
 20
-49.51826417608566
 42
-0.0004926616773564
 10
13.84454249449447
 20
-49.58969867975429
 42
-0.0011972012755376
 10
13.19958144771442
 20
-49.65385381454573
 42
-0.0026251969252784
 10
11.89186465598709
 20
-49.77368924166899
 42
-0.0047093004906613
 10
7.620935282277741
 20
-50.07519674375846
 42
-0.0085860893571944
 10
5.300777988783465
 20
-50.17332916403081
 42
-0.0112897152086979
 10
3.810416522703235
 20
-50.23026837743852
 42
-0.40516308997023
 10
3.499927322661619
 20
-49.93439884203374
 10
3.48586430754608
 20
-26.79680242794947
 10
3.464150357463381
 20
8.702129354197044
  0
LWPOLYLINE
  5
905C
330
9043
100
AcDbEntity
  8
S3_EXTERN HANDLE FRONT
100
AcDbPolyline
 90
        4
 70
     0
 43
0.0
 10
3.683590766217207
 20
-50.48071710440755
 42
-0.3555188666822609
 10
3.207242156617439
 20
-49.94692572229116
 10
3.210414359028618
 20
-26.7969708372968
 10
3.188700408945919
 20
8.701960944849712
  0
LWPOLYLINE
  5
905D
330
9043
100
AcDbEntity
  8
S3_EXTERN HANDLE FRONT
100
AcDbPolyline
 90
        2
 70
     0
 43
0.0
 10
-3.487116010368026
 20
-49.92963454192572
 10
0.0
 20
-49.98593607931308
  0
LWPOLYLINE
  5
905E
330
9043
100
AcDbEntity
  8
S3_EXTERN HANDLE FRONT
100
AcDbPolyline
 90
        4
 70
     0
 43
0.0
 10
-3.683256143578091
 20
-50.48296913925218
 42
0.3555188666822609
 10
-3.207233981543708
 20
-49.94888661871673
 10
-3.224559999999996
 20
-26.79893799999997
 10
-3.224550000000022
 20
8.700000423127846
  0
LWPOLYLINE
  5
905F
330
9043
100
AcDbEntity
  8
S3_EXTERN HANDLE FRONT
100
AcDbPolyline
 90
        3
 70
     0
 43
0.0
 10
-14.15510534874204
 20
-49.84316623102983
 42
0.0002020514643755
 10
-13.87262409693699
 20
-49.87214911843643
 42
0.0000510121066568
 10
-13.84509133905658
 20
-49.87493461211493
 42
0.0000510121066568
  0
LWPOLYLINE
  5
9060
330
9043
100
AcDbEntity
  8
S3_EXTERN HANDLE FRONT
100
AcDbPolyline
 90
        3
 70
     0
 43
0.0
 10
-14.15510534874204
 20
-49.84316623102983
 42
0.0002020514643755
 10
-13.87262409693699
 20
-49.87214911843643
 42
0.0000510121066568
 10
-13.84509133905658
 20
-49.87493461211493
 42
0.0000510121066568
  0
LWPOLYLINE
  5
9061
330
9043
100
AcDbEntity
  8
S3_EXTERN HANDLE FRONT
100
AcDbPolyline
 90
        3
 70
     0
 43
0.0
 10
-14.15527875600651
 20
-49.84319863297145
 42
0.0002021718545
 10
-13.87262915765143
 20
-49.87219886167393
 42
0.0000509139896498
 10
-13.84514934686547
 20
-49.87497900413865
 42
0.0000509139896498
  0
LWPOLYLINE
  5
9062
330
9043
100
AcDbEntity
  8
S3_EXTERN HANDLE FRONT
100
AcDbPolyline
 90
       14
 70
     0
 43
0.0
 10
-14.67153952859939
 20
-49.78694534624025
 42
-0.0635805413112904
 10
-14.64310699999998
 20
-49.649631
 42
-0.0696753173702904
 10
-14.60168099999998
 20
-49.56237299999997
 42
-0.128076552014796
 10
-14.56433600000002
 20
-49.52785700000004
 42
-0.218391940417447
 10
-14.53294300000004
 20
-49.5271495
 42
0.0004926616773564
 10
-13.84475073887347
 20
-49.59816325814832
 42
0.0011972012755376
 10
-13.19975058837156
 20
-49.66192405359756
 42
0.0026251969252784
 10
-11.89196077402107
 20
-49.7809599239925
 42
0.0047093004906613
 10
-7.620847857732428
 20
-50.07985613564565
 42
0.0085860893571944
 10
-5.300631000000066
 20
-50.17657000000003
 42
0.0112897152086979
 10
-3.810235000000034
 20
-50.23259799999999
 42
0.40516308997023
 10
-3.49992675178305
 20
-49.93653868767951
 10
-3.500009999999974
 20
-26.79893799999997
 10
-3.5
 20
8.700000423127846
  0
LWPOLYLINE
  5
9063
330
9043
100
AcDbEntity
  8
S3_EXTERN HANDLE FRONT
100
AcDbPolyline
 90
        3
 70
     0
 43
0.0
 10
16.11358395286982
 20
-48.8963152615332
 10
14.41366873036179
 20
-49.04607097747012
 10
10.13553812990722
 20
-49.42834878290188
  0
LWPOLYLINE
  5
9064
330
9043
100
AcDbEntity
  8
S3_EXTERN HANDLE FRONT
100
AcDbPolyline
 90
        7
 70
     0
 43
0.0
 10
10.13928992120657
 20
-49.91554897182034
 10
10.13584619013693
 20
-49.4345632997717
 10
10.13818688586707
 20
-49.15151517881616
 10
10.14714954984856
 20
-48.9551877818406
 42
-0.0368474650983526
 10
10.15555162294174
 20
-48.88508317103354
 42
-0.0477583448494067
 10
10.15878424854406
 20
-48.87418633788628
 42
-0.3199064965563436
 10
10.16408211735643
 20
-48.87080752351389
 42
0.6520031895386215
  0
LWPOLYLINE
  5
9065
330
9043
100
AcDbEntity
  8
S3_EXTERN HANDLE FRONT
100
AcDbPolyline
 90
        4
 70
     0
 43
0.0
 10
9.865308702055017
 20
-49.93286864241247
 10
9.804813774120134
 20
-49.50000163234106
 10
5.395182774120144
 20
-49.5000008982097
 10
5.300629661482503
 20
-50.17657088246818
  0
LWPOLYLINE
  5
9066
330
9043
100
AcDbEntity
  8
S3_EXTERN HANDLE FRONT
100
AcDbPolyline
 90
        2
 70
     0
 43
0.0
 10
9.699998774120103
 20
-49.50000161489108
 10
9.699998873300273
 20
-48.90426689895821
  0
LWPOLYLINE
  5
9067
330
9043
100
AcDbEntity
  8
S3_EXTERN HANDLE FRONT
100
AcDbPolyline
 90
        2
 70
     0
 43
0.0
 10
9.29999877412024
 20
-49.50000154829763
 10
9.299998868707461
 20
-48.93185454829763
  0
LWPOLYLINE
  5
9068
330
9043
100
AcDbEntity
  8
S3_EXTERN HANDLE FRONT
100
AcDbPolyline
 90
        2
 70
     0
 43
0.0
 10
5.79999877412024
 20
-49.50000096560494
 10
5.799998836800227
 20
-49.12350796560495
  0
LWPOLYLINE
  5
9069
330
9043
100
AcDbEntity
  8
S3_EXTERN HANDLE FRONT
100
AcDbPolyline
 90
        2
 70
     0
 43
0.0
 10
5.499998774120172
 20
-49.50000091565985
 10
5.499998834755047
 20
-49.1357917747752
  0
LWPOLYLINE
  5
906A
330
9043
100
AcDbEntity
  8
S3_EXTERN HANDLE FRONT
100
AcDbPolyline
 90
        2
 70
     0
 43
0.0
 10
4.600279955176688
 20
-50.21129367607253
 10
4.599998385100775
 20
-49.1715053333292
  0
LWPOLYLINE
  5
906B
330
9043
100
AcDbEntity
  8
S3_EXTERN HANDLE FRONT
100
AcDbPolyline
 90
        6
 70
     0
 43
0.0
 10
5.029292377530737
 20
-50.18718856691319
 10
5.032286278346305
 20
-49.58089235491152
 10
5.025094525350937
 20
-49.30438470839979
 42
0.0227056211354311
 10
5.018275288462064
 20
-49.20904867344234
 42
0.0089388935433388
 10
5.013326388007158
 20
-49.17252756965446
 42
0.0656016357850488
 10
5.008078754724124
 20
-49.15452137053443
 42
0.6524563963996723
  0
LWPOLYLINE
  5
906C
330
9043
100
AcDbEntity
  8
S3_EXTERN HANDLE FRONT
100
AcDbPolyline
 90
        2
 70
     0
 43
0.0
 10
4.600263039493825
 20
-50.14882705952
 10
3.59651566611069
 20
-50.14877059876109
  0
LWPOLYLINE
  5
906D
330
9043
100
AcDbEntity
  8
S3_EXTERN HANDLE FRONT
100
AcDbPolyline
 90
        8
 70
     0
 43
0.0
 10
18.532651365638
 20
-47.99615927177105
 42
-0.0635136450375361
 10
18.31430674194109
 20
-48.52261518777587
 42
-0.1136924462951329
 10
17.95383712095702
 20
-48.9199425274363
 42
-0.079888507600986
 10
17.54721876053656
 20
-49.1041371242245
 42
-0.0409243601987582
 10
17.11263782598962
 20
-49.18844384897412
 42
-0.1766930717682818
 10
16.93798883471299
 20
-49.13604581989794
 42
-0.1106682462652717
 10
16.80608485986045
 20
-48.98499529793809
 42
-0.0900347820322701
 10
16.72785289493015
 20
-48.75427229607886
 42
0.2086197498942545
  0
LWPOLYLINE
  5
906E
330
9043
100
AcDbEntity
  8
S3_EXTERN HANDLE FRONT
100
AcDbPolyline
 90
        6
 70
     0
 43
0.0
 10
18.31430674193621
 20
-48.52261518778422
 42
-0.134239802279891
 10
18.02446795568824
 20
-48.40939700077885
 42
-0.1797598203080278
 10
17.80787545353121
 20
-48.09236022394849
 42
-0.0947188420979537
 10
17.4880260698385
 20
-48.46456709178238
 42
-0.1091053577475321
 10
16.93035119729802
 20
-48.71523318026259
 42
-0.0167202194541377
 10
16.10655201631732
 20
-48.84224668886242
 42
-466.8654981304634
  0
LWPOLYLINE
  5
906F
330
9043
100
AcDbEntity
  8
S3_EXTERN HANDLE FRONT
100
AcDbPolyline
 90
        2
 70
     0
 43
0.0
 10
-4.600264373392519
 20
-50.14882629365143
 10
-3.596517000000062
 20
-50.14877000000002
  0
LWPOLYLINE
  5
9070
330
9043
100
AcDbEntity
  8
S3_EXTERN HANDLE FRONT
100
AcDbPolyline
 90
        6
 70
     0
 43
0.0
 10
-5.029293717816017
 20
-50.18718772961825
 10
-5.032287517693248
 20
-49.58089151711815
 10
-5.025095718663806
 20
-49.30438387180373
 42
-0.0227056211354311
 10
-5.018276465903113
 20
-49.20904783798158
 42
-0.0089388935433388
 10
-5.013327559368008
 20
-49.1725267350176
 42
-0.0656016357850488
 10
-5.008079923087279
 20
-49.15452053677122
 42
-0.6524563963996723
  0
LWPOLYLINE
  5
9071
330
9043
100
AcDbEntity
  8
S3_EXTERN HANDLE FRONT
100
AcDbPolyline
 90
        2
 70
     0
 43
0.0
 10
-4.600281299475113
 20
-50.21129291020113
 10
-4.599999556291436
 20
-49.17150456750469
  0
LWPOLYLINE
  5
9072
330
9043
100
AcDbEntity
  8
S3_EXTERN HANDLE FRONT
100
AcDbPolyline
 90
        2
 70
     0
 43
0.0
 10
-5.5
 20
-49.5
 10
-5.5
 20
-49.13579085911536
  0
LWPOLYLINE
  5
9073
330
9043
100
AcDbEntity
  8
S3_EXTERN HANDLE FRONT
100
AcDbPolyline
 90
        2
 70
     0
 43
0.0
 10
-5.800000000000068
 20
-49.5
 10
-5.800000000000068
 20
-49.12350700000001
  0
LWPOLYLINE
  5
9074
330
9043
100
AcDbEntity
  8
S3_EXTERN HANDLE FRONT
100
AcDbPolyline
 90
        2
 70
     0
 43
0.0
 10
-9.300000000000068
 20
-49.5
 10
-9.300000000000068
 20
-48.93185299999998
  0
LWPOLYLINE
  5
9075
330
9043
100
AcDbEntity
  8
S3_EXTERN HANDLE FRONT
100
AcDbPolyline
 90
        2
 70
     0
 43
0.0
 10
-9.699999999999931
 20
-49.5
 10
-9.699999999999931
 20
-48.90426528406713
  0
LWPOLYLINE
  5
9076
330
9043
100
AcDbEntity
  8
S3_EXTERN HANDLE FRONT
100
AcDbPolyline
 90
        4
 70
     0
 43
0.0
 10
-9.865310000000022
 20
-49.93286699999998
 10
-9.804814999999962
 20
-49.5
 10
-5.395183999999972
 20
-49.5
 10
-5.300631000000066
 20
-50.17657000000003
  0
LWPOLYLINE
  5
9077
330
9043
100
AcDbEntity
  8
S3_EXTERN HANDLE FRONT
100
AcDbPolyline
 90
        7
 70
     0
 43
0.0
 10
-10.13929121626813
 20
-49.91554728379447
 10
-10.13584740512226
 20
-49.43456161231916
 10
-10.13818805372955
 20
-49.15151349097394
 10
-10.14715068502573
 20
-48.95518609250625
 42
0.0368474650983526
 10
-10.15555274644771
 20
-48.88508148030038
 42
0.0477583448494067
 10
-10.15878537023582
 20
-48.87418464661493
 42
0.3199064965563436
 10
-10.16408323848566
 20
-48.87080583136054
 42
-0.6520031895386215
  0
LWPOLYLINE
  5
9078
330
9043
100
AcDbEntity
  8
S3_EXTERN HANDLE FRONT
100
AcDbPolyline
 90
        3
 70
     0
 43
0.0
 10
-16.11421822316242
 20
-48.90619252606787
 10
-14.41421152493581
 20
-49.05490622467997
 10
-10.13584740512226
 20
-49.43456161231916
  0
LWPOLYLINE
  5
9079
330
9043
100
AcDbEntity
  8
S3_EXTERN HANDLE FRONT
100
AcDbPolyline
 90
        6
 70
     0
 43
0.0
 10
-18.31430780509697
 20
-48.52261213875191
 42
0.134239802279891
 10
-18.02446900000006
 20
-48.40939399999996
 42
0.1797598203080278
 10
-17.80787644506165
 20
-48.09235725922872
 42
0.0947188420979537
 10
-17.48802712333531
 20
-48.46456418031229
 42
0.1091053577475321
 10
-16.93035229252666
 20
-48.71523036163623
 42
0.0167202194541377
 10
-16.1065531326916
 20
-48.84224400738514
 42
466.8654981304634
  0
LWPOLYLINE
  5
907A
330
9043
100
AcDbEntity
  8
S3_EXTERN HANDLE FRONT
100
AcDbPolyline
 90
        8
 70
     0
 43
0.0
 10
-18.53265234115269
 20
-47.99615618638794
 42
0.0635136450375361
 10
-18.31430780510186
 20
-48.52261213874356
 42
0.1136924462951329
 10
-17.95383825026636
 20
-48.91993953841629
 42
0.079888507600986
 10
-17.54721992051134
 20
-49.10413420289977
 42
0.0409243601987582
 10
-17.11263900000006
 20
-49.18844100000001
 42
0.1766930717682818
 10
-16.93799000000001
 20
-49.13604300000002
 42
0.1106682462652717
 10
-16.80608600000005
 20
-48.98499250000003
 42
0.0900347820322701
 10
-16.72785399665815
 20
-48.75426951116516
 42
-0.2086197498942545
  0
LWPOLYLINE
  5
907B
330
9043
100
AcDbEntity
  8
S3_EXTERN HANDLE FRONT
100
AcDbPolyline
 90
       19
 70
     0
 43
0.0
 10
21.65336921048368
 20
-45.67564610846286
 10
21.44091174945174
 20
-46.79027801198266
 10
21.2120518753203
 20
-47.63645458772883
 42
-0.0550216343854883
 10
20.92643217108127
 20
-48.29731167670455
 42
-0.2418938883504798
 10
20.29918855379662
 20
-48.7436197116233
 42
-0.035873952234142
 10
19.96252774999436
 20
-48.793073645632
 42
-0.0024625637192679
 10
18.60536511191481
 20
-48.98391797172489
 42
-0.0027818993561231
 10
17.07002309589836
 20
-49.183419407698
 42
-0.0740470869654226
 10
16.54602972642715
 20
-49.20973292691597
 42
-0.0832771962646154
 10
16.30776729207787
 20
-49.13087330125648
 42
-0.2241985290495059
 10
16.11323273617779
 20
-48.89634404193486
 42
0.2428097373676131
 10
15.91952402651418
 20
-48.55835100321731
 42
0.1158854437549883
 10
15.55101286912338
 20
-48.42797755636359
 42
0.0467353593547361
 10
15.13832369105353
 20
-48.41477467924086
 42
0.0145627523320574
 10
14.52472104987782
 20
-48.47066931244486
 42
0.227590754988444
 10
14.44454174002703
 20
-48.55526733271617
 42
0.0810119350185048
 10
14.40054729046017
 20
-48.76561026079389
 42
0.052913880969317
 10
14.41335331077425
 20
-49.04542348619564
 10
14.38721977777936
 20
-49.53329277015349
  0
LWPOLYLINE
  5
907C
330
9043
100
AcDbEntity
  8
S3_EXTERN HANDLE FRONT
100
AcDbPolyline
 90
       19
 70
     0
 43
0.0
 10
-21.65632210817432
 20
-45.68888124791903
 10
-21.44318343942382
 20
-46.80338309223133
 10
-21.21380643677174
 20
-47.64941963398547
 42
0.0550216343854883
 10
-20.92778287928684
 20
-48.3101020327693
 42
0.2418938883504798
 10
-20.30026660193823
 20
-48.75602662181984
 42
0.035873952234142
 10
-19.96357563546394
 20
-48.80527478422613
 42
0.0024625637192679
 10
-18.6062966094895
 20
-48.99528959588759
 42
0.0027818993561231
 10
-17.07083294775316
 20
-49.19385261507336
 42
0.0740470869654226
 10
-16.54682359369622
 20
-49.21984587197188
 42
0.0832771962646154
 10
-16.30860940174637
 20
-49.1408406383802
 42
0.2241985290495059
 10
-16.1142182231772
 20
-48.90619252606803
 42
-0.2428097373676131
 10
-15.92071612630241
 20
-48.56808115842991
 42
-0.1158854437549883
 10
-15.5522847201637
 20
-48.43748250707109
 42
-0.0467353593547361
 10
-15.13960368858716
 20
-48.42402740257164
 42
-0.0145627523320574
 10
-14.52596699999992
 20
-48.47954700000002
 42
-0.227590754988444
 10
-14.44573600000001
 20
-48.56409599999998
 42
-0.0810119350185048
 10
-14.40161299999999
 20
-48.77441199999998
 42
-0.052913880969317
 10
-14.41424799999993
 20
-49.05423300000001
 10
-14.38781629301627
 20
-49.54208622038732
  0
LWPOLYLINE
  5
907D
330
9043
100
AcDbEntity
  8
S3_EXTERN HANDLE FRONT
100
AcDbPolyline
 90
        2
 70
     0
 43
0.0
 10
-0.1873398587244992
 20
-61.29918553298164
 10
-0.1873398587244992
 20
-49.98291136719316
  0
LWPOLYLINE
  5
907F
330
9043
100
AcDbEntity
  8
S3_EXTERN HANDLE FRONT
100
AcDbPolyline
 90
        6
 70
     0
 43
0.0
 10
18.60537024060238
 20
-48.98392485629123
 10
18.2736654745911
 20
-53.68380605824537
 10
17.90378174113323
 20
-59.6608560889318
 42
-0.0608636139128148
 10
17.77146432597681
 20
-60.07972051088206
 42
-0.0941373622873066
 10
17.51480780528993
 20
-60.45099446815664
 42
-0.12662134058063
 10
17.23698156139642
 20
-60.61291676914715
 42
-16.03401331289588
  0
LWPOLYLINE
  5
9080
330
9043
100
AcDbEntity
  8
S3_EXTERN HANDLE FRONT
100
AcDbPolyline
 90
       26
 70
     0
 43
0.0
 10
13.66789083880087
 20
-60.35474524893081
 42
-0.013819607630229
 10
11.91577960216455
 20
-60.6829790463121
 42
-0.0261494442139696
 10
5.178277545821401
 20
-61.48996134358998
 42
-0.0171431047099504
 10
-0.1873398587244992
 20
-61.6203740108383
 42
-0.0138184557507868
 10
-4.618397141272225
 20
-61.52325121966143
 42
-0.0209006383540784
 10
-9.711291951921566
 20
-61.02511361737753
 42
-0.0182941051689597
 10
-13.66762057534345
 20
-60.35460944042546
 42
-0.1816714812392996
 10
-13.68251900000007
 20
-60.356716
 42
-0.2052209792938787
 10
-13.70014400000002
 20
-60.3396845
 42
-0.0845960907595548
 10
-13.713976
 20
-60.28490399999999
 42
-0.0460116739953999
 10
-13.71412599999996
 20
-60.16872499999999
 42
-0.0225182107119744
 10
-13.70132950000004
 20
-60.06731699999997
 42
-0.0089890018152994
 10
-13.69290999999998
 20
-60.02291600000001
 10
-14.67153952859939
 20
-49.78694534624025
 42
0.0067047970908685
 10
-9.961940041083266
 20
-50.1945983691808
 42
0.0135568975341466
 10
-3.796645629723684
 20
-50.48173818614123
 42
0.0015677758022048
 10
-0.0000006971309858
 20
-50.51140442422417
 42
-0.0118664852273743
 10
3.667244103505822
 20
-50.53279093485162
 42
0.0045187372741835
 10
9.401300994599182
 20
-50.23339676842549
 42
0.0141228458778849
 10
14.6690585
 20
-49.75554249999999
 10
13.69291903906344
 20
-60.02292426403595
 42
-0.0359952533873074
 10
13.71537694008214
 20
-60.1869292775899
 42
-0.0546960699669496
 10
13.71147450000001
 20
-60.30235749999997
 42
-0.0877439298086259
 10
13.69807848233427
 20
-60.34337190489222
 42
-0.205002883719465
 10
13.68185900000003
 20
-60.3568305
 42
-0.1732071124201085
 10
13.66775799999993
 20
-60.35467600000001
  0
LWPOLYLINE
  5
9081
330
9043
100
AcDbEntity
  8
S3_EXTERN HANDLE FRONT
100
AcDbPolyline
 90
        7
 70
     0
 43
0.0
 10
-13.66043318844436
 20
-60.03476378679606
 42
0.0182968077486204
 10
-9.7112935469396
 20
-60.70392514864448
 42
0.0209006383540784
 10
-4.618398736290259
 20
-61.20206275092839
 42
0.0138184607238068
 10
-0.1873398587244992
 20
-61.29918553298164
 42
0.0171431041219958
 10
5.178275950803367
 20
-61.16877287485694
 42
0.0252075454164745
 10
11.90904467673624
 20
-60.34309144496443
 42
0.004546678145499
 10
13.69291083429766
 20
-60.02291606072401
  0
LWPOLYLINE
  5
9082
330
9043
100
AcDbEntity
  8
S3_EXTERN HANDLE FRONT
100
AcDbPolyline
 90
        7
 70
     0
 43
0.0
 10
-13.99163151866014
 20
-60.74005158908686
 42
0.0144442881603619
 10
-9.713657560204978
 20
-61.45465171972148
 42
0.0209006383540784
 10
-4.620762749555638
 20
-61.95278932200539
 42
0.0138258313594719
 10
-0.1873398587244992
 20
-62.04989854683619
 42
0.0171422382425561
 10
5.175911937537989
 20
-61.91949944593393
 42
0.0261494442139696
 10
11.91341399388113
 20
-61.11251714865606
 42
0.0032360383833196
 10
13.98693246599021
 20
-60.7406842141848
  0
LWPOLYLINE
  5
9083
330
9043
100
AcDbEntity
  8
S3_EXTERN HANDLE FRONT
100
AcDbPolyline
 90
       12
 70
     0
 43
0.0
 10
-17.90152133455024
 20
-60.70778707697496
 42
-0.0060647302001174
 10
-17.35593145596863
 20
-60.77339190688234
 42
-0.0080010707221018
 10
-16.01077126457937
 20
-60.97591069845162
 42
-0.0045556561666298
 10
-14.12136262067747
 20
-61.30857613539852
 42
0.0122446130321573
 10
-9.711292395630266
 20
-62.03727471487853
 42
0.0209006383540784
 10
-4.618397584980925
 20
-62.53541231716244
 42
0.0138184571341982
 10
-0.1873398587244992
 20
-62.63253510580128
 42
0.0171431045463872
 10
5.178277102112701
 20
-62.50212244109099
 42
0.0253581721712717
 10
11.92782854393147
 20
-61.69880970161607
 42
0.0023207914195058
 10
15.57108758763206
 20
-61.04842373439794
 42
-0.0076639939200282
 10
17.35207023502778
 20
-60.76413344796421
 42
-0.0149003108659995
 10
17.90778646065212
 20
-60.69684863634328
 42
2.306123642717832
  0
LWPOLYLINE
  5
9084
330
9043
100
AcDbEntity
  8
S3_EXTERN HANDLE FRONT
100
AcDbPolyline
 90
        5
 70
     0
 43
0.0
 10
18.25850367751127
 20
-59.63221552627607
 42
-0.0158805648513688
 10
18.21040645098469
 20
-59.94034787337651
 42
-0.0221896872191164
 10
18.13966359302219
 20
-60.24352863617526
 42
-0.0419915933454488
 10
18.03825003697363
 20
-60.52143918622491
 42
-0.1247799418846283
 10
17.90775235987053
 20
-60.69687638309369
 42
129.1835764888578
  0
LWPOLYLINE
  5
9085
330
9043
100
AcDbEntity
  8
S3_EXTERN HANDLE FRONT
100
AcDbPolyline
 90
        5
 70
     0
 43
0.0
 10
-18.25292136802602
 20
-59.64334015799853
 42
0.0158805648513688
 10
-18.20463638133765
 20
-59.95144313849316
 42
0.0221896872191164
 10
-18.13370878480487
 20
-60.25458073585451
 42
0.0419915933454488
 10
-18.03212589499378
 20
-60.53242943510817
 42
0.1247799418846283
 10
-17.90152133454148
 20
-60.70778707698202
 42
-129.1835764888578
  0
LWPOLYLINE
  5
9086
330
9043
100
AcDbEntity
  8
S3_EXTERN HANDLE FRONT
100
AcDbPolyline
 90
        6
 70
     0
 43
0.0
 10
-18.60629660948916
 20
-48.9952895958895
 10
-18.27172114327902
 20
-53.69496731055107
 10
-17.89818660174103
 20
-59.67179029537199
 42
0.0608636139128148
 10
-17.7656133622271
 20
-60.09057381760536
 42
0.0941373622873066
 10
-17.50873010938972
 20
-60.46169093574068
 42
0.12662134058063
 10
-17.2308050126112
 20
-60.62344350584293
 42
16.03401331289588
  0
LWPOLYLINE
  5
9087
330
9043
100
AcDbEntity
  8
S3_EXTERN HANDLE FRONT
100
AcDbPolyline
 90
       24
 70
     0
 43
0.0
 10
19.31155656746307
 20
-60.80280598457656
 42
0.0498844347646816
 10
19.13167485605015
 20
-60.39890715714173
 42
0.0633665357655277
 10
18.80236547529625
 20
-59.95970262904871
 42
0.0822182397271027
 10
18.44917426226686
 20
-59.69656208044483
 42
0.0695376037309143
 10
18.25849906348833
 20
-59.63218927924543
 42
0.103037464672126
 10
18.09708953025881
 20
-59.64547493449476
 42
-0.030135618605359
 10
17.98818581023204
 20
-59.66804564363568
 42
-0.0991912679294282
 10
17.91163992341308
 20
-59.66325493379534
 42
-0.1817156691578878
 10
17.90378174114926
 20
-59.66085608893294
 42
0.0505203232399829
 10
16.74034112872744
 20
-59.71376157240121
 42
0.0230395751475618
 10
15.58835618372086
 20
-59.92879614320628
 42
-0.0051885116413269
 10
14.23606309951333
 20
-60.24179640376775
 42
0.0020995814779569
 10
13.8113386665741
 20
-60.32366717403363
 42
0.035659973624352
 10
13.87167604426247
 20
-60.54568448618181
 42
0.080040584062196
 10
13.95442407765961
 20
-60.71213303089591
 42
0.0664953013636075
 10
13.98693246599021
 20
-60.7406842141848
 42
-0.0286782835715809
 10
15.01892598422978
 20
-60.59532391937572
 42
-0.0220321697881218
 10
16.0606108094089
 20
-60.54634246480574
 42
-0.0296584767456131
 10
17.23698156137288
 20
-60.61291676915854
 42
0.0295689267663232
 10
17.57182126451789
 20
-60.65936749848063
 42
-0.0028360537579882
 10
17.90774927655263
 20
-60.69685064036682
 42
-0.0331571210290509
 10
18.49909138300199
 20
-60.70420923115552
 42
-0.0095502568884519
 10
18.98311810743723
 20
-60.7581548374774
 42
-0.0035429848473953
 10
19.31155656752583
 20
-60.80280598456639
 42
-41622.43450573826
  0
LWPOLYLINE
  5
9088
330
9043
100
AcDbEntity
  8
S3_EXTERN HANDLE FRONT
100
AcDbPolyline
 90
       24
 70
     0
 43
0.0
 10
-19.30526364432148
 20
-60.81459986920925
 42
-0.0498844347646816
 10
-19.12562867428334
 20
-60.41059124251489
 42
-0.0633665357655277
 10
-18.79658762806229
 20
-59.97118564895503
 42
-0.0822182397271027
 10
-18.44355721134604
 20
-59.7078294146375
 42
-0.0695376037309143
 10
-18.25292136806695
 20
-59.64334015800716
 42
-0.103037464672126
 10
-18.09150374985881
 20
-59.65652721927179
 42
0.030135618605359
 10
-17.98258626360018
 20
-59.67903140408049
 42
0.0991912679294282
 10
-17.90604331730242
 20
-59.67419393969056
 42
0.1817156691578878
 10
-17.89818660175706
 20
-59.67179029537314
 42
-0.0505203232399829
 10
-16.7347138908633
 20
-59.72398512096913
 42
-0.0230395751475618
 10
-15.58259781422646
 20
-59.93831600096065
 42
0.0051885116413269
 10
-14.23011379675654
 20
-60.25049020104074
 42
0.0133023424775577
 10
-13.81685489682411
 20
-60.32328177936967
 42
-0.0336840973218497
 10
-13.87691919870565
 20
-60.54505280925242
 42
-0.0762721040711569
 10
-13.96023187193339
 20
-60.71264112654187
 42
-0.0983983125529661
 10
-13.99163151866037
 20
-60.74005158908693
 42
0.0216682708086528
 10
-15.01276059521046
 20
-60.60449583578156
 42
0.0220321697881218
 10
-16.05447514471564
 20
-60.5561506679834
 42
0.0296584767456131
 10
-17.23080501258766
 20
-60.62344350585431
 42
-0.0295689267663232
 10
-17.56561628042573
 20
-60.67009875191944
 42
0.0028360537579882
 10
-17.90152133449544
 20
-60.70778707697788
 42
0.0331571210290509
 10
-18.49285883588698
 20
-60.71550686754368
 42
0.0095502568884519
 10
-18.97685251919495
 20
-60.7697481150123
 42
0.0035429848473953
 10
-19.30526364438424
 20
-60.81459986919913
 42
41622.43450573826
  0
LWPOLYLINE
  5
9089
330
9043
100
AcDbEntity
  8
S3_EXTERN HANDLE FRONT
100
AcDbPolyline
 90
       21
 70
     0
 43
0.0
 10
-19.96357563546394
 20
-48.80527478422613
 10
-19.66109385503569
 20
-53.86767333240109
 10
-19.30526364432148
 20
-60.81459986920925
 10
-18.94076800439893
 20
-60.85618398105663
 10
-18.4386836388901
 20
-60.88701889318649
 10
-18.18162930434141
 20
-60.90820842797343
 10
-17.62314152939825
 20
-60.96758783141864
 10
-16.66010619327949
 20
-61.09891952565161
 10
-15.54907096602949
 20
-61.27767374742198
 10
-13.86623794538525
 20
-61.57722121245599
 42
0.0043773382345906
 10
-10.84053610445505
 20
-62.08851553241887
 42
0.0173396402645731
 10
-6.970583947494446
 20
-62.5707535890184
 42
0.0187446216019239
 10
-2.545280708458108
 20
-62.8223732899264
 42
0.0049809370962562
 10
-0.1873398587244992
 20
-62.84175654032792
 42
0.0126681675034742
 10
4.230496679924044
 20
-62.76569053220716
 42
0.0233498556847186
 10
9.970982079419627
 20
-62.21564796605846
 42
0.0113193694824724
 10
14.42108024789991
 20
-61.47584531217127
 42
-0.0069853391860142
 10
16.80915745165111
 20
-61.07173966603852
 42
-0.0306048229612895
 10
19.30527220564442
 20
-60.81461152043868
 10
19.6603222921342
 20
-53.86155148503837
 10
19.96037329583885
 20
-48.80573928673761
  0
LWPOLYLINE
  5
908B
330
9043
100
AcDbEntity
  8
S3_EXTERN HANDLE FRONT
100
AcDbPolyline
 90
       20
 70
     0
 43
0.0
 10
-18.31562817340773
 20
-203.5831542221282
 10
-18.291437633138
 20
-203.5789286624947
 10
-18.26273661839798
 20
-203.5750157555202
 42
-0.1216411314707906
 10
-18.17729183734991
 20
-203.5841583837808
 42
-0.0228130050836102
 10
-17.90191727494039
 20
-203.7272209907402
 42
0.0017092722594248
 10
-16.56951566402608
 20
-204.4860473203698
 42
0.0342950035465829
 10
-12.01644688346164
 20
-206.6615728662943
 42
0.0376375604236505
 10
-7.301654491782755
 20
-208.1213335127552
 42
0.0401893286451727
 10
-2.189666681885682
 20
-208.8641854620139
 42
0.0159454545544152
 10
-0.1873398587244992
 20
-208.9295537984659
 42
0.0317870108241093
 10
3.877979567472834
 20
-208.6682716159261
 42
0.0303739993837468
 10
7.720057659882854
 20
-207.9357749928058
 42
0.0327932652276063
 10
11.82691444843851
 20
-206.5977621852693
 42
0.0256049946809984
 10
15.14608031162629
 20
-205.0670042650348
 42
0.0083738327955691
 10
17.7371481842506
 20
-203.626469835046
 42
-0.0007322347190979
 10
17.82501825324675
 20
-203.5848231402904
 42
-0.1601319844104898
 10
17.9074218942502
 20
-203.5745887781873
 10
17.92592738709561
 20
-203.5766584008879
 10
17.94787414375537
 20
-203.580106748976
 10
17.96510055101862
 20
-203.5831596247818
  0
LWPOLYLINE
  5
908C
330
9043
100
AcDbEntity
  8
S3_EXTERN HANDLE FRONT
100
AcDbPolyline
 90
       29
 70
     1
 43
0.0
 10
18.91266014127552
 20
-201.6243365825427
 42
-0.0832907788285829
 10
18.76084609537338
 20
-202.5346046585124
 42
-0.1350130004209563
 10
17.96510055102044
 20
-203.5831596247803
 42
-0.0273358669513292
 10
15.27779191541481
 20
-205.4211431963742
 42
-0.0295751712326609
 10
12.16375229996436
 20
-207.0664925187949
 42
-0.0204010934975046
 10
9.912129476173163
 20
-207.9819197864893
 42
-0.0323213612288607
 10
6.214415186434052
 20
-209.0481560074236
 42
-0.029003543892386
 10
2.803472887705424
 20
-209.5920476354041
 42
-0.025139876138863
 10
-0.1873398587244992
 20
-209.7413045764397
 42
-0.0180899937594759
 10
-2.341342776606097
 20
-209.6624729030378
 42
-0.0240682221957754
 10
-5.187456021398702
 20
-209.3167358345314
 42
-0.0214254873531142
 10
-7.682923937187183
 20
-208.780001268246
 42
-0.0249450162883929
 10
-10.51751421147526
 20
-207.8889138167646
 42
-0.0279177487487921
 10
-13.56650527604654
 20
-206.5627084526338
 42
-0.0299014016442679
 10
-16.64614143888946
 20
-204.7752714613624
 42
-0.0172164241800677
 10
-18.31562817340727
 20
-203.5831542221278
 42
-0.0750747890034509
 10
-18.83233674904227
 20
-203.0471460660374
 42
-0.1036282690193489
 10
-19.23635229260469
 20
-202.1191952688235
 42
-0.0506617637271329
 10
-19.28733985872452
 20
-201.6243365825702
 42
-0.0323098127704942
 10
-18.59091381626263
 20
-201.6336010171612
 42
-0.0492466542423064
 10
-17.84952772930933
 20
-201.7612513233855
 42
-0.0344822845592217
 10
-16.70458759181076
 20
-202.1731321624306
 42
0.0226986924895511
 10
-10.77155700879518
 20
-204.7014280285142
 42
0.048275491090901
 10
-4.69796677783006
 20
-206.229581068933
 42
0.0366512057733424
 10
-0.1873398587244992
 20
-206.5679336875615
 42
0.0551971884001173
 10
6.592327843279917
 20
-205.8103683828753
 42
0.0378143619397813
 10
11.51173338103967
 20
-204.2958648795231
 42
0.0151591105722131
 10
15.87138473137327
 20
-202.3833517743579
 42
-0.0476070518734958
 10
17.71022503020379
 20
-201.7098353717356
 42
-0.0625397270634605
  0
LWPOLYLINE
  5
908D
330
9043
100
AcDbEntity
  8
S3_EXTERN HANDLE FRONT
100
AcDbPolyline
 90
        6
 70
     0
 43
0.0
 10
20.33571687833046
 20
-53.87338835928222
 10
19.53855458158068
 20
-63.18979998856402
 10
18.98055315498959
 20
-74.99872634297789
 10
18.60922822855718
 20
-109.9211363301333
 10
18.83028955583586
 20
-162.8862634030176
 10
18.91266013554139
 20
-201.62304907307
  0
LWPOLYLINE
  5
908E
330
9043
100
AcDbEntity
  8
S3_EXTERN HANDLE FRONT
100
AcDbPolyline
 90
        2
 70
     0
 43
0.0
 10
-19.35516230252324
 20
-74.99999958023107
 10
18.98053961684229
 20
-74.99999958023103
  0
LWPOLYLINE
  5
908F
330
9043
100
AcDbEntity
  8
S3_EXTERN HANDLE FRONT
100
AcDbPolyline
 90
        6
 70
     0
 43
0.0
 10
-20.71039659577957
 20
-53.87338835928222
 10
-19.91315660211376
 20
-63.19107288907741
 10
-19.35516230252199
 20
-74.99999958025775
 10
-18.98385845268751
 20
-109.9224097915112
 10
-19.20495174582061
 20
-162.8875367309696
 10
-19.28733985872463
 20
-201.6243365825702
  0
LINE
  5
92BC
330
9043
100
AcDbEntity
  8
AXIS
  6
AM_ISO08W050x2
100
AcDbLine
 10
-0.1873398587244992
 20
0.0754258880504999
 30
0.0
 11
17.43855240009361
 21
0.0754258880504999
 31
0.0
1001
GENIUS_GENOREF_13
1005
92C0
  0
LINE
  5
92BD
330
9043
100
AcDbEntity
  8
AXIS
  6
AM_ISO08W050x2
100
AcDbLine
 10
-0.1873398587244992
 20
0.0754258880504999
 30
0.0
 11
-0.1873398587244992
 21
17.70131814686863
 31
0.0
1001
GENIUS_GENOREF_13
1005
92C0
  0
LINE
  5
92BE
330
9043
100
AcDbEntity
  8
AXIS
  6
AM_ISO08W050x2
100
AcDbLine
 10
-0.1873398587244992
 20
0.0754258880504999
 30
0.0
 11
-17.81323211754261
 21
0.0754258880504999
 31
0.0
1001
GENIUS_GENOREF_13
1005
92C0
  0
LINE
  5
92BF
330
9043
100
AcDbEntity
  8
AXIS
  6
AM_ISO08W050x2
100
AcDbLine
 10
-0.1873398587244992
 20
0.0754258880504999
 30
0.0
 11
-0.1873398587244992
 21
-17.55046637076763
 31
0.0
1001
GENIUS_GENOREF_13
1005
92C0
  0
POINT
  5
92C0
330
9043
100
AcDbEntity
  8
0
 60
     1
100
AcDbPoint
 10
4076.51784494122
 20
-52.59153274902041
 30
0.0
1001
GENIUS_GENOENT_13
1002
{
1000
MYREF
1005
92C0
1002
}
1002
{
1000
GRP
1005
0
1002
}
1001
GENIUS_GENOBJ-N-CRS_13
1002
{
1000
OWNER
1000
GEN
1002
}
1001
GENIUS_GENODEF_13
1002
{
1000
HIER
1070
    10
1002
}
1002
{
1000
MANEDIT
1070
     0
1002
}
1002
{
1000
NOSEL
1070
     0
1002
}
1002
{
1000
BEHIND
1070
     0
1002
}
1002
{
1000
OTHER
1070
     0
1002
}
1002
{
1000
REACTOR
1002
}
1001
GENIUS_GENOLIS_13
1002
{
1000
ENT
1005
92BF
1005
92BE
1005
92BD
1005
92BC
1002
}
  0
ARC
  5
B3CC
330
9043
100
AcDbEntity
  8
S3_EXTERN HANDLE FRONT
100
AcDbCircle
 10
-0.1872796055091612
 20
0.0754258880505177
 30
0.0
 40
39.0
100
AcDbArc
 50
311.4326569475357
 51
228.5655825028849
  0
LWPOLYLINE
  5
B3CD
330
9043
100
AcDbEntity
  8
S3_EXTERN HANDLE FRONT
100
AcDbPolyline
 90
       12
 70
     0
 43
0.0
 10
-1.537512030307084
 20
34.84922399966155
 42
0.5813308160347832
 10
-29.40395038933423
 20
-18.83038457071228
 42
-0.0072294835326188
 10
-25.96831416162013
 20
-29.25164984301637
 42
-0.0128376475231189
 10
-23.48510991543719
 20
-38.01181992339912
 42
-0.0176999643711576
 10
-21.84366196689882
 20
-45.68888124791903
 10
-21.3357880485205
 20
-48.8995509977351
 10
-20.9792601367476
 20
-51.59870064096924
 10
-20.71039659577957
 20
-53.87338835928222
 10
-19.84827182189008
 20
-53.87338692644897
 10
-19.66109385503569
 20
-53.86767333240109
 42
-0.2610589964908557
 10
-19.2249189787833
 20
-53.71597233292385
 42
-0.054589690821048
 10
-18.27075809809912
 20
-53.71037673036788
  0
LWPOLYLINE
  5
B3CE
330
9043
100
AcDbEntity
  8
S3_EXTERN HANDLE FRONT
100
AcDbPolyline
 90
       20
 70
     0
 43
0.0
 10
-1.965844518422159
 20
33.82860234857697
 42
0.5278736174942812
 10
-30.98553843864875
 20
-13.84976582450798
 42
-0.0000893073185365
 10
-30.96897679360314
 20
-13.89463733606857
 42
-0.0123293817912113
 10
-29.111255299488
 20
-19.12829285179731
 42
-0.0113332257834585
 10
-26.12326082913899
 20
-28.19350040483835
 42
-0.0253339246079676
 10
-22.4133582213077
 20
-42.04658469525861
 42
-0.0030808928372958
 10
-21.85414699935154
 20
-44.9026678084291
 42
0.0170908197977986
 10
-21.4801760820086
 20
-46.71985286530087
 42
0.092087918656763
 10
-21.21538934716523
 20
-47.31846280845218
 42
0.2237323452356402
 10
-20.68409485872451
 20
-47.71323549999999
 10
-17.99521630378615
 20
-48.09235725922872
 10
-14.69009785872447
 20
-48.48888899999997
 10
-10.34900877819098
 20
-48.87098399126853
 10
-8.903581399596532
 20
-48.97001301741494
 10
-7.547071599693026
 20
-49.0491048955173
 10
-4.439827898446992
 20
-49.17546227743423
 42
0.4222965939732786
 10
-4.187339415016026
 20
-48.92982792844975
 10
-4.187339415016026
 20
8.450000423127846
 42
-0.4142135623730951
 10
-3.937339415016026
 20
8.700000423127846
 10
-0.1873398587244992
 20
8.700000423127846
  0
LWPOLYLINE
  5
B3CF
330
9043
100
AcDbEntity
  8
S3_EXTERN HANDLE FRONT
100
AcDbPolyline
 90
       12
 70
     0
 43
0.0
 10
1.162832312857972
 20
34.84922399966155
 42
-0.5813308160347833
 10
29.02927067188512
 20
-18.83038457071228
 42
0.0072294835326188
 10
25.59363444417102
 20
-29.25164984301637
 42
0.0128376475231189
 10
23.11043019798808
 20
-38.01181992339912
 42
0.0176999643711576
 10
21.46898224944971
 20
-45.68888124791903
 10
20.96110833107139
 20
-48.8995509977351
 10
20.60458041929849
 20
-51.59870064096924
 10
20.33571687833046
 20
-53.87338835928222
 10
19.6603222921342
 20
-53.86155148503837
 10
19.6603222921342
 20
-53.86155148503837
 42
0.0060199549049894
 10
18.85023926133419
 20
-53.71597233292385
 42
0.0329775644652308
 10
18.27342553136123
 20
-53.68768336497691
 42
0.0329775644652308
  0
LWPOLYLINE
  5
B412
330
9043
100
AcDbEntity
  8
S3_EXTERN HANDLE FRONT
100
AcDbPolyline
 90
       13
 70
     0
 43
0.0
 10
-2.019454218468013
 20
33.65214183576558
 10
-1.945871859659632
 20
33.8943439140835
 10
-1.814894715444438
 20
34.20479320255097
 10
-1.56998606846605
 20
34.77548749778151
 42
-0.0641437945158724
 10
-1.017436271451515
 20
35.71104752688807
 42
-0.0715284920828968
 10
-0.6279502191437132
 20
36.08599752167064
 42
-0.1524756791982054
 10
-0.187279605509957
 20
36.23249622753731
 42
-0.1910299201141697
 10
0.3100149693727872
 20
36.04577777612758
 42
-0.0341186377033264
 10
0.6867901679174793
 20
35.65400978547572
 42
-0.0866684160106062
 10
1.19496891629069
 20
34.77620844828101
 10
1.440215902415047
 20
34.20479315951626
 10
1.564537561064639
 20
33.89468851708942
 10
1.644775389930714
 20
33.65214183146964
  0
LWPOLYLINE
  5
B413
330
9043
100
AcDbEntity
  8
S3_EXTERN HANDLE FRONT
100
AcDbPolyline
 90
       20
 70
     0
 43
0.0
 10
1.592306241090909
 20
33.82854218505952
 42
-0.5278736174942812
 10
30.61038779126921
 20
-13.85080732832072
 42
0.0000893073185365
 10
30.5938246287999
 20
-13.89567827978561
 42
0.0123293817912113
 10
28.73592614767313
 20
-19.12927096940543
 42
0.0113332257834585
 10
25.74762511823224
 20
-28.19437747137165
 42
0.0253339246079676
 10
22.03725403868032
 20
-42.04733629499874
 42
0.0030808928372958
 10
21.47794623203799
 20
-44.9034004955251
 42
-0.0170908197977986
 10
21.10391386262529
 20
-46.72057290467286
 42
-0.092087918656763
 10
20.83910688456399
 20
-47.31917389311068
 42
-0.2237323452356402
 10
20.30779904628253
 20
-47.71392861749016
 10
17.61890767200918
 20
-48.09295944590207
 10
14.31377581920628
 20
-48.48937941628022
 10
9.972673819736087
 20
-48.87132760343906
 10
8.527243093074275
 20
-48.97030774908438
 10
7.170730619272944
 20
-49.04935375364907
 10
4.063482646738862
 20
-49.17560605691602
 42
-0.4222965939732786
 10
3.811002470141602
 20
-48.9299631695944
 10
3.812942900739585
 20
8.449865149173142
 42
0.4142135623730951
 10
3.562951355206337
 20
8.699873603354008
 10
-0.1870481989409427
 20
8.700000418196275
  0
INSERT
  5
B8F3
330
9043
100
AcDbEntity
  8
0
100
AcDbBlockReference
  2
moving 0-1 S3 frontale front
 10
-0.1873398587285919
 20
0.0754258880534957
 30
0.0
  0
ENDBLK
  5
9045
330
9043
100
AcDbEntity
  8
0
100
AcDbBlockEnd
  0
BLOCK
  5
9320
330
9316
100
AcDbEntity
  8
0
100
AcDbBlockBegin
  2
*D9
 70
     1
 10
0.0
 20
0.0
 30
0.0
  3
*D9
  1

  0
LINE
  5
BF1E
330
9316
100
AcDbEntity
  8
QUOTATION
100
AcDbLine
 10
741.012025978987
 20
9.486923892997026
 30
0.0
 11
741.012025978987
 21
28.80163023530838
 31
0.0
  0
LINE
  5
BF1F
330
9316
100
AcDbEntity
  8
QUOTATION
100
AcDbLine
 10
781.0120259789871
 20
9.486923892997083
 30
0.0
 11
781.0120259789871
 21
28.80163023530838
 31
0.0
  0
LINE
  5
BF20
330
9316
100
AcDbEntity
  8
QUOTATION
100
AcDbLine
 10
748.512025978987
 20
25.80163023530838
 30
0.0
 11
773.5120259789871
 21
25.80163023530838
 31
0.0
  0
SOLID
  5
BF21
330
9316
100
AcDbEntity
  8
QUOTATION
100
AcDbTrace
 10
748.512025978987
 20
27.05163023530838
 30
0.0
 11
748.512025978987
 21
24.55163023530838
 31
0.0
 12
741.012025978987
 22
25.80163023530838
 32
0.0
 13
741.012025978987
 23
25.80163023530838
 33
0.0
  0
SOLID
  5
BF22
330
9316
100
AcDbEntity
  8
QUOTATION
100
AcDbTrace
 10
773.5120259789871
 20
27.05163023530838
 30
0.0
 11
773.5120259789871
 21
24.55163023530838
 31
0.0
 12
781.0120259789871
 22
25.80163023530838
 32
0.0
 13
781.0120259789871
 23
25.80163023530838
 33
0.0
  0
MTEXT
  5
BF23
330
9316
100
AcDbEntity
  8
QUOTATION
 62
     2
100
AcDbMText
 10
761.0120259789871
 20
35.55163023530838
 30
0.0
 40
10.5
 41
0.0
 71
     5
 72
     1
  1
40
 73
     1
 44
1.0
1001
ACAD
1000
MTEXTBEGIN
1070
    73
1070
     1
1070
    44
1040
1.0
1070
    74
1070
     0
1000
MTEXTEND
  0
POINT
  5
BF24
330
9316
100
AcDbEntity
  8
Defpoints
 62
     0
100
AcDbPoint
 10
741.012025978987
 20
6.486923892997026
 30
0.0
  0
POINT
  5
BF25
330
9316
100
AcDbEntity
  8
Defpoints
 62
     0
100
AcDbPoint
 10
781.0120259789871
 20
6.486923892997083
 30
0.0
  0
POINT
  5
BF26
330
9316
100
AcDbEntity
  8
Defpoints
 62
     0
100
AcDbPoint
 10
781.0120259789871
 20
25.80163023530838
 30
0.0
  0
ENDBLK
  5
9321
330
9316
100
AcDbEntity
  8
0
100
AcDbBlockEnd
  0
BLOCK
  5
9373
330
9369
100
AcDbEntity
  8
0
100
AcDbBlockBegin
  2
*D10
 70
     1
 10
0.0
 20
0.0
 30
0.0
  3
*D10
  1

  0
LINE
  5
BF15
330
9369
100
AcDbEntity
  8
QUOTATION
100
AcDbLine
 10
784.0120259789871
 20
6.486923892997082
 30
0.0
 11
820.0120259789871
 21
6.486923892997071
 31
0.0
  0
LINE
  5
BF16
330
9369
100
AcDbEntity
  8
QUOTATION
100
AcDbLine
 10
784.0120259789871
 20
-21.51307610700292
 30
0.0
 11
820.0120259789871
 21
-21.51307610700293
 31
0.0
  0
LINE
  5
BF17
330
9369
100
AcDbEntity
  8
QUOTATION
100
AcDbLine
 10
817.0120259789872
 20
-1.013076107002926
 30
0.0
 11
817.0120259789872
 21
-14.01307610700293
 31
0.0
  0
SOLID
  5
BF18
330
9369
100
AcDbEntity
  8
QUOTATION
100
AcDbTrace
 10
815.7620259789871
 20
-1.013076107002926
 30
0.0
 11
818.2620259789871
 21
-1.013076107002926
 31
0.0
 12
817.0120259789872
 22
6.486923892997073
 32
0.0
 13
817.0120259789872
 23
6.486923892997073
 33
0.0
  0
SOLID
  5
BF19
330
9369
100
AcDbEntity
  8
QUOTATION
100
AcDbTrace
 10
815.7620259789871
 20
-14.01307610700293
 30
0.0
 11
818.2620259789871
 21
-14.01307610700293
 31
0.0
 12
817.0120259789872
 22
-21.51307610700293
 32
0.0
 13
817.0120259789872
 23
-21.51307610700293
 33
0.0
  0
MTEXT
  5
BF1A
330
9369
100
AcDbEntity
  8
QUOTATION
 62
     2
100
AcDbMText
 10
807.2609925144202
 20
-7.513076107002794
 30
0.0
 40
10.5
 41
0.0
 71
     5
 72
     1
  1
28
 11
0.0000000000000001
 21
1.0
 31
0.0
 73
     1
 44
1.0
1001
ACAD
1000
MTEXTBEGIN
1070
    73
1070
     1
1070
    44
1040
1.0
1070
    74
1070
     0
1000
MTEXTEND
  0
POINT
  5
BF1B
330
9369
100
AcDbEntity
  8
Defpoints
 62
     0
100
AcDbPoint
 10
781.0120259789871
 20
6.486923892997083
 30
0.0
  0
POINT
  5
BF1C
330
9369
100
AcDbEntity
  8
Defpoints
 62
     0
100
AcDbPoint
 10
781.0120259789871
 20
-21.51307610700292
 30
0.0
  0
POINT
  5
BF1D
330
9369
100
AcDbEntity
  8
Defpoints
 62
     0
100
AcDbPoint
 10
817.0120259789872
 20
-21.51307610700293
 30
0.0
  0
ENDBLK
  5
9374
330
9369
100
AcDbEntity
  8
0
100
AcDbBlockEnd
  0
BLOCK
  5
93BA
330
93B1
100
AcDbEntity
  8
0
100
AcDbBlockBegin
  2
*D11
 70
     1
 10
0.0
 20
0.0
 30
0.0
  3
*D11
  1

  0
LINE
  5
BF0F
330
93B1
100
AcDbEntity
  8
QUOTATION
100
AcDbLine
 10
786.5698302834293
 20
-31.00574755994632
 30
0.0
 11
797.3252986590819
 21
-49.37597472519548
 31
0.0
  0
LINE
  5
BF10
330
93B1
100
AcDbEntity
  8
QUOTATION
100
AcDbLine
 10
797.3252986590819
 20
-49.37597472519548
 30
0.0
 11
835.4252986590818
 21
-49.37597472519548
 31
0.0
  0
SOLID
  5
BF11
330
93B1
100
AcDbEntity
  8
QUOTATION
100
AcDbTrace
 10
787.6485429485367
 20
-30.37417888898699
 30
0.0
 11
785.4911176183223
 21
-31.63731623090558
 31
0.0
 12
782.7804182576738
 22
-24.53347156930295
 32
0.0
 13
782.7804182576738
 23
-24.53347156930295
 33
0.0
  0
MTEXT
  5
BF12
330
93B1
100
AcDbEntity
  8
QUOTATION
 62
     2
100
AcDbMText
 10
818.6252986590817
 20
-39.62597472519559
 30
0.0
 40
10.5
 41
0.0
 71
     5
 72
     1
  1
4x \U+22057
 73
     1
 44
1.0
1001
ACAD
1000
MTEXTBEGIN
1070
    73
1070
     1
1070
    44
1040
1.0
1070
    74
1070
     0
1000
MTEXTEND
  0
POINT
  5
BF13
330
93B1
100
AcDbEntity
  8
Defpoints
 62
     0
100
AcDbPoint
 10
782.7804182576738
 20
-24.53347156930295
 30
0.0
  0
POINT
  5
BF14
330
93B1
100
AcDbEntity
  8
Defpoints
 62
     0
100
AcDbPoint
 10
779.2436337003015
 20
-18.49268064470237
 30
0.0
  0
ENDBLK
  5
93BB
330
93B1
100
AcDbEntity
  8
0
100
AcDbBlockEnd
  0
BLOCK
  5
93EA
330
93E1
100
AcDbEntity
  8
0
100
AcDbBlockBegin
  2
*D12
 70
     1
 10
0.0
 20
0.0
 30
0.0
  3
*D12
  1

  0
LINE
  5
BF09
330
93E1
100
AcDbEntity
  8
QUOTATION
100
AcDbLine
 10
750.0459435846726
 20
-27.73051998403878
 30
0.0
 11
739.75681241546
 21
-46.69991347180292
 31
0.0
  0
LINE
  5
BF0A
330
93E1
100
AcDbEntity
  8
QUOTATION
100
AcDbLine
 10
739.75681241546
 20
-46.69991347180292
 30
0.0
 11
716.35681241546
 21
-46.69991347180292
 31
0.0
  0
SOLID
  5
BF0B
330
93E1
100
AcDbEntity
  8
QUOTATION
100
AcDbTrace
 10
748.9471694609205
 20
-27.1345372452173
 30
0.0
 11
751.1447177084246
 21
-28.32650272286026
 31
0.0
 12
753.6218400176014
 22
-21.13787524152713
 32
0.0
 13
753.6218400176014
 23
-21.13787524152713
 33
0.0
  0
MTEXT
  5
BF0C
330
93E1
100
AcDbEntity
  8
QUOTATION
 62
     2
100
AcDbMText
 10
725.8068124154601
 20
-36.94991347180286
 30
0.0
 40
10.5
 41
0.0
 71
     5
 72
     1
  1
\U+220531
 73
     1
 44
1.0
1001
ACAD
1000
MTEXTBEGIN
1070
    73
1070
     1
1070
    44
1040
1.0
1070
    74
1070
     0
1000
MTEXTEND
  0
POINT
  5
BF0D
330
93E1
100
AcDbEntity
  8
Defpoints
 62
     0
100
AcDbPoint
 10
753.6218400176014
 20
-21.13787524152713
 30
0.0
  0
POINT
  5
BF0E
330
93E1
100
AcDbEntity
  8
Defpoints
 62
     0
100
AcDbPoint
 10
768.4022119403744
 20
6.111723027520895
 30
0.0
  0
ENDBLK
  5
93EB
330
93E1
100
AcDbEntity
  8
0
100
AcDbBlockEnd
  0
BLOCK
  5
9DF3
330
9DF2
100
AcDbEntity
  8
0
100
AcDbBlockBegin
  2
poignée S3 frontale back
 70
     0
 10
0.0
 20
0.0
 30
0.0
  3
poignée S3 frontale back
  1

  0
LWPOLYLINE
  5
9DF6
330
9DF2
100
AcDbEntity
  8
S3_EXTERN HANDLE FRONT
100
AcDbPolyline
 90
       12
 70
     0
 43
0.0
 10
-19.11140014611385
 20
56.25425668916125
 42
0.0480712186037437
 10
-17.95164338388838
 20
50.89192842826017
 42
0.0979481894663765
 10
-14.79016284666613
 20
45.30594223001938
 42
0.1152140835510376
 10
-9.03753372230858
 20
41.09973667640409
 42
0.0751452716261952
 10
-3.987359435607459
 20
39.82706552899836
 42
0.0270475588593032
 10
0.0
 20
39.67484921812726
 42
0.0693787559068484
 10
6.883632690854483
 20
40.35728243962336
 42
0.0757835655082557
 10
11.29114736094289
 20
42.28205931963134
 42
0.0829893509584999
 10
15.1781462632498
 20
45.77247813078719
 42
0.073237104384254
 10
17.59099254384921
 20
49.91711070352147
 42
0.0435388608914275
 10
18.5989722468629
 20
53.27531444265964
 42
0.0160643658269411
 10
19.11205873303959
 20
56.25340100715305
 42
-9.203501944737324
  0
LWPOLYLINE
  5
9DF7
330
9DF2
100
AcDbEntity
  8
S3_EXTERN HANDLE FRONT
100
AcDbPolyline
 90
       20
 70
   128
 43
0.0
 10
-0.0000000000001137
 20
41.4311008398468
 42
-0.0270475588593032
 10
-3.987359435607572
 20
41.5833171507179
 42
-0.0770536994650573
 10
-9.047235858595968
 20
42.82930716418426
 42
-0.1206227041200418
 10
-14.73078824654283
 20
47.09710321695794
 42
-0.1121193028500289
 10
-17.52389888769983
 20
52.84496429369164
 42
-0.0245697020634595
 10
-18.14129000986645
 20
56.25424000040735
 42
-0.2698544964460148
 10
-17.70782708098454
 20
57.0286751045981
 42
-0.0817178338348576
 10
-15.02939112900287
 20
58.10887864359935
 42
-0.0400084572171833
 10
-7.846306533975962
 20
59.17122187212644
 42
-0.0112948140766845
 10
-1.999997939786339
 20
59.47956430192235
 10
2.00000206021366
 20
59.47956430192235
 42
-0.0112861933209046
 10
7.847100973460442
 20
59.17090378987674
 42
-0.0400084572171833
 10
15.03014249832131
 20
58.10826938113826
 42
-0.0817178338348576
 10
17.70853465983373
 20
57.02795726712313
 42
-0.2698544964460148
 10
18.14196619504219
 20
56.25350459225876
 42
-0.0245697020634595
 10
17.52443687139134
 20
52.84425391556109
 42
-0.1121193028500289
 10
14.73109323117739
 20
47.09650606802543
 42
-0.1206227041200418
 10
9.047367844023483
 20
42.8289404132253
 42
-0.0770536994650573
 10
3.987440916428681
 20
41.5831555132637
 42
-0.0270475588593032
 10
0.0000753136966978
 20
41.4311008383203
  0
LWPOLYLINE
  5
9DF8
330
9DF2
100
AcDbEntity
  8
S3_EXTERN HANDLE FRONT
100
AcDbPolyline
 90
        2
 70
     0
 43
0.0
 10
-19.11140014611385
 20
56.25425668916125
 10
19.11207633354411
 20
56.2535991326958
  0
LWPOLYLINE
  5
9DF9
330
9DF2
100
AcDbEntity
  8
S3_EXTERN HANDLE FRONT
100
AcDbPolyline
 90
        4
 70
     0
 43
0.0
 10
-23.6508672446505
 20
30.88609751668708
 10
-22.00799839235083
 20
36.67831630433841
 42
-0.2525168098777264
 10
-21.64537705777911
 20
37.05148295104837
 10
-19.86307875127011
 20
37.46505352304851
  0
LWPOLYLINE
  5
9DFA
330
9DF2
100
AcDbEntity
  8
S3_EXTERN HANDLE FRONT
100
AcDbPolyline
 90
       26
 70
     0
 43
0.0
 10
-31.83500678900293
 20
16.19897677614537
 10
-31.89205889803588
 20
16.49898775105197
 10
-24.64069447859015
 20
26.65257281354309
 42
0.0223278199420171
 10
-22.66896726945822
 20
29.85991027062562
 42
0.0231979446898053
 10
-21.60614429147108
 20
32.02153609767549
 42
0.0058179609243637
 10
-20.63785025932248
 20
35.06547972489682
 42
0.0341512977166697
 10
-19.70483024253804
 20
38.10059288492957
 42
0.0300372530469918
 10
-19.17989875521289
 20
41.04185466573722
 42
0.0465192704656891
 10
-19.1114001461151
 20
56.2542566891606
 42
-0.1924431039171605
 10
-17.99187120116721
 20
58.34251472005698
 42
-0.1000570245464792
 10
-15.01409343474881
 20
59.72367867443288
 42
-0.0458290285094536
 10
-8.054139028771601
 20
60.81421094455325
 42
-0.0088302286667292
 10
-1.999997939786339
 20
61.11105557047356
 10
2.00000206021366
 20
61.11105557047356
 42
-0.0088172390094882
 10
8.055000070021151
 20
60.81388443603668
 42
-0.0458290285094536
 10
15.01491026331496
 20
59.72307003076847
 42
-0.1000570245464792
 10
17.99263203896976
 20
58.34178536719083
 42
-0.1924431039171605
 10
19.11207633117033
 20
56.25348195560554
 42
0.0465192704656891
 10
19.17995827425773
 20
41.04107716794928
 42
0.0300372530469918
 10
19.70477053106549
 20
38.09979411038248
 42
0.0341512977166697
 10
20.63766751253888
 20
35.06464313096115
 42
0.0058179609243637
 10
21.60583815138636
 20
32.02066025445385
 42
0.0231979446898053
 10
22.6685735025585
 20
29.85899134546816
 42
0.0223278199420171
 10
24.64017069406054
 20
26.65157396300955
 10
31.89112351112783
 20
16.49769495991378
 10
31.8340592405807
 20
16.19768629797803
  0
LWPOLYLINE
  5
9DFB
330
9DF2
100
AcDbEntity
  8
S3_EXTERN HANDLE FRONT
100
AcDbPolyline
 90
        9
 70
     0
 43
0.0
 10
19.17989875521266
 20
41.04185466573733
 10
18.92082235921452
 20
39.36077896650559
 42
-0.1988610533432807
 10
14.80001492077247
 20
32.19232785921278
 42
-0.1076093132376777
 10
8.283563421905
 20
29.30759559968635
 42
-0.0582158506130202
 10
0.0
 20
28.6231592601176
 42
-0.0763998200793563
 10
-9.731835507066875
 20
29.68780734300265
 42
-0.1167390122880134
 10
-15.71195058242063
 20
32.97389434110042
 42
-0.1422627971782205
 10
-18.54518343204017
 20
37.79299501565254
 42
-0.0411507110483431
 10
-19.17989875521289
 20
41.04185466573716
  0
LWPOLYLINE
  5
9DFC
330
9DF2
100
AcDbEntity
  8
S3_EXTERN HANDLE FRONT
100
AcDbPolyline
 90
       17
 70
   128
 43
0.0
 10
20.11951372436408
 20
36.56710438272901
 42
0.056782972188742
 10
21.65216417509646
 20
33.37358029915689
 10
22.69547577388903
 20
32.08166936956729
 10
23.65098351823019
 20
30.88627769833838
 10
25.26342007877975
 20
28.79761795207839
 10
27.37698572282284
 20
25.88138878641743
 10
30.12569582619051
 20
21.86415974184447
 10
33.76635533113824
 20
16.50000902089366
 10
-33.76635121071092
 20
16.50000923668378
 10
-29.99797943293481
 20
22.05438862271441
 10
-27.08437657693833
 20
26.29596953011506
 10
-24.86549279908809
 20
29.32489435180727
 10
-23.65115283954344
 20
30.88574218707095
 10
-21.91944227059912
 20
33.04029069937843
 10
-21.28412199403328
 20
33.84983393793547
 10
-21.01417894965402
 20
34.265259843948
 42
0.0618126137289907
 10
-20.65974525746503
 20
34.99384243746459
 42
0.0618126137289907
  0
LWPOLYLINE
  5
9DFF
330
9DF2
100
AcDbEntity
  8
S3_EXTERN HANDLE FRONT
100
AcDbPolyline
 90
        2
 70
   128
 43
0.0
 10
33.34708000000012
 20
16.20000400000003
 10
33.57047800000009
 20
16.50000699999998
  0
LWPOLYLINE
  5
9E00
330
9DF2
100
AcDbEntity
  8
S3_EXTERN HANDLE FRONT
100
AcDbPolyline
 90
        2
 70
   128
 43
0.0
 10
-33.34707999999989
 20
16.20000400000003
 10
-33.57047799999987
 20
16.50000699999995
  0
LWPOLYLINE
  5
9E01
330
9DF2
100
AcDbEntity
  8
S3_EXTERN HANDLE FRONT
100
AcDbPolyline
 90
        4
 70
     0
 43
0.0
 10
23.65072407807861
 20
30.88660227194675
 10
22.00799839218564
 20
36.67831630298366
 42
0.2525168098777264
 10
21.64537705763689
 20
37.05148294971593
 10
19.86307875162151
 20
37.46505352171718
  0
LWPOLYLINE
  5
9E02
330
9DF2
100
AcDbEntity
  8
S3_EXTERN HANDLE FRONT
100
AcDbPolyline
 90
       12
 70
     0
 43
0.0
 10
-20.54516206097594
 20
35.31107446817521
 10
-20.43285149215547
 20
33.72835554802495
 42
0.1415972469968998
 10
-18.64863374795459
 20
28.7690505756645
 42
0.106093452602169
 10
-15.61085074953235
 20
26.23766159929008
 42
0.0710198522332222
 10
-10.63515900136576
 20
24.51028418796571
 42
0.0355291150716227
 10
-5.132439408047844
 20
23.7962079408226
 42
0.0163198684591616
 10
0.0000000000001137
 20
23.6544910875341
 42
0.0544283395461881
 10
11.00915128887766
 20
24.59238344599999
 42
0.1224365521192226
 10
17.50341554110639
 20
27.54542809695318
 42
0.1271741436500052
 10
19.82708448344931
 20
30.92794409492319
 42
0.0594601966457176
 10
20.40043063565804
 20
33.43056575873772
 42
-0.0469185309017277
 10
20.63785025932237
 20
35.06547972489705
 42
44.02972304573398
  0
LWPOLYLINE
  5
9E03
330
9DF2
100
AcDbEntity
  8
S3_EXTERN HANDLE FRONT
100
AcDbPolyline
 90
        6
 70
     0
 43
0.0
 10
-9.022742213376886
 20
23.70960627571282
 10
-8.956606623416632
 20
22.44766404375707
 42
0.3989595459736692
 10
-7.957977088662232
 20
21.5
 10
-7.142022911337448
 20
21.49999999999995
 42
0.3989595459737738
 10
-6.143393376582821
 20
22.44766404375713
 10
-6.094225131197276
 20
23.38585005465595
  0
LWPOLYLINE
  5
9E04
330
9DF2
100
AcDbEntity
  8
S3_EXTERN HANDLE FRONT
100
AcDbPolyline
 90
       26
 70
     0
 43
0.0
 10
-10.1608459710136
 20
23.77898253266358
 42
-0.1134127167154638
 10
-9.699999999999704
 20
23.80514211765822
 42
-0.0085874646259827
 10
-9.56383244117444
 20
23.79264330059868
 10
-9.355951159604842
 20
23.76139592854398
 10
-9.355436610450738
 20
23.76295683751846
 10
-9.022742213376886
 20
23.70960627571282
 42
0.0121647249320644
 10
-7.830381796409142
 20
23.54804466035123
 42
0.0059465548120134
 10
-6.825935055582135
 20
23.44883019092023
 42
0.0003509870423323
 10
-6.094225131197276
 20
23.38585005465595
 42
-0.0277116851026729
 10
-5.499999999999772
 20
23.30176638445266
 42
-0.1029799046691969
 10
-5.202445294503263
 20
23.17553636180011
 42
0.0837894971167171
 10
-4.925769020918096
 20
22.98984303925056
 42
0.0946861711219586
 10
-4.54918329212694
 20
22.89946127582974
 42
0.2416587766593839
 10
-4.710918881963266
 20
23.0977423909076
 42
0.0775729023872356
 10
-5.488122833138845
 20
23.34524699159548
 42
0.0250431587651987
 10
-6.076327135254928
 20
23.42131952030042
 42
-0.0055518424201219
 10
-7.163894326857757
 20
23.52026807107373
 42
-0.0060837949295955
 10
-8.208382397750824
 20
23.63989027843098
 42
-0.0064887004758619
 10
-9.178808305447887
 20
23.77581675993273
 42
0.0205078601602511
 10
-9.813113282506606
 20
23.8586331073025
 42
0.0331193716982762
 10
-10.3275893810345
 20
23.86983368186449
 42
0.0613542466219546
 10
-10.68292749929048
 20
23.81352545413864
 42
0.1167109796641151
 10
-10.84045570024591
 20
23.72668443025995
 42
0.209094556796058
 10
-10.88433226071072
 20
23.62223276545373
 42
0.0794072490171776
 10
-10.55332648657133
 20
23.61619793422454
 42
0.1416928745020959
 10
-10.1608459710136
 20
23.77898253266358
 42
-0.327104226879436
  0
LWPOLYLINE
  5
9E05
330
9DF2
100
AcDbEntity
  8
S3_EXTERN HANDLE FRONT
100
AcDbPolyline
 90
       11
 70
     0
 43
0.0
 10
-10.8843322607106
 20
23.62223276544765
 10
-10.84231388558123
 20
21.677531782371
 42
0.1938240514784316
 10
-10.77654139595336
 20
21.52389793054942
 42
0.1426839084256398
 10
-10.04093565863809
 20
21.12209399609097
 42
0.0072801699943485
 10
-9.305147431735008
 20
20.9714685035172
 10
-6.061211655650254
 20
20.69001443607405
 42
0.0621861863721708
 10
-5.232725229539141
 20
20.72123498289102
 42
0.0645371152785579
 10
-4.729732905975083
 20
20.87175835914653
 42
0.1447875465412763
 10
-4.570641708643165
 20
21.00774179026453
 42
0.1462512943416277
 10
-4.545144078868247
 20
21.09460097920447
 10
-4.549183292126599
 20
22.89946127577199
  0
LWPOLYLINE
  5
9E06
330
9DF2
100
AcDbEntity
  8
S3_EXTERN HANDLE FRONT
100
AcDbPolyline
 90
        7
 70
     0
 43
0.0
 10
-10.84231388558123
 20
21.677531782371
 42
0.1225792508250165
 10
-10.33719166681328
 20
21.73244328239215
 42
0.1761691967793274
 10
-9.821084785268681
 20
22.16371168385371
 42
0.130570508413708
 10
-9.699999999999704
 20
22.61532778559868
 42
0.1477129979127709
 10
-9.552302851890544
 20
22.19102996111695
 42
0.1564893732734033
 10
-9.199999999999704
 20
21.9132199846793
 10
-8.728475404671144
 20
21.86255796732013
  0
LWPOLYLINE
  5
9E07
330
9DF2
100
AcDbEntity
  8
S3_EXTERN HANDLE FRONT
100
AcDbPolyline
 90
        2
 70
     0
 43
0.0
 10
-9.699999999999704
 20
22.61532778559879
 10
-9.699999999999704
 20
23.8051421176572
  0
LWPOLYLINE
  5
9E08
330
9DF2
100
AcDbEntity
  8
S3_EXTERN HANDLE FRONT
100
AcDbPolyline
 90
        2
 70
     0
 43
0.0
 10
-5.499999999999772
 20
22.11195205239426
 10
-5.499999999999772
 20
23.30176638445266
  0
LWPOLYLINE
  5
9E09
330
9DF2
100
AcDbEntity
  8
S3_EXTERN HANDLE FRONT
100
AcDbPolyline
 90
        7
 70
     0
 43
0.0
 10
-4.545144078868247
 20
21.09460097920209
 42
-0.0843305169654392
 10
-4.885737683023194
 20
21.16740823314001
 42
-0.1845156519185243
 10
-5.40360677691649
 20
21.63794607875209
 42
-0.1304461570053727
 10
-5.499999999999772
 20
22.11195205239417
 42
-0.2528807962571379
 10
-5.649573347293653
 20
21.71818378303772
 42
-0.2229952465829673
 10
-5.999999999999886
 20
21.63644278736911
 10
-6.575840303614882
 20
21.67572015995012
  0
LWPOLYLINE
  5
9E0A
330
9DF2
100
AcDbEntity
  8
S3_EXTERN HANDLE FRONT
100
AcDbPolyline
 90
        3
 70
     0
 43
0.0
 10
-9.305147431735008
 20
20.9714685035172
 10
-9.199999999999704
 20
21.9132199846793
 10
-9.199999999999704
 20
23.73771339767279
  0
LWPOLYLINE
  5
9E0B
330
9DF2
100
AcDbEntity
  8
S3_EXTERN HANDLE FRONT
100
AcDbPolyline
 90
        3
 70
     0
 43
0.0
 10
-6.06121165565014
 20
20.69001443607405
 10
-6.000000000000568
 20
21.63644278736914
 10
-5.999999999999886
 20
23.37487604784056
  0
LWPOLYLINE
  5
9E0C
330
9DF2
100
AcDbEntity
  8
S3_EXTERN HANDLE FRONT
100
AcDbPolyline
 90
        3
 70
     0
 43
0.0
 10
6.061097041486732
 20
20.69018023070706
 10
5.9998594975998
 20
21.63660690728645
 10
5.999811945121905
 20
23.37504016710753
  0
LWPOLYLINE
  5
9E0D
330
9DF2
100
AcDbEntity
  8
S3_EXTERN HANDLE FRONT
100
AcDbPolyline
 90
        3
 70
     0
 43
0.0
 10
9.305025117564809
 20
20.97172303149566
 10
9.199851925537927
 20
21.91347163614048
 10
9.199802019002277
 20
23.73796504845143
  0
LWPOLYLINE
  5
9E0E
330
9DF2
100
AcDbEntity
  8
S3_EXTERN HANDLE FRONT
100
AcDbPolyline
 90
        7
 70
     0
 43
0.0
 10
4.545018398357342
 20
21.09472530371727
 42
0.0843305169654392
 10
4.885610010841446
 20
21.16754187410274
 42
0.1845156519185243
 10
5.40346623361836
 20
21.63809388514346
 42
0.1304461570053727
 10
5.499846490876848
 20
22.11210249531371
 42
0.2528807962571379
 10
5.649430609110254
 20
21.71833831748003
 42
0.2229952465829673
 10
5.999859497599118
 20
21.63660690728639
 10
6.575698726619634
 20
21.67590003118101
  0
LWPOLYLINE
  5
9E0F
330
9DF2
100
AcDbEntity
  8
S3_EXTERN HANDLE FRONT
100
AcDbPolyline
 90
        2
 70
     0
 43
0.0
 10
5.499846490876848
 20
22.11210249531376
 10
5.499813945124174
 20
23.30191682692708
  0
LWPOLYLINE
  5
9E10
330
9DF2
100
AcDbEntity
  8
S3_EXTERN HANDLE FRONT
100
AcDbPolyline
 90
        2
 70
     0
 43
0.0
 10
9.699832720147014
 20
22.61559311361725
 10
9.69980017439434
 20
23.80540744523054
  0
LWPOLYLINE
  5
9E11
330
9DF2
100
AcDbEntity
  8
S3_EXTERN HANDLE FRONT
100
AcDbPolyline
 90
        7
 70
     0
 43
0.0
 10
10.84217225743532
 20
21.67782835718293
 42
-0.1225792508250165
 10
10.33704853682695
 20
21.73272604025226
 42
-0.1761691967793274
 10
9.820929858714976
 20
22.16398032415074
 42
-0.130570508413708
 10
9.699832720147014
 20
22.6155931136172
 42
-0.1477129979127709
 10
9.552147178182963
 20
22.19129124923956
 42
-0.1564893732734033
 10
9.199851925537927
 20
21.91347163614048
 10
8.728328716176406
 20
21.86279672088637
  0
LWPOLYLINE
  5
9E12
330
9DF2
100
AcDbEntity
  8
S3_EXTERN HANDLE FRONT
100
AcDbPolyline
 90
       11
 70
     0
 43
0.0
 10
10.88413743789874
 20
23.62253048888752
 10
10.84217225743532
 20
21.6778283571829
 42
-0.1938240514784316
 10
10.77640397027721
 20
21.52419270630176
 42
-0.1426839084256398
 10
10.04080922403716
 20
21.12236865049928
 42
-0.0072801699943485
 10
9.305025117564809
 20
20.97172303149566
 10
6.061097041486846
 20
20.69018023070706
 42
-0.0621861863721708
 10
5.232609761690127
 20
20.72137811539304
 42
-0.0645371152785579
 10
4.729613320952012
 20
20.87188773292135
 42
-0.1447875465412763
 10
4.570518404037784
 20
21.00786681226521
 42
-0.1462512943416277
 10
4.545018398357342
 20
21.09472530371966
 10
4.549008242115746
 20
22.8995857100991
  0
LWPOLYLINE
  5
9E13
330
9DF2
100
AcDbEntity
  8
S3_EXTERN HANDLE FRONT
100
AcDbPolyline
 90
       26
 70
     0
 43
0.0
 10
10.16064686079573
 20
23.7792604660614
 42
0.1134127167154638
 10
9.69980017439434
 20
23.80540744523159
 42
0.0085874646259827
 10
9.563632957508161
 20
23.79290490349831
 10
9.355752530745689
 20
23.76165184514565
 10
9.355237938895243
 20
23.76321274004471
 10
9.02254500127799
 20
23.70985307785634
 42
-0.0121647249320644
 10
7.830189004054545
 20
23.54825884715783
 42
-0.0059465548120134
 10
6.825744977480098
 20
23.44901690248955
 42
-0.0003509870423323
 10
6.094036776104985
 20
23.38601675131912
 42
0.0277116851026729
 10
5.499813945124174
 20
23.30191682692708
 42
0.1029799046691969
 10
5.202262692589556
 20
23.17567866511749
 42
-0.0837894971167171
 10
4.92559149849626
 20
22.98997777453426
 42
-0.0946861711219586
 10
4.549008242116087
 20
22.89958571015688
 42
-0.2416587766593839
 10
4.710738408181782
 20
23.09787124921766
 42
-0.0775729023872356
 10
5.487935588914865
 20
23.34539710916988
 42
-0.0250431587651987
 10
6.076137809950409
 20
23.42148572737494
 42
0.0055518424201219
 10
7.163702294543327
 20
23.52046402703252
 42
0.0060837949295955
 10
8.208187092942807
 20
23.64011480489549
 42
0.0064887004758619
 10
9.178609282192837
 20
23.77606783102715
 42
-0.0205078601602511
 10
9.812911993685702
 20
23.85890152891582
 42
-0.0331193716982762
 10
10.32738778564464
 20
23.87011617626749
 42
-0.0613542466219546
 10
10.68272744400269
 20
23.81381766835364
 42
-0.1167109796641151
 10
10.84025802031726
 20
23.72698095347707
 42
-0.209094556796058
 10
10.88413743789885
 20
23.62253048889357
 42
-0.0794072490171776
 10
10.55313182895793
 20
23.61648660345389
 42
-0.1416928745020959
 10
10.16064686079573
 20
23.7792604660614
 42
0.327104226879436
  0
LWPOLYLINE
  5
9E14
330
9DF2
100
AcDbEntity
  8
S3_EXTERN HANDLE FRONT
100
AcDbPolyline
 90
        6
 70
     0
 43
0.0
 10
9.02254500127799
 20
23.70985307785634
 10
8.956443930055684
 20
22.44790903732363
 42
-0.3989595459736692
 10
7.957840317735872
 20
21.5002176777684
 10
7.141886140716337
 20
21.50019535845172
 42
-0.3989595459737738
 10
6.143230684274385
 20
22.44783208570172
 10
6.094036776104985
 20
23.38601675131912
  0
LWPOLYLINE
  5
9E15
330
9DF2
100
AcDbEntity
  8
S3_EXTERN HANDLE FRONT
100
AcDbPolyline
 90
        8
 70
     0
 43
0.0
 10
-0.7374016969881723
 20
21.98286495341395
 42
0.1006313712527427
 10
-0.9999999999996589
 20
20.91630695304451
 10
-0.9999999999996589
 20
12.45800010418401
 42
0.4142135623731282
 10
-0.499999999999659
 20
11.95800010418398
 10
0.5000000000001137
 20
11.95800010418398
 42
0.4142135623729951
 10
1.000000000000341
 20
12.45800010418404
 10
1.000000000000341
 20
20.91630695304451
 42
0.121296466363545
 10
0.7373922374396216
 20
21.98288401925191
  0
LWPOLYLINE
  5
9E16
330
9DF2
100
AcDbEntity
  8
S3_EXTERN HANDLE FRONT
100
AcDbPolyline
 90
       14
 70
     0
 43
0.0
 10
-1.809967207456111
 20
16.20000000000004
 10
-2.580518609213527
 20
16.26765372716806
 10
-2.624325771735129
 20
21.42432032919501
 42
-0.2224218392394447
 10
-2.421237899804964
 20
21.67208241266695
 42
-0.0816389880639069
 10
-1.784810500300295
 20
21.88648941580206
 42
-0.0451657654181581
 10
-0.7374016969893092
 20
21.98286495341156
 42
0.0007388237114464
 10
0.0000000877097364
 20
21.9804723797543
 42
0.0008760392390085
 10
0.7373922374396216
 20
21.98288401925194
 42
-0.0413057950836135
 10
1.719867235321544
 20
21.8987046277401
 42
-0.0566725450678413
 10
2.29028877538019
 20
21.73868955570094
 42
-0.1386107151215938
 10
2.589156571439048
 20
21.52153261482687
 42
-0.1463784761790275
 10
2.625330757848018
 20
21.40261734853203
 10
2.580518609213982
 20
16.26765372716608
 10
1.809967207457816
 20
16.20000000000004
  0
LWPOLYLINE
  5
9E17
330
9DF2
100
AcDbEntity
  8
S3_EXTERN HANDLE FRONT
100
AcDbPolyline
 90
        3
 70
     0
 43
0.0
 10
-2.199999999999704
 20
21.76137800772551
 10
-2.199999999999704
 20
18.92850664709408
 10
-0.9999999999996589
 20
18.92850664709408
  0
LWPOLYLINE
  5
9E18
330
9DF2
100
AcDbEntity
  8
S3_EXTERN HANDLE FRONT
100
AcDbPolyline
 90
        3
 70
     0
 43
0.0
 10
1.000000000000341
 20
18.92850664709405
 10
2.200000000000386
 20
18.92850664709408
 10
2.200000000000386
 20
21.76024865526748
  0
LWPOLYLINE
  5
9E19
330
9DF2
100
AcDbEntity
  8
S3_EXTERN HANDLE FRONT
100
AcDbPolyline
 90
        2
 70
     0
 43
0.0
 10
-2.599999999999795
 20
18.49999999999997
 10
-0.9999999999996589
 20
18.49999999999997
  0
LWPOLYLINE
  5
9E1A
330
9DF2
100
AcDbEntity
  8
S3_EXTERN HANDLE FRONT
100
AcDbPolyline
 90
        2
 70
     0
 43
0.0
 10
1.000000000000341
 20
18.5
 10
2.60000000000025
 20
18.49999999999997
  0
LWPOLYLINE
  5
9E1B
330
9DF2
100
AcDbEntity
  8
S3_EXTERN HANDLE FRONT
100
AcDbPolyline
 90
        2
 70
     0
 43
0.0
 10
-0.499999999999659
 20
11.95800010418404
 10
-0.499999999999659
 20
21.98185681747597
  0
LWPOLYLINE
  5
9E1C
330
9DF2
100
AcDbEntity
  8
S3_EXTERN HANDLE FRONT
100
AcDbPolyline
 90
        2
 70
     0
 43
0.0
 10
0.5000000000001137
 20
11.95800010418398
 10
0.5000000000003411
 20
21.98182559729267
  0
LWPOLYLINE
  5
9E1D
330
9DF2
100
AcDbEntity
  8
S3_EXTERN HANDLE FRONT
100
AcDbPolyline
 90
        7
 70
     0
 43
0.0
 10
-0.9999999999996589
 20
13.32407271157296
 42
0.2764553637433802
 10
-0.8306559326614433
 20
13.16556739339313
 42
0.0663766050643538
 10
-0.6013811389952935
 20
13.11717951758115
 10
0.5078526897698339
 20
13.11281571485276
 42
0.0648697496661058
 10
0.7679133974896786
 20
13.14565851146557
 42
0.0811951868398813
 10
0.9342621767622176
 20
13.21939068691935
 42
0.2187984809618467
 10
1.000000000000341
 20
13.32407271157294
 42
-0.8778356879043297
  0
LWPOLYLINE
  5
B01D
330
9DF2
100
AcDbEntity
  8
S3_EXTERN HANDLE FRONT
100
AcDbPolyline
 90
        3
 70
   128
 43
0.0
 10
38.91251283052293
 20
0.8999999999999488
 10
0.0000020602137738
 20
0.8999999999999772
 10
-38.91250871009538
 20
0.8999999999999488
  0
LWPOLYLINE
  5
B01E
330
9DF2
100
AcDbEntity
  8
S3_EXTERN HANDLE FRONT
100
AcDbPolyline
 90
       12
 70
   128
 43
0.0
 10
34.80294506021369
 20
16.04863399999999
 42
-0.0634453973821163
 10
37.82272474735396
 20
8.736104281043282
 42
-0.06344539708321
 10
38.91251306021377
 20
0.8999999999999772
 10
39.000062313429
 20
-0.0000000000000284
 10
0.0000020602137738
 20
-0.0000000000000284
 10
-38.999937686571
 20
-0.0000000000000284
 10
-38.91250893978622
 20
0.8999999999999488
 42
-0.06344539708321
 10
-37.82272062692664
 20
8.73610428104331
 42
-0.0634453973821163
 10
-34.80294093978637
 20
16.04863399999999
 42
-0.273801555089026
 10
-34.54234893978628
 20
16.20000000000004
 10
34.5423530602136
 20
16.20000000000002
 42
-0.2693557064252803
 10
34.80294459964466
 20
16.04863441233419
  0
LWPOLYLINE
  5
B01F
330
9DF2
100
AcDbEntity
  8
S3_EXTERN HANDLE FRONT
100
AcDbPolyline
 90
        2
 70
     0
 43
0.0
 10
-34.8029282181758
 20
16.04865673711424
 10
-0.9999979397859988
 20
16.04863410162352
  0
LWPOLYLINE
  5
B020
330
9DF2
100
AcDbEntity
  8
S3_EXTERN HANDLE FRONT
100
AcDbPolyline
 90
        2
 70
     0
 43
0.0
 10
1.000977896719859
 20
16.04863410162352
 10
34.80294506021369
 20
16.04863399999999
  0
LINE
  5
B021
330
9DF2
100
AcDbEntity
  8
AXIS
  6
AM_ISO08W050x2
100
AcDbLine
 10
0.0000283821211724
 20
-9.155603306391384
 30
0.0
 11
-0.0000577456501105
 21
20.80239679766879
 31
0.0
1001
GENIUS_GENODEF_13
1002
{
1000
HIER
1070
     0
1002
}
1002
{
1000
MANEDIT
1070
     0
1002
}
1002
{
1000
NOSEL
1070
     0
1002
}
1002
{
1000
BEHIND
1070
     0
1002
}
1002
{
1000
OTHER
1070
     0
1002
}
1002
{
1000
REACTOR
1002
}
1001
GENIUS_GENOBJ-N-CEN_13
1002
{
1000
OWNER
1000
GEN
1002
}
  0
INSERT
  5
B7D1
330
9DF2
100
AcDbEntity
  8
S3_EXTERN HANDLE FRONT
100
AcDbBlockReference
  2
moving 0-1 S3 frontale back
 10
0.0000020602136601
 20
0.0000000053646261
 30
0.0
  0
LWPOLYLINE
  5
BD8C
330
9DF2
100
AcDbEntity
  8
S3_EXTERN HANDLE FRONT
  6
AM_ISO02W050
 62
     6
100
AcDbPolyline
 90
        8
 70
     1
 43
0.0
 10
-5.999997939786339
 20
0.0000000053646261
 10
-5.999997939786339
 20
18.50000000536462
 10
-1.999997939786339
 20
18.50000000536462
 10
-1.999997939786339
 20
23.50000000536462
 10
2.00000206021366
 20
23.50000000536462
 10
2.00000206021366
 20
18.50000000536462
 10
6.00000206021366
 20
18.50000000536462
 10
6.00000206021366
 20
0.0000000053646261
  0
ENDBLK
  5
9DF4
330
9DF2
100
AcDbEntity
  8
0
100
AcDbBlockEnd
  0
BLOCK
  5
AC6C
330
AC6B
100
AcDbEntity
  8
0
100
AcDbBlockBegin
  2
Percage S1 à S4 Frontale
 70
     0
 10
0.0
 20
0.0
 30
0.0
  3
Percage S1 à S4 Frontale
  1

  0
LINE
  5
AC6D
330
AC6B
100
AcDbEntity
  8
AXIS
100
AcDbLine
 10
0.0
 20
0.0
 30
0.0
 11
0.0
 21
-8.895787562519842
 31
0.0
1001
GENIUS_GENOREF_13
1005
AC89
  0
LINE
  5
AC6E
330
AC6B
100
AcDbEntity
  8
AXIS
100
AcDbLine
 10
0.0
 20
0.0
 30
0.0
 11
-8.895787562519785
 21
0.0
 31
0.0
1001
GENIUS_GENOREF_13
1005
AC89
  0
LINE
  5
AC6F
330
AC6B
100
AcDbEntity
  8
AXIS
100
AcDbLine
 10
0.0
 20
0.0
 30
0.0
 11
0.0
 21
8.895787562519842
 31
0.0
1001
GENIUS_GENOREF_13
1005
AC89
  0
LINE
  5
AC70
330
AC6B
100
AcDbEntity
  8
AXIS
100
AcDbLine
 10
0.0
 20
0.0
 30
0.0
 11
8.895787562519785
 21
0.0
 31
0.0
1001
GENIUS_GENOREF_13
1005
AC89
  0
CIRCLE
  5
AC71
330
AC6B
100
AcDbEntity
  8
HANDLE FIXING HOLES
100
AcDbCircle
 10
-20.00000000000011
 20
-14.00000000000005
 30
0.0
 40
3.5
  0
CIRCLE
  5
AC72
330
AC6B
100
AcDbEntity
  8
HANDLE FIXING HOLES
100
AcDbCircle
 10
20.0
 20
-14.0
 30
0.0
 40
3.5
  0
CIRCLE
  5
AC73
330
AC6B
100
AcDbEntity
  8
HANDLE FIXING HOLES
100
AcDbCircle
 10
20.0
 20
14.0
 30
0.0
 40
3.5
  0
CIRCLE
  5
AC74
330
AC6B
100
AcDbEntity
  8
HANDLE FIXING HOLES
100
AcDbCircle
 10
-20.00000000000011
 20
13.99999999999994
 30
0.0
 40
3.5
  0
CIRCLE
  5
AC75
330
AC6B
100
AcDbEntity
  8
HANDLE FIXING HOLES
100
AcDbCircle
 10
0.0
 20
0.0
 30
0.0
 40
15.5
  0
LINE
  5
AC76
330
AC6B
100
AcDbEntity
  8
AXIS
  6
AM_ISO08W050x2
100
AcDbLine
 10
-20.00000000000011
 20
13.99999999999994
 30
0.0
 11
-15.00000000000011
 21
13.99999999999994
 31
0.0
1001
GENIUS_GENOREF_13
1005
AC8A
  0
LINE
  5
AC77
330
AC6B
100
AcDbEntity
  8
AXIS
  6
AM_ISO08W050x2
100
AcDbLine
 10
-20.00000000000011
 20
13.99999999999994
 30
0.0
 11
-20.00000000000011
 21
18.99999999999994
 31
0.0
1001
GENIUS_GENOREF_13
1005
AC8A
  0
LINE
  5
AC78
330
AC6B
100
AcDbEntity
  8
AXIS
  6
AM_ISO08W050x2
100
AcDbLine
 10
-20.00000000000011
 20
13.99999999999994
 30
0.0
 11
-25.00000000000011
 21
13.99999999999994
 31
0.0
1001
GENIUS_GENOREF_13
1005
AC8A
  0
LINE
  5
AC79
330
AC6B
100
AcDbEntity
  8
AXIS
  6
AM_ISO08W050x2
100
AcDbLine
 10
-20.00000000000011
 20
13.99999999999994
 30
0.0
 11
-20.00000000000011
 21
8.999999999999943
 31
0.0
1001
GENIUS_GENOREF_13
1005
AC8A
  0
LINE
  5
AC7A
330
AC6B
100
AcDbEntity
  8
AXIS
  6
AM_ISO08W050x2
100
AcDbLine
 10
20.0
 20
14.0
 30
0.0
 11
20.0
 21
9.0
 31
0.0
1001
GENIUS_GENOREF_13
1005
AC8B
  0
LINE
  5
AC7B
330
AC6B
100
AcDbEntity
  8
AXIS
  6
AM_ISO08W050x2
100
AcDbLine
 10
20.0
 20
14.0
 30
0.0
 11
15.0
 21
14.0
 31
0.0
1001
GENIUS_GENOREF_13
1005
AC8B
  0
LINE
  5
AC7C
330
AC6B
100
AcDbEntity
  8
AXIS
  6
AM_ISO08W050x2
100
AcDbLine
 10
20.0
 20
14.0
 30
0.0
 11
20.0
 21
19.0
 31
0.0
1001
GENIUS_GENOREF_13
1005
AC8B
  0
LINE
  5
AC7D
330
AC6B
100
AcDbEntity
  8
AXIS
  6
AM_ISO08W050x2
100
AcDbLine
 10
20.0
 20
14.0
 30
0.0
 11
25.0
 21
14.0
 31
0.0
1001
GENIUS_GENOREF_13
1005
AC8B
  0
CIRCLE
  5
AC7E
330
AC6B
100
AcDbEntity
  8
HANDLE FIXING HOLES
100
AcDbCircle
 10
20.0
 20
14.0
 30
0.0
 40
3.5
  0
LINE
  5
AC7F
330
AC6B
100
AcDbEntity
  8
AXIS
  6
AM_ISO08W050x2
100
AcDbLine
 10
20.0
 20
-14.0
 30
0.0
 11
20.0
 21
-19.0
 31
0.0
1001
GENIUS_GENOREF_13
1005
AC8C
  0
LINE
  5
AC80
330
AC6B
100
AcDbEntity
  8
AXIS
  6
AM_ISO08W050x2
100
AcDbLine
 10
20.0
 20
-14.0
 30
0.0
 11
15.0
 21
-14.0
 31
0.0
1001
GENIUS_GENOREF_13
1005
AC8C
  0
LINE
  5
AC81
330
AC6B
100
AcDbEntity
  8
AXIS
  6
AM_ISO08W050x2
100
AcDbLine
 10
20.0
 20
-14.0
 30
0.0
 11
20.0
 21
-9.0
 31
0.0
1001
GENIUS_GENOREF_13
1005
AC8C
  0
LINE
  5
AC82
330
AC6B
100
AcDbEntity
  8
AXIS
  6
AM_ISO08W050x2
100
AcDbLine
 10
20.0
 20
-14.0
 30
0.0
 11
25.0
 21
-14.0
 31
0.0
1001
GENIUS_GENOREF_13
1005
AC8C
  0
CIRCLE
  5
AC83
330
AC6B
100
AcDbEntity
  8
HANDLE FIXING HOLES
100
AcDbCircle
 10
20.0
 20
-14.0
 30
0.0
 40
3.5
  0
LINE
  5
AC84
330
AC6B
100
AcDbEntity
  8
AXIS
  6
AM_ISO08W050x2
100
AcDbLine
 10
-20.00000000000011
 20
-14.00000000000005
 30
0.0
 11
-20.00000000000011
 21
-19.00000000000005
 31
0.0
1001
GENIUS_GENOREF_13
1005
AC8D
  0
LINE
  5
AC85
330
AC6B
100
AcDbEntity
  8
AXIS
  6
AM_ISO08W050x2
100
AcDbLine
 10
-20.00000000000011
 20
-14.00000000000005
 30
0.0
 11
-25.00000000000011
 21
-14.00000000000005
 31
0.0
1001
GENIUS_GENOREF_13
1005
AC8D
  0
LINE
  5
AC86
330
AC6B
100
AcDbEntity
  8
AXIS
  6
AM_ISO08W050x2
100
AcDbLine
 10
-20.00000000000011
 20
-14.00000000000005
 30
0.0
 11
-20.00000000000011
 21
-9.000000000000056
 31
0.0
1001
GENIUS_GENOREF_13
1005
AC8D
  0
LINE
  5
AC87
330
AC6B
100
AcDbEntity
  8
AXIS
  6
AM_ISO08W050x2
100
AcDbLine
 10
-20.00000000000011
 20
-14.00000000000005
 30
0.0
 11
-15.00000000000011
 21
-14.00000000000005
 31
0.0
1001
GENIUS_GENOREF_13
1005
AC8D
  0
CIRCLE
  5
AC88
330
AC6B
100
AcDbEntity
  8
HANDLE FIXING HOLES
100
AcDbCircle
 10
-20.00000000000011
 20
-14.00000000000005
 30
0.0
 40
3.5
  0
POINT
  5
AC89
330
AC6B
100
AcDbEntity
  8
0
 60
     1
100
AcDbPoint
 10
-632.0558477566763
 20
-425.126262
 30
0.0
1001
GENIUS_GENOBJ-N-CRS_13
1002
{
1000
OWNER
1000
GEN
1002
}
1001
GENIUS_GENOLIS_13
1002
{
1000
ENT
1005
AC6D
1005
AC6E
1005
AC6F
1005
AC70
1002
}
1001
GENIUS_GENOENT_13
1002
{
1000
MYREF
1005
AC89
1002
}
1002
{
1000
GRP
1005
0
1002
}
1001
GENIUS_GENODEF_13
1002
{
1000
HIER
1070
    10
1002
}
1002
{
1000
MANEDIT
1070
     0
1002
}
1002
{
1000
NOSEL
1070
     0
1002
}
1002
{
1000
BEHIND
1070
     0
1002
}
1002
{
1000
OTHER
1070
     0
1002
}
1002
{
1000
REACTOR
1002
}
  0
POINT
  5
AC8A
330
AC6B
100
AcDbEntity
  8
0
 60
     1
100
AcDbPoint
 10
-787.0340568911363
 20
7.513076107002916
 30
0.0
1001
GENIUS_GENOLIS_13
1002
{
1000
ENT
1005
AC79
1005
AC78
1005
AC77
1005
AC76
1002
}
1001
GENIUS_GENOBJ-N-CRS_13
1002
{
1000
OWNER
1000
GEN
1002
}
1001
GENIUS_GENODEF_13
1002
{
1000
HIER
1070
    10
1002
}
1002
{
1000
MANEDIT
1070
     0
1002
}
1002
{
1000
NOSEL
1070
     0
1002
}
1002
{
1000
BEHIND
1070
     0
1002
}
1002
{
1000
OTHER
1070
     0
1002
}
1002
{
1000
REACTOR
1002
}
1001
GENIUS_GENOENT_13
1002
{
1000
MYREF
1005
AC8A
1002
}
1002
{
1000
GRP
1005
0
1002
}
  0
POINT
  5
AC8B
330
AC6B
100
AcDbEntity
  8
0
 60
     1
100
AcDbPoint
 10
-747.0340568911361
 20
7.513076107002973
 30
0.0
1001
GENIUS_GENOLIS_13
1002
{
1000
ENT
1005
AC7A
1005
AC7B
1005
AC7C
1005
AC7D
1002
}
1001
GENIUS_GENOBJ-N-CRS_13
1002
{
1000
OWNER
1000
GEN
1002
}
1001
GENIUS_GENODEF_13
1002
{
1000
HIER
1070
    10
1002
}
1002
{
1000
MANEDIT
1070
     0
1002
}
1002
{
1000
NOSEL
1070
     0
1002
}
1002
{
1000
BEHIND
1070
     0
1002
}
1002
{
1000
OTHER
1070
     0
1002
}
1002
{
1000
REACTOR
1002
}
1001
GENIUS_GENOENT_13
1002
{
1000
MYREF
1005
AC8B
1002
}
1002
{
1000
GRP
1005
0
1002
}
  0
POINT
  5
AC8C
330
AC6B
100
AcDbEntity
  8
0
 60
     1
100
AcDbPoint
 10
-747.0340568911361
 20
-20.48692389299703
 30
0.0
1001
GENIUS_GENOLIS_13
1002
{
1000
ENT
1005
AC7F
1005
AC80
1005
AC81
1005
AC82
1002
}
1001
GENIUS_GENOBJ-N-CRS_13
1002
{
1000
OWNER
1000
GEN
1002
}
1001
GENIUS_GENODEF_13
1002
{
1000
HIER
1070
    10
1002
}
1002
{
1000
MANEDIT
1070
     0
1002
}
1002
{
1000
NOSEL
1070
     0
1002
}
1002
{
1000
BEHIND
1070
     0
1002
}
1002
{
1000
OTHER
1070
     0
1002
}
1002
{
1000
REACTOR
1002
}
1001
GENIUS_GENOENT_13
1002
{
1000
MYREF
1005
AC8C
1002
}
1002
{
1000
GRP
1005
0
1002
}
  0
POINT
  5
AC8D
330
AC6B
100
AcDbEntity
  8
0
 60
     1
100
AcDbPoint
 10
-787.0340568911363
 20
-20.48692389299708
 30
0.0
1001
GENIUS_GENOLIS_13
1002
{
1000
ENT
1005
AC84
1005
AC85
1005
AC86
1005
AC87
1002
}
1001
GENIUS_GENOBJ-N-CRS_13
1002
{
1000
OWNER
1000
GEN
1002
}
1001
GENIUS_GENODEF_13
1002
{
1000
HIER
1070
    10
1002
}
1002
{
1000
MANEDIT
1070
     0
1002
}
1002
{
1000
NOSEL
1070
     0
1002
}
1002
{
1000
BEHIND
1070
     0
1002
}
1002
{
1000
OTHER
1070
     0
1002
}
1002
{
1000
REACTOR
1002
}
1001
GENIUS_GENOENT_13
1002
{
1000
MYREF
1005
AC8D
1002
}
1002
{
1000
GRP
1005
0
1002
}
  0
ENDBLK
  5
AC8E
330
AC6B
100
AcDbEntity
  8
0
100
AcDbBlockEnd
  0
BLOCK
  5
B683
330
B682
100
AcDbEntity
  8
0
100
AcDbBlockBegin
  2
moving 0-1 S3 frontale back
 70
     0
 10
0.0
 20
0.0
 30
0.0
  3
moving 0-1 S3 frontale back
  1

  0
POINT
  5
B685
330
B682
100
AcDbEntity
  8
POINT D'ACCROCHAGE
100
AcDbPoint
 10
0.0
 20
0.0
 30
0.0
  0
LWPOLYLINE
  5
B686
330
B682
100
AcDbEntity
  8
MOVING S3 0-1 FRONT
100
AcDbPolyline
 90
       19
 70
     0
 43
0.0
 10
-28.28906127140113
 20
24.54220997074633
 10
-30.70221357837181
 20
25.60512859118707
 10
-36.21481028704284
 20
27.97361450626075
 10
-40.37051547266594
 20
29.71671814927665
 10
-45.41323447188164
 20
31.76827235437959
 10
-48.69749057641024
 20
33.05187412086248
 10
-53.94880810889401
 20
34.99957057084278
 10
-59.7322319428672
 20
36.88524204780711
 10
-67.1223627522711
 20
38.96959743396294
 10
-72.24478435394025
 20
40.32217397236879
 10
-82.36237414039141
 20
42.81144704053073
 10
-103.7594198940442
 20
47.36639527742942
 10
-117.2712542594018
 20
49.76292085517376
 10
-137.8965891401512
 20
52.69167824730077
 10
-160.0443459148882
 20
54.83080306923027
 10
-177.6690201843392
 20
55.80131792939657
 10
-189.2085922033699
 20
56.12192821026432
 10
-199.6099386321893
 20
56.2433529507853
 10
-209.8167304644903
 20
56.26085603167341
  0
LWPOLYLINE
  5
B687
330
B682
100
AcDbEntity
  8
MOVING S3 0-1 FRONT
100
AcDbPolyline
 90
        2
 70
     0
 43
0.0
 10
11.71719647909174
 20
16.50000909134829
 10
11.71708064957579
 20
16.50000350151988
  0
LWPOLYLINE
  5
B688
330
B682
100
AcDbEntity
  8
MOVING S3 0-1 FRONT
100
AcDbPolyline
 90
        7
 70
     0
 43
0.0
 10
-19.03972892287902
 20
42.63590951912215
 42
0.0029588988131419
 10
-24.92023112344976
 20
42.69995833009268
 42
0.0083413935163051
 10
-39.11889569906066
 20
42.51908948737424
 42
-0.0179028808852057
 10
-46.1821520251749
 20
42.27653212220066
 42
0.0201429278007593
 10
-49.06297215125391
 20
42.16468370314131
 42
0.3579003951856107
 10
-49.25448474961183
 20
41.98028450536471
 10
-49.25524874961183
 20
39.65395200536473
  0
LWPOLYLINE
  5
B689
330
B682
100
AcDbEntity
  8
MOVING S3 0-1 FRONT
100
AcDbPolyline
 90
       18
 70
     0
 43
0.0
 10
-19.01510034844887
 20
42.95950663283008
 42
0.0015757877788744
 10
-21.51599885293558
 20
42.99579569935595
 42
0.0033297336861354
 10
-26.02147632210563
 20
43.01574388537763
 42
0.0036185987146361
 10
-30.85900332295239
 20
42.96853874259996
 42
0.003417849963973
 10
-35.46174169377093
 20
42.85705530814813
 42
0.0037292204585475
 10
-41.46724924258023
 20
42.62337240694201
 42
0.0016584528913121
 10
-45.51239301794964
 20
42.42288946876955
 42
0.000546391098
 10
-48.68102311853022
 20
42.252051701717
 42
0.0000022734033299
 10
-50.01143066278314
 20
42.1791178875389
 42
-0.0470719128816859
 10
-50.58323472201198
 20
42.19330991704142
 42
-0.0003616556633896
 10
-52.03498750331073
 20
42.37059451732564
 42
0.0003543480099016
 10
-53.35131318091033
 20
42.53138216758681
 42
0.0009046425318124
 10
-55.68400666156015
 20
42.80720532671525
 42
0.0039530526549914
 10
-58.55774397050197
 20
43.12335548840204
 42
0.0029603385223296
 10
-60.44519913110014
 20
43.30239589994877
 42
0.0006950645161791
 10
-61.37282512958472
 20
43.38403121931148
 42
0.4819801173047681
 10
-61.69578153596126
 20
43.04521783031541
 42
-0.0156153977111701
 10
-61.61547940242519
 20
42.58980134981263
  0
LWPOLYLINE
  5
B68A
330
B682
100
AcDbEntity
  8
MOVING S3 0-1 FRONT
100
AcDbPolyline
 90
       13
 70
     0
 43
0.0
 10
-27.9966830739454
 20
24.96784992284756
 42
0.0033964047574263
 10
-36.41367655815202
 20
28.60090129669494
 42
0.0023993049101285
 10
-41.08751094304307
 20
30.55395603019072
 42
0.0036243815315466
 10
-46.02827881716598
 20
32.55005361100958
 42
-0.1072862106768904
 10
-46.99847975922557
 20
33.40547844279276
 42
-0.0749578854334145
 10
-47.42448262722223
 20
34.21519774625763
 42
-0.0707284914182174
 10
-47.59660615145503
 20
35.09542504594772
 42
0.0213221746017253
 10
-47.83969181790053
 20
37.77079160871689
 42
0.0248389068542904
 10
-48.21248443775812
 20
39.76268813353859
 42
0.0283531593819579
 10
-48.62780759517113
 20
41.15503463535493
 42
0.0196629525880173
 10
-48.82091065672034
 20
41.62495182612993
 42
-0.089137067264369
 10
-48.90386048714583
 20
41.79937434647174
 42
-0.0529027422967714
 10
-48.92851983145454
 20
41.9517894183253
  0
LWPOLYLINE
  5
B68B
330
B682
100
AcDbEntity
  8
MOVING S3 0-1 FRONT
100
AcDbPolyline
 90
        3
 70
     0
 43
0.0
 10
-47.59660615145515
 20
35.09542504595005
 42
0.056646689730131
 10
-47.70059074961181
 20
35.0785400053647
 42
0.1887643523656364
 10
-47.79543974961177
 20
35.01676600536469
  0
LINE
  5
B68C
330
B682
100
AcDbEntity
  8
MOVING S3 0-1 FRONT
100
AcDbLine
 10
-49.2551287496118
 20
39.65360600536469
 30
0.0
 11
-49.22117065811653
 21
39.60567057759347
 31
0.0
  0
LINE
  5
B68D
330
B682
100
AcDbEntity
  8
MOVING S3 0-1 FRONT
100
AcDbLine
 10
-48.01203975155238
 20
35.10036415692146
 30
0.0
 11
-47.79544035026686
 21
35.01676649457103
 31
0.0000000000000014
  0
LWPOLYLINE
  5
B68E
330
B682
100
AcDbEntity
  8
MOVING S3 0-1 FRONT
100
AcDbPolyline
 90
       11
 70
     0
 43
0.0
 10
-48.01203975155238
 20
35.10036415692146
 42
0.0006632795732037
 10
-48.01798181860045
 20
35.1788509660155
 42
-0.0034882931221304
 10
-48.16408344472211
 20
35.77398178186611
 42
-0.0033778517171059
 10
-48.29674337820915
 20
36.34831031139795
 42
-0.0029793188030602
 10
-48.40664437750934
 20
36.85330749356122
 42
0.0009491430186278
 10
-48.50873873474961
 20
37.33981108245145
 42
0.0082623028589651
 10
-48.61815495480664
 20
37.80242515033531
 42
0.0097493844910949
 10
-48.74418715882768
 20
38.2612415441247
 42
0.0095068494168947
 10
-48.85658970807708
 20
38.61640686514086
 42
0.0113838295019181
 10
-48.97114971068663
 20
38.932304336619
 42
0.0267515950693858
 10
-49.22117065811653
 20
39.60567057759347
  0
LWPOLYLINE
  5
B68F
330
B682
100
AcDbEntity
  8
MOVING S3 0-1 FRONT
100
AcDbPolyline
 90
       25
 70
     0
 43
0.0
 10
-47.79544035026686
 20
35.01676649457103
 10
-47.80908647379123
 20
35.22189114699479
 10
-47.83484579432104
 20
35.57304351538581
 10
-47.88682375453982
 20
36.17378794368416
 10
-47.94389328476791
 20
36.72001015076593
 10
-48.00505811853373
 20
37.21858178573127
 10
-48.12384438598019
 20
38.0214697338741
 10
-48.28077635505451
 20
38.87309420496219
 10
-48.47216491047174
 20
39.71022860206741
 10
-48.64633161312963
 20
40.33906150485246
 10
-48.82307608480869
 20
40.87723500962904
 10
-48.94526319361694
 20
41.19719871402971
 10
-49.04543276702566
 20
41.4281334996033
 10
-49.07485982941762
 20
41.49400768903293
 42
-0.0610448069490052
 10
-49.11513920261132
 20
41.67213153628707
 42
-0.0095920544447658
 10
-49.12631924961181
 20
41.76834300536468
 42
-0.1931363482816026
 10
-49.05950874961172
 20
41.90127000536468
 42
-0.1797223915679755
 10
-48.92851983145454
 20
41.9517894183253
 10
-48.46236352157678
 20
41.9532154785049
 10
-46.95899391014245
 20
41.95735990990563
 10
-43.70867369333723
 20
41.95781860923768
 10
-40.08435203069097
 20
41.93169930764823
 10
-33.88625403436277
 20
41.78832191046554
 10
-26.91675590224054
 20
41.44847069118641
 10
-19.20402178629524
 20
40.84279028437824
  0
LWPOLYLINE
  5
B690
330
B682
100
AcDbEntity
  8
MOVING S3 0-1 FRONT
100
AcDbPolyline
 90
       14
 70
     0
 43
0.0
 10
-49.04543276702566
 20
41.42813349960348
 42
-0.8901608180934704
 10
-48.9769747492171
 20
41.57640909743846
 42
0.3192265149537504
 10
-48.82091065672034
 20
41.62495182612993
 10
-48.36656226600507
 20
41.55388872407691
 10
-47.8321904139841
 20
41.46949187099404
 10
-46.82010911818474
 20
41.30727292476099
 10
-44.37703993785885
 20
40.90309582925086
 10
-42.92660700807675
 20
40.65452258266835
 10
-40.02303246143526
 20
40.13563140127804
 10
-36.81073941829072
 20
39.52296270771304
 10
-30.90545678113154
 20
38.26076659969608
 10
-27.11617171317675
 20
37.3343945342552
 10
-22.90056445288406
 20
36.17265948369477
 10
-20.50768370601611
 20
35.41283357720742
  0
LWPOLYLINE
  5
B691
330
B682
100
AcDbEntity
  8
MOVING S3 0-1 FRONT
100
AcDbPolyline
 90
        4
 70
     0
 43
0.0
 10
-45.0785697496118
 20
21.07697700536478
 10
-41.36479574961185
 20
13.1127630053647
 42
0.2944009334896657
 10
-39.53061212179477
 20
11.95811629938818
 42
0.2944005558118698
 10
-37.72175770759373
 20
13.1520516406655
  0
ARC
  5
B692
330
B682
100
AcDbEntity
  8
MOVING S3 0-1 FRONT
100
AcDbCircle
 10
-7.702923115868657
 20
-0.0654457320676869
 30
0.0
 40
32.79988762155351
100
AcDbArc
 50
147.8930888509684
 51
156.2357790041479
  0
LWPOLYLINE
  5
B693
330
B682
100
AcDbEntity
  8
MOVING S3 0-1 FRONT
100
AcDbPolyline
 90
        8
 70
     0
 43
0.0
 10
-44.43224866809964
 20
20.8740386008687
 10
-43.26060459176801
 20
18.36143987249967
 10
-40.91164174961181
 20
13.32407300536472
 42
0.2944007140681518
 10
-39.53600402874895
 20
12.45808722588232
 42
0.2944009414689415
 10
-38.17936263246782
 20
13.3535389537853
 42
-0.013261852661699
 10
-37.42502953015673
 20
14.95050954064807
 42
-0.0139159539956546
 10
-36.54364665935645
 20
16.58073028933917
 42
-0.0088066602204178
 10
-35.93949104813726
 20
17.58614758321006
 42
0.0000004675304253
  0
LWPOLYLINE
  5
B694
330
B682
100
AcDbEntity
  8
MOVING S3 0-1 FRONT
100
AcDbPolyline
 90
        4
 70
     0
 43
0.0
 10
-49.25524774961172
 20
41.88535282009946
 10
-49.95823384525625
 20
41.85317185033769
 10
-49.97192277955662
 20
42.15277146314805
 42
0.4234042602928488
 10
-50.00138018036659
 20
42.17882209922329
 42
472.5730291308344
  0
LWPOLYLINE
  5
B695
330
B682
100
AcDbEntity
  8
MOVING S3 0-1 FRONT
100
AcDbPolyline
 90
       14
 70
     0
 43
0.0
 10
-46.05310421258764
 20
32.02223235306015
 42
-0.1431997976225031
 10
-47.99904604076141
 20
33.53728669868407
 42
-0.1392112476137746
 10
-48.83144637143164
 20
35.85731959581638
 42
0.0032993100068716
 10
-48.86881224244508
 20
36.3265750967757
 42
0.0219912635326048
 10
-48.91381335951973
 20
36.72392293402153
 42
0.1232976703424249
 10
-48.99951590787941
 20
36.97179214100636
 10
-53.77563354078233
 20
38.07932006320989
 10
-57.67949018445097
 20
39.00268268079124
 10
-59.88028219584385
 20
39.47847042880446
 42
-0.1145254353463568
 10
-60.38426467951012
 20
39.77193095086702
 42
-0.1530662078931448
 10
-60.76359175363859
 20
40.41804389900366
 42
0.0607471927690523
 10
-61.08636039789576
 20
41.68086368529052
 42
0.0655053728523235
 10
-61.61547940242519
 20
42.58980134981263
 42
-0.0501579449903721
 10
-61.88405785798796
 20
42.85791428065621
 42
4120.511404390934
  0
LWPOLYLINE
  5
B696
330
B682
100
AcDbEntity
  8
MOVING S3 0-1 FRONT
100
AcDbPolyline
 90
        9
 70
     0
 43
0.0
 10
-49.64639913952351
 20
39.64489035096894
 10
-49.6919508100209
 20
39.51996339126829
 10
-49.79721464344811
 20
39.23773974236083
 10
-49.90098015168371
 20
39.03188083838497
 10
-50.01622577399541
 20
38.86351609587025
 10
-50.11534167346849
 20
38.76614443824691
 42
-0.2605318177054227
 10
-50.4296925153385
 20
38.68023101447268
 10
-60.33383526804619
 20
40.20909088871284
 42
-0.2879651252543052
 10
-60.79753365461204
 20
40.61082065569988
 42
-70.04174359415866
  0
LWPOLYLINE
  5
B697
330
B682
100
AcDbEntity
  8
MOVING S3 0-1 FRONT
100
AcDbPolyline
 90
       21
 70
     0
 43
0.0
 10
-49.96058724961176
 20
39.48909900536468
 42
0.1424566246956389
 10
-49.77957524961175
 20
39.50553300536468
 42
0.2308339603466974
 10
-49.64639913952351
 20
39.64489035096894
 42
0.0612072933662853
 10
-49.60202961216032
 20
39.86902803623248
 42
0.0845947396808862
 10
-49.60753374961178
 20
40.16544000536471
 42
0.1341254950252946
 10
-49.67670324961182
 20
40.28711950536468
 42
0.1151205181438707
 10
-49.78703374961174
 20
40.35594200536464
 10
-53.82521870272239
 20
41.13977787145991
 10
-57.17253271100833
 20
41.75782234767519
 10
-60.0983358103365
 20
42.23972979708091
 42
0.3654641538966137
 10
-60.40740974961181
 20
42.05550000536468
 42
0.0860439241502485
 10
-60.43128774961179
 20
41.90832200536462
 42
0.1390072555641193
 10
-60.37533787584357
 20
41.71880699396027
 42
-0.2214526319819587
 10
-60.3514856840734
 20
41.53266491219878
 42
0.4611813523474527
 10
-60.29650274961181
 20
41.44414200536473
 42
-0.1790356221758821
 10
-60.16227474961181
 20
41.3699240053647
 10
-58.60659227176438
 20
41.11499447073206
 10
-56.01431934254333
 20
40.65819611704457
 10
-53.38761820991385
 20
40.15941781304185
 10
-50.86725330024399
 20
39.66723251208243
 10
-49.95612274961183
 20
39.48827500536466
  0
LWPOLYLINE
  5
B698
330
B682
100
AcDbEntity
  8
MOVING S3 0-1 FRONT
100
AcDbPolyline
 90
      108
 70
     0
 43
0.0
 10
-61.88405785798796
 20
42.85791428065621
 42
0.0224360496996523
 10
-62.14323277932601
 20
43.14746664711279
 42
0.0287656242197755
 10
-62.49834452935011
 20
43.47093354742705
 42
0.0481099988674187
 10
-62.91667436163471
 20
43.75598681173292
 10
-67.36360842836825
 20
44.46805096649026
 10
-70.63618611906651
 20
45.0868007075073
 10
-73.23182074877621
 20
45.64746821676354
 10
-75.075419326484
 20
46.08866908977481
 10
-80.19533944289037
 20
47.35783191831418
 10
-89.62529666948455
 20
49.60861017141232
 10
-103.0264012245585
 20
52.50068480701234
 10
-117.7774047757542
 20
55.16872861084447
 10
-131.1210994837824
 20
57.09856490383076
 10
-144.7680970010108
 20
58.62115184300876
 10
-164.0165743066347
 20
60.07290915202799
 10
-183.8546626768049
 20
60.85239903463389
 10
-200.2919960061739
 20
61.08819697827692
 10
-206.6182835201413
 20
61.11215695472163
 42
0.3163079036915459
 10
-208.9973821299058
 20
59.45320616922515
 42
0.0102967171168954
 10
-209.5308112354088
 20
57.88866992224962
 42
0.067053730968973
 10
-209.8168807496118
 20
56.26208000536472
 10
-207.9958649095313
 20
41.43110101193609
 42
0.3775808435308414
 10
-206.0197556124273
 20
39.67484915622343
 10
-201.4061230187949
 20
39.74799008020431
 10
-197.8329436235206
 20
39.65563400489553
 10
-194.2384955268459
 20
39.65583227541758
 10
-191.2452574108428
 20
39.728501562218
 10
-188.8483022621393
 20
39.60997223718918
 10
-186.7423437285561
 20
39.47195836586035
 10
-184.7488157763022
 20
39.58144724068358
 10
-183.0434314027643
 20
39.60382269085487
 10
-181.5869927345621
 20
39.55444205092788
 10
-179.6726041429037
 20
39.40689198822126
 10
-178.1939122171333
 20
39.3225723871859
 10
-176.7847365808208
 20
39.37523993907421
 10
-174.3204114963811
 20
39.40194208926782
 10
-172.5890446168705
 20
39.31349501423812
 10
-170.2727789148321
 20
39.06984030402121
 10
-169.5510754632934
 20
39.0417006403096
 10
-168.1612545574136
 20
39.11686062663113
 10
-167.026964202117
 20
39.13752666693061
 10
-165.6063627621695
 20
39.11384191321877
 10
-163.8996069048527
 20
39.00308624800214
 10
-161.6776485904989
 20
38.73471085941411
 10
-160.9558668852601
 20
38.70656814454218
 10
-159.1672804334296
 20
38.77224940097772
 10
-157.0097427594141
 20
38.73364067305765
 10
-155.75283261794
 20
38.64566414963308
 10
-153.9450603346025
 20
38.44707460114675
 10
-153.0307382976688
 20
38.34063096654448
 10
-152.3626278128904
 20
38.26105548842882
 10
-150.6430495010409
 20
38.31508170774309
 10
-148.7573054687949
 20
38.26818278977929
 10
-147.1727420994164
 20
38.14603823921475
 10
-145.6775481826423
 20
37.9680711630006
 10
-143.8203060081695
 20
37.76394799973217
 10
-142.2929756387909
 20
37.75070653159399
 10
-140.2836045341363
 20
37.68150375424993
 10
-138.8928364411193
 20
37.56459404761834
 10
-137.2558847953257
 20
37.35824172001553
 10
-135.8953047389873
 20
37.12732699842216
 10
-135.1750946281742
 20
37.06555489445633
 10
-133.6719384608395
 20
37.06715257954686
 10
-131.8024362624025
 20
36.97586007237912
 10
-130.2085969591303
 20
36.81943811660851
 10
-128.2009297723056
 20
36.52933352001201
 10
-126.3295630411755
 20
36.3070010023573
 10
-124.4298441498446
 20
36.22454754071338
 10
-122.2243302581788
 20
36.03163466446442
 10
-119.6599171326981
 20
35.64615568673235
 10
-118.6586470587788
 20
35.47972139997215
 10
-117.9892085804834
 20
35.37123651813043
 10
-115.6677759627904
 20
35.25615968967331
 10
-113.5448694674351
 20
35.02703715614136
 10
-112.3899502049162
 20
34.85173145029437
 10
-110.066552783389
 20
34.43829960828144
 10
-109.3984325033385
 20
34.31158381487068
 10
-107.2000546250721
 20
34.16878147555563
 10
-106.0047483285316
 20
34.03639035113695
 10
-104.2846626411569
 20
33.78171563021066
 10
-102.4304951792579
 20
33.43516302909192
 10
-100.8580007077084
 20
33.16147748137296
 10
-99.20776518413589
 20
32.99035332796295
 10
-96.96587722121069
 20
32.70035430773895
 10
-95.23188845519786
 20
32.39533670291095
 10
-92.9306997759282
 20
31.87965298458275
 10
-92.21567779215053
 20
31.76439835863616
 10
-90.28793696013934
 20
31.55971986176363
 10
-88.00245083524856
 20
31.19932104799543
 10
-86.51581813887554
 20
30.90448924663756
 10
-84.33821474183776
 20
30.38565510466955
 10
-83.62647738766799
 20
30.25022792593901
 10
-81.58206852888218
 20
29.98337286992464
 10
-79.41875945564658
 20
29.59326074287216
 10
-76.50077881862569
 20
28.9356487983143
 10
-75.0754193162802
 20
28.62315908799767
 10
-72.26623702722264
 20
28.11212997220102
 10
-70.4828747092991
 20
27.73396986856736
 10
-66.49512859067454
 20
26.76529073266417
 10
-64.70206562441489
 20
26.39979603109762
 10
-62.48623528300004
 20
25.90603507156132
 10
-61.12172016575596
 20
25.56339895359312
 10
-58.20342349745692
 20
24.76853015400891
 10
-55.7381843505409
 20
24.19261593155406
 10
-53.94880811590088
 20
23.73427460770321
 10
-52.36487384533382
 20
23.27296924464062
 10
-52.22305363572798
 20
23.18270749475445
 10
-49.46009001925711
 20
22.39279388996479
  0
LWPOLYLINE
  5
B699
330
B682
100
AcDbEntity
  8
MOVING S3 0-1 FRONT
100
AcDbPolyline
 90
        4
 70
     0
 43
0.0
 10
-49.47386863356837
 20
23.18216223503984
 10
-49.44450674961172
 20
21.50000000536474
 10
-47.77541974961173
 20
21.50000000536472
 10
-47.77541974961173
 20
22.63519597613795
  0
LWPOLYLINE
  5
B69A
330
B682
100
AcDbEntity
  8
MOVING S3 0-1 FRONT
100
AcDbPolyline
 90
       12
 70
     0
 43
0.0
 10
-47.78019714065727
 20
21.90641889580276
 10
-45.0785697496118
 20
21.07697700536478
 10
-44.43224866809964
 20
20.8740386008687
 10
-43.67235833706899
 20
20.62576069092241
 10
-42.6184359742573
 20
20.26844068537737
 10
-41.94195469093995
 20
20.03287039571752
 10
-40.48439145267638
 20
19.5057154683948
 10
-39.15888338740728
 20
18.99863298555409
 10
-37.6112686574354
 20
18.36351754514119
 10
-35.93949104813726
 20
17.58614758321006
 10
-35.48632431251121
 20
17.36771938310683
 10
-33.76193119637992
 20
16.50652713914768
  0
LWPOLYLINE
  5
B69B
330
B682
100
AcDbEntity
  8
MOVING S3 0-1 FRONT
100
AcDbPolyline
 90
       13
 70
     0
 43
0.0
 10
-206.6182835201413
 20
61.11215695472163
 42
-0.0290384921453598
 10
-204.2161704442711
 20
60.34482745051855
 42
-0.1002198097621799
 10
-202.1987108921074
 20
59.14672071025518
 42
-0.1759314817118216
 10
-201.7215465594282
 20
58.07777700350641
 42
-0.0085085590686885
 10
-201.6752029098226
 20
55.61471687393025
 42
-0.0137690017533559
 10
-201.6686115205524
 20
52.86941877289045
 42
-0.0255746008027992
 10
-201.9043607700337
 20
49.84823609413091
 42
-0.0322939045298883
 10
-202.5457534402195
 20
46.59452693774539
 42
-0.0380356281109953
 10
-203.7949234488592
 20
43.01162504420817
 42
-0.0443262076124529
 10
-205.0801166911402
 20
40.61444380820022
 42
-0.0442558168418138
 10
-205.6134982728042
 20
39.94887446552672
 42
-0.0701127898887379
 10
-205.9094209878875
 20
39.71495601802614
 42
-0.0861312059815521
 10
-206.0197556124302
 20
39.67484915622343
 42
1.548588851375172
  0
LWPOLYLINE
  5
B69C
330
B682
100
AcDbEntity
  8
MOVING S3 0-1 FRONT
100
AcDbPolyline
 90
       18
 70
     0
 43
0.0
 10
-207.9958649095313
 20
41.43110101193615
 10
-207.9417732281337
 20
41.44651741344135
 10
-207.8282497616783
 20
41.50639114828969
 42
0.0560083672629136
 10
-207.455147253169
 20
41.82755893231068
 42
0.0256823852947332
 10
-207.0782863818977
 20
42.26738632555246
 42
0.0232850786706728
 10
-206.5123889339318
 20
43.07656752125789
 42
0.0358627154376298
 10
-205.3239883047418
 20
45.3043879095906
 42
0.0400283246904021
 10
-204.2438965158926
 20
48.32983582228279
 42
0.051176120755474
 10
-203.6283375623826
 20
52.1895530051281
 42
0.021761828577148
 10
-203.5999255620677
 20
54.72046457317945
 42
0.0038619277585531
 10
-203.6566793734947
 20
56.25029248983854
 42
0.0339288716881199
 10
-203.6531289565329
 20
56.70585503130967
 42
0.1290083284945847
 10
-203.7044213908896
 20
56.8623956743043
 42
0.1278682018314152
 10
-204.6866125586785
 20
57.76500999602382
 42
0.0364395663790612
 10
-205.8799889873192
 20
58.38741421267889
 42
0.0204065748677911
 10
-207.2047331651968
 20
58.90336705713344
 42
0.0114641174756566
 10
-208.4376860901144
 20
59.29790774885669
 42
0.0148585590086725
 10
-208.9858720977332
 20
59.44813093431093
 42
-12.79954603616447
  0
LWPOLYLINE
  5
B69D
330
B682
100
AcDbEntity
  8
MOVING S3 0-1 FRONT
100
AcDbPolyline
 90
       32
 70
     0
 43
0.0
 10
-49.46193802705295
 20
22.49864970270252
 10
-51.75586613692644
 20
23.17319868288572
 10
-51.95104136486486
 20
23.23874058804839
 10
-52.11005342693704
 20
23.2965089526094
 10
-52.25833207019173
 20
23.35881812442344
 10
-52.32410749607493
 20
23.39588540809231
 10
-52.33665854099775
 20
23.40640660673151
 42
-0.1784564583914202
 10
-52.34519613565669
 20
23.42131937479277
 10
-52.35522998787951
 20
23.80241599420489
 42
-0.3179612852453217
 10
-52.32830149699054
 20
23.84268824023386
 42
-0.0718592686710914
 10
-52.2821482154227
 20
23.86014852552685
 42
-0.0247996468754518
 10
-52.24456830043834
 20
23.86724741648035
 42
-0.019994941565925
 10
-52.19334593841427
 20
23.87226105194011
 42
-0.0271370323365009
 10
-52.05375231788366
 20
23.87186818938127
 42
-0.0236726591809956
 10
-51.79352368946183
 20
23.84436232327849
 42
-0.0287702772869678
 10
-51.1513940671108
 20
23.70530339894017
 42
-0.0108141976600968
 10
-50.77504922880803
 20
23.59318124067536
 42
-0.0018271066781779
 10
-48.74678834359656
 20
22.94956554887367
 42
-0.0010006810914617
 10
-47.76525844317371
 20
22.63188493334901
 42
-0.0012957048667357
 10
-46.28570453531165
 20
22.14499848751076
 42
0.0271645312317467
 10
-45.3007007193687
 20
21.81549794147089
 42
-0.0352643657443493
 10
-44.40480515729269
 20
21.49959497941536
 42
-0.0010300224036126
 10
-43.77188797958183
 20
21.22333561100727
 42
-0.0457836909794731
 10
-43.50222244459587
 20
21.07421802009362
 42
-0.0422848098826819
 10
-43.4064229825999
 20
20.99656708254669
 42
-0.1890631049343681
 10
-43.39486911178425
 20
20.97146835800955
 10
-43.39247848354694
 20
20.69001429056824
 42
-0.3200882926459823
 10
-43.41217307052852
 20
20.68107438430907
 42
-0.0456033374549251
 10
-43.47449330368021
 20
20.68680960607828
 42
-0.0206223280267079
 10
-43.70785609832092
 20
20.73993135529129
 42
-0.0070896284407453
 10
-44.01820382922529
 20
20.82682660266325
 10
-47.77234185223607
 20
21.9962669412367
  0
LINE
  5
B69E
330
B682
100
AcDbEntity
  8
MOVING S3 0-1 FRONT
100
AcDbLine
 10
-53.94880485618569
 20
37.60338419519595
 30
0.0000000000000012
 11
-53.93738130532938
 21
37.60154378875548
 31
0.0000000000000012
  0
LINE
  5
B69F
330
B682
100
AcDbEntity
  8
MOVING S3 0-1 FRONT
100
AcDbLine
 10
-53.93738130532938
 20
37.60154378875548
 30
0.0000000000000012
 11
-53.8784183428063
 21
37.80949150264361
 31
0.0000000000000012
  0
LINE
  5
B6A0
330
B682
100
AcDbEntity
  8
MOVING S3 0-1 FRONT
100
AcDbLine
 10
-53.8784183428063
 20
37.80949150264361
 30
0.0000000000000012
 11
-53.84811311401461
 21
37.90656516518523
 31
0.0000000000000012
  0
LINE
  5
B6A1
330
B682
100
AcDbEntity
  8
MOVING S3 0-1 FRONT
100
AcDbLine
 10
-53.84811311401461
 20
37.90656516518523
 30
0.0000000000000012
 11
-53.81665243091572
 21
37.99672327241741
 31
0.0000000000000012
  0
LINE
  5
B6A2
330
B682
100
AcDbEntity
  8
MOVING S3 0-1 FRONT
100
AcDbLine
 10
-53.81665243091572
 20
37.99672327241741
 30
0.0000000000000012
 11
-53.80019146210111
 21
38.03715317323714
 31
0.0000000000000012
  0
LINE
  5
B6A3
330
B682
100
AcDbEntity
  8
MOVING S3 0-1 FRONT
100
AcDbLine
 10
-53.80019146210111
 20
38.03715317323714
 30
0.0000000000000012
 11
-53.78421198338867
 21
38.06847358962945
 31
0.0000000000000012
  0
LINE
  5
B6A4
330
B682
100
AcDbEntity
  8
MOVING S3 0-1 FRONT
100
AcDbLine
 10
-53.78421198338867
 20
38.06847358962945
 30
0.0000000000000012
 11
-53.77907553675732
 21
38.07572070085071
 31
0.0000000000000012
  0
LINE
  5
B6A5
330
B682
100
AcDbEntity
  8
MOVING S3 0-1 FRONT
100
AcDbLine
 10
-53.77907553675732
 20
38.07572070085071
 30
0.0000000000000012
 11
-53.77563354078461
 21
38.07932006321046
 31
0.0
  0
ENDBLK
  5
B684
330
B682
100
AcDbEntity
  8
0
100
AcDbBlockEnd
  0
BLOCK
  5
B865
330
B864
100
AcDbEntity
  8
0
100
AcDbBlockBegin
  2
moving 0-1 S3 frontale front
 70
     0
 10
0.0
 20
0.0
 30
0.0
  3
moving 0-1 S3 frontale front
  1

  0
POINT
  5
B867
330
B864
100
AcDbEntity
  8
POINT D'ACCROCHAGE
100
AcDbPoint
 10
0.0
 20
0.0
 30
0.0
  0
LWPOLYLINE
  5
B868
330
B864
100
AcDbEntity
  8
MOVING S3 0-1 FRONT
100
AcDbPolyline
 90
       11
 70
     0
 43
0.0
 10
-29.23882571690808
 20
25.80867193843623
 42
-0.0000609362247609
 10
-29.32707573106279
 20
25.78097430289265
 42
-0.0128376475231189
 10
-38.08724581144554
 20
23.29777005670972
 42
-0.0176999643711576
 10
-45.76430713596539
 20
21.65632210817134
 10
-48.97497688578153
 20
21.14844818979302
 10
-51.67412652901567
 20
20.79192027802012
 10
-53.94881424732864
 20
20.52305673705209
 10
-53.94881281449546
 20
19.6609319631626
 10
-53.94309922044749
 20
19.47375399630821
 42
-0.2610589964908557
 10
-53.79139822097034
 20
19.03757912005583
 42
-0.054589690821048
 10
-53.78580261841432
 20
18.08341823937164
  0
LWPOLYLINE
  5
B869
330
B864
100
AcDbEntity
  8
MOVING S3 0-1 FRONT
100
AcDbPolyline
 90
       14
 70
     0
 43
0.0
 10
-29.45854976692601
 20
25.55758782985817
 42
-0.0231288434768538
 10
-42.12201058330504
 20
22.22601836258023
 42
-0.0030808928372958
 10
-44.97809369647552
 20
21.66680714062406
 42
0.0170908197977986
 10
-46.79527875334736
 20
21.29283622328112
 42
0.092087918656763
 10
-47.3938886964986
 20
21.02804948843775
 42
0.2237323452356402
 10
-47.78866138804642
 20
20.49675499999703
 10
-48.16778314727514
 20
17.80787644505867
 10
-48.5643148880464
 20
14.50275799999699
 10
-48.94640987931495
 20
10.1616689194635
 10
-49.04543890546131
 20
8.716241540869056
 10
-49.12453078356373
 20
7.359731740965549
 10
-49.25088816548066
 20
4.252488039719515
 42
0.4222965939732786
 10
-49.00525381649618
 20
3.999999556288549
 10
-38.794269275072
 20
3.999999556288549
  0
LWPOLYLINE
  5
B86A
330
B864
100
AcDbEntity
  8
MOVING S3 0-1 FRONT
100
AcDbPolyline
 90
        6
 70
     0
 43
0.0
 10
-38.22310765505574
 20
7.745284698174521
 42
-0.0063393272588389
 10
-43.38068489047657
 20
7.489412276873145
 42
-0.0015872653365591
 10
-48.92478188804637
 20
7.292078141272532
 42
0.0792343383149364
 10
-49.0491898880465
 20
7.27868414127247
 42
0.0728482406490279
 10
-49.09470988804639
 20
7.258465641272414
 42
0.2046611204563392
 10
-49.12156438804641
 20
7.223374641272449
  0
LWPOLYLINE
  5
B86B
330
B864
100
AcDbEntity
  8
MOVING S3 0-1 FRONT
100
AcDbPolyline
 90
       10
 70
     0
 43
0.0
 10
-38.74662856645466
 20
-4.437804131704194
 10
-49.00265152186818
 20
-4.432449243329323
 10
-48.92483143937932
 20
-7.66598129738977
 10
-48.82091485775072
 20
-8.916284586185518
 42
0.0078183381811641
 10
-48.47529223167987
 20
-13.28035089094273
 42
0.0068130871392335
 10
-48.01655171433083
 20
-17.48703934245079
 42
-0.0081972770987504
 10
-47.5966122882287
 20
-20.8100827106588
 42
0.1633743723065915
 10
-47.46371674116256
 20
-21.09742551411661
 42
0.0675231502921934
 10
-47.26524768028935
 20
-21.25754874459838
 42
0.0066470350492587
 10
-47.21399286807866
 20
-21.28763031069288
  0
LWPOLYLINE
  5
B86C
330
B864
100
AcDbEntity
  8
MOVING S3 0-1 FRONT
100
AcDbPolyline
 90
        7
 70
     0
 43
0.0
 10
-37.1557936827536
 20
-11.85084462343695
 42
0.0075144390671308
 10
-44.29827727866722
 20
-9.98242459705775
 42
0.0046883896769843
 10
-48.82091485775084
 20
-8.916284586184723
 42
-0.0084001535073594
 10
-48.87022998777286
 20
-8.919354933582461
 42
-0.0193496169721035
 10
-48.96125680468083
 20
-8.920222487175372
 42
-0.0274596848606887
 10
-49.01387673575505
 20
-8.91600741200434
 42
-0.0680139887050513
 10
-49.03964870947163
 20
-8.909462936507587
  0
LWPOLYLINE
  5
B86D
330
B864
100
AcDbEntity
  8
MOVING S3 0-1 FRONT
100
AcDbPolyline
 90
       14
 70
     0
 43
0.0
 10
-29.45941403614745
 20
-25.55659160753495
 42
0.023128843481348
 10
-42.12276218304521
 20
-22.22459389740779
 42
0.0030808928372958
 10
-44.97882638357157
 20
-21.66528609076547
 42
-0.0170908197977986
 10
-46.79599879271927
 20
-21.29125372135277
 42
-0.092087918656763
 10
-47.39459978115712
 20
-21.02644674329146
 42
-0.2237323452356402
 10
-47.7893545055366
 20
-20.49513890501
 10
-48.16838533394855
 20
-17.80624753073666
 10
-48.56480530432657
 20
-14.50111567793376
 10
-48.94675349148553
 20
-10.16001367846356
 10
-49.04573363713087
 20
-8.714582951801752
 10
-49.12477964169545
 20
-7.358070478000422
 10
-49.25103194496239
 20
-4.250822505466339
 42
-0.4222965939732786
 10
-49.00538905764086
 20
-3.998342328869079
 10
-38.79440452184531
 20
-3.998687636748335
  0
LWPOLYLINE
  5
B86E
330
B864
100
AcDbEntity
  8
MOVING S3 0-1 FRONT
100
AcDbPolyline
 90
       11
 70
     0
 43
0.0
 10
-29.23882571690786
 20
-25.80867193844218
 42
0.000060936224761
 10
-29.32707573106279
 20
-25.7809743028985
 42
0.0128376475231189
 10
-38.08724581144554
 20
-23.29777005671556
 42
0.0176999643711576
 10
-45.76430713596539
 20
-21.65632210817719
 10
-48.97497688578153
 20
-21.14844818979886
 10
-51.67412652901567
 20
-20.79192027802596
 10
-53.94881424732864
 20
-20.52305673705793
 10
-53.9369773730848
 20
-19.84766215086167
 10
-53.9369773730848
 20
-19.84766215086167
 42
0.0060199549049894
 10
-53.79139822097034
 20
-19.03757912006167
 42
0.0329775644652308
 10
-53.76310925302334
 20
-18.4607653900887
  0
LWPOLYLINE
  5
B86F
330
B864
100
AcDbEntity
  8
MOVING S3 0-1 FRONT
100
AcDbPolyline
 90
        6
 70
     0
 43
0.0
 10
-53.94881424732864
 20
20.52305673705209
 10
-63.26649877712384
 20
19.72581674338628
 10
-75.07542546830416
 20
19.16782244379451
 10
-109.9978356795576
 20
18.79651859396004
 10
-162.962962619016
 20
19.01761188709313
 10
-201.6997624706166
 20
19.09999999999721
  0
LWPOLYLINE
  5
B870
330
B864
100
AcDbEntity
  8
MOVING S3 0-1 FRONT
100
AcDbPolyline
 90
        2
 70
     0
 43
0.0
 10
-75.0754254682775
 20
19.16782244379576
 10
-75.07542546827744
 20
-19.16787947556977
  0
LWPOLYLINE
  5
B871
330
B864
100
AcDbEntity
  8
MOVING S3 0-1 FRONT
100
AcDbPolyline
 90
        6
 70
     0
 43
0.0
 10
-53.94881424732864
 20
-20.52305673705793
 10
-63.26522587661043
 20
-19.72589444030816
 10
-75.0741522310243
 20
-19.16789301371707
 10
-109.9965622181797
 20
-18.79656808728466
 10
-162.9616892910641
 20
-19.01762941456334
 10
-201.6984749611164
 20
-19.0999999942688
  0
LWPOLYLINE
  5
B872
330
B864
100
AcDbEntity
  8
MOVING S3 0-1 FRONT
100
AcDbPolyline
 90
       29
 70
     1
 43
0.0
 10
-201.699762470589
 20
-19.10000000000294
 42
-0.0832907788285829
 10
-202.6100305465588
 20
-18.9481859541008
 42
-0.1350130004209563
 10
-203.6585855128268
 20
-18.15244040974786
 42
-0.0273358669513292
 10
-205.4965690844205
 20
-15.46513177414223
 42
-0.0295751712326609
 10
-207.1419184068413
 20
-12.35109215869178
 42
-0.0204010934975046
 10
-208.0573456745358
 20
-10.09946933490058
 42
-0.0323213612288607
 10
-209.12358189547
 20
-6.401755045161473
 42
-0.029003543892386
 10
-209.6674735234505
 20
-2.990812746432845
 42
-0.025139876138863
 10
-209.8167304644861
 20
-0.0000000000029212
 42
-0.0180899937594759
 10
-209.7378987910842
 20
2.154002917878677
 42
-0.0240682221957754
 10
-209.3921617225778
 20
5.000116162671282
 42
-0.0214254873531142
 10
-208.8554271562924
 20
7.495584078459763
 42
-0.0249450162883929
 10
-207.964339704811
 20
10.33017435274784
 42
-0.0279177487487921
 10
-206.6381343406802
 20
13.37916541731912
 42
-0.0299014016442679
 10
-204.8506973494089
 20
16.45880158016204
 42
-0.0172164241800677
 10
-203.6585801101743
 20
18.12828831467985
 42
-0.0750747890034509
 10
-203.1225719540838
 20
18.64499689031485
 42
-0.1036282690193489
 10
-202.19462115687
 20
19.04901243387727
 42
-0.0506617637271329
 10
-201.6997624706166
 20
19.0999999999971
 42
-0.0323098127704942
 10
-201.7090269052076
 20
18.40357395753521
 42
-0.0492466542423064
 10
-201.8366772114319
 20
17.66218787058191
 42
-0.0344822845592217
 10
-202.248558050477
 20
16.51724773308334
 42
0.0226986924895511
 10
-204.7768539165606
 20
10.58421715006776
 42
0.048275491090901
 10
-206.3050069569795
 20
4.51062691910264
 42
0.0366512057733424
 10
-206.643359575608
 20
-0.0000000000029212
 42
0.0551971884001173
 10
-205.8857942709217
 20
-6.779667702007338
 42
0.0378143619397813
 10
-204.3712907675696
 20
-11.69907323976709
 42
0.0151591105722131
 10
-202.4587776624043
 20
-16.05872459010068
 42
-0.0476070518734958
 10
-201.785261259782
 20
-17.89756488893121
 42
-0.0625397270634605
  0
LWPOLYLINE
  5
B873
330
B864
100
AcDbEntity
  8
MOVING S3 0-1 FRONT
100
AcDbPolyline
 90
       20
 70
     0
 43
0.0
 10
-203.6585801101746
 20
18.12828831468031
 10
-203.6543545505411
 20
18.10409777441058
 10
-203.6504416435666
 20
18.07539675967056
 42
-0.1216411314707906
 10
-203.6595842718272
 20
17.98995197862249
 42
-0.0228130050836102
 10
-203.8026468787866
 20
17.71457741621297
 42
0.0017092722594248
 10
-204.5614732084162
 20
16.38217580529866
 42
0.0342950035465829
 10
-206.7369987543408
 20
11.82910702473422
 42
0.0376375604236505
 10
-208.1967594008016
 20
7.114314633055335
 42
0.0401893286451727
 10
-208.9396113500603
 20
2.002326823158262
 42
0.0159454545544152
 10
-209.0049796865123
 20
-0.0000000000029212
 42
0.0317870108241093
 10
-208.7436975039725
 20
-4.065319426200255
 42
0.0303739993837468
 10
-208.0112008808522
 20
-7.907397518610275
 42
0.0327932652276063
 10
-206.6731880733157
 20
-12.01425430716593
 42
0.0256049946809984
 10
-205.1424301530812
 20
-15.33342017035371
 42
0.0083738327955691
 10
-203.7018957230924
 20
-17.92448804297802
 42
-0.0007322347190979
 10
-203.6602490283368
 20
-18.01235811197417
 42
-0.1601319844104898
 10
-203.6500146662338
 20
-18.09476175297762
 10
-203.6520842889343
 20
-18.11326724582303
 10
-203.6555326370224
 20
-18.13521400248279
 10
-203.6585855128282
 20
-18.15244040974604
  0
LWPOLYLINE
  5
B874
330
B864
100
AcDbEntity
  8
MOVING S3 0-1 FRONT
100
AcDbPolyline
 90
       21
 70
     0
 43
0.0
 10
-48.88070067227261
 20
19.77623577673646
 10
-53.94309922044749
 20
19.47375399630821
 10
-60.89002575725567
 20
19.11792378559401
 10
-60.931609869103
 20
18.75342814567146
 10
-60.96244478123288
 20
18.25134378016262
 10
-60.9836343160199
 20
17.99428944561394
 10
-61.04301371946508
 20
17.43580167067078
 10
-61.174345413698
 20
16.47276633455201
 10
-61.35309963546842
 20
15.36173110730201
 10
-61.65264710050235
 20
13.67889808665777
 42
0.0043773382345906
 10
-62.16394142046522
 20
10.65319624572758
 42
0.0173396402645731
 10
-62.64617947706483
 20
6.783244088766969
 42
0.0187446216019239
 10
-62.89779917797284
 20
2.35794084973063
 42
0.0049809370962562
 10
-62.9171824283743
 20
-0.0000000000029781
 42
0.0126681675034742
 10
-62.84111642025357
 20
-4.417836538651521
 42
0.0233498556847186
 10
-62.29107385410486
 20
-10.1583219381471
 42
0.0113193694824724
 10
-61.55127120021768
 20
-14.60842010662738
 42
-0.0069853391860142
 10
-61.14716555408495
 20
-16.99649731037859
 42
-0.0306048229612895
 10
-60.89003740848511
 20
-19.4926120643719
 10
-53.9369773730848
 20
-19.84766215086167
 10
-48.88116517478408
 20
-20.14771315456632
  0
LWPOLYLINE
  5
B875
330
B864
100
AcDbEntity
  8
MOVING S3 0-1 FRONT
100
AcDbPolyline
 90
       24
 70
     0
 43
0.0
 10
-60.89002575725567
 20
19.11792378559401
 42
-0.0498844347646816
 10
-60.48601713056132
 20
18.93828881555587
 42
-0.0633665357655277
 10
-60.04661153700147
 20
18.60924776933482
 42
-0.0822182397271027
 10
-59.78325530268387
 20
18.25621735261857
 42
-0.0695376037309143
 10
-59.71876604605359
 20
18.06558150933947
 42
-0.103037464672126
 10
-59.73195310731819
 20
17.90416389113134
 42
0.030135618605359
 10
-59.75445729212686
 20
17.7952464048727
 42
0.0991912679294282
 10
-59.74961982773698
 20
17.71870345857494
 42
0.1817156691578878
 10
-59.74721618341959
 20
17.71084674302958
 42
-0.0505203232399829
 10
-59.79941100901555
 20
16.54737403213583
 42
-0.0230395751475618
 10
-60.01374188900706
 20
15.39525795549898
 42
0.0051885116413269
 10
-60.32591608908717
 20
14.04277393802906
 42
0.0133023424775577
 10
-60.39870766741604
 20
13.62951503809663
 42
-0.0336840973218497
 10
-60.62047869729884
 20
13.68957933997817
 42
-0.0762721040711569
 10
-60.78806701458836
 20
13.77289201320591
 42
-0.0983983125529661
 10
-60.81547747713341
 20
13.80429165993289
 42
0.0216682708086528
 10
-60.67992172382798
 20
14.82542073648299
 42
0.0220321697881218
 10
-60.63157655602982
 20
15.86713528598816
 42
0.0296584767456131
 10
-60.69886939390073
 20
17.04346515386019
 42
-0.0295689267663232
 10
-60.74552463996588
 20
17.37827642169825
 42
0.0028360537579882
 10
-60.78321296502429
 20
17.71418147576796
 42
0.0331571210290509
 10
-60.79093275559012
 20
18.3055189771595
 42
0.0095502568884519
 10
-60.84517400305879
 20
18.78951266046747
 42
0.0035429848473953
 10
-60.89002575724555
 20
19.11792378565676
 42
41622.43450573826
  0
LWPOLYLINE
  5
B876
330
B864
100
AcDbEntity
  8
MOVING S3 0-1 FRONT
100
AcDbPolyline
 90
       24
 70
     0
 43
0.0
 10
-60.87823187262301
 20
-19.49889642619055
 42
0.0498844347646816
 10
-60.47433304518813
 20
-19.31901471477763
 42
0.0633665357655277
 10
-60.03512851709513
 20
-18.98970533402373
 42
0.0822182397271027
 10
-59.77198796849132
 20
-18.63651412099434
 42
0.0695376037309143
 10
-59.70761516729192
 20
-18.4458389222158
 42
0.103037464672126
 10
-59.72090082254124
 20
-18.28442938898629
 42
-0.030135618605359
 10
-59.74347153168207
 20
-18.17552566895951
 42
-0.0991912679294282
 10
-59.73868082184174
 20
-18.09897978214055
 42
-0.1817156691578878
 10
-59.7362819769794
 20
-18.09112159987673
 42
0.0505203232399829
 10
-59.78918746044758
 20
-16.92768098745491
 42
0.0230395751475618
 10
-60.00422203125265
 20
-15.77569604244834
 42
-0.0051885116413269
 10
-60.31722229181411
 20
-14.4234029582408
 42
0.0020995814779569
 10
-60.39909306208006
 20
-13.99867852530158
 42
0.035659973624352
 10
-60.62111037422823
 20
-14.05901590298995
 42
0.080040584062196
 10
-60.78755891894241
 20
-14.14176393638708
 42
0.0664953013636075
 10
-60.81611010223117
 20
-14.17427232471768
 42
-0.0286782835715809
 10
-60.67074980742211
 20
-15.20626584295726
 42
-0.0220321697881218
 10
-60.6217683528522
 20
-16.24795066813637
 42
-0.0296584767456131
 10
-60.688342657205
 20
-17.42432142010036
 42
0.0295689267663232
 10
-60.73479338652703
 20
-17.75916112324537
 42
-0.0028360537579882
 10
-60.77227652841327
 20
-18.09508913528011
 42
-0.0331571210290509
 10
-60.779635119202
 20
-18.68643124172947
 42
-0.0095502568884519
 10
-60.8335807255238
 20
-19.17045796616471
 42
-0.0035429848473953
 10
-60.87823187261278
 20
-19.4988964262533
 42
-41622.43450573826
  0
LWPOLYLINE
  5
B877
330
B864
100
AcDbEntity
  8
MOVING S3 0-1 FRONT
100
AcDbPolyline
 90
        6
 70
     0
 43
0.0
 10
-49.07071548393594
 20
18.41895675076169
 10
-53.77039319859751
 20
18.08438128455154
 10
-59.74721618341835
 20
17.71084674301355
 42
0.0608636139128148
 10
-60.16599970565176
 20
17.57827350349962
 42
0.0941373622873066
 10
-60.53711682378708
 20
17.32139025066224
 42
0.12662134058063
 10
-60.69886939388936
 20
17.04346515388372
 42
16.03401331289588
  0
LWPOLYLINE
  5
B878
330
B864
100
AcDbEntity
  8
MOVING S3 0-1 FRONT
100
AcDbPolyline
 90
        5
 70
     0
 43
0.0
 10
-59.71876604604495
 20
18.06558150929854
 42
0.0158805648513688
 10
-60.02686902653966
 20
18.01729652261017
 42
0.0221896872191164
 10
-60.33000662390088
 20
17.94636892607739
 42
0.0419915933454488
 10
-60.60785532315458
 20
17.8447860362663
 42
0.1247799418846283
 10
-60.78321296502839
 20
17.71418147581401
 42
-129.1835764888578
  0
LWPOLYLINE
  5
B879
330
B864
100
AcDbEntity
  8
MOVING S3 0-1 FRONT
100
AcDbPolyline
 90
        5
 70
     0
 43
0.0
 10
-59.70764141432244
 20
-18.44584353623875
 42
-0.0158805648513688
 10
-60.0157737614229
 20
-18.39774630971217
 42
-0.0221896872191164
 10
-60.31895452422168
 20
-18.32700345174967
 42
-0.0419915933454488
 10
-60.59686507427136
 20
-18.22558989570111
 42
-0.1247799418846283
 10
-60.77230227114012
 20
-18.095092218598
 42
129.1835764888578
  0
LWPOLYLINE
  5
B87A
330
B864
100
AcDbEntity
  8
MOVING S3 0-1 FRONT
100
AcDbPolyline
 90
       12
 70
     0
 43
0.0
 10
-60.78321296502133
 20
17.71418147582276
 42
-0.0060647302001174
 10
-60.84881779492878
 20
17.16859159724115
 42
-0.0080010707221018
 10
-61.05133658649799
 20
15.8234314058519
 42
-0.0045556561666298
 10
-61.38400202344496
 20
13.93402276195
 42
0.0122446130321573
 10
-62.11270060292497
 20
9.52395253690279
 42
0.0209006383540784
 10
-62.61083820520889
 20
4.431057726253448
 42
0.0138184571341982
 10
-62.70796099384767
 20
-0.0000000000029781
 42
0.0171431045463872
 10
-62.57754832913736
 20
-5.365616960840179
 42
0.0253581721712717
 10
-61.77423558966245
 20
-12.11516840265894
 42
0.0023207914195058
 10
-61.12384962244437
 20
-15.75842744635954
 42
-0.0076639939200282
 10
-60.83955933601067
 20
-17.53941009375526
 42
-0.0149003108659995
 10
-60.77227452438967
 20
-18.09512631937959
 42
2.306123642717832
  0
LWPOLYLINE
  5
B87B
330
B864
100
AcDbEntity
  8
MOVING S3 0-1 FRONT
100
AcDbPolyline
 90
        7
 70
     0
 43
0.0
 10
-60.81547747713329
 20
13.80429165993266
 42
0.0144442881603619
 10
-61.53007760776791
 20
9.526317701477502
 42
0.0209006383540784
 10
-62.02821521005183
 20
4.43342289082816
 42
0.0138258313594719
 10
-62.1253244348826
 20
-0.0000000000029781
 42
0.0171422382425561
 10
-61.9949253339804
 20
-5.363251796265466
 42
0.0261494442139696
 10
-61.18794303670245
 20
-12.10075385260861
 42
0.0032360383833196
 10
-60.81611010223117
 20
-14.17427232471768
  0
LWPOLYLINE
  5
B87C
330
B864
100
AcDbEntity
  8
MOVING S3 0-1 FRONT
100
AcDbPolyline
 90
        7
 70
     0
 43
0.0
 10
-60.11018967484244
 20
13.47309332971688
 42
0.0182968077486204
 10
-60.77935103669085
 20
9.523953688212124
 42
0.0209006383540784
 10
-61.27748863897489
 20
4.431058877562782
 42
0.0138184607238068
 10
-61.37461142102814
 20
-0.0000000000029781
 42
0.0171431041219958
 10
-61.24419876290335
 20
-5.365615809530845
 42
0.0252075454164745
 10
-60.41851733301086
 20
-12.09638453546372
 42
0.004546678145499
 10
-60.09834194877043
 20
-13.88025069302514
  0
LWPOLYLINE
  5
B87D
330
B864
100
AcDbEntity
  8
MOVING S3 0-1 FRONT
100
AcDbPolyline
 90
       26
 70
     0
 43
0.0
 10
-60.43017113697726
 20
-13.85523069752835
 42
-0.013819607630229
 10
-60.75840493435851
 20
-12.10311946089202
 42
-0.0261494442139696
 10
-61.56538723163646
 20
-5.365617404548879
 42
-0.0171431047099504
 10
-61.69579989888473
 20
-0.0000000000029781
 42
-0.0138184557507868
 10
-61.59867710770789
 20
4.431057282544748
 42
-0.0209006383540784
 10
-61.10053950542397
 20
9.52395209319409
 42
-0.0182941051689597
 10
-60.43003532847194
 20
13.48028071661597
 42
-0.1816714812392996
 10
-60.43214188804643
 20
13.49517914127259
 42
-0.2052209792938787
 10
-60.4151103880464
 20
13.51280414127254
 42
-0.0845960907595548
 10
-60.36032988804641
 20
13.52663614127253
 42
-0.0460116739953999
 10
-60.24415088804642
 20
13.52678614127249
 42
-0.0225182107119744
 10
-60.14274288804642
 20
13.51398964127257
 42
-0.0089890018152994
 10
-60.09834188804643
 20
13.5055701412725
 10
-49.86237123428669
 20
14.48419966987192
 42
0.0067047970908685
 10
-50.27002425722719
 20
9.77460018235579
 42
0.0135568975341466
 10
-50.55716407418765
 20
3.609305770996207
 42
0.0015677758022048
 10
-50.58683031227054
 20
-0.1873391615964914
 42
-0.0118664852273743
 10
-50.60821682289804
 20
-3.8545839622333
 42
0.0045187372741835
 10
-50.30882265647199
 20
-9.588640853326658
 42
0.0141228458778849
 10
-49.83096838804647
 20
-14.85639835872748
 10
-60.09835015208238
 20
-13.88025889779092
 42
-0.0359952533873074
 10
-60.26235516563634
 20
-13.90271679880961
 42
-0.0546960699669496
 10
-60.37778338804639
 20
-13.89881435872748
 42
-0.0877439298086259
 10
-60.41879779293868
 20
-13.88541834106174
 42
-0.205002883719465
 10
-60.43225638804642
 20
-13.86919885872751
 42
-0.1732071124201085
 10
-60.43010188804647
 20
-13.85509785872741
  0
LWPOLYLINE
  5
B87E
330
B864
100
AcDbEntity
  8
MOVING S3 0-1 FRONT
100
AcDbPolyline
 90
        6
 70
     0
 43
0.0
 10
-49.05935074433762
 20
-18.79271009932986
 10
-53.75923194629184
 20
-18.46100533331857
 10
-59.73628197697826
 20
-18.0911215998607
 42
-0.0608636139128148
 10
-60.15514639892842
 20
-17.95880418470428
 42
-0.0941373622873066
 10
-60.52642035620306
 20
-17.70214766401741
 42
-0.12662134058063
 10
-60.68834265719363
 20
-17.42432142012389
 42
-16.03401331289588
  0
LWPOLYLINE
  5
B87F
330
B864
100
AcDbEntity
  8
MOVING S3 0-1 FRONT
100
AcDbPolyline
 90
        2
 70
     0
 43
0.0
 10
-61.37461142102814
 20
-0.0000000000029781
 10
-50.05833725523962
 20
-0.0000000000029781
  0
LWPOLYLINE
  5
B880
330
B864
100
AcDbEntity
  8
MOVING S3 0-1 FRONT
100
AcDbPolyline
 90
       19
 70
     0
 43
0.0
 10
-45.76430713596539
 20
21.46898224944685
 10
-46.87880898027777
 20
21.25584358069634
 10
-47.72484552203184
 20
21.02646657804426
 42
0.0550216343854883
 10
-48.38552792081566
 20
20.74044302055936
 42
0.2418938883504798
 10
-48.83145250986626
 20
20.11292674321076
 42
0.035873952234142
 10
-48.88070067227261
 20
19.77623577673646
 42
0.0024625637192679
 10
-49.07071548393401
 20
18.41895675076203
 42
0.0027818993561231
 10
-49.26927850311983
 20
16.88349308902568
 42
0.0740470869654226
 10
-49.2952717600183
 20
16.35948373496874
 42
0.0832771962646154
 10
-49.21626652642669
 20
16.12126954301889
 42
0.2241985290495059
 10
-48.98161841411445
 20
15.92687836444973
 42
-0.2428097373676131
 10
-48.64350704647631
 20
15.73337626757493
 42
-0.1158854437549883
 10
-48.51290839511751
 20
15.36494486143622
 42
-0.0467353593547361
 10
-48.49945329061814
 20
14.95226382985968
 42
-0.0145627523320574
 10
-48.55497288804645
 20
14.33862714127245
 42
-0.227590754988444
 10
-48.63952188804637
 20
14.25839614127253
 42
-0.0810119350185048
 10
-48.84983788804641
 20
14.21427314127252
 42
-0.052913880969317
 10
-49.12965888804649
 20
14.22690814127245
 10
-49.61751210843374
 20
14.20047643428879
  0
LWPOLYLINE
  5
B881
330
B864
100
AcDbEntity
  8
MOVING S3 0-1 FRONT
100
AcDbPolyline
 90
       19
 70
     0
 43
0.0
 10
-45.75107199650926
 20
-21.84070906921115
 10
-46.86570390002907
 20
-21.62825160817922
 10
-47.71188047577527
 20
-21.39939173404778
 42
-0.0550216343854883
 10
-48.37273756475099
 20
-21.11377202980875
 42
-0.2418938883504798
 10
-48.81904559966972
 20
-20.4865284125241
 42
-0.035873952234142
 10
-48.86849953367846
 20
-20.14986760872184
 42
-0.0024625637192679
 10
-49.05934385977127
 20
-18.79270497064228
 42
-0.0027818993561231
 10
-49.25884529574443
 20
-17.25736295462584
 42
-0.0740470869654226
 10
-49.28515881496242
 20
-16.73336958515462
 42
-0.0832771962646154
 10
-49.20629918930297
 20
-16.49510715080534
 42
-0.2241985290495059
 10
-48.97176992998129
 20
-16.30057259490527
 42
0.2428097373676131
 10
-48.63377689126366
 20
-16.10686388524166
 42
0.1158854437549883
 10
-48.50340344441008
 20
-15.73835272785086
 42
0.0467353593547361
 10
-48.49020056728727
 20
-15.325663549781
 42
0.0145627523320574
 10
-48.54609520049132
 20
-14.7120609086053
 42
0.227590754988444
 10
-48.63069322076262
 20
-14.63188159875451
 42
0.0810119350185048
 10
-48.84103614884032
 20
-14.58788714918764
 42
0.052913880969317
 10
-49.12084937424208
 20
-14.60069316950173
 10
-49.6087186581999
 20
-14.57455963650684
  0
LWPOLYLINE
  5
B882
330
B864
100
AcDbEntity
  8
MOVING S3 0-1 FRONT
100
AcDbPolyline
 90
        8
 70
     0
 43
0.0
 10
-48.07158207443433
 20
18.34531248242522
 42
0.0635136450375361
 10
-48.59803802679005
 20
18.12696794637438
 42
0.1136924462951329
 10
-48.99536542646274
 20
17.76649839153888
 42
0.079888507600986
 10
-49.17956009094621
 20
17.35988006178386
 42
0.0409243601987582
 10
-49.26386688804644
 20
16.92529914127258
 42
0.1766930717682818
 10
-49.21146888804639
 20
16.75065014127254
 42
0.1106682462652717
 10
-49.06041838804651
 20
16.61874614127257
 42
0.0900347820322701
 10
-48.82969539921157
 20
16.54051413793068
 42
-0.2086197498942545
  0
LWPOLYLINE
  5
B883
330
B864
100
AcDbEntity
  8
MOVING S3 0-1 FRONT
100
AcDbPolyline
 90
        6
 70
     0
 43
0.0
 10
-48.59803802679834
 20
18.1269679463695
 42
0.134239802279891
 10
-48.48481988804644
 20
17.83712914127259
 42
0.1797598203080278
 10
-48.16778314727514
 20
17.62053658633417
 42
0.0947188420979537
 10
-48.53999006835863
 20
17.30068726460784
 42
0.1091053577475321
 10
-48.79065624968268
 20
16.74301243379918
 42
0.0167202194541377
 10
-48.91766989543157
 20
15.91921327396412
 42
466.8654981304634
  0
LWPOLYLINE
  5
B884
330
B864
100
AcDbEntity
  8
MOVING S3 0-1 FRONT
100
AcDbPolyline
 90
        3
 70
     0
 43
0.0
 10
-48.98161841411422
 20
15.92687836443495
 10
-49.13033211272637
 20
14.22687166620833
 10
-49.50998750036558
 20
9.948507546394786
  0
LWPOLYLINE
  5
B885
330
B864
100
AcDbEntity
  8
MOVING S3 0-1 FRONT
100
AcDbPolyline
 90
        7
 70
     0
 43
0.0
 10
-49.99097317184089
 20
9.951951357540657
 10
-49.50998750036558
 20
9.948507546394786
 10
-49.22693937902034
 20
9.950848195002073
 10
-49.03061198055263
 20
9.959810826298259
 42
0.0368474650983526
 10
-48.96050736834684
 20
9.968212887720234
 42
0.0477583448494067
 10
-48.94961053466136
 20
9.971445511508342
 42
0.3199064965563436
 10
-48.94623171940691
 20
9.976743379758183
 42
-0.6520031895386215
  0
LWPOLYLINE
  5
B886
330
B864
100
AcDbEntity
  8
MOVING S3 0-1 FRONT
100
AcDbPolyline
 90
        4
 70
     0
 43
0.0
 10
-50.00829288804641
 20
9.677970141272545
 10
-49.57542588804642
 20
9.617475141272485
 10
-49.57542588804642
 20
5.207844141272494
 10
-50.25199588804651
 20
5.113291141272589
  0
LWPOLYLINE
  5
B887
330
B864
100
AcDbEntity
  8
MOVING S3 0-1 FRONT
100
AcDbPolyline
 90
        2
 70
     0
 43
0.0
 10
-49.57542588804642
 20
9.512660141272455
 10
-48.97969117211357
 20
9.512660141272455
  0
LWPOLYLINE
  5
B888
330
B864
100
AcDbEntity
  8
MOVING S3 0-1 FRONT
100
AcDbPolyline
 90
        2
 70
     0
 43
0.0
 10
-49.57542588804642
 20
9.112660141272591
 10
-49.00727888804647
 20
9.112660141272591
  0
LWPOLYLINE
  5
B889
330
B864
100
AcDbEntity
  8
MOVING S3 0-1 FRONT
100
AcDbPolyline
 90
        2
 70
     0
 43
0.0
 10
-49.57542588804642
 20
5.61266014127259
 10
-49.19893288804644
 20
5.61266014127259
  0
LWPOLYLINE
  5
B88A
330
B864
100
AcDbEntity
  8
MOVING S3 0-1 FRONT
100
AcDbPolyline
 90
        2
 70
     0
 43
0.0
 10
-49.57542588804642
 20
5.312660141272522
 10
-49.21121674716175
 20
5.312660141272522
  0
LWPOLYLINE
  5
B88B
330
B864
100
AcDbEntity
  8
MOVING S3 0-1 FRONT
100
AcDbPolyline
 90
        2
 70
     0
 43
0.0
 10
-50.28671879824753
 20
4.412941440747636
 10
-49.24693045555113
 20
4.412659697563959
  0
LWPOLYLINE
  5
B88C
330
B864
100
AcDbEntity
  8
MOVING S3 0-1 FRONT
100
AcDbPolyline
 90
        6
 70
     0
 43
0.0
 10
-50.26261361766467
 20
4.84195385908854
 10
-49.6563174051646
 20
4.844947658965771
 10
-49.37980975985022
 20
4.837755859936328
 42
-0.0227056211354311
 10
-49.28447372602807
 20
4.830936607175636
 42
-0.0089388935433388
 10
-49.24795262306395
 20
4.82598770064053
 42
-0.0656016357850488
 10
-49.22994642481762
 20
4.820740064359802
 42
-0.6524563963996723
  0
LWPOLYLINE
  5
B88D
330
B864
100
AcDbEntity
  8
MOVING S3 0-1 FRONT
100
AcDbPolyline
 90
        2
 70
     0
 43
0.0
 10
-50.22425218169781
 20
4.412924514665042
 10
-50.22419588804644
 20
3.409177141272585
  0
LWPOLYLINE
  5
B88E
330
B864
100
AcDbEntity
  8
MOVING S3 0-1 FRONT
100
AcDbPolyline
 90
        6
 70
     0
 43
0.0
 10
-48.59804107583056
 20
-18.50164660066368
 42
-0.134239802279891
 10
-48.4848228888253
 20
-18.21180781441571
 42
-0.1797598203080278
 10
-48.16778611199493
 20
-17.99521531225868
 42
-0.0947188420979537
 10
-48.53999297982875
 20
-17.67536592856597
 42
-0.1091053577475321
 10
-48.79065906830908
 20
-17.1176910560255
 42
-0.0167202194541377
 10
-48.91767257690879
 20
-16.2938918750448
 42
-466.8654981304634
  0
LWPOLYLINE
  5
B88F
330
B864
100
AcDbEntity
  8
MOVING S3 0-1 FRONT
100
AcDbPolyline
 90
        8
 70
     0
 43
0.0
 10
-48.07158515981746
 20
-18.71999122436548
 42
-0.0635136450375361
 10
-48.59804107582227
 20
-18.50164660066857
 42
-0.1136924462951329
 10
-48.99536841548274
 20
-18.14117697968449
 42
-0.079888507600986
 10
-49.17956301227093
 20
-17.73455861926404
 42
-0.0409243601987582
 10
-49.26386973702062
 20
-17.2999776847171
 42
-0.1766930717682818
 10
-49.21147170794438
 20
-17.12532869344047
 42
-0.1106682462652717
 10
-49.06042118598453
 20
-16.99342471858792
 42
-0.0900347820322701
 10
-48.82969818412528
 20
-16.91519275365763
 42
0.2086197498942545
  0
LWPOLYLINE
  5
B890
330
B864
100
AcDbEntity
  8
MOVING S3 0-1 FRONT
100
AcDbPolyline
 90
        2
 70
     0
 43
0.0
 10
-50.22425294756647
 20
-4.787602898221302
 10
-50.2241964868075
 20
-3.783855524838167
  0
LWPOLYLINE
  5
B891
330
B864
100
AcDbEntity
  8
MOVING S3 0-1 FRONT
100
AcDbPolyline
 90
        6
 70
     0
 43
0.0
 10
-50.26261445495959
 20
-5.216632236258214
 10
-49.65631824295792
 20
-5.219626137073782
 10
-49.37981059644619
 20
-5.212434384078414
 42
0.0227056211354311
 10
-49.28447456148877
 20
-5.205615147189541
 42
0.0089388935433388
 10
-49.24795345770087
 20
-5.200666246734635
 42
0.0656016357850488
 10
-49.22994725858086
 20
-5.195418613451601
 42
0.6524563963996723
  0
LWPOLYLINE
  5
B892
330
B864
100
AcDbEntity
  8
MOVING S3 0-1 FRONT
100
AcDbPolyline
 90
        2
 70
     0
 43
0.0
 10
-50.28671956411892
 20
-4.787619813904165
 10
-49.24693122137558
 20
-4.787338243828252
  0
LWPOLYLINE
  5
B893
330
B864
100
AcDbEntity
  8
MOVING S3 0-1 FRONT
100
AcDbPolyline
 90
        2
 70
     0
 43
0.0
 10
-49.57542680370625
 20
-5.687338632847649
 10
-49.21121766282169
 20
-5.687338693482524
  0
LWPOLYLINE
  5
B894
330
B864
100
AcDbEntity
  8
MOVING S3 0-1 FRONT
100
AcDbPolyline
 90
        2
 70
     0
 43
0.0
 10
-49.57542685365138
 20
-5.987338632847717
 10
-49.19893385365139
 20
-5.987338695527705
  0
LWPOLYLINE
  5
B895
330
B864
100
AcDbEntity
  8
MOVING S3 0-1 FRONT
100
AcDbPolyline
 90
        2
 70
     0
 43
0.0
 10
-49.57542743634405
 20
-9.487338632847716
 10
-49.0072804363441
 20
-9.487338727434938
  0
LWPOLYLINE
  5
B896
330
B864
100
AcDbEntity
  8
MOVING S3 0-1 FRONT
100
AcDbPolyline
 90
        2
 70
     0
 43
0.0
 10
-49.57542750293749
 20
-9.88733863284758
 10
-48.97969278700464
 20
-9.88733873202775
  0
LWPOLYLINE
  5
B897
330
B864
100
AcDbEntity
  8
MOVING S3 0-1 FRONT
100
AcDbPolyline
 90
        4
 70
     0
 43
0.0
 10
-50.0082945304589
 20
-10.05264856078249
 10
-49.57542752038751
 20
-9.99215363284761
 10
-49.57542678625611
 20
-5.582522632847621
 10
-50.25199677051467
 20
-5.48796952020998
  0
LWPOLYLINE
  5
B898
330
B864
100
AcDbEntity
  8
MOVING S3 0-1 FRONT
100
AcDbPolyline
 90
        7
 70
     0
 43
0.0
 10
-49.9909748598667
 20
-10.32662977993404
 10
-49.50998918781817
 20
-10.32318604886441
 10
-49.22694106686265
 20
-10.32552674459455
 10
-49.03061366988698
 20
-10.33448940857604
 42
-0.0368474650983526
 10
-48.96050905907998
 20
-10.34289148166922
 42
-0.0477583448494067
 10
-48.9496122259327
 20
-10.34612410727154
 42
-0.3199064965563436
 10
-48.94623341156034
 20
-10.3514219760839
 42
0.6520031895386215
  0
LWPOLYLINE
  5
B899
330
B864
100
AcDbEntity
  8
MOVING S3 0-1 FRONT
100
AcDbPolyline
 90
        3
 70
     0
 43
0.0
 10
-48.97174114957966
 20
-16.30092381159729
 10
-49.12149686551652
 20
-14.60100858908927
 10
-49.50377467094824
 20
-10.32287798863469
  0
LWPOLYLINE
  5
B89A
330
B864
100
AcDbEntity
  8
MOVING S3 0-1 FRONT
100
AcDbPolyline
 90
       13
 70
     0
 43
0.0
 10
-49.86237123428669
 20
14.48419966987192
 42
-0.0635805413112923
 10
-49.72505688804642
 20
14.45576714127251
 42
-0.0696753173702904
 10
-49.63779888804641
 20
14.41434114127251
 42
-0.128076552014796
 10
-49.60328288804646
 20
14.37699614127255
 42
-0.218391940417447
 10
-49.60257538804637
 20
14.34560314127257
 42
0.0004926616773564
 10
-49.67358914619478
 20
13.65741088014599
 42
0.0011972012755376
 10
-49.73734994164397
 20
13.01241072964408
 42
0.0026251969252784
 10
-49.85638581203886
 20
11.70462091529359
 42
0.0047093004906613
 10
-50.15528202369205
 20
7.433507999004951
 42
0.0085860893571944
 10
-50.25199588804651
 20
5.113291141272589
 42
0.0112897152086979
 10
-50.30802388804648
 20
3.622895141272556
 42
0.40516308997023
 10
-50.01196457572598
 20
3.312586893055573
 10
-38.8589992081171
 20
3.312627021005432
  0
LWPOLYLINE
  5
B89B
330
B864
100
AcDbEntity
  8
MOVING S3 0-1 FRONT
100
AcDbPolyline
 90
        3
 70
     0
 43
0.0
 10
-49.91862452101793
 20
13.96793889727903
 42
0.0002021718545
 10
-49.94762474972038
 20
13.68528929892395
 42
0.0000509139896498
 10
-49.95040489218502
 20
13.65780948813799
 42
0.0000509139896498
  0
LWPOLYLINE
  5
B89C
330
B864
100
AcDbEntity
  8
MOVING S3 0-1 FRONT
100
AcDbPolyline
 90
        3
 70
     0
 43
0.0
 10
-49.91859211907627
 20
13.96776549001456
 42
0.0002020514643755
 10
-49.9475750064829
 20
13.68528423820951
 42
0.0000510121066568
 10
-49.95036050016131
 20
13.6577514803291
 42
0.0000510121066568
  0
LWPOLYLINE
  5
B89D
330
B864
100
AcDbEntity
  8
MOVING S3 0-1 FRONT
100
AcDbPolyline
 90
        3
 70
     0
 43
0.0
 10
-49.91859211907627
 20
13.96776549001456
 42
0.0002020514643755
 10
-49.9475750064829
 20
13.68528423820951
 42
0.0000510121066568
 10
-49.95036050016131
 20
13.6577514803291
 42
0.0000510121066568
  0
LWPOLYLINE
  5
B89E
330
B864
100
AcDbEntity
  8
MOVING S3 0-1 FRONT
100
AcDbPolyline
 90
        3
 70
     0
 43
0.0
 10
-50.55839502729861
 20
3.495916284850614
 42
0.3555188666822662
 10
-50.02431250676318
 20
3.019894122816231
 10
-38.88219538948602
 20
3.028233170560811
  0
LWPOLYLINE
  5
B89F
330
B864
100
AcDbEntity
  8
MOVING S3 0-1 FRONT
100
AcDbPolyline
 90
        2
 70
     0
 43
0.0
 10
-50.0050604299721
 20
3.299776151640549
 10
-50.06136196735951
 20
-0.1873398587274773
  0
LWPOLYLINE
  5
B8A0
330
B864
100
AcDbEntity
  8
MOVING S3 0-1 FRONT
100
AcDbPolyline
 90
        3
 70
     0
 43
0.0
 10
-50.55614299245394
 20
-3.870930624944684
 42
-0.3555188666821711
 10
-50.02235161033752
 20
-3.394582015344917
 10
-38.85179193596457
 20
-3.396112699811012
  0
LWPOLYLINE
  5
B8A1
330
B864
100
AcDbEntity
  8
MOVING S3 0-1 FRONT
100
AcDbPolyline
 90
       13
 70
     0
 43
0.0
 10
-49.85340112429184
 20
-14.85878640925059
 42
0.0635805413112886
 10
-49.71610418728335
 20
-14.83026993236424
 42
0.0696753173702904
 10
-49.62887153133078
 20
-14.78879059081364
 42
0.128076552014796
 10
-49.59437837040889
 20
-14.75142449480929
 42
0.218391940417447
 10
-49.59369006413215
 20
-14.72003106811316
 42
-0.0004926616773564
 10
-49.66512456780072
 20
-14.03188235322195
 42
-0.0011972012755376
 10
-49.72927970259218
 20
-13.3869213064419
 42
-0.0026251969252784
 10
-49.84911512971542
 20
-12.07920451471457
 42
-0.0047093004906613
 10
-50.15062263180482
 20
-7.808275141005219
 42
-0.0085860893571944
 10
-50.24875505207717
 20
-5.488117847510943
 42
-0.0112897152086979
 10
-50.30569426548493
 20
-3.997756381430712
 42
-0.40516308997023
 10
-50.00982473008014
 20
-3.687267181389096
 10
-38.82588652965035
 20
-3.68046959147746
  0
LWPOLYLINE
  5
B8A2
330
B864
100
AcDbEntity
  8
MOVING S3 0-1 FRONT
100
AcDbPolyline
 90
        2
 70
     0
 43
0.0
 10
-50.00292841806765
 20
-3.674452221193313
 10
-50.06136195775241
 20
-0.1873712851786644
  0
LWPOLYLINE
  5
B8A3
330
B864
100
AcDbEntity
  8
MOVING S3 0-1 FRONT
100
AcDbPolyline
 90
       11
 70
     0
 43
0.0
 10
-46.68214746955686
 20
21.12912064710302
 10
-46.85935858511584
 20
21.06981345455743
 10
-47.04184432902025
 20
20.99762825337687
 42
0.1125720074977829
 10
-47.47175800959496
 20
20.71360018192238
 42
0.1530368766239867
 10
-47.59661188804637
 20
20.43540214127243
 42
0.0040096747572152
 10
-48.22846325450098
 20
15.29884826969326
 42
0.0071427689350316
 10
-48.62883877410706
 20
11.17420653761187
 42
0.0047428844722984
 10
-48.82091488008211
 20
8.541603640375321
 42
-0.0067465529729142
 10
-48.93091688804645
 20
7.292280141272477
 10
-49.05046797607235
 20
4.066203124650406
 10
-38.78698258108978
 20
4.070050143356453
  0
LWPOLYLINE
  5
B8A4
330
B864
100
AcDbEntity
  8
MOVING S3 0-1 FRONT
100
AcDbPolyline
 90
        7
 70
     0
 43
0.0
 10
-49.04543891654668
 20
8.52890150686526
 42
0.4601454222758702
 10
-49.0089660380529
 20
8.542012080176711
 42
-0.6545863829386669
 10
-48.92544583124515
 20
8.546058495257035
 42
0.5954022614546771
 10
-48.83767980379833
 20
8.542835078237636
 42
-0.6204729539022261
 10
-48.82091488005449
 20
8.541603640381346
 42
0.0042330570541979
 10
-44.73294437293816
 20
9.501378171619627
 42
0.0078598184415137
 10
-37.2840899925493
 20
11.44081030569845
 42
0.0078598184415137
  0
LWPOLYLINE
  5
B8A5
330
B864
100
AcDbEntity
  8
MOVING S3 0-1 FRONT
100
AcDbPolyline
 90
        6
 70
     0
 43
0.0
 10
-38.14421946855452
 20
-8.124895353613474
 42
0.0064363610105579
 10
-43.38068483988718
 20
-7.864090552578113
 42
0.0015872653365591
 10
-48.92478183875744
 20
-7.666756453512811
 42
-0.0792343383149364
 10
-49.04918983884579
 20
-7.653362454332545
 42
-0.0728482406490279
 10
-49.09470983897893
 20
-7.633143954632509
 42
-0.2046611204563392
 10
-49.1215643392103
 20
-7.598052954809554
  0
ENDBLK
  5
B866
330
B864
100
AcDbEntity
  8
0
100
AcDbBlockEnd
  0
BLOCK
  5
BA33
330
BA32
100
AcDbEntity
  8
0
100
AcDbBlockBegin
  2
moving 0-1 S3 frontale right
 70
     0
 10
0.0
 20
0.0
 30
0.0
  3
moving 0-1 S3 frontale right
  1

  0
LWPOLYLINE
  5
BA35
330
BA32
100
AcDbEntity
  8
MOVING S3 0-1 FRONT
100
AcDbPolyline
 90
       12
 70
     0
 43
0.0
 10
-42.95950873442911
 20
-19.01515939424706
 42
0.0406347983679682
 10
-56.25420174482243
 20
-19.11150368124527
 42
-0.1924431039171605
 10
-58.34246299430063
 20
-17.99198073994074
 42
-0.1000570245464792
 10
-59.72363550963487
 20
-15.01420694431283
 42
-0.0458290285094536
 10
-60.81418778927605
 20
-8.054255673590816
 42
-0.0088302286667292
 10
-61.11104982055187
 20
-2.000115438044218
 10
-61.11106132035439
 20
1.999884561939268
 42
-0.0088172390094882
 10
-60.81390759373909
 20
8.054883426074056
 42
-0.0458290285094536
 10
-59.72311319787357
 20
15.01479675537666
 42
-0.1000570245464792
 10
-58.34183709510475
 20
17.99252250214436
 42
-0.1924431039171605
 10
-56.25353690187515
 20
19.11197279810952
 42
0.0450526940677543
 10
-41.51861777993872
 20
19.13463666510022
 42
0.0450526940677543
  0
POINT
  5
BA45
330
BA32
100
AcDbEntity
  8
POINT D'ACCROCHAGE
100
AcDbPoint
 10
0.0000000001732587
 20
0.0000602532153628
 30
0.0
  0
ENDBLK
  5
BA34
330
BA32
100
AcDbEntity
  8
0
100
AcDbBlockEnd
  0
ENDSEC
  0
SECTION
  2
ENTITIES
  0
INSERT
  5
26DD
330
1F
100
AcDbEntity
  8
0
100
AcDbBlockReference
  2
poignée S3 frontale right
 10
284.8366704511859
 20
-7.513069468564083
 30
0.0
  0
DIMENSION
  5
2A90
330
1F
100
AcDbEntity
  8
QUOTATION
100
AcDbDimension
  2
*D4
 10
664.5773323564453
 20
-217.2543831318374
 30
0.0
 11
664.5773323564453
 21
-115.7145288099136
 31
0.0
 70
   160
 71
     5
 42
209.8167329128849
  3
AM_ISO
100
AcDbAlignedDimension
 13
582.1723522757355
 23
-7.437650218952416
 33
0.0
 14
582.3596514744893
 24
-217.2543831318374
 34
0.0
 50
90.0
100
AcDbRotatedDimension
1001
ACAD
1000
DSTYLE
1002
{
1070
    40
1040
3.0
1070
   271
1070
     1
1002
}
  0
DIMENSION
  5
2AED
330
1F
100
AcDbEntity
  8
QUOTATION
100
AcDbDimension
  2
*D5
 10
664.5773323564453
 20
131.4180174634707
 30
0.0
 11
664.5773323564453
 21
96.66818110150371
 31
0.0
 70
   160
 71
     5
 42
61.11105557047356
  3
AM_ISO
100
AcDbAlignedDimension
 13
621.3509431344601
 23
70.30696189299715
 33
0.0
 14
584.1723522757355
 24
131.4180174634707
 34
0.0
 50
90.00000000000003
100
AcDbRotatedDimension
1001
ACAD
1000
DSTYLE
1002
{
1070
    40
1040
3.0
1070
   271
1070
     1
1002
}
  0
DIMENSION
  5
2B2E
330
1F
100
AcDbEntity
  8
QUOTATION
100
AcDbDimension
  2
*D6
 10
621.1724125289508
 20
46.00147024621628
 30
0.0
 11
582.1724125289509
 21
55.75147024621628
 31
0.0
 70
    32
 71
     5
 42
78.0
  3
AM_ISO
100
AcDbAlignedDimension
 13
543.1724125289508
 23
70.30696189299715
 33
0.0
 14
621.1724125289508
 24
70.30696189299715
 34
0.0
 50
0.0000000000001132
100
AcDbRotatedDimension
1001
ACAD
1000
DSTYLE
1002
{
1070
    40
1040
3.0
1070
   271
1070
     1
1002
}
  0
DIMENSION
  5
2B86
330
1F
100
AcDbEntity
  8
QUOTATION
100
AcDbDimension
  2
*D7
 10
549.4258175394399
 20
-28.38596662807092
 30
0.0
 11
642.9632838135846
 21
21.38965058977601
 31
0.0
 70
   163
 71
     5
 42
77.98250199999995
  3
AM_ISO$3
100
AcDbDiametricDimension
 15
615.2935667294802
 25
13.35981441406517
 35
0.0
 40
0.0
1001
ACAD
1000
DSTYLE
1002
{
1070
    40
1040
3.0
1070
   271
1070
     1
1002
}
  0
INSERT
  5
9090
330
1F
100
AcDbEntity
  8
S3_EXTERN HANDLE FRONT
100
AcDbBlockReference
  2
poignée S3 frontale front
 10
582.35969213446
 20
-7.513076107002916
 30
0.0
  0
DIMENSION
  5
9315
330
1F
100
AcDbEntity
  8
QUOTATION
100
AcDbDimension
  2
*D9
 10
781.0120259789871
 20
25.80163023530838
 30
0.0
 11
761.0120259789871
 21
35.55163023530838
 31
0.0
 70
    32
 71
     5
 42
40.00000000000011
  3
AM_ISO
100
AcDbAlignedDimension
 13
741.012025978987
 23
6.486923892997026
 33
0.0
 14
781.0120259789871
 24
6.486923892997083
 34
0.0
100
AcDbRotatedDimension
1001
ACAD
1000
DSTYLE
1002
{
1070
    40
1040
3.0
1070
   271
1070
     1
1002
}
  0
DIMENSION
  5
9368
330
1F
100
AcDbEntity
  8
QUOTATION
100
AcDbDimension
  2
*D10
 10
817.0120259789872
 20
-21.51307610700293
 30
0.0
 11
807.2609925144202
 21
-7.513076107002794
 31
0.0
 70
    32
 71
     5
 42
28.0
  3
AM_ISO
100
AcDbAlignedDimension
 13
781.0120259789871
 23
6.486923892997083
 33
0.0
 14
781.0120259789871
 24
-21.51307610700292
 34
0.0
 50
90.0
100
AcDbRotatedDimension
1001
ACAD
1000
DSTYLE
1002
{
1070
    40
1040
3.0
1070
   271
1070
     1
1002
}
  0
DIMENSION
  5
93B0
330
1F
100
AcDbEntity
  8
QUOTATION
100
AcDbDimension
  2
*D11
 10
779.2436337003015
 20
-18.49268064470237
 30
0.0
 11
818.6252986590817
 21
-49.37597472519559
 31
0.0
 70
   163
  1
4x <>
 71
     5
 42
7.000000000000284
  3
AM_ISO$3
100
AcDbDiametricDimension
 15
782.7804182576738
 25
-24.53347156930295
 35
0.0
 40
0.0
1001
ACAD
1000
DSTYLE
1002
{
1070
    40
1040
3.0
1070
   271
1070
     1
1002
}
  0
DIMENSION
  5
93E0
330
1F
100
AcDbEntity
  8
QUOTATION
100
AcDbDimension
  2
*D12
 10
768.4022119403744
 20
6.111723027520895
 30
0.0
 11
725.8068124154601
 21
-46.69991347180285
 31
0.0
 70
   163
 71
     5
 42
31.0
  3
AM_ISO$3
100
AcDbDiametricDimension
 15
753.6218400176014
 25
-21.13787524152713
 35
0.0
 40
0.0
1001
ACAD
1000
DSTYLE
1002
{
1070
    40
1040
3.0
1070
   271
1070
     1
1002
}
  0
INSERT
  5
9E20
330
1F
100
AcDbEntity
  8
0
100
AcDbBlockReference
  2
poignée S3 frontale back
 10
582.1723502155219
 20
70.30696189299715
 30
0.0
  0
INSERT
  5
AC96
330
1F
100
AcDbEntity
  8
0
100
AcDbBlockReference
  2
Percage S1 à S4 Frontale
 10
761.0120259789871
 20
-7.513076107002916
 30
0.0
  0
VIEWPORT
  5
7F6
102
{ACAD_XDICTIONARY
360
C19C
102
}
330
1B
100
AcDbEntity
 67
     1
  8
0
100
AcDbViewport
 10
205.4456488802774
 20
155.6557413932432
 30
0.0
 40
481.2147362611633
 41
314.0265318719201
 68
     1
 69
     1
 12
205.4456488802774
 22
155.6557413932432
 13
0.0
 23
0.0
 14
2.5
 24
2.5
 15
10.0
 25
10.0
 16
0.0
 26
0.0
 36
1.0
 17
0.0
 27
0.0
 37
0.0
 42
50.0
 43
0.0
 44
0.0
 45
314.0265318719201
 50
0.0
 51
0.0
 72
   100
 90
    32800
  1

281
     0
 71
     1
 74
     0
110
0.0
120
0.0
130
0.0
111
1.0
121
0.0
131
0.0
112
0.0
122
1.0
132
0.0
 79
     0
146
0.0
  0
ENDSEC
  0
SECTION
  2
OBJECTS
  0
DICTIONARY
  5
C
330
0
100
AcDbDictionary
281
     1
  3
ACAD_COLOR
350
741
  3
ACAD_GROUP
350
D
  3
ACAD_LAYOUT
350
1A
  3
ACAD_MATERIAL
350
740
  3
ACAD_MLINESTYLE
350
17
  3
ACAD_PLOTSETTINGS
350
19
  3
ACAD_PLOTSTYLENAME
350
E
  3
ACDBHEADERROUNDTRIPXREC
350
C193
  3
AcDbVariableDictionary
350
52
  3
AcmDictionary
350
61
  3
AMAcad
350
449
  3
AMG
350
49
  3
AMGSNAPSETTINGS
350
158
  3
ASE_INDEX_DICTIONARY
350
9CFF
  3
DWGPROPS
350
C192
  0
DICTIONARY
  5
84
330
1F
100
AcDbDictionary
280
     1
281
     1
  3
ACAD_INDEX
360
B673
  0
DICTIONARY
  5
964B
330
25CC
100
AcDbDictionary
280
     1
281
     1
  3
ACAD_SORTENTS
360
C170
  0
DICTIONARY
  5
92C1
330
9043
100
AcDbDictionary
280
     1
281
     1
  3
ACAD_SORTENTS
360
BFDF
  0
DICTIONARY
  5
ABE1
330
9DF2
100
AcDbDictionary
280
     1
281
     1
  3
ACAD_SORTENTS
360
C118
  0
DICTIONARY
  5
BA4A
330
BA32
100
AcDbDictionary
280
     1
281
     1
  3
ACAD_SORTENTS
360
BAAD
  0
DICTIONARY
  5
C19C
330
7F6
100
AcDbDictionary
280
     1
281
     1
  3
ACAD_XREC_ROUNDTRIP
360
C19D
  0
DICTIONARY
  5
741
102
{ACAD_REACTORS
330
C
102
}
330
C
100
AcDbDictionary
281
     1
  0
DICTIONARY
  5
D
102
{ACAD_REACTORS
330
C
102
}
330
C
100
AcDbDictionary
281
     1
  0
DICTIONARY
  5
1A
102
{ACAD_REACTORS
330
C
102
}
330
C
100
AcDbDictionary
281
     1
  3
A3
350
1E
  3
Layout2
350
26
  3
Model
350
22
  0
DICTIONARY
  5
740
102
{ACAD_REACTORS
330
C
102
}
330
C
100
AcDbDictionary
281
     1
  0
DICTIONARY
  5
17
102
{ACAD_REACTORS
330
C
102
}
330
C
100
AcDbDictionary
281
     1
  3
Standard
350
18
  0
DICTIONARY
  5
19
102
{ACAD_REACTORS
330
C
102
}
330
C
100
AcDbDictionary
281
     1
  0
ACDBDICTIONARYWDFLT
  5
E
102
{ACAD_REACTORS
330
C
102
}
330
C
100
AcDbDictionary
281
     1
  3
Normal
350
F
100
AcDbDictionaryWithDefault
340
F
  0
DICTIONARY
  5
C193
102
{ACAD_REACTORS
330
C
102
}
330
C
100
AcDbDictionary
281
     1
  3
COLORDICT
350
C195
  3
MATERIALDICT
350
C194
  0
DICTIONARY
  5
52
102
{ACAD_REACTORS
330
C
102
}
330
C
100
AcDbDictionary
281
     1
  3
DIMASSOC
350
44F
  3
INDEXCTL
350
53
  3
PROJECTNAME
350
C190
  0
DICTIONARY
  5
61
102
{ACAD_REACTORS
330
C
102
}
330
C
100
AcDbDictionary
281
     1
  3
AcmBOM
350
B5E
  3
AcmStdDictionary
350
79D
  0
DICTIONARY
  5
449
102
{ACAD_REACTORS
330
C
102
}
330
C
100
AcDbDictionary
281
     1
  3
AM_LOADER
350
44A
  0
DICTIONARY
  5
49
102
{ACAD_REACTORS
330
C
102
}
330
C
100
AcDbDictionary
281
     1
  0
DICTIONARY
  5
158
102
{ACAD_REACTORS
330
C
102
}
330
C
100
AcDbDictionary
281
     1
  0
DICTIONARY
  5
9CFF
102
{ACAD_REACTORS
330
C
102
}
330
C
100
AcDbDictionary
281
     1
  3
ASEBlockHierarchyIndexRecord
350
9D00
1001
DCO15
1040
1516076006.825
  0
XRECORD
  5
C192
102
{ACAD_REACTORS
330
C
102
}
330
C
100
AcDbXrecord
280
     1
  1
DWGPROPS COOKIE
  2

  3

  4

  6

  7

  8

  9

300
AmdtFileType=84
301
=
302
=
303
=
304
=
305
=
306
=
307
=
308
=
309
=
 40
0.1672096759259259
 41
2453349.612755093
 42
2453503.405276227
  1

 90
        1
  0
DICTIONARY
  5
B673
102
{ACAD_REACTORS
330
84
102
}
330
84
100
AcDbDictionary
281
     1
  3
*A1
350
B674
  0
SORTENTSTABLE
  5
C170
102
{ACAD_REACTORS
330
964B
102
}
330
964B
100
AcDbSortentsTable
330
25CC
  0
SORTENTSTABLE
  5
BFDF
102
{ACAD_REACTORS
330
92C1
102
}
330
92C1
100
AcDbSortentsTable
330
9043
  0
SORTENTSTABLE
  5
C118
102
{ACAD_REACTORS
330
ABE1
102
}
330
ABE1
100
AcDbSortentsTable
330
9DF2
  0
SORTENTSTABLE
  5
BAAD
102
{ACAD_REACTORS
330
BA4A
102
}
330
BA4A
100
AcDbSortentsTable
330
BA32
  0
XRECORD
  5
C19D
102
{ACAD_REACTORS
330
C19C
102
}
330
C19C
100
AcDbXrecord
280
     1
102
SHADEPLOT
 70
     0
  0
LAYOUT
  5
1E
102
{ACAD_XDICTIONARY
360
C196
102
}
102
{ACAD_REACTORS
330
1A
102
}
330
1A
100
AcDbPlotSettings
  1

  2
\\FRU1IMP1\TELEMAQUE
  4
A3
  6
AM_VIEW1
 40
3.174999952316284
 41
6.085402488708496
 42
3.17498779296875
 43
3.17498779296875
 44
297.0530090332031
 45
420.1583251953125
 46
0.0
 47
0.0
 48
0.0
 49
0.0
140
0.0
141
0.0
142
1.0
143
1.0
 70
   688
 72
     1
 73
     1
 74
     5
  7
A3.ctb
 75
     0
147
1.0
148
0.0
149
0.0
100
AcDbLayout
  1
A3
 70
     1
 71
     1
 10
-3.17498779296875
 20
-3.174999952316284
 11
416.9833374023437
 21
293.8780090808868
 12
0.0
 22
0.0
 32
0.0
 14
0.0003713471514857
 24
0.0025965273003976
 34
0.0
 15
410.8932691974858
 25
290.5625742928941
 35
0.0
146
0.0
 13
0.0
 23
0.0
 33
0.0
 16
1.0
 26
0.0
 36
0.0
 17
0.0
 27
1.0
 37
0.0
 76
     0
330
1B
331
7F6
  0
LAYOUT
  5
26
102
{ACAD_XDICTIONARY
360
C19A
102
}
102
{ACAD_REACTORS
330
1A
102
}
330
1A
100
AcDbPlotSettings
  1

  2

  4

  6

 40
0.0
 41
0.0
 42
0.0
 43
0.0
 44
0.0
 45
0.0
 46
0.0
 47
0.0
 48
0.0
 49
0.0
140
0.0
141
0.0
142
1.0
143
1.0
 70
   688
 72
     0
 73
     0
 74
     5
  7

 75
    16
147
1.0
148
0.0
149
0.0
100
AcDbLayout
  1
Layout2
 70
     1
 71
     2
 10
0.0
 20
0.0
 11
12.0
 21
9.0
 12
0.0
 22
0.0
 32
0.0
 14
0.0
 24
0.0
 34
0.0
 15
0.0
 25
0.0
 35
0.0
146
0.0
 13
0.0
 23
0.0
 33
0.0
 16
1.0
 26
0.0
 36
0.0
 17
0.0
 27
1.0
 37
0.0
 76
     0
330
23
  0
LAYOUT
  5
22
102
{ACAD_XDICTIONARY
360
C198
102
}
102
{ACAD_REACTORS
330
1A
102
}
330
1A
100
AcDbPlotSettings
  1

  2

  4

  6

 40
0.0
 41
0.0
 42
0.0
 43
0.0
 44
0.0
 45
0.0
 46
0.0
 47
0.0
 48
0.0
 49
0.0
140
0.0
141
0.0
142
1.0
143
1.0
 70
  1712
 72
     0
 73
     0
 74
     0
  7

 75
     0
147
1.0
148
0.0
149
0.0
100
AcDbLayout
  1
Model
 70
     1
 71
     0
 10
0.0
 20
0.0
 11
12.0
 21
9.0
 12
0.0
 22
0.0
 32
0.0
 14
0.0
 24
0.0
 34
0.0
 15
0.0
 25
0.0
 35
0.0
146
0.0
 13
0.0
 23
0.0
 33
0.0
 16
1.0
 26
0.0
 36
0.0
 17
0.0
 27
1.0
 37
0.0
 76
     0
330
1F
  0
MLINESTYLE
  5
18
102
{ACAD_REACTORS
330
17
102
}
330
17
100
AcDbMlineStyle
  2
STANDARD
 70
     0
  3

 62
   256
 51
90.0
 52
90.0
 71
     2
 49
0.5
 62
   256
  6
BYLAYER
 49
-0.5
 62
   256
  6
BYLAYER
  0
ACDBPLACEHOLDER
  5
F
102
{ACAD_REACTORS
330
E
102
}
330
E
  0
XRECORD
  5
C195
102
{ACAD_REACTORS
330
C193
102
}
330
C193
100
AcDbXrecord
280
     1
340
741
  0
XRECORD
  5
C194
102
{ACAD_REACTORS
330
C193
102
}
330
C193
100
AcDbXrecord
280
     1
340
740
  0
DICTIONARYVAR
  5
44F
102
{ACAD_REACTORS
330
52
102
}
330
52
100
DictionaryVariables
280
     0
  1
2
  0
DICTIONARYVAR
  5
53
102
{ACAD_REACTORS
330
52
102
}
330
52
100
DictionaryVariables
280
     0
  1
1
  0
DICTIONARYVAR
  5
C190
102
{ACAD_REACTORS
330
52
102
}
330
52
100
DictionaryVariables
280
     0
  1

  0
DICTIONARY
  5
B5E
102
{ACAD_REACTORS
330
61
102
}
330
61
100
AcDbDictionary
281
     1
  0
DICTIONARY
  5
79D
102
{ACAD_REACTORS
330
61
102
}
330
61
100
AcDbDictionary
281
     1
  0
ACAD_PROXY_OBJECT
  5
44A
102
{ACAD_REACTORS
330
449
102
}
330
449
100
AcDbProxyObject
 90
      499
 91
      526
 95
   131097
 70
     0
 93
       59
310
4050485B0416C100
 94
        0
1001
ACAD
1000
AcRTDxfName
1000
AMLOADER
  0
XRECORD
  5
9D00
102
{ACAD_REACTORS
330
9CFF
102
}
330
9CFF
100
AcDbXrecord
280
     1
330
26DD
330
9090
330
9E20
  0
LAYER_INDEX
  5
B674
102
{ACAD_REACTORS
330
B673
102
}
330
B673
100
AcDbIndex
 40
2453503.405276227
100
AcDbLayerIndex
  8
0
360
B675
 90
        3
  8
S3_EXTERN HANDLE FRONT
360
B676
 90
        1
  8
AXIS
360
B677
 90
        0
  8
QUOTATION
360
B678
 90
        8
  8
Defpoints
360
B679
 90
        0
  8
HANDLE FIXING HOLES
360
B67A
 90
        0
  8
MOVING S3 0-1 FRONT
360
B67C
 90
        0
  8
POINT D'ACCROCHAGE
360
B67D
 90
        0
  0
DICTIONARY
  5
C196
330
1E
100
AcDbDictionary
280
     1
281
     1
  3
ACAD_XREC_ROUNDTRIP
360
C197
  0
DICTIONARY
  5
C19A
330
26
100
AcDbDictionary
280
     1
281
     1
  3
ACAD_XREC_ROUNDTRIP
360
C19B
  0
DICTIONARY
  5
C198
330
22
100
AcDbDictionary
280
     1
281
     1
  3
ACAD_XREC_ROUNDTRIP
360
C199
  0
IDBUFFER
  5
B675
330
0
100
AcDbIdBuffer
330
26DD
330
9E20
330
AC96
  0
IDBUFFER
  5
B676
330
0
100
AcDbIdBuffer
330
9090
  0
IDBUFFER
  5
B677
330
0
100
AcDbIdBuffer
  0
IDBUFFER
  5
B678
330
0
100
AcDbIdBuffer
330
2A90
330
2AED
330
2B2E
330
2B86
330
9315
330
9368
330
93B0
330
93E0
  0
IDBUFFER
  5
B679
330
0
100
AcDbIdBuffer
  0
IDBUFFER
  5
B67A
330
0
100
AcDbIdBuffer
  0
IDBUFFER
  5
B67C
330
0
100
AcDbIdBuffer
  0
IDBUFFER
  5
B67D
330
0
100
AcDbIdBuffer
  0
XRECORD
  5
C197
102
{ACAD_REACTORS
330
C196
102
}
330
C196
100
AcDbXrecord
280
     1
102
SHADEPLOT
 70
     1
102
SHADEPLOTRESLEVEL
 70
     2
102
SHADEPLOTCUSTOMDPI
 70
   300
  0
XRECORD
  5
C19B
102
{ACAD_REACTORS
330
C19A
102
}
330
C19A
100
AcDbXrecord
280
     1
102
SHADEPLOT
 70
     0
102
SHADEPLOTRESLEVEL
 70
     2
102
SHADEPLOTCUSTOMDPI
 70
   300
  0
XRECORD
  5
C199
102
{ACAD_REACTORS
330
C198
102
}
330
C198
100
AcDbXrecord
280
     1
102
SHADEPLOT
 70
     0
102
SHADEPLOTRESLEVEL
 70
     2
102
SHADEPLOTCUSTOMDPI
 70
   300
  0
ENDSEC
  0
EOF
