  0
SECTION
  2
HEADER
  9
$ACADVER
  1
AC1014
  9
$ACADMAINTVER
 70
     0
  9
$DWGCODEPAGE
  3
ANSI_1250
  9
$INSBASE
 10
0.0
 20
0.0
 30
0.0
  9
$EXTMIN
 10
486.041244
 20
0.0
 30
0.0
  9
$EXTMAX
 10
687.671651
 20
297.0
 30
0.0
  9
$LIMMIN
 10
0.0
 20
0.0
  9
$LIMMAX
 10
420.0
 20
297.0
  9
$ORTHOMODE
 70
     0
  9
$REGENMODE
 70
     1
  9
$FILLMODE
 70
     1
  9
$QTEXTMODE
 70
     0
  9
$MIRRTEXT
 70
     1
  9
$DRAGMODE
 70
     2
  9
$LTSCALE
 40
6.0
  9
$OSMODE
 70
    37
  9
$ATTMODE
 70
     1
  9
$TEXTSIZE
 40
3.5
  9
$TRACEWID
 40
0.05
  9
$TEXTSTYLE
  7
ITALIC
  9
$CLAYER
  8
WYMIARY
  9
$CELTYPE
  6
BYLAYER
  9
$CECOLOR
 62
     3
  9
$CELTSCALE
 40
1.0
  9
$DELOBJ
 70
     1
  9
$DISPSILH
 70
     0
  9
$DIMSCALE
 40
1.0
  9
$DIMASZ
 40
3.5
  9
$DIMEXO
 40
1.5
  9
$DIMDLI
 40
7.0
  9
$DIMRND
 40
0.0
  9
$DIMDLE
 40
0.0
  9
$DIMEXE
 40
1.5
  9
$DIMTP
 40
0.1
  9
$DIMTM
 40
0.0
  9
$DIMTXT
 40
3.6
  9
$DIMCEN
 40
-1.0
  9
$DIMTSZ
 40
0.0
  9
$DIMTOL
 70
     0
  9
$DIMLIM
 70
     0
  9
$DIMTIH
 70
     0
  9
$DIMTOH
 70
     0
  9
$DIMSE1
 70
     0
  9
$DIMSE2
 70
     0
  9
$DIMTAD
 70
     1
  9
$DIMZIN
 70
     0
  9
$DIMBLK
  1

  9
$DIMASO
 70
     1
  9
$DIMSHO
 70
     0
  9
$DIMPOST
  1

  9
$DIMAPOST
  1

  9
$DIMALT
 70
     0
  9
$DIMALTD
 70
     2
  9
$DIMALTF
 40
25.4
  9
$DIMLFAC
 40
1.0
  9
$DIMTOFL
 70
     0
  9
$DIMTVP
 40
0.0
  9
$DIMTIX
 70
     0
  9
$DIMSOXD
 70
     0
  9
$DIMSAH
 70
     0
  9
$DIMBLK1
  1

  9
$DIMBLK2
  1

  9
$DIMSTYLE
  2
STANDARD
  9
$DIMCLRD
 70
     0
  9
$DIMCLRE
 70
     0
  9
$DIMCLRT
 70
     0
  9
$DIMTFAC
 40
1.0
  9
$DIMGAP
 40
1.5
  9
$DIMJUST
 70
     0
  9
$DIMSD1
 70
     0
  9
$DIMSD2
 70
     0
  9
$DIMTOLJ
 70
     1
  9
$DIMTZIN
 70
     0
  9
$DIMALTZ
 70
     0
  9
$DIMALTTZ
 70
     0
  9
$DIMFIT
 70
     3
  9
$DIMUPT
 70
     0
  9
$DIMUNIT
 70
     2
  9
$DIMDEC
 70
     2
  9
$DIMTDEC
 70
     4
  9
$DIMALTU
 70
     2
  9
$DIMALTTD
 70
     2
  9
$DIMTXSTY
  7
STANDARD
  9
$DIMAUNIT
 70
     0
  9
$LUNITS
 70
     2
  9
$LUPREC
 70
     2
  9
$SKETCHINC
 40
0.1
  9
$FILLETRAD
 40
0.1
  9
$AUNITS
 70
     0
  9
$AUPREC
 70
     2
  9
$MENU
  1
ACAD
  9
$ELEVATION
 40
0.0
  9
$PELEVATION
 40
0.0
  9
$THICKNESS
 40
0.0
  9
$LIMCHECK
 70
     0
  9
$BLIPMODE
 70
     0
  9
$CHAMFERA
 40
0.0
  9
$CHAMFERB
 40
0.0
  9
$CHAMFERC
 40
0.0
  9
$CHAMFERD
 40
0.0
  9
$SKPOLY
 70
     0
  9
$TDCREATE
 40
2448721.399136690
  9
$TDUPDATE
 40
2454571.424711088
  9
$TDINDWG
 40
1.5268518056
  9
$TDUSRTIMER
 40
1.5268518056
  9
$USRTIMER
 70
     1
  9
$ANGBASE
 50
0.0
  9
$ANGDIR
 70
     0
  9
$PDMODE
 70
     0
  9
$PDSIZE
 40
0.0
  9
$PLINEWID
 40
0.5
  9
$COORDS
 70
     2
  9
$SPLFRAME
 70
     0
  9
$SPLINETYPE
 70
     6
  9
$SPLINESEGS
 70
     8
  9
$ATTDIA
 70
     0
  9
$ATTREQ
 70
     1
  9
$HANDLING
 70
     1
  9
$HANDSEED
  5
A345
  9
$SURFTAB1
 70
     6
  9
$SURFTAB2
 70
     6
  9
$SURFTYPE
 70
     6
  9
$SURFU
 70
     6
  9
$SURFV
 70
     6
  9
$UCSNAME
  2

  9
$UCSORG
 10
0.0
 20
0.0
 30
0.0
  9
$UCSXDIR
 10
1.0
 20
0.0
 30
0.0
  9
$UCSYDIR
 10
0.0
 20
1.0
 30
0.0
  9
$PUCSNAME
  2

  9
$PUCSORG
 10
0.0
 20
0.0
 30
0.0
  9
$PUCSXDIR
 10
1.0
 20
0.0
 30
0.0
  9
$PUCSYDIR
 10
0.0
 20
1.0
 30
0.0
  9
$USERI1
 70
     0
  9
$USERI2
 70
     0
  9
$USERI3
 70
     0
  9
$USERI4
 70
     0
  9
$USERI5
 70
     0
  9
$USERR1
 40
0.0
  9
$USERR2
 40
0.0
  9
$USERR3
 40
0.0
  9
$USERR4
 40
0.0
  9
$USERR5
 40
0.0
  9
$WORLDVIEW
 70
     1
  9
$SHADEDGE
 70
     3
  9
$SHADEDIF
 70
    70
  9
$TILEMODE
 70
     1
  9
$MAXACTVP
 70
    16
  9
$PINSBASE
 10
0.0
 20
0.0
 30
0.0
  9
$PLIMCHECK
 70
     0
  9
$PEXTMIN
 10
1.000000E+20
 20
1.000000E+20
 30
1.000000E+20
  9
$PEXTMAX
 10
-1.000000E+20
 20
-1.000000E+20
 30
-1.000000E+20
  9
$PLIMMIN
 10
0.0
 20
0.0
  9
$PLIMMAX
 10
12.0
 20
9.0
  9
$UNITMODE
 70
     0
  9
$VISRETAIN
 70
     0
  9
$PLINEGEN
 70
     0
  9
$PSLTSCALE
 70
     0
  9
$TREEDEPTH
 70
  3020
  9
$PICKSTYLE
 70
     1
  9
$CMLSTYLE
  2
STANDARD
  9
$CMLJUST
 70
     0
  9
$CMLSCALE
 40
1.0
  9
$PROXYGRAPHICS
 70
     1
  9
$MEASUREMENT
 70
     0
  0
ENDSEC
  0
SECTION
  2
CLASSES
  0
CLASS
  1
HATCH
  2
AcDbHatch
  3
"ACAD_SEDONA"
 90
        0
280
     0
281
     1
  0
CLASS
  1
LWPOLYLINE
  2
AcDbPolyline
  3
"AutoCAD"
 90
        0
280
     0
281
     1
  0
CLASS
  1
DICTIONARYVAR
  2
AcDbDictionaryVar
  3
"AutoCAD"
 90
        0
280
     0
281
     0
  0
ENDSEC
  0
SECTION
  2
TABLES
  0
TABLE
  2
VPORT
  5
8
100
AcDbSymbolTable
 70
     2
  0
VPORT
  5
A344
100
AcDbSymbolTableRecord
100
AcDbViewportTableRecord
  2
*ACTIVE
 70
     0
 10
0.0
 20
0.0
 11
1.0
 21
1.0
 12
650.145322
 22
148.500001
 13
0.0
 23
0.0
 14
1.0
 24
1.0
 15
5.0
 25
5.0
 16
0.0
 26
0.0
 36
1.0
 17
0.0
 27
0.0
 37
0.0
 40
299.428494
 41
2.008696
 42
50.0
 43
0.0
 44
0.0
 50
0.0
 51
0.0
 71
     0
 72
   100
 73
     1
 74
     0
 75
     0
 76
     0
 77
     0
 78
     0
  0
ENDTAB
  0
TABLE
  2
LTYPE
  5
5
100
AcDbSymbolTable
 70
     5
  0
LTYPE
  5
12
100
AcDbSymbolTableRecord
100
AcDbLinetypeTableRecord
  2
BYBLOCK
 70
     0
  3

 72
    65
 73
     0
 40
0.0
  0
LTYPE
  5
13
100
AcDbSymbolTableRecord
100
AcDbLinetypeTableRecord
  2
BYLAYER
 70
     0
  3

 72
    65
 73
     0
 40
0.0
  0
LTYPE
  5
14
100
AcDbSymbolTableRecord
100
AcDbLinetypeTableRecord
  2
CONTINUOUS
 70
     0
  3
Solid line
 72
    65
 73
     0
 40
0.0
  0
LTYPE
  5
1D
100
AcDbSymbolTableRecord
100
AcDbLinetypeTableRecord
  2
CENTER
 70
     0
  3
____ _ ____ _ ____ _ ____ _ ____ _ ____ _ ____
 72
    65
 73
     4
 40
2.0
 49
1.25
 74
     0
 49
-0.25
 74
     0
 49
0.25
 74
     0
 49
-0.25
 74
     0
  0
LTYPE
  5
1E
100
AcDbSymbolTableRecord
100
AcDbLinetypeTableRecord
  2
HIDDEN
 70
     0
  3
_ _ _ _ _ _ _ _ _ _ _ _ _ _ _ _ _ _ _ _ _ _ _
 72
    65
 73
     2
 40
0.375
 49
0.25
 74
     0
 49
-0.125
 74
     0
  0
LTYPE
  5
7F50
100
AcDbSymbolTableRecord
100
AcDbLinetypeTableRecord
  2
PHANTOM
 70
     0
  3
Phantom ______  __  __  ______  __  __  ______
 72
    65
 73
     6
 40
12.7
 49
6.35
 74
     0
 49
-1.27
 74
     0
 49
1.27
 74
     0
 49
-1.27
 74
     0
 49
1.27
 74
     0
 49
-1.27
 74
     0
  0
LTYPE
  5
8DEB
100
AcDbSymbolTableRecord
100
AcDbLinetypeTableRecord
  2
CENTERX2
 70
     0
  3
Center (2x) ________  __  ________  __  _____
 72
    65
 73
     4
 40
20.32
 49
12.7
 74
     0
 49
-2.54
 74
     0
 49
2.54
 74
     0
 49
-2.54
 74
     0
  0
ENDTAB
  0
TABLE
  2
LAYER
  5
2
100
AcDbSymbolTable
 70
     7
  0
LAYER
  5
F
100
AcDbSymbolTableRecord
100
AcDbLayerTableRecord
  2
0
 70
     0
 62
     7
  6
CONTINUOUS
  0
LAYER
  5
21
100
AcDbSymbolTableRecord
100
AcDbLayerTableRecord
  2
1
 70
     0
 62
     3
  6
CONTINUOUS
  0
LAYER
  5
22
100
AcDbSymbolTableRecord
100
AcDbLayerTableRecord
  2
2
 70
     0
 62
     6
  6
CONTINUOUS
  0
LAYER
  5
24
100
AcDbSymbolTableRecord
100
AcDbLayerTableRecord
  2
OSIE
 70
     0
 62
     2
  6
CENTER
  0
LAYER
  5
25
100
AcDbSymbolTableRecord
100
AcDbLayerTableRecord
  2
WY
 70
     0
 62
     1
  6
CONTINUOUS
  0
LAYER
  5
26
100
AcDbSymbolTableRecord
100
AcDbLayerTableRecord
  2
DEFPOINTS
 70
     0
 62
     7
  6
CONTINUOUS
  0
LAYER
  5
464
100
AcDbSymbolTableRecord
100
AcDbLayerTableRecord
  2
WYMIARY
 70
     0
 62
     1
  6
CONTINUOUS
  0
ENDTAB
  0
TABLE
  2
STYLE
  5
3
100
AcDbSymbolTable
 70
     2
  0
STYLE
  5
10
100
AcDbSymbolTableRecord
100
AcDbTextStyleTableRecord
  2
STANDARD
 70
     0
 40
0.0
 41
1.0
 50
0.0
 71
     0
 42
6.0
  3
txt
  4

  0
STYLE
  5
1C
100
AcDbSymbolTableRecord
100
AcDbTextStyleTableRecord
  2
ITALIC
 70
     0
 40
0.0
 41
1.0
 50
15.0
 71
     0
 42
3.5
  3
simplex
  4

  0
ENDTAB
  0
TABLE
  2
VIEW
  5
6
100
AcDbSymbolTable
 70
     0
  0
ENDTAB
  0
TABLE
  2
UCS
  5
7
100
AcDbSymbolTable
 70
     0
  0
ENDTAB
  0
TABLE
  2
APPID
  5
9
100
AcDbSymbolTable
 70
     1
  0
APPID
  5
11
100
AcDbSymbolTableRecord
100
AcDbRegAppTableRecord
  2
ACAD
 70
     0
  0
ENDTAB
  0
TABLE
  2
DIMSTYLE
  5
A
100
AcDbSymbolTable
 70
     1
  0
DIMSTYLE
105
3B
102
{ACAD_REACTORS
330
94ED
330
9682
330
A31A
102
}
100
AcDbSymbolTableRecord
100
AcDbDimStyleTableRecord
  2
STANDARD
 70
     0
  3

  4

  5

  6

  7

 40
1.0
 41
3.5
 42
1.5
 43
7.0
 44
1.5
 45
0.0
 46
0.0
 47
0.1
 48
0.0
140
3.6
141
-1.0
142
0.0
143
25.4
144
1.0
145
0.0
146
1.0
147
1.5
 71
     0
 72
     0
 73
     0
 74
     0
 75
     0
 76
     0
 77
     1
 78
     0
170
     0
171
     2
172
     0
173
     0
174
     0
175
     0
176
     0
177
     0
178
     0
270
     2
271
     2
272
     4
273
     2
274
     2
340
10
275
     0
280
     0
281
     0
282
     0
283
     1
284
     0
285
     0
286
     0
287
     3
288
     0
  0
ENDTAB
  0
TABLE
  2
BLOCK_RECORD
  5
1
100
AcDbSymbolTable
 70
    10
  0
BLOCK_RECORD
  5
18
100
AcDbSymbolTableRecord
100
AcDbBlockTableRecord
  2
*MODEL_SPACE
  0
BLOCK_RECORD
  5
15
100
AcDbSymbolTableRecord
100
AcDbBlockTableRecord
  2
*PAPER_SPACE
  0
BLOCK_RECORD
  5
5C39
100
AcDbSymbolTableRecord
100
AcDbBlockTableRecord
  2
A$C25565E68
  0
BLOCK_RECORD
  5
5C7E
100
AcDbSymbolTableRecord
100
AcDbBlockTableRecord
  2
A$C43230CC9
  0
BLOCK_RECORD
  5
5C86
100
AcDbSymbolTableRecord
100
AcDbBlockTableRecord
  2
A$C312173AA
  0
BLOCK_RECORD
  5
5C97
100
AcDbSymbolTableRecord
100
AcDbBlockTableRecord
  2
A$C43233A65
  0
BLOCK_RECORD
  5
7F41
100
AcDbSymbolTableRecord
100
AcDbBlockTableRecord
  2
A$C4FFD4CD3
  0
BLOCK_RECORD
  5
7F46
100
AcDbSymbolTableRecord
100
AcDbBlockTableRecord
  2
A$C27900DEC
  0
BLOCK_RECORD
  5
9BD6
100
AcDbSymbolTableRecord
100
AcDbBlockTableRecord
  2
*D6
  0
BLOCK_RECORD
  5
9BEF
100
AcDbSymbolTableRecord
100
AcDbBlockTableRecord
  2
*D7
  0
BLOCK_RECORD
  5
A2F0
100
AcDbSymbolTableRecord
100
AcDbBlockTableRecord
  2
A$C31C51B8C
  0
BLOCK_RECORD
  5
A30D
100
AcDbSymbolTableRecord
100
AcDbBlockTableRecord
  2
*D9
  0
ENDTAB
  0
ENDSEC
  0
SECTION
  2
BLOCKS
  0
BLOCK
  5
29
100
AcDbEntity
  8
0
100
AcDbBlockBegin
  2
*MODEL_SPACE
 70
     0
 10
0.0
 20
0.0
 30
0.0
  3
*MODEL_SPACE
  1

  0
ENDBLK
  5
2A
100
AcDbEntity
  8
0
100
AcDbBlockEnd
  0
BLOCK
  5
27
100
AcDbEntity
 67
     1
  8
0
100
AcDbBlockBegin
  2
*PAPER_SPACE
 70
     0
 10
0.0
 20
0.0
 30
0.0
  3
*PAPER_SPACE
  1

  0
ENDBLK
  5
28
100
AcDbEntity
 67
     1
  8
0
100
AcDbBlockEnd
  0
BLOCK
  5
5C7C
100
AcDbEntity
  8
0
100
AcDbBlockBegin
  2
A$C25565E68
 70
     0
 10
0.0
 20
0.0
 30
0.0
  3
A$C25565E68
  1

  0
LINE
  5
5C3A
100
AcDbEntity
  8
1
100
AcDbLine
 10
5.7
 20
9.950758
 30
0.0
 11
5.7
 21
8.842535
 31
0.0
  0
LINE
  5
5C3B
100
AcDbEntity
  8
1
100
AcDbLine
 10
4.3
 20
9.950758
 30
0.0
 11
4.3
 21
8.842535
 31
0.0
  0
ARC
  5
5C3C
100
AcDbEntity
  8
1
100
AcDbCircle
 10
5.0
 20
5.0
 30
0.0
 40
5.0
100
AcDbArc
 50
0.0
 51
180.0
  0
LINE
  5
5C3D
100
AcDbEntity
  8
OSIE
 48
3.0
100
AcDbLine
 10
2.256298
 20
7.743702
 30
0.0
 11
7.743701
 21
2.256299
 31
0.0
  0
LINE
  5
5C3E
100
AcDbEntity
  8
OSIE
 48
3.0
100
AcDbLine
 10
2.256298
 20
2.256299
 30
0.0
 11
7.743701
 21
7.743702
 31
0.0
  0
LINE
  5
5C3F
100
AcDbEntity
  8
1
100
AcDbLine
 10
3.2
 20
4.23195
 30
0.0
 11
3.945348
 21
3.945349
 31
0.0
  0
LINE
  5
5C40
100
AcDbEntity
  8
1
100
AcDbLine
 10
6.054652
 20
3.945349
 30
0.0
 11
6.81307
 21
4.232682
 31
0.0
  0
LINE
  5
5C41
100
AcDbEntity
  8
1
100
AcDbLine
 10
4.186087
 20
4.186088
 30
0.0
 11
4.52804
 21
3.262976
 31
0.0
  0
LINE
  5
5C42
100
AcDbEntity
  8
1
100
AcDbLine
 10
5.47196
 20
3.262976
 30
0.0
 11
5.813912
 21
4.186088
 31
0.0
  0
ARC
  5
5C43
100
AcDbEntity
  8
1
100
AcDbCircle
 10
5.0
 20
5.0
 30
0.0
 40
5.0
100
AcDbArc
 50
180.0
 51
0.0
  0
ARC
  5
5C44
100
AcDbEntity
  8
1
100
AcDbCircle
 10
5.0
 20
5.0
 30
0.0
 40
1.8
100
AcDbArc
 50
254.79935
 51
285.20065
  0
ARC
  5
5C45
100
AcDbEntity
  8
1
100
AcDbCircle
 10
5.0
 20
5.0
 30
0.0
 40
3.905775
100
AcDbArc
 50
259.675564
 51
280.324436
  0
ARC
  5
5C46
100
AcDbEntity
  8
1
100
AcDbCircle
 10
5.0
 20
5.0
 30
0.0
 40
3.622932
100
AcDbArc
 50
259.351483
 51
280.648517
  0
LINE
  5
5C47
100
AcDbEntity
  8
1
100
AcDbLine
 10
4.52804
 20
3.262976
 30
0.0
 11
4.23195
 21
3.2
 31
0.0
  0
LINE
  5
5C48
100
AcDbEntity
  8
1
100
AcDbLine
 10
4.330541
 20
1.439458
 30
0.0
 11
4.23195
 21
3.2
 31
0.0
  0
LINE
  5
5C49
100
AcDbEntity
  8
1
100
AcDbLine
 10
4.3
 20
0.049243
 30
0.0
 11
4.3
 21
1.157465
 31
0.0
  0
LINE
  5
5C4A
100
AcDbEntity
  8
1
100
AcDbLine
 10
4.3
 20
1.157465
 30
0.0
 11
4.52804
 21
3.262976
 31
0.0
  0
LINE
  5
5C4B
100
AcDbEntity
  8
1
100
AcDbLine
 10
3.945348
 20
3.945349
 30
0.0
 11
4.232681
 21
3.18693
 31
0.0
  0
LINE
  5
5C4C
100
AcDbEntity
  8
1
100
AcDbLine
 10
5.47196
 20
3.262976
 30
0.0
 11
5.76805
 21
3.2
 31
0.0
  0
LINE
  5
5C4D
100
AcDbEntity
  8
1
100
AcDbLine
 10
5.669458
 20
1.439458
 30
0.0
 11
5.76805
 21
3.2
 31
0.0
  0
LINE
  5
5C4E
100
AcDbEntity
  8
1
100
AcDbLine
 10
5.7
 20
0.049243
 30
0.0
 11
5.7
 21
1.157465
 31
0.0
  0
LINE
  5
5C4F
100
AcDbEntity
  8
1
100
AcDbLine
 10
5.7
 20
1.157465
 30
0.0
 11
5.47196
 21
3.262976
 31
0.0
  0
LINE
  5
5C50
100
AcDbEntity
  8
1
100
AcDbLine
 10
5.76805
 20
3.2
 30
0.0
 11
6.054652
 21
3.945349
 31
0.0
  0
ARC
  5
5C51
100
AcDbEntity
  8
1
100
AcDbCircle
 10
5.0
 20
5.0
 30
0.0
 40
3.905775
100
AcDbArc
 50
79.675564
 51
100.324436
  0
ARC
  5
5C52
100
AcDbEntity
  8
1
100
AcDbCircle
 10
5.0
 20
5.0
 30
0.0
 40
3.622932
100
AcDbArc
 50
79.351483
 51
100.648517
  0
ARC
  5
5C53
100
AcDbEntity
  8
1
100
AcDbCircle
 10
5.0
 20
5.0
 30
0.0
 40
1.8
100
AcDbArc
 50
74.79935
 51
105.20065
  0
LINE
  5
5C54
100
AcDbEntity
  8
1
100
AcDbLine
 10
4.52804
 20
6.737025
 30
0.0
 11
4.23195
 21
6.8
 31
0.0
  0
LINE
  5
5C55
100
AcDbEntity
  8
1
100
AcDbLine
 10
4.186087
 20
5.813913
 30
0.0
 11
4.52804
 21
6.737025
 31
0.0
  0
LINE
  5
5C56
100
AcDbEntity
  8
1
100
AcDbLine
 10
4.3
 20
8.842535
 30
0.0
 11
4.52804
 21
6.737025
 31
0.0
  0
LINE
  5
5C57
100
AcDbEntity
  8
1
100
AcDbLine
 10
4.330541
 20
8.560542
 30
0.0
 11
4.23195
 21
6.8
 31
0.0
  0
ARC
  5
5C58
100
AcDbEntity
  8
1
100
AcDbCircle
 10
5.0
 20
5.0
 30
0.0
 40
1.8
100
AcDbArc
 50
164.79935
 51
180.0
  0
LINE
  5
5C59
100
AcDbEntity
  8
1
100
AcDbLine
 10
3.262975
 20
5.471961
 30
0.0
 11
3.2
 21
5.768051
 31
0.0
  0
LINE
  5
5C5A
100
AcDbEntity
  8
1
100
AcDbLine
 10
3.2
 20
5.768051
 30
0.0
 11
3.945348
 21
6.054652
 31
0.0
  0
LINE
  5
5C5B
100
AcDbEntity
  8
1
100
AcDbLine
 10
3.262975
 20
4.52804
 30
0.0
 11
3.2
 21
4.23195
 31
0.0
  0
ARC
  5
5C5C
100
AcDbEntity
  8
1
100
AcDbCircle
 10
5.0
 20
5.0
 30
0.0
 40
1.8
100
AcDbArc
 50
180.0
 51
195.20065
  0
ARC
  5
5C5D
100
AcDbEntity
  8
1
100
AcDbCircle
 10
5.0
 20
5.0
 30
0.0
 40
3.622932
100
AcDbArc
 50
169.351483
 51
180.0
  0
ARC
  5
5C5E
100
AcDbEntity
  8
1
100
AcDbCircle
 10
5.0
 20
5.0
 30
0.0
 40
3.622932
100
AcDbArc
 50
180.0
 51
190.648517
  0
ARC
  5
5C5F
100
AcDbEntity
  8
1
100
AcDbCircle
 10
5.0
 20
5.0
 30
0.0
 40
3.905775
100
AcDbArc
 50
169.675564
 51
180.0
  0
ARC
  5
5C60
100
AcDbEntity
  8
1
100
AcDbCircle
 10
5.0
 20
5.0
 30
0.0
 40
3.905775
100
AcDbArc
 50
180.0
 51
190.324436
  0
LINE
  5
5C61
100
AcDbEntity
  8
1
100
AcDbLine
 10
1.439458
 20
5.669459
 30
0.0
 11
3.2
 21
5.768051
 31
0.0
  0
LINE
  5
5C62
100
AcDbEntity
  8
1
100
AcDbLine
 10
1.157465
 20
5.7
 30
0.0
 11
3.262975
 21
5.471961
 31
0.0
  0
LINE
  5
5C63
100
AcDbEntity
  8
1
100
AcDbLine
 10
1.157465
 20
4.3
 30
0.0
 11
3.262975
 21
4.52804
 31
0.0
  0
LINE
  5
5C64
100
AcDbEntity
  8
1
100
AcDbLine
 10
1.439458
 20
4.330542
 30
0.0
 11
3.2
 21
4.23195
 31
0.0
  0
LINE
  5
5C65
100
AcDbEntity
  8
1
100
AcDbLine
 10
3.262975
 20
5.471961
 30
0.0
 11
4.186087
 21
5.813913
 31
0.0
  0
LINE
  5
5C66
100
AcDbEntity
  8
1
100
AcDbLine
 10
3.262975
 20
4.52804
 30
0.0
 11
4.186087
 21
4.186088
 31
0.0
  0
LINE
  5
5C67
100
AcDbEntity
  8
1
100
AcDbLine
 10
3.945348
 20
6.054652
 30
0.0
 11
4.232681
 21
6.81307
 31
0.0
  0
ARC
  5
5C68
100
AcDbEntity
  8
1
100
AcDbCircle
 10
5.0
 20
5.0
 30
0.0
 40
3.905775
100
AcDbArc
 50
0.0
 51
10.324436
  0
ARC
  5
5C69
100
AcDbEntity
  8
1
100
AcDbCircle
 10
5.0
 20
5.0
 30
0.0
 40
3.622932
100
AcDbArc
 50
0.0
 51
10.648517
  0
ARC
  5
5C6A
100
AcDbEntity
  8
1
100
AcDbCircle
 10
5.0
 20
5.0
 30
0.0
 40
3.905775
100
AcDbArc
 50
349.675564
 51
360.0
  0
ARC
  5
5C6B
100
AcDbEntity
  8
1
100
AcDbCircle
 10
5.0
 20
5.0
 30
0.0
 40
3.622932
100
AcDbArc
 50
349.351483
 51
360.0
  0
LINE
  5
5C6C
100
AcDbEntity
  8
1
100
AcDbLine
 10
6.737024
 20
5.471961
 30
0.0
 11
6.8
 21
5.768051
 31
0.0
  0
ARC
  5
5C6D
100
AcDbEntity
  8
1
100
AcDbCircle
 10
5.0
 20
5.0
 30
0.0
 40
1.8
100
AcDbArc
 50
0.0
 51
15.20065
  0
LINE
  5
5C6E
100
AcDbEntity
  8
1
100
AcDbLine
 10
6.737024
 20
4.52804
 30
0.0
 11
6.8
 21
4.23195
 31
0.0
  0
ARC
  5
5C6F
100
AcDbEntity
  8
1
100
AcDbCircle
 10
5.0
 20
5.0
 30
0.0
 40
1.8
100
AcDbArc
 50
344.79935
 51
360.0
  0
LINE
  5
5C70
100
AcDbEntity
  8
1
100
AcDbLine
 10
8.842535
 20
5.7
 30
0.0
 11
6.737024
 21
5.471961
 31
0.0
  0
LINE
  5
5C71
100
AcDbEntity
  8
1
100
AcDbLine
 10
8.560542
 20
5.669459
 30
0.0
 11
6.8
 21
5.768051
 31
0.0
  0
LINE
  5
5C72
100
AcDbEntity
  8
1
100
AcDbLine
 10
8.560542
 20
4.330542
 30
0.0
 11
6.8
 21
4.23195
 31
0.0
  0
LINE
  5
5C73
100
AcDbEntity
  8
1
100
AcDbLine
 10
8.842535
 20
4.3
 30
0.0
 11
6.737024
 21
4.52804
 31
0.0
  0
LINE
  5
5C74
100
AcDbEntity
  8
1
100
AcDbLine
 10
5.47196
 20
6.737025
 30
0.0
 11
5.76805
 21
6.8
 31
0.0
  0
LINE
  5
5C75
100
AcDbEntity
  8
1
100
AcDbLine
 10
5.76805
 20
6.8
 30
0.0
 11
6.054652
 21
6.054652
 31
0.0
  0
LINE
  5
5C76
100
AcDbEntity
  8
1
100
AcDbLine
 10
5.47196
 20
6.737025
 30
0.0
 11
5.813912
 21
5.813913
 31
0.0
  0
LINE
  5
5C77
100
AcDbEntity
  8
1
100
AcDbLine
 10
6.054652
 20
6.054652
 30
0.0
 11
6.81307
 21
5.767319
 31
0.0
  0
LINE
  5
5C78
100
AcDbEntity
  8
1
100
AcDbLine
 10
5.813912
 20
5.813913
 30
0.0
 11
6.737024
 21
5.471961
 31
0.0
  0
LINE
  5
5C79
100
AcDbEntity
  8
1
100
AcDbLine
 10
5.813912
 20
4.186088
 30
0.0
 11
6.737024
 21
4.52804
 31
0.0
  0
LINE
  5
5C7A
100
AcDbEntity
  8
1
100
AcDbLine
 10
5.7
 20
8.842535
 30
0.0
 11
5.47196
 21
6.737025
 31
0.0
  0
LINE
  5
5C7B
100
AcDbEntity
  8
1
100
AcDbLine
 10
5.669458
 20
8.560542
 30
0.0
 11
5.76805
 21
6.8
 31
0.0
  0
ENDBLK
  5
5C7D
100
AcDbEntity
  8
0
100
AcDbBlockEnd
  0
BLOCK
  5
5C84
100
AcDbEntity
  8
0
100
AcDbBlockBegin
  2
A$C43230CC9
 70
     0
 10
0.0
 20
0.0
 30
0.0
  3
A$C43230CC9
  1

  0
LINE
  5
5C7F
100
AcDbEntity
  8
1
100
AcDbLine
 10
2.328763
 20
0.016703
 30
0.0
 11
0.0
 21
3.926269
 31
0.0
  0
LINE
  5
5C80
100
AcDbEntity
  8
1
100
AcDbLine
 10
2.328763
 20
0.016703
 30
0.0
 11
0.0
 21
3.926269
 31
0.0
  0
HATCH
  5
5C81
100
AcDbEntity
  8
1
100
AcDbHatch
 10
0.0
 20
0.0
 30
0.0
210
0.0
220
0.0
230
1.0
  2
SOLID
 70
     1
 71
     0
 91
        1
 92
        7
 72
     0
 73
     1
 93
        4
 10
0.0052449407473887
 20
3.91746308980305
 10
2.338712431123099
 20
0.0000001106941454
 10
2.356967801253517
 20
0.0000001106941454
 10
4.662984676850214
 20
3.91746308980305
 97
        0
 75
     0
 76
     1
 47
0.057765
 98
        1
 10
2.742519
 20
3.188007
  0
HATCH
  5
5C82
100
AcDbEntity
  8
1
100
AcDbHatch
 10
0.0
 20
0.0
 30
0.0
210
0.0
220
0.0
230
1.0
  2
SOLID
 70
     1
 71
     0
 91
        1
 92
        7
 72
     0
 73
     1
 93
        4
 10
0.0052449407473887
 20
3.91746308980305
 10
2.338712431123099
 20
0.0000001106941454
 10
2.356967801253517
 20
0.0000001106941454
 10
4.662984676850214
 20
3.91746308980305
 97
        0
 75
     0
 76
     1
 47
0.057765
 98
        1
 10
2.742519
 20
3.188007
  0
LINE
  5
5C83
100
AcDbEntity
  8
1
100
AcDbLine
 10
4.657529
 20
0.0
 30
0.0
 11
0.0
 21
0.0
 31
0.0
  0
ENDBLK
  5
5C85
100
AcDbEntity
  8
0
100
AcDbBlockEnd
  0
BLOCK
  5
5C95
100
AcDbEntity
  8
0
100
AcDbBlockBegin
  2
A$C312173AA
 70
     0
 10
0.0
 20
0.0
 30
0.0
  3
A$C312173AA
  1

  0
HATCH
  5
5C87
100
AcDbEntity
  8
1
100
AcDbHatch
 10
0.0
 20
0.0
 30
0.0
210
0.0
220
0.0
230
1.0
  2
SOLID
 70
     1
 71
     1
 91
        1
 92
        7
 72
     0
 73
     1
 93
        4
 10
2.724690422176692
 20
5.013136352600675
 10
5.058157912552374
 20
1.095673373491763
 10
5.076413282682707
 20
1.095673373491756
 10
7.382430158279476
 20
5.013136352600668
 97
        4
330
5C8C
330
5C90
330
5C8B
330
5C8E
 75
     0
 76
     1
 47
0.057765
 98
        1
 10
5.461965
 20
4.283681
  0
HATCH
  5
5C88
100
AcDbEntity
  8
1
100
AcDbHatch
 10
0.0
 20
0.0
 30
0.0
210
0.0
220
0.0
230
1.0
  2
SOLID
 70
     1
 71
     1
 91
        1
 92
        7
 72
     0
 73
     1
 93
        4
 10
2.724690422176692
 20
5.013136352600675
 10
5.058157912552374
 20
1.095673373491763
 10
5.076413282682707
 20
1.095673373491756
 10
7.382430158279476
 20
5.013136352600668
 97
        4
330
5C8A
330
5C8F
330
5C89
330
5C8D
 75
     0
 76
     1
 47
0.057765
 98
        1
 10
5.461965
 20
4.283681
  0
LINE
  5
5C89
102
{ACAD_REACTORS
330
5C88
102
}
100
AcDbEntity
  8
1
100
AcDbLine
 10
7.376974
 20
1.095673
 30
0.0
 11
2.719445
 21
1.095673
 31
0.0
  0
LINE
  5
5C8A
102
{ACAD_REACTORS
330
5C88
102
}
100
AcDbEntity
  8
1
100
AcDbLine
 10
2.716507
 20
5.013136
 30
0.0
 11
7.38243
 21
5.013136
 31
0.0
  0
LINE
  5
5C8B
102
{ACAD_REACTORS
330
5C87
102
}
100
AcDbEntity
  8
1
100
AcDbLine
 10
7.376974
 20
1.095673
 30
0.0
 11
2.719445
 21
1.095673
 31
0.0
  0
LINE
  5
5C8C
102
{ACAD_REACTORS
330
5C87
102
}
100
AcDbEntity
  8
1
100
AcDbLine
 10
2.716507
 20
5.013136
 30
0.0
 11
7.38243
 21
5.013136
 31
0.0
  0
LINE
  5
5C8D
102
{ACAD_REACTORS
330
5C88
102
}
100
AcDbEntity
  8
1
100
AcDbLine
 10
7.38243
 20
5.013136
 30
0.0
 11
5.049469
 21
1.0499
 31
0.0
  0
LINE
  5
5C8E
102
{ACAD_REACTORS
330
5C87
102
}
100
AcDbEntity
  8
1
100
AcDbLine
 10
7.38243
 20
5.013136
 30
0.0
 11
5.049469
 21
1.0499
 31
0.0
  0
LINE
  5
5C8F
102
{ACAD_REACTORS
330
5C88
102
}
100
AcDbEntity
  8
1
100
AcDbLine
 10
5.048209
 20
1.112376
 30
0.0
 11
2.719445
 21
5.021942
 31
0.0
  0
LINE
  5
5C90
102
{ACAD_REACTORS
330
5C87
102
}
100
AcDbEntity
  8
1
100
AcDbLine
 10
5.048209
 20
1.112376
 30
0.0
 11
2.719445
 21
5.021942
 31
0.0
  0
LINE
  5
5C91
100
AcDbEntity
  8
1
100
AcDbLine
 10
3.176777
 20
2.240563
 30
0.0
 11
1.859991
 21
0.714974
 31
0.0
  0
LINE
  5
5C92
100
AcDbEntity
  8
1
100
AcDbLine
 10
1.935572
 20
2.29404
 30
0.0
 11
0.618786
 21
0.768452
 31
0.0
  0
HATCH
  5
5C93
100
AcDbEntity
  8
1
100
AcDbHatch
 10
0.0
 20
0.0
 30
0.0
210
0.0
220
0.0
230
1.0
  2
SOLID
 70
     1
 71
     0
 91
        1
 92
        7
 72
     0
 73
     1
 93
        3
 10
2.13435432304297
 20
0.5079866047149438
 10
1.594971700028992
 20
0.9149117569309055
 10
1.241204476589189
 20
0.0000001052034975
 97
        0
 75
     0
 76
     1
 47
0.009825
 98
        1
 10
1.617082
 20
0.370646
  0
HATCH
  5
5C94
100
AcDbEntity
  8
1
100
AcDbHatch
 10
0.0
 20
0.0
 30
0.0
210
0.0
220
0.0
230
1.0
  2
SOLID
 70
     1
 71
     0
 91
        1
 92
        7
 72
     0
 73
     1
 93
        3
 10
0.8931496793437361
 20
0.5614642425206
 10
0.3537670563297865
 20
0.9683893947365334
 10
-0.0000001671100733
 20
0.0534777430091538
 97
        0
 75
     0
 76
     1
 47
0.009825
 98
        1
 10
0.375878
 20
0.424123
  0
ENDBLK
  5
5C96
100
AcDbEntity
  8
0
100
AcDbBlockEnd
  0
BLOCK
  5
5C99
100
AcDbEntity
  8
0
100
AcDbBlockBegin
  2
A$C43233A65
 70
     0
 10
0.0
 20
0.0
 30
0.0
  3
A$C43233A65
  1

  0
INSERT
  5
5C98
100
AcDbEntity
  8
1
100
AcDbBlockReference
  2
A$C312173AA
 10
0.0
 20
7.38243
 30
0.0
 50
270.0
  0
ENDBLK
  5
5C9A
100
AcDbEntity
  8
0
100
AcDbBlockEnd
  0
BLOCK
  5
7F44
100
AcDbEntity
  8
0
 62
     3
100
AcDbBlockBegin
  2
A$C4FFD4CD3
 70
     0
 10
0.0
 20
0.0
 30
0.0
  3
A$C4FFD4CD3
  1

  0
TEXT
  5
7F42
100
AcDbEntity
  8
WY
 62
     3
100
AcDbText
 10
-0.076556
 20
3.955463
 30
0.0
 40
2.0
  1
Sposób podłączenia obciążenia - GZT80
 51
15.0
  7
ITALIC
100
AcDbText
  0
TEXT
  5
7F43
100
AcDbEntity
  8
WY
 62
     3
100
AcDbText
 10
-0.076556
 20
0.0
 30
0.0
 40
2.0
  1
Connection of GZT80
 51
15.0
  7
ITALIC
100
AcDbText
  0
ENDBLK
  5
7F45
100
AcDbEntity
  8
0
 62
     3
100
AcDbBlockEnd
  0
BLOCK
  5
7F4E
100
AcDbEntity
  8
0
 62
     3
100
AcDbBlockBegin
  2
A$C27900DEC
 70
     0
 10
0.0
 20
0.0
 30
0.0
  3
A$C27900DEC
  1

  0
TEXT
  5
7F47
100
AcDbEntity
  8
WY
 62
     3
100
AcDbText
 10
0.0
 20
22.477092
 30
0.0
 40
2.0
  1
Note: loads up to 12A
 51
15.0
  7
ITALIC
100
AcDbText
  0
TEXT
  5
7F48
100
AcDbEntity
  8
WY
 62
     3
100
AcDbText
 10
0.0
 20
3.746182
 30
0.0
 40
2.0
  1
11 with 21, 12 with 22,
 51
15.0
  7
ITALIC
100
AcDbText
  0
TEXT
  5
7F49
100
AcDbEntity
  8
WY
 62
     3
100
AcDbText
 10
0.0
 20
7.492364
 30
0.0
 40
2.0
  1
bridging pairs of terminals:
 51
15.0
  7
ITALIC
100
AcDbText
  0
TEXT
  5
7F4A
100
AcDbEntity
  8
WY
 62
     3
100
AcDbText
 10
0.0
 20
11.238546
 30
0.0
 40
2.0
  1
Loads above 12 A require
 51
15.0
  7
ITALIC
100
AcDbText
  0
TEXT
  5
7F4B
100
AcDbEntity
  8
WY
 62
     3
100
AcDbText
 10
0.0
 20
14.984728
 30
0.0
 40
2.0
  1
of cammon terminals.
 51
15.0
  7
ITALIC
100
AcDbText
  0
TEXT
  5
7F4C
100
AcDbEntity
  8
WY
 62
     3
100
AcDbText
 10
0.0
 20
18.73091
 30
0.0
 40
2.0
  1
do not require bridging
 51
15.0
  7
ITALIC
100
AcDbText
  0
TEXT
  5
7F4D
100
AcDbEntity
  8
WY
 62
     3
100
AcDbText
 10
0.0
 20
0.0
 30
0.0
 40
2.0
  1
14 with 24.
 51
15.0
  7
ITALIC
100
AcDbText
  0
ENDBLK
  5
7F4F
100
AcDbEntity
  8
0
 62
     3
100
AcDbBlockEnd
  0
BLOCK
  5
9C67
100
AcDbEntity
  8
0
100
AcDbBlockBegin
  2
*D6
 70
     1
 10
0.0
 20
0.0
 30
0.0
  3
*D6
  1

  0
LINE
  5
9C68
100
AcDbEntity
  8
0
  6
BYBLOCK
 62
     0
100
AcDbLine
 10
537.435024
 20
98.001814
 30
0.0
 11
537.435024
 21
82.582674
 31
0.0
  0
LINE
  5
9C69
100
AcDbEntity
  8
0
  6
BYBLOCK
 62
     0
100
AcDbLine
 10
612.735024
 20
98.001814
 30
0.0
 11
612.735024
 21
82.582674
 31
0.0
  0
LINE
  5
9C6A
100
AcDbEntity
  8
0
  6
BYBLOCK
 62
     0
100
AcDbLine
 10
540.935024
 20
84.082674
 30
0.0
 11
609.235024
 21
84.082674
 31
0.0
  0
SOLID
  5
9C6B
100
AcDbEntity
  8
0
  6
BYBLOCK
 62
     0
100
AcDbTrace
 10
540.935024
 20
84.666007
 30
0.0
 11
540.935024
 21
83.49934
 31
0.0
 12
537.435024
 22
84.082674
 32
0.0
 13
537.435024
 23
84.082674
 33
0.0
  0
SOLID
  5
9C6C
100
AcDbEntity
  8
0
  6
BYBLOCK
 62
     0
100
AcDbTrace
 10
609.235024
 20
84.666007
 30
0.0
 11
609.235024
 21
83.49934
 31
0.0
 12
612.735024
 22
84.082674
 32
0.0
 13
612.735024
 23
84.082674
 33
0.0
  0
MTEXT
  5
9C6D
100
AcDbEntity
  8
0
  6
BYBLOCK
 62
     0
100
AcDbMText
 10
575.085024
 20
87.382674
 30
0.0
 40
3.6
 41
0.0
 71
     5
 72
     1
  1
\A1;75.3
  0
POINT
  5
9C6E
100
AcDbEntity
  8
DEFPOINTS
  6
BYBLOCK
 62
     0
100
AcDbPoint
 10
537.435024
 20
99.501814
 30
0.0
  0
POINT
  5
9C6F
100
AcDbEntity
  8
DEFPOINTS
  6
BYBLOCK
 62
     0
100
AcDbPoint
 10
612.735024
 20
99.501814
 30
0.0
  0
POINT
  5
9C70
100
AcDbEntity
  8
DEFPOINTS
  6
BYBLOCK
 62
     0
100
AcDbPoint
 10
612.735024
 20
84.082674
 30
0.0
  0
ENDBLK
  5
9C71
100
AcDbEntity
  8
0
100
AcDbBlockEnd
  0
BLOCK
  5
9C7E
100
AcDbEntity
  8
0
100
AcDbBlockBegin
  2
*D7
 70
     1
 10
0.0
 20
0.0
 30
0.0
  3
*D7
  1

  0
LINE
  5
9C7F
100
AcDbEntity
  8
0
  6
BYBLOCK
 62
     0
100
AcDbLine
 10
613.46192
 20
99.101814
 30
0.0
 11
624.185809
 21
99.101814
 31
0.0
  0
LINE
  5
9C80
100
AcDbEntity
  8
0
  6
BYBLOCK
 62
     0
100
AcDbLine
 10
613.46192
 20
114.57926
 30
0.0
 11
624.185809
 21
114.57926
 31
0.0
  0
LINE
  5
9C81
100
AcDbEntity
  8
0
  6
BYBLOCK
 62
     0
100
AcDbLine
 10
622.685809
 20
102.601814
 30
0.0
 11
622.685809
 21
111.07926
 31
0.0
  0
SOLID
  5
9C82
100
AcDbEntity
  8
0
  6
BYBLOCK
 62
     0
100
AcDbTrace
 10
622.102476
 20
102.601814
 30
0.0
 11
623.269142
 21
102.601814
 31
0.0
 12
622.685809
 22
99.101814
 32
0.0
 13
622.685809
 23
99.101814
 33
0.0
  0
SOLID
  5
9C83
100
AcDbEntity
  8
0
  6
BYBLOCK
 62
     0
100
AcDbTrace
 10
622.102476
 20
111.07926
 30
0.0
 11
623.269142
 21
111.07926
 31
0.0
 12
622.685809
 22
114.57926
 32
0.0
 13
622.685809
 23
114.57926
 33
0.0
  0
MTEXT
  5
9C84
100
AcDbEntity
  8
0
  6
BYBLOCK
 62
     0
100
AcDbMText
 10
619.385809
 20
106.840537
 30
0.0
 40
3.6
 41
0.0
 71
     5
 72
     1
  1
\A1;15.5
 11
0.0
 21
1.0
 31
0.0
  0
POINT
  5
9C85
100
AcDbEntity
  8
DEFPOINTS
  6
BYBLOCK
 62
     0
100
AcDbPoint
 10
611.96192
 20
99.101814
 30
0.0
  0
POINT
  5
9C86
100
AcDbEntity
  8
DEFPOINTS
  6
BYBLOCK
 62
     0
100
AcDbPoint
 10
611.96192
 20
114.57926
 30
0.0
  0
POINT
  5
9C87
100
AcDbEntity
  8
DEFPOINTS
  6
BYBLOCK
 62
     0
100
AcDbPoint
 10
622.685809
 20
114.57926
 30
0.0
  0
ENDBLK
  5
9C88
100
AcDbEntity
  8
0
100
AcDbBlockEnd
  0
BLOCK
  5
A2F2
100
AcDbEntity
  8
0
 62
     3
100
AcDbBlockBegin
  2
A$C31C51B8C
 70
     0
 10
0.0
 20
0.0
 30
0.0
  3
A$C31C51B8C
  1

  0
TEXT
  5
A2F1
100
AcDbEntity
  8
1
100
AcDbText
 10
-0.153114
 20
1.333334
 30
0.0
 40
4.0
  1
Schematy połączeń / Connections diagrams
 41
0.7
 51
15.0
  7
ITALIC
100
AcDbText
  0
ENDBLK
  5
A2F3
100
AcDbEntity
  8
0
 62
     3
100
AcDbBlockEnd
  0
BLOCK
  5
A31B
100
AcDbEntity
  8
0
100
AcDbBlockBegin
  2
*D9
 70
     1
 10
0.0
 20
0.0
 30
0.0
  3
*D9
  1

  0
LINE
  5
A31C
100
AcDbEntity
  8
0
  6
BYBLOCK
 62
     0
100
AcDbLine
 10
540.935024
 20
110.601814
 30
0.0
 11
531.175935
 21
110.601814
 31
0.0
  0
LINE
  5
A31D
100
AcDbEntity
  8
0
  6
BYBLOCK
 62
     0
100
AcDbLine
 10
540.935024
 20
103.101814
 30
0.0
 11
531.175935
 21
103.101814
 31
0.0
  0
LINE
  5
A31E
100
AcDbEntity
  8
0
  6
BYBLOCK
 62
     0
100
AcDbLine
 10
532.675935
 20
114.101814
 30
0.0
 11
532.675935
 21
117.601814
 31
0.0
  0
LINE
  5
A31F
100
AcDbEntity
  8
0
  6
BYBLOCK
 62
     0
100
AcDbLine
 10
532.675935
 20
99.601814
 30
0.0
 11
532.675935
 21
82.901814
 31
0.0
  0
SOLID
  5
A320
100
AcDbEntity
  8
0
  6
BYBLOCK
 62
     0
100
AcDbTrace
 10
532.092601
 20
114.101814
 30
0.0
 11
533.259268
 21
114.101814
 31
0.0
 12
532.675935
 22
110.601814
 32
0.0
 13
532.675935
 23
110.601814
 33
0.0
  0
SOLID
  5
A321
100
AcDbEntity
  8
0
  6
BYBLOCK
 62
     0
100
AcDbTrace
 10
532.092601
 20
99.601814
 30
0.0
 11
533.259268
 21
99.601814
 31
0.0
 12
532.675935
 22
103.101814
 32
0.0
 13
532.675935
 23
103.101814
 33
0.0
  0
MTEXT
  5
A322
100
AcDbEntity
  8
0
  6
BYBLOCK
 62
     0
100
AcDbMText
 10
529.375935
 20
89.501814
 30
0.0
 40
3.6
 41
0.0
 71
     5
 72
     1
  1
\A1;7.50
 11
0.0
 21
1.0
 31
0.0
  0
POINT
  5
A323
100
AcDbEntity
  8
DEFPOINTS
  6
BYBLOCK
 62
     0
100
AcDbPoint
 10
542.435024
 20
110.601814
 30
0.0
  0
POINT
  5
A324
100
AcDbEntity
  8
DEFPOINTS
  6
BYBLOCK
 62
     0
100
AcDbPoint
 10
542.435024
 20
103.101814
 30
0.0
  0
POINT
  5
A325
100
AcDbEntity
  8
DEFPOINTS
  6
BYBLOCK
 62
     0
100
AcDbPoint
 10
532.675935
 20
103.101814
 30
0.0
  0
ENDBLK
  5
A326
100
AcDbEntity
  8
0
100
AcDbBlockEnd
  0
ENDSEC
  0
SECTION
  2
ENTITIES
  0
LINE
  5
2D2D
100
AcDbEntity
  8
WYMIARY
 62
     6
100
AcDbLine
 10
486.041244
 20
0.0
 30
0.0
 11
486.041244
 21
297.0
 31
0.0
  0
LINE
  5
2D2E
100
AcDbEntity
  8
WYMIARY
 62
     6
100
AcDbLine
 10
497.671651
 20
292.0
 30
0.0
 11
497.671651
 21
5.0
 31
0.0
  0
LINE
  5
2D34
100
AcDbEntity
  8
2
100
AcDbLine
 10
682.671651
 20
5.0
 30
0.0
 11
682.671651
 21
292.0
 31
0.0
  0
LINE
  5
2D35
100
AcDbEntity
  8
2
100
AcDbLine
 10
687.671651
 20
0.0
 30
0.0
 11
687.671651
 21
297.0
 31
0.0
  0
LINE
  5
2D36
100
AcDbEntity
  8
WY
  6
CONTINUOUS
 62
     3
100
AcDbLine
 10
682.671651
 20
19.689837
 30
0.0
 11
497.671651
 21
19.689837
 31
0.0
  0
LINE
  5
2D38
100
AcDbEntity
  8
2
100
AcDbLine
 10
497.671651
 20
5.0
 30
0.0
 11
682.671651
 21
5.0
 31
0.0
  0
LINE
  5
2D39
100
AcDbEntity
  8
2
 62
     6
100
AcDbLine
 10
497.671651
 20
0.0
 30
0.0
 11
687.671651
 21
0.0
 31
0.0
  0
LINE
  5
2D3A
100
AcDbEntity
  8
0
100
AcDbLine
 10
529.697667
 20
11.742481
 30
0.0
 11
528.795256
 21
11.742481
 31
0.0
1001
ACAD
1000
ASC_BOUNDS
1002
{
1070
    19
1002
}
  0
ELLIPSE
  5
2D3B
100
AcDbEntity
  8
0
100
AcDbEllipse
 10
529.697667
 20
11.742481
 30
0.0
 11
-1.203215696869327
 21
0.0000000000001967
 31
0.0
210
0.0
220
0.0
230
1.0
 40
0.958812
 41
-1.570796326794739
 42
0.0000000000001705
1001
ACAD
1000
ASC_BOUNDS
1002
{
1070
    19
1002
}
  0
TEXT
  5
2D3D
100
AcDbEntity
  8
1
100
AcDbText
 10
515.607578
 20
8.797457
 30
0.0
 40
5.0
  1
A4
 51
15.0
  7
ITALIC
100
AcDbText
  0
LINE
  5
2D40
100
AcDbEntity
  8
WYMIARY
 62
     6
100
AcDbLine
 10
497.671651
 20
0.0
 30
0.0
 11
486.041244
 21
0.0
 31
0.0
  0
TEXT
  5
2D42
100
AcDbEntity
  8
WY
100
AcDbText
 10
502.936765
 20
16.373844
 30
0.0
 40
2.0
  1
Skala
 51
15.0
  7
ITALIC
100
AcDbText
  0
TEXT
  5
2D43
100
AcDbEntity
  8
WY
100
AcDbText
 10
515.042219
 20
16.329369
 30
0.0
 40
2.0
  1
Format
 51
15.0
  7
ITALIC
100
AcDbText
  0
LINE
  5
2D44
100
AcDbEntity
  8
0
100
AcDbLine
 10
528.494452
 20
11.742481
 30
0.0
 11
528.795256
 21
11.742481
 31
0.0
1001
ACAD
1000
ASC_BOUNDS
1002
{
1070
    19
1002
}
  0
LINE
  5
2D45
100
AcDbEntity
  8
0
100
AcDbLine
 10
559.88722
 20
17.211264
 30
0.0
 11
559.88722
 21
9.015264
 31
0.0
  0
LINE
  5
2D46
100
AcDbEntity
  8
0
100
AcDbLine
 10
550.89322
 20
9.438264
 30
0.0
 11
550.89322
 21
7.416264
 31
0.0
  0
ARC
  5
2D47
100
AcDbEntity
  8
0
100
AcDbCircle
 10
551.5428
 20
9.724764
 30
0.0
 40
0.709955
100
AcDbArc
 50
203.80008
 51
272.051918
  0
LINE
  5
2D48
100
AcDbEntity
  8
0
100
AcDbLine
 10
549.34822
 20
7.416264
 30
0.0
 11
549.34822
 21
15.612264
 31
0.0
  0
ARC
  5
2D49
100
AcDbEntity
  8
0
100
AcDbCircle
 10
551.982126
 20
10.136416
 30
0.0
 40
1.128907
100
AcDbArc
 50
276.719576
 51
2.175194
  0
ARC
  5
2D4A
100
AcDbEntity
  8
0
100
AcDbCircle
 10
555.243059
 20
10.503572
 30
0.0
 40
1.488419
100
AcDbArc
 50
191.634268
 51
270.699113
  0
ARC
  5
2D4B
100
AcDbEntity
  8
0
100
AcDbCircle
 10
556.209381
 20
10.503572
 30
0.0
 40
1.488419
100
AcDbArc
 50
269.300887
 51
348.365732
  0
LINE
  5
2D4C
100
AcDbEntity
  8
0
100
AcDbLine
 10
558.34222
 20
9.015264
 30
0.0
 11
558.34222
 21
17.211264
 31
0.0
  0
ARC
  5
2D4D
100
AcDbEntity
  8
0
100
AcDbCircle
 10
545.056591
 20
10.472364
 30
0.0
 40
1.425319
100
AcDbArc
 50
269.703671
 51
350.465171
  0
ARC
  5
2D4E
100
AcDbEntity
  8
0
100
AcDbCircle
 10
544.201848
 20
10.472364
 30
0.0
 40
1.425319
100
AcDbArc
 50
189.534829
 51
270.296329
  0
LINE
  5
2D4F
100
AcDbEntity
  8
0
100
AcDbLine
 10
547.14922
 20
9.015264
 30
0.0
 11
547.14922
 21
17.211264
 31
0.0
  0
LINE
  5
2D50
100
AcDbEntity
  8
0
100
AcDbLine
 10
548.69422
 20
17.211264
 30
0.0
 11
548.69422
 21
9.015264
 31
0.0
  0
LINE
  5
2D51
100
AcDbEntity
  8
0
100
AcDbLine
 10
539.892236
 20
14.361264
 30
0.0
 11
539.903809
 21
9.015264
 31
0.0
  0
LINE
  5
2D52
100
AcDbEntity
  8
0
100
AcDbLine
 10
538.361694
 20
9.015264
 30
0.0
 11
538.361694
 21
15.60367
 31
0.0
1001
ACAD
1000
ASC_BOUNDS
1002
{
1070
    19
1002
}
  0
LINE
  5
2D53
100
AcDbEntity
  8
0
100
AcDbLine
 10
529.697667
 20
9.895061
 30
0.0
 11
529.697667
 21
8.185369
 31
0.0
1001
ACAD
1000
ASC_BOUNDS
1002
{
1070
    19
1002
}
  0
LINE
  5
2D54
100
AcDbEntity
  8
0
100
AcDbLine
 10
535.613478
 20
8.185369
 30
0.0
 11
535.613478
 21
11.742481
 31
0.0
1001
ACAD
1000
ASC_BOUNDS
1002
{
1070
    19
1002
}
  0
LINE
  5
2D55
100
AcDbEntity
  8
1
100
AcDbLine
 10
563.469863
 20
5.0
 30
0.0
 11
563.469863
 21
19.689837
 31
0.0
  0
LINE
  5
2D56
100
AcDbEntity
  8
0
100
AcDbLine
 10
530.499811
 20
7.416263
 30
0.0
 11
534.811334
 21
7.416263
 31
0.0
1001
ACAD
1000
ASC_BOUNDS
1002
{
1070
    19
1002
}
  0
ELLIPSE
  5
2D57
100
AcDbEntity
  8
0
100
AcDbEllipse
 10
530.499811
 20
8.185369
 30
0.0
 11
-0.8021437979128705
 21
0.0000000000000154
 31
0.0
210
0.0
220
0.0
230
1.0
 40
0.958812
 41
0.00000000000002
 42
1.570796326794914
1001
ACAD
1000
ASC_BOUNDS
1002
{
1070
    19
1002
}
  0
ELLIPSE
  5
2D58
100
AcDbEntity
  8
0
100
AcDbEllipse
 10
534.811334
 20
8.185369
 30
0.0
 11
0.8021437979128704
 21
0.0000000000001602
 31
0.0
210
0.0
220
0.0
230
1.0
 40
0.958812
 41
4.712388980384497
 42
6.283185307179378
1001
ACAD
1000
ASC_BOUNDS
1002
{
1070
    19
1002
}
  0
LINE
  5
2D59
100
AcDbEntity
  8
0
100
AcDbLine
 10
539.892236
 20
9.015264
 30
0.0
 11
539.903809
 21
9.022759
 31
0.0
  0
LINE
  5
2D5A
100
AcDbEntity
  8
0
100
AcDbLine
 10
538.361694
 20
9.015264
 30
0.0
 11
539.903809
 21
9.015264
 31
0.0
1001
ACAD
1000
ASC_BOUNDS
1002
{
1070
    19
1002
}
  0
LINE
  5
2D5B
100
AcDbEntity
  8
0
100
AcDbLine
 10
544.194477
 20
9.047064
 30
0.0
 11
545.04922
 21
9.047064
 31
0.0
  0
LINE
  5
2D5C
100
AcDbEntity
  8
0
100
AcDbLine
 10
550.89322
 20
7.416264
 30
0.0
 11
549.34822
 21
7.416264
 31
0.0
  0
LINE
  5
2D5D
100
AcDbEntity
  8
0
100
AcDbLine
 10
548.69422
 20
9.015264
 30
0.0
 11
547.14922
 21
9.015264
 31
0.0
  0
LINE
  5
2D5E
100
AcDbEntity
  8
0
100
AcDbLine
 10
551.576266
 20
9.015264
 30
0.0
 11
552.11422
 21
9.015264
 31
0.0
  0
LINE
  5
2D5F
100
AcDbEntity
  8
0
100
AcDbLine
 10
555.26122
 20
9.015264
 30
0.0
 11
556.19122
 21
9.015264
 31
0.0
  0
LINE
  5
2D60
100
AcDbEntity
  8
0
100
AcDbLine
 10
559.88722
 20
9.015264
 30
0.0
 11
558.34222
 21
9.015264
 31
0.0
  0
ARC
  5
2D61
100
AcDbEntity
  8
0
100
AcDbCircle
 10
545.056591
 20
14.17837
 30
0.0
 40
1.425319
100
AcDbArc
 50
9.534829
 51
90.296329
  0
LINE
  5
2D62
100
AcDbEntity
  8
0
100
AcDbLine
 10
546.46222
 20
11.81167
 30
0.0
 11
544.33822
 21
11.81167
 31
0.0
  0
LINE
  5
2D63
100
AcDbEntity
  8
0
100
AcDbLine
 10
545.01322
 20
11.13667
 30
0.0
 11
546.46222
 21
11.13667
 31
0.0
  0
LINE
  5
2D64
100
AcDbEntity
  8
0
100
AcDbLine
 10
529.697667
 20
13.461283
 30
0.0
 11
529.697667
 21
16.260974
 31
0.0
1001
ACAD
1000
ASC_BOUNDS
1002
{
1070
    19
1002
}
  0
ELLIPSE
  5
2D65
100
AcDbEntity
  8
0
100
AcDbEllipse
 10
532.630506
 20
15.17942
 30
0.0
 11
2.983077570132104
 21
0.0000000000002996
 31
0.0
210
0.0
220
0.0
230
1.0
 40
0.958812
 41
-1.562393163247347
 42
0.0084031635475457
1001
ACAD
1000
ASC_BOUNDS
1002
{
1070
    19
1002
}
  0
ELLIPSE
  5
2D66
100
AcDbEntity
  8
0
100
AcDbEllipse
 10
532.58733
 20
15.509539
 30
0.0
 11
-4.072692107280919
 21
0.0000000000000925
 31
0.0
210
0.0
220
0.0
230
1.0
 40
0.958812
 41
1.587553347046634
 42
2.408388587343224
1001
ACAD
1000
ASC_BOUNDS
1002
{
1070
    19
1002
}
  0
LINE
  5
2D67
100
AcDbEntity
  8
0
100
AcDbLine
 10
529.697667
 20
11.742481
 30
0.0
 11
529.697667
 21
11.034514
 31
0.0
1001
ACAD
1000
ASC_BOUNDS
1002
{
1070
    19
1002
}
  0
LINE
  5
2D68
100
AcDbEntity
  8
0
100
AcDbLine
 10
529.697667
 20
13.461283
 30
0.0
 11
529.697667
 21
12.896138
 31
0.0
1001
ACAD
1000
ASC_BOUNDS
1002
{
1070
    19
1002
}
  0
ELLIPSE
  5
2D69
100
AcDbEntity
  8
0
100
AcDbEllipse
 10
532.249598
 20
9.872487
 30
0.0
 11
2.960559210508897
 21
0.3570763225581005
 31
0.0
210
0.0
220
0.0
230
1.0
 40
0.820999
 41
1.335209029023201
 42
2.503032872947537
1001
ACAD
1000
ASC_BOUNDS
1002
{
1070
    19
1002
}
  0
ELLIPSE
  5
2D6A
100
AcDbEntity
  8
0
100
AcDbEllipse
 10
532.480104
 20
8.937306
 30
0.0
 11
3.015746449176212
 21
0.7746519372140012
 31
0.0
210
0.0
220
0.0
230
1.0
 40
0.846775
 41
1.29973646820557
 42
2.479974117225238
1001
ACAD
1000
ASC_BOUNDS
1002
{
1070
    19
1002
}
  0
LINE
  5
2D6B
100
AcDbEntity
  8
0
100
AcDbLine
 10
536.816694
 20
12.896138
 30
0.0
 11
536.51589
 21
12.896138
 31
0.0
1001
ACAD
1000
ASC_BOUNDS
1002
{
1070
    19
1002
}
  0
LINE
  5
2D6C
100
AcDbEntity
  8
0
100
AcDbLine
 10
535.613478
 20
12.896138
 30
0.0
 11
536.51589
 21
12.896138
 31
0.0
1001
ACAD
1000
ASC_BOUNDS
1002
{
1070
    19
1002
}
  0
ELLIPSE
  5
2D6D
100
AcDbEntity
  8
0
100
AcDbEllipse
 10
535.613478
 20
12.896138
 30
0.0
 11
1.203215696869352
 21
0.0000000000000893
 31
0.0
210
0.0
220
0.0
230
1.0
 40
0.958812
 41
4.712388980384611
 42
6.283185307179508
1001
ACAD
1000
ASC_BOUNDS
1002
{
1070
    19
1002
}
  0
LINE
  5
2D6E
100
AcDbEntity
  8
0
100
AcDbLine
 10
530.499811
 20
17.030079
 30
0.0
 11
534.811334
 21
17.030079
 31
0.0
  0
ELLIPSE
  5
2D6F
100
AcDbEntity
  8
0
100
AcDbEllipse
 10
530.499811
 20
16.260974
 30
0.0
 11
0.8021437979128704
 21
0.000000000000038
 31
0.0
210
0.0
220
0.0
230
1.0
 40
0.958812
 41
1.570796326794851
 42
3.141592653589743
1001
ACAD
1000
ASC_BOUNDS
1002
{
1070
    19
1002
}
  0
LINE
  5
2D70
100
AcDbEntity
  8
0
100
AcDbLine
 10
535.613478
 20
15.155385
 30
0.0
 11
535.613478
 21
16.260974
 31
0.0
1001
ACAD
1000
ASC_BOUNDS
1002
{
1070
    19
1002
}
  0
ELLIPSE
  5
2D71
100
AcDbEntity
  8
0
100
AcDbEllipse
 10
534.811334
 20
16.260974
 30
0.0
 11
-0.8021437979128705
 21
0.000000000000038
 31
0.0
210
0.0
220
0.0
230
1.0
 40
0.958812
 41
3.141592653589842
 42
4.712388980384734
1001
ACAD
1000
ASC_BOUNDS
1002
{
1070
    19
1002
}
  0
ARC
  5
2D72
100
AcDbEntity
  8
0
100
AcDbCircle
 10
540.798894
 20
14.34127
 30
0.0
 40
1.377457
100
AcDbArc
 50
16.265061
 51
130.527299
  0
ARC
  5
2D73
100
AcDbEntity
  8
0
100
AcDbCircle
 10
544.201848
 20
14.17837
 30
0.0
 40
1.425319
100
AcDbArc
 50
89.703671
 51
170.465171
  0
LINE
  5
2D74
100
AcDbEntity
  8
0
100
AcDbLine
 10
540.911147
 20
12.93607
 30
0.0
 11
542.12122
 21
12.93607
 31
0.0
  0
LINE
  5
2D75
100
AcDbEntity
  8
0
100
AcDbLine
 10
540.578809
 20
12.93607
 30
0.0
 11
542.12122
 21
12.93607
 31
0.0
  0
ARC
  5
2D76
100
AcDbEntity
  8
0
100
AcDbCircle
 10
540.229736
 20
14.361264
 30
0.0
 40
0.3375
100
AcDbArc
 50
360.0
 51
180.0
  0
LINE
  5
2D77
100
AcDbEntity
  8
0
100
AcDbLine
 10
540.567236
 20
14.361264
 30
0.0
 11
540.578809
 21
12.93607
 31
0.0
  0
ARC
  5
2D78
100
AcDbEntity
  8
0
100
AcDbCircle
 10
544.67572
 20
14.361264
 30
0.0
 40
0.3375
100
AcDbArc
 50
360.0
 51
180.0
  0
LINE
  5
2D79
100
AcDbEntity
  8
0
100
AcDbLine
 10
544.33822
 20
11.81167
 30
0.0
 11
544.33822
 21
10.236264
 31
0.0
  0
LINE
  5
2D7A
100
AcDbEntity
  8
0
100
AcDbLine
 10
544.33822
 20
12.71167
 30
0.0
 11
545.01322
 21
12.71167
 31
0.0
  0
LINE
  5
2D7B
100
AcDbEntity
  8
0
100
AcDbLine
 10
545.01322
 20
11.13667
 30
0.0
 11
545.01322
 21
10.252764
 31
0.0
  0
LINE
  5
2D7C
100
AcDbEntity
  8
0
100
AcDbLine
 10
544.33822
 20
11.81167
 30
0.0
 11
544.33822
 21
10.252764
 31
0.0
  0
ARC
  5
2D7D
100
AcDbEntity
  8
0
100
AcDbCircle
 10
544.67572
 20
10.252764
 30
0.0
 40
0.3375
100
AcDbArc
 50
180.0
 51
0.0
  0
LINE
  5
2D7E
100
AcDbEntity
  8
0
100
AcDbLine
 10
545.01322
 20
14.361264
 30
0.0
 11
545.01322
 21
12.71167
 31
0.0
  0
LINE
  5
2D7F
100
AcDbEntity
  8
0
100
AcDbLine
 10
544.33822
 20
14.361264
 30
0.0
 11
544.33822
 21
12.71167
 31
0.0
  0
LINE
  5
2D80
100
AcDbEntity
  8
0
100
AcDbLine
 10
542.12122
 20
12.93607
 30
0.0
 11
542.12122
 21
14.72707
 31
0.0
1001
ACAD
1000
ASC_BOUNDS
1002
{
1070
    19
1002
}
  0
LINE
  5
2D81
100
AcDbEntity
  8
0
100
AcDbLine
 10
542.79622
 20
10.236264
 30
0.0
 11
542.79622
 21
14.41447
 31
0.0
  0
LINE
  5
2D82
100
AcDbEntity
  8
0
100
AcDbLine
 10
539.903809
 20
15.60367
 30
0.0
 11
539.903809
 21
15.38827
 31
0.0
  0
LINE
  5
2D83
100
AcDbEntity
  8
0
100
AcDbLine
 10
538.361694
 20
15.60367
 30
0.0
 11
539.903809
 21
15.60367
 31
0.0
1001
ACAD
1000
ASC_BOUNDS
1002
{
1070
    19
1002
}
  0
LINE
  5
2D84
100
AcDbEntity
  8
0
100
AcDbLine
 10
544.194477
 20
15.60367
 30
0.0
 11
545.04922
 21
15.60367
 31
0.0
  0
ARC
  5
2D85
100
AcDbEntity
  8
0
100
AcDbCircle
 10
555.243059
 20
14.124104
 30
0.0
 40
1.488419
100
AcDbArc
 50
89.300887
 51
168.365732
  0
ARC
  5
2D86
100
AcDbEntity
  8
0
100
AcDbCircle
 10
551.752247
 20
14.207365
 30
0.0
 40
1.409039
100
AcDbArc
 50
15.47255
 51
127.56454
  0
LINE
  5
2D87
100
AcDbEntity
  8
0
100
AcDbLine
 10
546.46222
 20
11.13667
 30
0.0
 11
546.46222
 21
10.236264
 31
0.0
  0
LINE
  5
2D88
100
AcDbEntity
  8
0
100
AcDbLine
 10
546.46222
 20
11.81167
 30
0.0
 11
546.46222
 21
14.41447
 31
0.0
  0
LINE
  5
2D89
100
AcDbEntity
  8
0
100
AcDbLine
 10
553.11022
 20
14.583264
 30
0.0
 11
553.11022
 21
10.179264
 31
0.0
  0
LINE
  5
2D8A
100
AcDbEntity
  8
0
100
AcDbLine
 10
551.56822
 20
14.361264
 30
0.0
 11
551.56822
 21
10.252764
 31
0.0
  0
LINE
  5
2D8B
100
AcDbEntity
  8
0
100
AcDbLine
 10
550.89322
 20
14.361264
 30
0.0
 11
550.89322
 21
10.252764
 31
0.0
  0
ARC
  5
2D8C
100
AcDbEntity
  8
0
100
AcDbCircle
 10
551.23072
 20
10.252764
 30
0.0
 40
0.3375
100
AcDbArc
 50
180.0
 51
0.0
  0
ARC
  5
2D8D
100
AcDbEntity
  8
0
100
AcDbCircle
 10
551.23072
 20
14.361264
 30
0.0
 40
0.3375
100
AcDbArc
 50
360.0
 51
180.0
  0
LINE
  5
2D8E
100
AcDbEntity
  8
0
100
AcDbLine
 10
549.34822
 20
15.612264
 30
0.0
 11
550.89322
 21
15.612264
 31
0.0
  0
LINE
  5
2D8F
100
AcDbEntity
  8
0
100
AcDbLine
 10
547.14922
 20
17.211264
 30
0.0
 11
548.69422
 21
17.211264
 31
0.0
  0
LINE
  5
2D90
100
AcDbEntity
  8
0
100
AcDbLine
 10
550.89322
 20
15.612264
 30
0.0
 11
550.89322
 21
15.324264
 31
0.0
  0
ARC
  5
2D91
100
AcDbEntity
  8
0
100
AcDbCircle
 10
556.209381
 20
14.124104
 30
0.0
 40
1.488419
100
AcDbArc
 50
11.634268
 51
90.699113
  0
LINE
  5
2D92
100
AcDbEntity
  8
0
100
AcDbLine
 10
557.66722
 20
14.424264
 30
0.0
 11
557.66722
 21
10.203412
 31
0.0
  0
ARC
  5
2D93
100
AcDbEntity
  8
0
100
AcDbCircle
 10
555.72622
 20
14.361264
 30
0.0
 40
0.3375
100
AcDbArc
 50
360.0
 51
180.0
  0
ARC
  5
2D94
100
AcDbEntity
  8
0
100
AcDbCircle
 10
555.72622
 20
10.252764
 30
0.0
 40
0.3375
100
AcDbArc
 50
180.0
 51
0.0
  0
LINE
  5
2D95
100
AcDbEntity
  8
0
100
AcDbLine
 10
555.38872
 20
14.361264
 30
0.0
 11
555.38872
 21
10.252764
 31
0.0
  0
LINE
  5
2D96
100
AcDbEntity
  8
0
100
AcDbLine
 10
556.06372
 20
14.361264
 30
0.0
 11
556.06372
 21
10.252764
 31
0.0
  0
LINE
  5
2D97
100
AcDbEntity
  8
0
100
AcDbLine
 10
553.78522
 20
10.203412
 30
0.0
 11
553.78522
 21
14.424264
 31
0.0
  0
LINE
  5
2D98
100
AcDbEntity
  8
0
100
AcDbLine
 10
555.26122
 20
15.612412
 30
0.0
 11
556.19122
 21
15.612412
 31
0.0
  0
LINE
  5
2D99
100
AcDbEntity
  8
0
100
AcDbLine
 10
558.34222
 20
17.211264
 30
0.0
 11
559.88722
 21
17.211264
 31
0.0
  0
TEXT
  5
2D9A
100
AcDbEntity
  8
WY
100
AcDbText
 10
564.417407
 20
11.60401
 30
0.0
 40
2.0
  1
01-12-2007
 51
15.0
  7
ITALIC
100
AcDbText
  0
TEXT
  5
2D9B
100
AcDbEntity
  8
WY
100
AcDbText
 10
568.848776
 20
16.149239
 30
0.0
 40
2.0
  1
Data
 51
15.0
  7
ITALIC
100
AcDbText
  0
TEXT
  5
2D9D
100
AcDbEntity
  8
1
100
AcDbText
 10
631.620292
 20
9.064009
 30
0.0
 40
5.0
  1
PI85    GZT80
 41
0.8
 51
15.0
  7
ITALIC
100
AcDbText
  0
LINE
  5
2D9E
100
AcDbEntity
  8
1
100
AcDbLine
 10
627.394234
 20
5.0
 30
0.0
 11
627.394234
 21
19.689837
 31
0.0
  0
TEXT
  5
2D9F
100
AcDbEntity
  8
WY
100
AcDbText
 10
629.585432
 20
16.599248
 30
0.0
 40
2.0
  1
Product type
 51
15.0
  7
ITALIC
100
AcDbText
  0
LINE
  5
2DF2
100
AcDbEntity
  8
2
100
AcDbLine
 10
682.671651
 20
292.0
 30
0.0
 11
497.671651
 21
292.0
 31
0.0
  0
LINE
  5
2DF3
100
AcDbEntity
  8
2
100
AcDbLine
 10
687.671651
 20
297.0
 30
0.0
 11
497.671651
 21
297.0
 31
0.0
  0
LINE
  5
2E74
100
AcDbEntity
  8
WYMIARY
 62
     6
100
AcDbLine
 10
497.671651
 20
297.0
 30
0.0
 11
486.041244
 21
297.0
 31
0.0
  0
MTEXT
  5
31F2
100
AcDbEntity
  8
WYMIARY
100
AcDbMText
 10
780.543201
 20
224.476865
 30
0.0
 40
3.5
 41
15.6
 71
     1
 72
     5
  1

  7
ITALIC
  0
TEXT
  5
478E
100
AcDbEntity
  8
1
100
AcDbText
 10
500.301985
 20
8.797457
 30
0.0
 40
5.0
  1
1:1
 51
15.0
  7
ITALIC
100
AcDbText
  0
LINE
  5
482F
100
AcDbEntity
  8
WYMIARY
 62
     6
100
AcDbLine
 10
687.671651
 20
0.0
 30
0.0
 11
687.671651
 21
297.0
 31
0.0
  0
LINE
  5
4AD7
100
AcDbEntity
  8
WYMIARY
 62
     3
100
AcDbLine
 10
512.671651
 20
19.689837
 30
0.0
 11
512.671651
 21
5.0
 31
0.0
  0
LINE
  5
4AD9
100
AcDbEntity
  8
WYMIARY
 62
     3
100
AcDbLine
 10
527.671651
 20
19.689837
 30
0.0
 11
527.671651
 21
5.0
 31
0.0
  0
LINE
  5
4ADA
100
AcDbEntity
  8
WYMIARY
 62
     3
100
AcDbLine
 10
586.373187
 20
19.689837
 30
0.0
 11
586.373187
 21
5.0
 31
0.0
  0
TEXT
  5
4ADB
100
AcDbEntity
  8
WY
100
AcDbText
 10
587.562196
 20
16.599248
 30
0.0
 40
2.0
  1
Draw. No.
 51
15.0
  7
ITALIC
100
AcDbText
  0
TEXT
  5
4ADF
100
AcDbEntity
  8
1
100
AcDbText
 10
587.640114
 20
9.064009
 30
0.0
 40
3.5
  1
PI85 z GZT80-01A
 41
0.7
 51
15.0
  7
ITALIC
100
AcDbText
  0
LINE
  5
4AE9
100
AcDbEntity
  8
WYMIARY
 62
     6
100
AcDbLine
 10
687.671651
 20
0.0
 30
0.0
 11
687.671651
 21
297.0
 31
0.0
  0
LINE
  5
94E3
100
AcDbEntity
  8
1
100
AcDbLine
 10
591.61803
 20
228.875557
 30
0.0
 11
597.337484
 21
228.875557
 31
0.0
  0
LINE
  5
94E4
100
AcDbEntity
  8
1
100
AcDbLine
 10
597.361532
 20
229.725557
 30
0.0
 11
591.61803
 21
229.725557
 31
0.0
  0
LINE
  5
94E5
100
AcDbEntity
  8
1
100
AcDbLine
 10
591.61803
 20
229.075557
 30
0.0
 11
597.361532
 21
229.075557
 31
0.0
  0
LINE
  5
94E6
100
AcDbEntity
  8
1
 62
     3
100
AcDbLine
 10
572.07524
 20
230.125557
 30
0.0
 11
597.874795
 21
230.125557
 31
0.0
  0
LINE
  5
94E7
100
AcDbEntity
  8
1
100
AcDbLine
 10
597.337484
 20
228.675557
 30
0.0
 11
591.61803
 21
228.675557
 31
0.0
  0
LINE
  5
94E8
100
AcDbEntity
  8
1
100
AcDbLine
 10
597.337484
 20
215.875557
 30
0.0
 11
591.61803
 21
215.875557
 31
0.0
  0
LINE
  5
94E9
100
AcDbEntity
  8
1
100
AcDbLine
 10
591.61803
 20
216.075557
 30
0.0
 11
597.337484
 21
216.075557
 31
0.0
  0
LINE
  5
94EA
100
AcDbEntity
  8
1
100
AcDbLine
 10
591.61803
 20
215.025557
 30
0.0
 11
597.361532
 21
215.025557
 31
0.0
  0
LINE
  5
94EB
100
AcDbEntity
  8
1
100
AcDbLine
 10
597.361532
 20
215.675557
 30
0.0
 11
591.61803
 21
215.675557
 31
0.0
  0
LINE
  5
94EC
100
AcDbEntity
  8
1
 62
     3
100
AcDbLine
 10
597.874795
 20
214.625557
 30
0.0
 11
572.079918
 21
214.625557
 31
0.0
  0
DIMENSION
  5
94ED
100
AcDbEntity
  8
WY
100
AcDbDimension
  2
*D6
 10
623.189237
 20
199.606417
 30
0.0
 11
585.539237
 21
202.906417
 31
0.0
 12
10.454213
 22
115.523743
 32
0.0
 70
    32
  1
75.3
  3
STANDARD
100
AcDbAlignedDimension
 13
547.889237
 23
215.025557
 33
0.0
 14
623.189237
 24
215.025557
 34
0.0
100
AcDbRotatedDimension
  0
LINE
  5
94EE
100
AcDbEntity
  8
OSIE
100
AcDbLine
 10
624.627604
 20
222.375557
 30
0.0
 11
566.786529
 21
222.375557
 31
0.0
  0
LINE
  5
94EF
100
AcDbEntity
  8
1
100
AcDbLine
 10
567.81608
 20
228.675557
 30
0.0
 11
567.81608
 21
223.836088
 31
0.0
  0
LINE
  5
94F5
100
AcDbEntity
  8
1
100
AcDbLine
 10
566.540968
 20
228.675557
 30
0.0
 11
566.540968
 21
223.752279
 31
0.0
  0
INSERT
  5
94F7
100
AcDbEntity
  8
WY
100
AcDbBlockReference
  2
A$C25565E68
 10
550.389238
 20
223.625557
 30
0.0
 41
0.5
 42
0.5
 43
0.5
  0
CIRCLE
  5
94F8
100
AcDbEntity
  8
1
100
AcDbCircle
 10
552.889237
 20
226.125557
 30
0.0
 40
2.604184
  0
LINE
  5
94F9
100
AcDbEntity
  8
1
100
AcDbLine
 10
557.3375
 20
228.675572
 30
0.0
 11
557.3375
 21
223.748819
 31
0.0
  0
LINE
  5
94FA
100
AcDbEntity
  8
1
100
AcDbLine
 10
549.029458
 20
228.284202
 30
0.0
 11
549.029458
 21
224.066912
 31
0.0
  0
LINE
  5
94FB
100
AcDbEntity
  8
1
100
AcDbLine
 10
547.912993
 20
223.600206
 30
0.0
 11
547.912993
 21
228.550916
 31
0.0
  0
LINE
  5
94FC
100
AcDbEntity
  8
1
100
AcDbLine
 10
548.271659
 20
223.812473
 30
0.0
 11
548.271659
 21
228.407675
 31
0.0
  0
LINE
  5
94FD
100
AcDbEntity
  8
1
100
AcDbLine
 10
548.980588
 20
228.225557
 30
0.0
 11
548.980588
 21
224.125557
 31
0.0
  0
LINE
  5
94FE
100
AcDbEntity
  8
1
100
AcDbLine
 10
548.089237
 20
228.15027
 30
0.0
 11
548.089237
 21
224.080014
 31
0.0
  0
LINE
  5
94FF
100
AcDbEntity
  8
1
100
AcDbLine
 10
548.671644
 20
228.225837
 30
0.0
 11
548.671644
 21
224.093313
 31
0.0
  0
LINE
  5
9500
100
AcDbEntity
  8
1
100
AcDbLine
 10
548.062986
 20
228.176464
 30
0.0
 11
548.062986
 21
224.046787
 31
0.0
  0
LINE
  5
9501
100
AcDbEntity
  8
1
100
AcDbLine
 10
549.137299
 20
228.9601
 30
0.0
 11
549.137299
 21
223.427055
 31
0.0
  0
LINE
  5
9502
100
AcDbEntity
  8
1
100
AcDbLine
 10
557.137507
 20
223.752279
 30
0.0
 11
557.137507
 21
229.075557
 31
0.0
  0
LINE
  5
9503
100
AcDbEntity
  8
1
100
AcDbLine
 10
566.616125
 20
223.827437
 30
0.0
 11
566.616125
 21
229.775557
 31
0.0
  0
LINE
  5
9504
100
AcDbEntity
  8
1
100
AcDbLine
 10
547.889237
 20
229.725557
 30
0.0
 11
547.889237
 21
215.025557
 31
0.0
  0
LINE
  5
9505
100
AcDbEntity
  8
1
100
AcDbLine
 10
556.988696
 20
229.725557
 30
0.0
 11
556.988696
 21
215.025557
 31
0.0
  0
LINE
  5
9506
100
AcDbEntity
  8
1
100
AcDbLine
 10
555.736398
 20
215.025557
 30
0.0
 11
555.736398
 21
229.725557
 31
0.0
  0
LINE
  5
9507
100
AcDbEntity
  8
1
100
AcDbLine
 10
549.546993
 20
215.525557
 30
0.0
 11
549.546993
 21
229.225557
 31
0.0
  0
LINE
  5
9509
100
AcDbEntity
  8
WY
 62
     3
100
AcDbLine
 10
568.842744
 20
230.125557
 30
0.0
 11
568.842744
 21
214.625557
 31
0.0
  0
LINE
  5
950A
100
AcDbEntity
  8
WY
 62
     3
100
AcDbLine
 10
591.61803
 20
230.125557
 30
0.0
 11
591.61803
 21
214.625557
 31
0.0
  0
LINE
  5
950B
100
AcDbEntity
  8
WY
 62
     3
100
AcDbLine
 10
580.278873
 20
228.625557
 30
0.0
 11
580.278873
 21
216.125557
 31
0.0
  0
LINE
  5
950C
100
AcDbEntity
  8
WY
 62
     3
100
AcDbLine
 10
568.842744
 20
230.125557
 30
0.0
 11
568.842744
 21
215.025557
 31
0.0
  0
LINE
  5
950D
100
AcDbEntity
  8
1
100
AcDbLine
 10
557.974057
 20
223.548827
 30
0.0
 11
557.3375
 21
223.548827
 31
0.0
  0
LINE
  5
950E
100
AcDbEntity
  8
1
100
AcDbLine
 10
557.3375
 20
223.748819
 30
0.0
 11
557.974057
 21
223.748819
 31
0.0
  0
LINE
  5
950F
100
AcDbEntity
  8
1
100
AcDbLine
 10
557.3375
 20
221.202287
 30
0.0
 11
557.974057
 21
221.202287
 31
0.0
  0
LINE
  5
9510
100
AcDbEntity
  8
1
100
AcDbLine
 10
557.974057
 20
221.002294
 30
0.0
 11
557.3375
 21
221.002294
 31
0.0
  0
LINE
  5
9511
100
AcDbEntity
  8
1
100
AcDbLine
 10
557.156691
 20
221.21801
 30
0.0
 11
557.974057
 21
221.21801
 31
0.0
  0
LINE
  5
9512
100
AcDbEntity
  8
1
100
AcDbLine
 10
568.842744
 20
223.533103
 30
0.0
 11
566.786529
 21
223.533103
 31
0.0
  0
LINE
  5
9513
100
AcDbEntity
  8
1
100
AcDbLine
 10
557.974057
 20
215.675557
 30
0.0
 11
557.393761
 21
215.675557
 31
0.0
  0
LINE
  5
9514
100
AcDbEntity
  8
1
100
AcDbLine
 10
557.393761
 20
215.025557
 30
0.0
 11
566.596524
 21
215.025557
 31
0.0
  0
LINE
  5
9515
100
AcDbEntity
  8
1
100
AcDbLine
 10
557.974057
 20
215.875557
 30
0.0
 11
557.34099
 21
215.875557
 31
0.0
  0
LINE
  5
9516
100
AcDbEntity
  8
1
100
AcDbLine
 10
557.34099
 20
216.075557
 30
0.0
 11
557.974057
 21
216.075557
 31
0.0
  0
LINE
  5
9517
100
AcDbEntity
  8
1
100
AcDbLine
 10
570.303234
 20
214.625557
 30
0.0
 11
556.805451
 21
214.625557
 31
0.0
  0
LINE
  5
9518
100
AcDbEntity
  8
OSIE
100
AcDbLine
 10
552.889237
 20
219.625557
 30
0.0
 11
552.889237
 21
217.625557
 31
0.0
  0
LINE
  5
9519
100
AcDbEntity
  8
1
100
AcDbLine
 10
557.137507
 20
215.675557
 30
0.0
 11
557.137507
 21
220.998834
 31
0.0
  0
INSERT
  5
951A
100
AcDbEntity
  8
WY
100
AcDbBlockReference
  2
A$C25565E68
 10
550.389238
 20
216.125557
 30
0.0
 41
0.5
 42
0.5
 43
0.5
  0
CIRCLE
  5
951B
100
AcDbEntity
  8
1
100
AcDbCircle
 10
552.889237
 20
218.625557
 30
0.0
 40
2.604184
  0
LINE
  5
951C
100
AcDbEntity
  8
1
100
AcDbLine
 10
549.137299
 20
221.324059
 30
0.0
 11
549.137299
 21
215.791014
 31
0.0
  0
LINE
  5
951D
100
AcDbEntity
  8
1
100
AcDbLine
 10
549.029458
 20
220.684202
 30
0.0
 11
549.029458
 21
216.466912
 31
0.0
  0
LINE
  5
951E
100
AcDbEntity
  8
1
100
AcDbLine
 10
547.912993
 20
216.200198
 30
0.0
 11
547.912993
 21
221.150907
 31
0.0
  0
LINE
  5
951F
100
AcDbEntity
  8
1
100
AcDbLine
 10
548.980588
 20
220.625557
 30
0.0
 11
548.980588
 21
216.525557
 31
0.0
  0
LINE
  5
9520
100
AcDbEntity
  8
1
100
AcDbLine
 10
548.271659
 20
216.343438
 30
0.0
 11
548.271659
 21
220.938641
 31
0.0
  0
LINE
  5
9521
100
AcDbEntity
  8
1
100
AcDbLine
 10
548.089237
 20
220.6711
 30
0.0
 11
548.089237
 21
216.600843
 31
0.0
  0
LINE
  5
9522
100
AcDbEntity
  8
1
100
AcDbLine
 10
548.671644
 20
220.657801
 30
0.0
 11
548.671644
 21
216.525276
 31
0.0
  0
LINE
  5
9523
100
AcDbEntity
  8
1
100
AcDbLine
 10
548.062986
 20
220.704327
 30
0.0
 11
548.062986
 21
216.57465
 31
0.0
  0
LINE
  5
9524
100
AcDbEntity
  8
1
100
AcDbLine
 10
557.3375
 20
221.002294
 30
0.0
 11
557.3375
 21
216.075542
 31
0.0
  0
LINE
  5
9525
100
AcDbEntity
  8
1
100
AcDbLine
 10
549.546993
 20
215.525557
 30
0.0
 11
551.877791
 21
215.525557
 31
0.0
  0
LINE
  5
9526
100
AcDbEntity
  8
1
100
AcDbLine
 10
551.428262
 20
215.025557
 30
0.0
 11
551.045755
 21
215.025557
 31
0.0
  0
LINE
  5
9527
100
AcDbEntity
  8
1
100
AcDbLine
 10
551.063203
 20
214.625557
 30
0.0
 11
551.828218
 21
214.625557
 31
0.0
  0
LINE
  5
9528
100
AcDbEntity
  8
1
100
AcDbLine
 10
550.120983
 20
214.725557
 30
0.0
 11
550.120983
 21
215.525557
 31
0.0
  0
LINE
  5
9529
100
AcDbEntity
  8
1
100
AcDbLine
 10
551.045755
 20
215.025557
 30
0.0
 11
551.045755
 21
215.525557
 31
0.0
  0
LWPOLYLINE
  5
952A
100
AcDbEntity
  8
1
100
AcDbPolyline
 90
        9
 70
   128
 43
0.0
 10
551.045755
 20
215.025557
 10
551.04609
 20
214.947521
 10
551.047083
 20
214.872483
 10
551.048695
 20
214.803329
 10
551.050865
 20
214.742714
 10
551.053509
 20
214.692969
 10
551.056526
 20
214.656005
 10
551.059799
 20
214.633243
 10
551.063203
 20
214.625557
  0
LINE
  5
952B
100
AcDbEntity
  8
1
100
AcDbLine
 10
550.120983
 20
215.025557
 30
0.0
 11
551.045755
 21
215.025557
 31
0.0
  0
LINE
  5
952C
100
AcDbEntity
  8
1
100
AcDbLine
 10
549.042412
 20
215.525557
 30
0.0
 11
549.042412
 21
215.791014
 31
0.0
  0
LINE
  5
952D
100
AcDbEntity
  8
1
100
AcDbLine
 10
548.320179
 20
215.525557
 30
0.0
 11
548.320179
 21
215.840414
 31
0.0
  0
LINE
  5
952E
100
AcDbEntity
  8
1
100
AcDbLine
 10
549.020983
 20
215.525557
 30
0.0
 11
549.020983
 21
214.725557
 31
0.0
  0
LINE
  5
952F
100
AcDbEntity
  8
1
100
AcDbLine
 10
548.320179
 20
215.525557
 30
0.0
 11
549.042412
 21
215.525557
 31
0.0
  0
LINE
  5
9530
100
AcDbEntity
  8
1
100
AcDbLine
 10
549.020983
 20
215.285957
 30
0.0
 11
548.697059
 21
215.479897
 31
0.0
  0
LWPOLYLINE
  5
9531
100
AcDbEntity
  8
1
100
AcDbPolyline
 90
        4
 70
   128
 43
0.0
 10
548.697059
 20
215.479897
 10
548.671336
 20
215.49528
 10
548.645793
 20
215.510521
 10
548.620535
 20
215.525557
  0
LINE
  5
9532
100
AcDbEntity
  8
1
100
AcDbLine
 10
548.714507
 20
214.625557
 30
0.0
 11
548.289255
 21
214.625557
 31
0.0
  0
LINE
  5
9533
100
AcDbEntity
  8
1
100
AcDbLine
 10
548.956952
 20
215.525557
 30
0.0
 11
549.020983
 21
215.487162
 31
0.0
  0
LINE
  5
9534
100
AcDbEntity
  8
1
100
AcDbLine
 10
549.020983
 20
215.312289
 30
0.0
 11
548.665321
 21
215.525557
 31
0.0
  0
LINE
  5
9535
100
AcDbEntity
  8
1
100
AcDbLine
 10
548.697059
 20
215.025557
 30
0.0
 11
549.020983
 21
215.025557
 31
0.0
  0
LINE
  5
9536
100
AcDbEntity
  8
1
100
AcDbLine
 10
548.697059
 20
215.479897
 30
0.0
 11
548.697059
 21
215.025557
 31
0.0
  0
LWPOLYLINE
  5
9537
100
AcDbEntity
  8
1
100
AcDbPolyline
 90
        9
 70
   128
 43
0.0
 10
548.697059
 20
215.025557
 10
548.697395
 20
214.947521
 10
548.698387
 20
214.872483
 10
548.7
 20
214.803329
 10
548.70217
 20
214.742714
 10
548.704814
 20
214.692969
 10
548.70783
 20
214.656005
 10
548.711103
 20
214.633243
 10
548.714507
 20
214.625557
  0
LWPOLYLINE
  5
9538
100
AcDbEntity
  8
1
100
AcDbPolyline
 90
        9
 70
   128
 43
0.0
 10
548.314551
 20
215.025557
 10
548.322236
 20
214.947521
 10
548.344996
 20
214.872483
 10
548.381956
 20
214.803329
 10
548.431696
 20
214.742714
 10
548.492304
 20
214.692969
 10
548.561451
 20
214.656005
 10
548.63648
 20
214.633243
 10
548.714507
 20
214.625557
  0
LINE
  5
9539
100
AcDbEntity
  8
1
100
AcDbLine
 10
548.697059
 20
215.025557
 30
0.0
 11
548.314551
 21
215.025557
 31
0.0
  0
LINE
  5
953A
100
AcDbEntity
  8
1
100
AcDbLine
 10
548.314551
 20
215.025557
 30
0.0
 11
548.314551
 21
215.525557
 31
0.0
  0
LWPOLYLINE
  5
953B
100
AcDbEntity
  8
1
100
AcDbPolyline
 90
        6
 70
   128
 43
0.0
 10
548.289255
 20
214.625557
 10
548.156842
 20
214.648107
 10
548.039359
 20
214.713215
 10
547.950052
 20
214.81354
 10
547.898991
 20
214.937766
 10
547.889237
 20
215.025557
  0
LINE
  5
953C
100
AcDbEntity
  8
1
100
AcDbLine
 10
547.889237
 20
215.025557
 30
0.0
 11
548.314551
 21
215.025557
 31
0.0
  0
LWPOLYLINE
  5
953D
100
AcDbEntity
  8
1
100
AcDbPolyline
 90
        5
 70
   128
 43
0.0
 10
548.062986
 20
216.57465
 10
547.997219
 20
216.489307
 10
547.934179
 20
216.348106
 10
547.913029
 20
216.204351
 10
547.912993
 20
216.200198
  0
LINE
  5
953E
100
AcDbEntity
  8
1
100
AcDbLine
 10
548.062986
 20
216.57465
 30
0.0
 11
548.089237
 21
216.600843
 31
0.0
  0
LWPOLYLINE
  5
953F
100
AcDbEntity
  8
1
100
AcDbPolyline
 90
        9
 70
   128
 43
0.0
 10
549.135468
 20
216.101354
 10
549.135857
 20
216.079473
 10
549.136214
 20
216.051234
 10
549.13653
 20
216.017261
 10
549.136798
 20
215.978302
 10
549.137014
 20
215.935215
 10
549.137171
 20
215.888951
 10
549.137267
 20
215.840528
 10
549.137299
 20
215.791014
  0
LWPOLYLINE
  5
9540
100
AcDbEntity
  8
1
100
AcDbPolyline
 90
        5
 70
   128
 43
0.0
 10
549.116938
 20
216.361935
 10
549.126533
 20
216.310803
 10
549.13103
 20
216.240162
 10
549.133269
 20
216.183133
 10
549.135468
 20
216.101354
  0
LINE
  5
9541
100
AcDbEntity
  8
1
100
AcDbLine
 10
549.116938
 20
216.361935
 30
0.0
 11
549.029458
 21
216.466912
 31
0.0
  0
LINE
  5
9542
100
AcDbEntity
  8
1
100
AcDbLine
 10
548.689209
 20
216.525557
 30
0.0
 11
548.980588
 21
216.525557
 31
0.0
  0
LINE
  5
9543
100
AcDbEntity
  8
1
100
AcDbLine
 10
548.980588
 20
216.525557
 30
0.0
 11
549.029458
 21
216.466912
 31
0.0
  0
LWPOLYLINE
  5
9544
100
AcDbEntity
  8
1
100
AcDbPolyline
 90
        7
 70
   128
 43
0.0
 10
548.671644
 20
216.525276
 10
548.554516
 20
216.50905
 10
548.451889
 20
216.47281
 10
548.362343
 20
216.420786
 10
548.292345
 20
216.362761
 10
548.272987
 20
216.344218
 10
548.271659
 20
216.343438
  0
LINE
  5
9545
100
AcDbEntity
  8
1
100
AcDbLine
 10
548.671644
 20
216.525276
 30
0.0
 11
548.689209
 21
216.525557
 31
0.0
  0
LINE
  5
9546
100
AcDbEntity
  8
1
100
AcDbLine
 10
549.137299
 20
215.791014
 30
0.0
 11
549.042412
 21
215.791014
 31
0.0
  0
LWPOLYLINE
  5
9547
100
AcDbEntity
  8
1
100
AcDbPolyline
 90
        9
 70
   128
 43
0.0
 10
549.135468
 20
216.101354
 10
549.114264
 20
216.066486
 10
549.095623
 20
216.030071
 10
549.079651
 20
215.992315
 10
549.066438
 20
215.953428
 10
549.056057
 20
215.913629
 10
549.048567
 20
215.873142
 10
549.04401
 20
215.832193
 10
549.042412
 20
215.791014
  0
LWPOLYLINE
  5
9548
100
AcDbEntity
  8
1
100
AcDbPolyline
 90
        4
 70
   128
 43
0.0
 10
548.870118
 20
216.390384
 10
548.906652
 20
216.380862
 10
548.988996
 20
216.37137
 10
549.116938
 20
216.361935
  0
LWPOLYLINE
  5
9549
100
AcDbEntity
  8
1
100
AcDbPolyline
 90
        7
 70
   128
 43
0.0
 10
549.042412
 20
215.791014
 10
548.832859
 20
215.799085
 10
548.658594
 20
215.807243
 10
548.519959
 20
215.81547
 10
548.417222
 20
215.823753
 10
548.350585
 20
215.832073
 10
548.320179
 20
215.840414
  0
LWPOLYLINE
  5
954A
100
AcDbEntity
  8
1
100
AcDbPolyline
 90
        9
 70
   128
 43
0.0
 10
548.870118
 20
216.390384
 10
548.76284
 20
216.379802
 10
548.659685
 20
216.348496
 10
548.564615
 20
216.297668
 10
548.481283
 20
216.229271
 10
548.41289
 20
216.145935
 10
548.362065
 20
216.050859
 10
548.330761
 20
215.947698
 10
548.320179
 20
215.840414
  0
LINE
  5
954B
100
AcDbEntity
  8
1
100
AcDbLine
 10
548.689209
 20
216.525557
 30
0.0
 11
548.870118
 21
216.390384
 31
0.0
  0
LWPOLYLINE
  5
954C
100
AcDbEntity
  8
1
100
AcDbPolyline
 90
        4
 70
   128
 43
0.0
 10
548.089237
 20
216.600843
 10
548.098836
 20
216.588674
 10
548.13723
 20
216.539319
 10
548.271659
 20
216.343438
  0
LWPOLYLINE
  5
954D
100
AcDbEntity
  8
1
100
AcDbPolyline
 90
        6
 70
   128
 43
0.0
 10
548.320179
 20
215.840414
 10
548.303803
 20
215.851932
 10
548.239612
 20
215.897999
 10
548.022791
 20
216.082267
 10
547.91438
 20
216.198642
 10
547.912993
 20
216.200198
  0
LINE
  5
954E
100
AcDbEntity
  8
1
100
AcDbLine
 10
549.020983
 20
214.725557
 30
0.0
 11
550.120983
 21
214.725557
 31
0.0
  0
LINE
  5
954F
100
AcDbEntity
  8
1
100
AcDbLine
 10
551.063203
 20
214.625557
 30
0.0
 11
548.714507
 21
214.625557
 31
0.0
  0
LINE
  5
9550
100
AcDbEntity
  8
OSIE
100
AcDbLine
 10
553.889237
 20
218.625557
 30
0.0
 11
551.889237
 21
218.625557
 31
0.0
  0
LWPOLYLINE
  5
9551
100
AcDbEntity
  8
1
100
AcDbPolyline
 90
        9
 70
   128
 43
0.0
 10
557.400408
 20
215.875557
 10
557.399111
 20
215.871714
 10
557.397864
 20
215.860333
 10
557.396715
 20
215.841851
 10
557.395708
 20
215.816978
 10
557.394881
 20
215.786671
 10
557.394267
 20
215.752093
 10
557.393889
 20
215.714575
 10
557.393761
 20
215.675557
  0
LWPOLYLINE
  5
9552
100
AcDbEntity
  8
1
100
AcDbPolyline
 90
        9
 70
   128
 43
0.0
 10
557.137507
 20
215.675557
 10
557.141646
 20
215.753165
 10
557.153229
 20
215.827824
 10
557.171814
 20
215.896695
 10
557.196697
 20
215.957163
 10
557.22693
 20
216.006928
 10
557.261366
 20
216.044099
 10
557.298696
 20
216.067264
 10
557.3375
 20
216.075542
  0
LWPOLYLINE
  5
9553
100
AcDbEntity
  8
1
100
AcDbPolyline
 90
        9
 70
   128
 43
0.0
 10
557.339245
 20
215.875549
 10
557.300405
 20
215.87141
 10
557.262974
 20
215.859828
 10
557.228376
 20
215.841242
 10
557.197925
 20
215.81636
 10
557.172779
 20
215.786126
 10
557.153893
 20
215.75169
 10
557.141985
 20
215.714361
 10
557.137507
 20
215.675557
  0
LWPOLYLINE
  5
9554
100
AcDbEntity
  8
1
100
AcDbPolyline
 90
        9
 70
   128
 43
0.0
 10
557.400408
 20
215.875557
 10
557.361391
 20
215.871714
 10
557.323874
 20
215.860333
 10
557.289298
 20
215.841851
 10
557.258992
 20
215.816978
 10
557.23412
 20
215.786671
 10
557.215639
 20
215.752093
 10
557.204258
 20
215.714575
 10
557.200416
 20
215.675557
  0
LINE
  5
9555
100
AcDbEntity
  8
1
100
AcDbLine
 10
555.753846
 20
214.625557
 30
0.0
 11
551.895238
 21
214.625557
 31
0.0
  0
LINE
  5
9556
100
AcDbEntity
  8
1
100
AcDbLine
 10
551.877791
 20
215.025557
 30
0.0
 11
555.736398
 21
215.025557
 31
0.0
  0
LINE
  5
9557
100
AcDbEntity
  8
1
100
AcDbLine
 10
551.495284
 20
215.025557
 30
0.0
 11
551.495284
 21
215.525557
 31
0.0
  0
LINE
  5
9558
100
AcDbEntity
  8
1
100
AcDbLine
 10
551.428262
 20
215.025557
 30
0.0
 11
551.495284
 21
215.025557
 31
0.0
  0
LINE
  5
9559
100
AcDbEntity
  8
1
100
AcDbLine
 10
551.428262
 20
215.525557
 30
0.0
 11
551.428262
 21
215.025557
 31
0.0
  0
LINE
  5
955A
100
AcDbEntity
  8
1
100
AcDbLine
 10
551.895238
 20
214.625557
 30
0.0
 11
551.828218
 21
214.625557
 31
0.0
  0
LINE
  5
955B
100
AcDbEntity
  8
1
100
AcDbLine
 10
551.877791
 20
215.525557
 30
0.0
 11
551.877791
 21
215.025557
 31
0.0
  0
LWPOLYLINE
  5
955C
100
AcDbEntity
  8
1
100
AcDbPolyline
 90
        9
 70
   128
 43
0.0
 10
551.877791
 20
215.025557
 10
551.878126
 20
214.947521
 10
551.879119
 20
214.872483
 10
551.880731
 20
214.803329
 10
551.882901
 20
214.742714
 10
551.885545
 20
214.692969
 10
551.888561
 20
214.656005
 10
551.891834
 20
214.633243
 10
551.895238
 20
214.625557
  0
LINE
  5
955D
100
AcDbEntity
  8
1
100
AcDbLine
 10
551.877791
 20
215.025557
 30
0.0
 11
551.495284
 21
215.025557
 31
0.0
  0
LWPOLYLINE
  5
955E
100
AcDbEntity
  8
1
100
AcDbPolyline
 90
        9
 70
   128
 43
0.0
 10
551.495284
 20
215.025557
 10
551.502969
 20
214.947521
 10
551.525729
 20
214.872483
 10
551.562688
 20
214.803329
 10
551.612428
 20
214.742714
 10
551.673036
 20
214.692969
 10
551.742182
 20
214.656005
 10
551.817211
 20
214.633243
 10
551.895238
 20
214.625557
  0
LWPOLYLINE
  5
955F
100
AcDbEntity
  8
1
100
AcDbPolyline
 90
        9
 70
   128
 43
0.0
 10
551.428262
 20
215.025557
 10
551.435947
 20
214.947521
 10
551.458707
 20
214.872483
 10
551.495667
 20
214.803329
 10
551.545407
 20
214.742714
 10
551.606014
 20
214.692969
 10
551.675161
 20
214.656005
 10
551.75019
 20
214.633243
 10
551.828218
 20
214.625557
  0
LINE
  5
9560
100
AcDbEntity
  8
1
100
AcDbLine
 10
556.588711
 20
214.625557
 30
0.0
 11
555.753846
 21
214.625557
 31
0.0
  0
LWPOLYLINE
  5
9561
100
AcDbEntity
  8
1
100
AcDbPolyline
 90
        7
 70
   128
 43
0.0
 10
556.805451
 20
214.625557
 10
556.808228
 20
214.625567
 10
556.994128
 20
214.674148
 10
557.111322
 20
214.772491
 10
557.168364
 20
214.867713
 10
557.191647
 20
214.941737
 10
557.200416
 20
215.025557
  0
LINE
  5
9562
100
AcDbEntity
  8
1
100
AcDbLine
 10
556.805451
 20
214.625557
 30
0.0
 11
556.588711
 21
214.625557
 31
0.0
  0
LINE
  5
9563
100
AcDbEntity
  8
1
100
AcDbLine
 10
555.736398
 20
215.025557
 30
0.0
 11
556.988696
 21
215.025557
 31
0.0
  0
LWPOLYLINE
  5
9564
100
AcDbEntity
  8
1
100
AcDbPolyline
 90
        9
 70
   128
 43
0.0
 10
556.988696
 20
215.025557
 10
556.98101
 20
214.947521
 10
556.958249
 20
214.872483
 10
556.921286
 20
214.803329
 10
556.871543
 20
214.742714
 10
556.810931
 20
214.692969
 10
556.741779
 20
214.656005
 10
556.666744
 20
214.633243
 10
556.588711
 20
214.625557
  0
LWPOLYLINE
  5
9565
100
AcDbEntity
  8
1
100
AcDbPolyline
 90
        9
 70
   128
 43
0.0
 10
555.736398
 20
215.025557
 10
555.736733
 20
214.947521
 10
555.737726
 20
214.872483
 10
555.739339
 20
214.803329
 10
555.741509
 20
214.742714
 10
555.744153
 20
214.692969
 10
555.747169
 20
214.656005
 10
555.750442
 20
214.633243
 10
555.753846
 20
214.625557
  0
LINE
  5
9566
100
AcDbEntity
  8
1
100
AcDbLine
 10
556.988696
 20
215.025557
 30
0.0
 11
557.200416
 21
215.025557
 31
0.0
  0
LINE
  5
9567
100
AcDbEntity
  8
1
100
AcDbLine
 10
557.200416
 20
215.675557
 30
0.0
 11
557.137507
 21
215.675557
 31
0.0
  0
LINE
  5
9568
100
AcDbEntity
  8
1
100
AcDbLine
 10
557.200416
 20
215.025557
 30
0.0
 11
557.200416
 21
215.675557
 31
0.0
  0
LWPOLYLINE
  5
9569
100
AcDbEntity
  8
1
100
AcDbPolyline
 90
        7
 70
   128
 43
0.0
 10
557.393761
 20
215.025557
 10
557.380699
 20
214.941741
 10
557.346019
 20
214.867721
 10
557.261052
 20
214.772497
 10
557.086482
 20
214.674149
 10
556.809587
 20
214.625567
 10
556.805451
 20
214.625557
  0
LINE
  5
956A
100
AcDbEntity
  8
1
100
AcDbLine
 10
557.393761
 20
215.675557
 30
0.0
 11
557.393761
 21
215.025557
 31
0.0
  0
LINE
  5
956B
100
AcDbEntity
  8
1
100
AcDbLine
 10
557.200416
 20
215.025557
 30
0.0
 11
557.393761
 21
215.025557
 31
0.0
  0
LINE
  5
956C
100
AcDbEntity
  8
1
100
AcDbLine
 10
557.200416
 20
215.675557
 30
0.0
 11
557.393761
 21
215.675557
 31
0.0
  0
LINE
  5
956D
100
AcDbEntity
  8
1
100
AcDbLine
 10
557.339245
 20
215.875549
 30
0.0
 11
557.3375
 21
216.075542
 31
0.0
  0
LINE
  5
956E
100
AcDbEntity
  8
1
100
AcDbLine
 10
557.34099
 20
215.875557
 30
0.0
 11
557.339245
 21
215.875549
 31
0.0
  0
LINE
  5
956F
100
AcDbEntity
  8
1
100
AcDbLine
 10
557.34099
 20
215.875557
 30
0.0
 11
557.34099
 21
216.075557
 31
0.0
  0
LINE
  5
9570
100
AcDbEntity
  8
1
100
AcDbLine
 10
557.3375
 20
216.075542
 30
0.0
 11
557.34099
 21
216.075557
 31
0.0
  0
TEXT
  5
9571
100
AcDbEntity
  8
1
100
AcDbText
 10
554.639398
 20
215.500766
 30
0.0
 40
1.0
  1
1
 50
270.0
  7
ITALIC
100
AcDbText
  0
TEXT
  5
9572
100
AcDbEntity
  8
1
100
AcDbText
 10
554.639398
 20
216.265186
 30
0.0
 40
1.0
  1
A
 50
270.0
  7
ITALIC
100
AcDbText
  0
LWPOLYLINE
  5
9573
100
AcDbEntity
  8
1
100
AcDbPolyline
 90
        5
 70
   128
 43
0.0
 10
548.062986
 20
224.046787
 10
547.989679
 20
223.926755
 10
547.923131
 20
223.719549
 10
547.91303
 20
223.605203
 10
547.912993
 20
223.600206
  0
LINE
  5
9574
100
AcDbEntity
  8
1
100
AcDbLine
 10
548.062986
 20
224.046787
 30
0.0
 11
548.089237
 21
224.080014
 31
0.0
  0
LWPOLYLINE
  5
9575
100
AcDbEntity
  8
1
100
AcDbPolyline
 90
        3
 70
   128
 43
0.0
 10
549.137299
 20
223.427055
 10
549.043421
 20
223.195701
 10
549.042412
 20
223.191582
  0
LWPOLYLINE
  5
9576
100
AcDbEntity
  8
1
100
AcDbPolyline
 90
        8
 70
   128
 43
0.0
 10
549.100238
 20
223.981975
 10
549.113326
 20
223.953196
 10
549.119795
 20
223.914839
 10
549.126233
 20
223.836897
 10
549.129778
 20
223.766205
 10
549.13325
 20
223.660132
 10
549.135379
 20
223.565048
 10
549.137299
 20
223.427055
  0
LINE
  5
9577
100
AcDbEntity
  8
1
100
AcDbLine
 10
549.100238
 20
223.981975
 30
0.0
 11
549.029458
 21
224.066912
 31
0.0
  0
LINE
  5
9578
100
AcDbEntity
  8
1
100
AcDbLine
 10
548.980588
 20
224.125557
 30
0.0
 11
549.029458
 21
224.066912
 31
0.0
  0
LINE
  5
9579
100
AcDbEntity
  8
1
100
AcDbLine
 10
548.889198
 20
224.125557
 30
0.0
 11
548.980588
 21
224.125557
 31
0.0
  0
LWPOLYLINE
  5
957A
100
AcDbEntity
  8
1
100
AcDbPolyline
 90
        7
 70
   128
 43
0.0
 10
548.671644
 20
224.093313
 10
548.539791
 20
224.039581
 10
548.429486
 20
223.969806
 10
548.333172
 20
223.883431
 10
548.289447
 20
223.833536
 10
548.273202
 20
223.813755
 10
548.271659
 20
223.812473
  0
LWPOLYLINE
  5
957B
100
AcDbEntity
  8
1
100
AcDbPolyline
 90
        3
 70
   128
 43
0.0
 10
548.671644
 20
224.093313
 10
548.678605
 20
224.095386
 10
548.889198
 20
224.125557
  0
LWPOLYLINE
  5
957C
100
AcDbEntity
  8
1
100
AcDbPolyline
 90
        7
 70
   128
 43
0.0
 10
549.042412
 20
223.191582
 10
548.832859
 20
223.199564
 10
548.658594
 20
223.207631
 10
548.519959
 20
223.215767
 10
548.417222
 20
223.223958
 10
548.350585
 20
223.232185
 10
548.320179
 20
223.240435
  0
LWPOLYLINE
  5
957D
100
AcDbEntity
  8
1
100
AcDbPolyline
 90
        9
 70
   128
 43
0.0
 10
548.320179
 20
223.240435
 10
548.334608
 20
223.38673
 10
548.377297
 20
223.527405
 10
548.446603
 20
223.657053
 10
548.539866
 20
223.770694
 10
548.653501
 20
223.863962
 10
548.783142
 20
223.933273
 10
548.923808
 20
223.975963
 10
549.070095
 20
223.990394
  0
LWPOLYLINE
  5
957E
100
AcDbEntity
  8
1
100
AcDbPolyline
 90
        3
 70
   128
 43
0.0
 10
549.070095
 20
223.990394
 10
549.080635
 20
223.986183
 10
549.100238
 20
223.981975
  0
LINE
  5
957F
100
AcDbEntity
  8
1
100
AcDbLine
 10
548.889198
 20
224.125557
 30
0.0
 11
549.070095
 21
223.990394
 31
0.0
  0
LWPOLYLINE
  5
9580
100
AcDbEntity
  8
1
100
AcDbPolyline
 90
        4
 70
   128
 43
0.0
 10
548.089237
 20
224.080014
 10
548.102326
 20
224.063155
 10
548.154682
 20
223.993846
 10
548.271659
 20
223.812473
  0
LWPOLYLINE
  5
9581
100
AcDbEntity
  8
1
100
AcDbPolyline
 90
        6
 70
   128
 43
0.0
 10
548.320179
 20
223.240435
 10
548.297874
 20
223.25614
 10
548.211384
 20
223.318957
 10
548.061395
 20
223.444586
 10
547.91438
 20
223.59865
 10
547.912993
 20
223.600206
  0
LWPOLYLINE
  5
9582
100
AcDbEntity
  8
1
100
AcDbPolyline
 90
        3
 70
   128
 43
0.0
 10
549.042412
 20
221.559532
 10
549.043421
 20
221.555413
 10
549.137299
 20
221.324059
  0
LWPOLYLINE
  5
9583
100
AcDbEntity
  8
1
100
AcDbPolyline
 90
        9
 70
   128
 43
0.0
 10
548.320179
 20
221.510679
 10
548.334608
 20
221.364383
 10
548.377297
 20
221.223709
 10
548.446603
 20
221.09406
 10
548.539866
 20
220.980419
 10
548.653501
 20
220.887151
 10
548.783142
 20
220.817841
 10
548.923808
 20
220.77515
 10
549.070095
 20
220.76072
  0
LWPOLYLINE
  5
9584
100
AcDbEntity
  8
1
100
AcDbPolyline
 90
        6
 70
   128
 43
0.0
 10
547.912993
 20
221.150907
 10
547.91438
 20
221.152463
 10
547.928432
 20
221.16817
 10
547.98613
 20
221.230994
 10
548.116876
 20
221.35663
 10
548.320179
 20
221.510679
  0
LINE
  5
9585
100
AcDbEntity
  8
1
100
AcDbLine
 10
548.089237
 20
220.6711
 30
0.0
 11
548.062986
 21
220.704327
 31
0.0
  0
LWPOLYLINE
  5
9586
100
AcDbEntity
  8
1
100
AcDbPolyline
 90
        5
 70
   128
 43
0.0
 10
547.912993
 20
221.150907
 10
547.91303
 20
221.145911
 10
547.923131
 20
221.031565
 10
547.989679
 20
220.824358
 10
548.062986
 20
220.704327
  0
LINE
  5
9587
100
AcDbEntity
  8
1
100
AcDbLine
 10
549.029458
 20
220.684202
 30
0.0
 11
549.100238
 21
220.769138
 31
0.0
  0
LWPOLYLINE
  5
9588
100
AcDbEntity
  8
1
100
AcDbPolyline
 90
        9
 70
   128
 43
0.0
 10
549.137299
 20
221.324059
 10
549.135928
 20
221.219532
 10
549.134386
 20
221.138117
 10
549.131801
 20
221.04076
 10
549.129145
 20
220.97065
 10
549.123649
 20
220.87685
 10
549.117819
 20
220.821648
 10
549.111972
 20
220.79276
 10
549.100238
 20
220.769138
  0
LINE
  5
9589
100
AcDbEntity
  8
1
100
AcDbLine
 10
548.980588
 20
220.625557
 30
0.0
 11
549.029458
 21
220.684202
 31
0.0
  0
LINE
  5
958A
100
AcDbEntity
  8
1
100
AcDbLine
 10
548.889198
 20
220.625557
 30
0.0
 11
548.980588
 21
220.625557
 31
0.0
  0
LWPOLYLINE
  5
958B
100
AcDbEntity
  8
1
100
AcDbPolyline
 90
        6
 70
   128
 43
0.0
 10
548.271659
 20
220.938641
 10
548.281145
 20
220.927804
 10
548.31589
 20
220.886506
 10
548.404344
 20
220.801183
 10
548.533125
 20
220.71504
 10
548.671644
 20
220.657801
  0
LINE
  5
958C
100
AcDbEntity
  8
1
100
AcDbLine
 10
548.889198
 20
220.625557
 30
0.0
 11
548.671644
 21
220.657801
 31
0.0
  0
LWPOLYLINE
  5
958D
100
AcDbEntity
  8
1
100
AcDbPolyline
 90
        3
 70
   128
 43
0.0
 10
549.100238
 20
220.769138
 10
549.080635
 20
220.764931
 10
549.070095
 20
220.76072
  0
LINE
  5
958E
100
AcDbEntity
  8
1
100
AcDbLine
 10
549.070095
 20
220.76072
 30
0.0
 11
548.889198
 21
220.625557
 31
0.0
  0
LWPOLYLINE
  5
958F
100
AcDbEntity
  8
1
100
AcDbPolyline
 90
        4
 70
   128
 43
0.0
 10
548.271659
 20
220.938641
 10
548.262032
 20
220.921416
 10
548.209678
 20
220.836143
 10
548.089237
 20
220.6711
  0
LWPOLYLINE
  5
9590
100
AcDbEntity
  8
1
100
AcDbPolyline
 90
        7
 70
   128
 43
0.0
 10
548.320179
 20
221.510679
 10
548.350585
 20
221.518928
 10
548.417222
 20
221.527156
 10
548.519959
 20
221.535346
 10
548.658594
 20
221.543483
 10
548.832859
 20
221.55155
 10
549.042412
 20
221.559532
  0
LINE
  5
9591
100
AcDbEntity
  8
1
100
AcDbLine
 10
549.042412
 20
221.559532
 30
0.0
 11
549.042412
 21
223.191582
 31
0.0
  0
LINE
  5
9592
100
AcDbEntity
  8
1
100
AcDbLine
 10
548.320179
 20
221.510679
 30
0.0
 11
548.320179
 21
223.240435
 31
0.0
  0
LWPOLYLINE
  5
9593
100
AcDbEntity
  8
1
100
AcDbPolyline
 90
        5
 70
   128
 43
0.0
 10
557.140515
 20
223.549279
 10
557.139644
 20
223.568021
 10
557.13859
 20
223.63689
 10
557.137525
 20
223.750262
 10
557.137507
 20
223.752279
  0
LINE
  5
9594
100
AcDbEntity
  8
1
100
AcDbLine
 10
557.156691
 20
223.533103
 30
0.0
 11
557.140515
 21
223.549279
 31
0.0
  0
LWPOLYLINE
  5
9595
100
AcDbEntity
  8
1
100
AcDbPolyline
 90
        4
 70
   128
 43
0.0
 10
557.3375
 20
223.548827
 10
557.269181
 20
223.548878
 10
557.20287
 20
223.54903
 10
557.140515
 20
223.549279
  0
LWPOLYLINE
  5
9596
100
AcDbEntity
  8
1
100
AcDbPolyline
 90
        9
 70
   128
 43
0.0
 10
557.137507
 20
223.752279
 10
557.141646
 20
223.751603
 10
557.153229
 20
223.750953
 10
557.171814
 20
223.750355
 10
557.196697
 20
223.749831
 10
557.22693
 20
223.749401
 10
557.261366
 20
223.749082
 10
557.298696
 20
223.748885
 10
557.3375
 20
223.748819
  0
LINE
  5
9597
100
AcDbEntity
  8
1
100
AcDbLine
 10
557.3375
 20
223.748819
 30
0.0
 11
557.3375
 21
223.548827
 31
0.0
  0
LINE
  5
9598
100
AcDbEntity
  8
1
100
AcDbLine
 10
557.156691
 20
221.21801
 30
0.0
 11
557.140515
 21
221.201834
 31
0.0
  0
LWPOLYLINE
  5
9599
100
AcDbEntity
  8
1
100
AcDbPolyline
 90
        5
 70
   128
 43
0.0
 10
557.137507
 20
220.998834
 10
557.137525
 20
221.000852
 10
557.13859
 20
221.114224
 10
557.139644
 20
221.183092
 10
557.140515
 20
221.201834
  0
LWPOLYLINE
  5
959A
100
AcDbEntity
  8
1
100
AcDbPolyline
 90
        4
 70
   128
 43
0.0
 10
557.140515
 20
221.201834
 10
557.20287
 20
221.202083
 10
557.269181
 20
221.202236
 10
557.3375
 20
221.202287
  0
LWPOLYLINE
  5
959B
100
AcDbEntity
  8
1
100
AcDbPolyline
 90
        9
 70
   128
 43
0.0
 10
557.3375
 20
221.002294
 10
557.298696
 20
221.002228
 10
557.261366
 20
221.002032
 10
557.22693
 20
221.001713
 10
557.196697
 20
221.001283
 10
557.171814
 20
221.000759
 10
557.153229
 20
221.000161
 10
557.141646
 20
220.999511
 10
557.137507
 20
220.998834
  0
LINE
  5
959C
100
AcDbEntity
  8
1
100
AcDbLine
 10
557.3375
 20
221.202287
 30
0.0
 11
557.3375
 21
221.002294
 31
0.0
  0
TEXT
  5
959D
100
AcDbEntity
  8
1
100
AcDbText
 10
554.474391
 20
222.755496
 30
0.0
 40
1.0
  1
O
 50
270.0
  7
ITALIC
100
AcDbText
  0
TEXT
  5
959E
100
AcDbEntity
  8
1
100
AcDbText
 10
554.474391
 20
221.822271
 30
0.0
 40
0.96
  1
I
 50
270.0
  7
ITALIC
100
AcDbText
  0
TEXT
  5
959F
100
AcDbEntity
  8
1
100
AcDbText
 10
554.474391
 20
221.628624
 30
0.0
 40
1.0
  1
L
 50
270.0
  7
ITALIC
100
AcDbText
  0
LINE
  5
95A0
100
AcDbEntity
  8
1
100
AcDbLine
 10
557.156691
 20
223.533103
 30
0.0
 11
557.156691
 21
221.21801
 31
0.0
  0
TEXT
  5
95A1
100
AcDbEntity
  8
1
100
AcDbText
 10
554.474391
 20
223.619946
 30
0.0
 40
1.0
  1
C
 50
270.0
  7
ITALIC
100
AcDbText
  0
LINE
  5
95A2
100
AcDbEntity
  8
WY
 62
     3
100
AcDbLine
 10
591.61803
 20
214.625557
 30
0.0
 11
568.842744
 21
214.625557
 31
0.0
  0
LINE
  5
95A3
100
AcDbEntity
  8
1
100
AcDbLine
 10
566.786529
 20
216.125557
 30
0.0
 11
580.278873
 21
216.125557
 31
0.0
  0
LINE
  5
95A5
100
AcDbEntity
  8
1
100
AcDbLine
 10
566.616125
 20
214.975557
 30
0.0
 11
566.616125
 21
220.923677
 31
0.0
  0
LINE
  5
95AB
100
AcDbEntity
  8
1
100
AcDbLine
 10
567.81608
 20
220.915026
 30
0.0
 11
567.81608
 21
216.075557
 31
0.0
  0
LINE
  5
95AC
100
AcDbEntity
  8
1
100
AcDbLine
 10
566.540968
 20
220.998834
 30
0.0
 11
566.540968
 21
216.075557
 31
0.0
  0
LINE
  5
95AE
100
AcDbEntity
  8
1
100
AcDbLine
 10
568.842744
 20
215.675557
 30
0.0
 11
567.816125
 21
215.675557
 31
0.0
  0
LINE
  5
95AF
100
AcDbEntity
  8
1
100
AcDbLine
 10
567.816125
 20
215.025557
 30
0.0
 11
568.842744
 21
215.025557
 31
0.0
  0
LINE
  5
95B0
100
AcDbEntity
  8
1
100
AcDbLine
 10
568.842744
 20
215.875557
 30
0.0
 11
567.81608
 21
215.875557
 31
0.0
  0
LINE
  5
95B1
100
AcDbEntity
  8
1
100
AcDbLine
 10
567.81608
 20
216.075557
 30
0.0
 11
568.842744
 21
216.075557
 31
0.0
  0
LINE
  5
95B7
100
AcDbEntity
  8
1
100
AcDbLine
 10
567.816125
 20
215.875557
 30
0.0
 11
567.816125
 21
214.975557
 31
0.0
  0
LINE
  5
95B8
100
AcDbEntity
  8
1
100
AcDbLine
 10
566.907675
 20
214.975557
 30
0.0
 11
566.907675
 21
216.075557
 31
0.0
  0
LINE
  5
95B9
100
AcDbEntity
  8
1
100
AcDbLine
 10
567.251608
 20
215.875557
 30
0.0
 11
567.251608
 21
214.975557
 31
0.0
  0
LINE
  5
95BA
100
AcDbEntity
  8
1
100
AcDbLine
 10
567.808658
 20
214.975557
 30
0.0
 11
567.808658
 21
215.875557
 31
0.0
  0
LWPOLYLINE
  5
95BB
100
AcDbEntity
  8
1
100
AcDbPolyline
 90
        9
 70
   128
 43
0.0
 10
567.059075
 20
214.775557
 10
567.029539
 20
214.7794
 10
567.001137
 20
214.790781
 10
566.974962
 20
214.809263
 10
566.952019
 20
214.834135
 10
566.93319
 20
214.864443
 10
566.919199
 20
214.89902
 10
566.910584
 20
214.936539
 10
566.907675
 20
214.975557
  0
LINE
  5
95BC
100
AcDbEntity
  8
1
100
AcDbLine
 10
567.251608
 20
214.975557
 30
0.0
 11
566.907675
 21
214.975557
 31
0.0
  0
LINE
  5
95BD
100
AcDbEntity
  8
1
100
AcDbLine
 10
567.616125
 20
214.775557
 30
0.0
 11
567.059075
 21
214.775557
 31
0.0
  0
ARC
  5
95BE
100
AcDbEntity
  8
1
100
AcDbCircle
 10
567.616125
 20
214.975557
 30
0.0
 40
0.2
100
AcDbArc
 50
270.0
 51
0.0
  0
LWPOLYLINE
  5
95BF
100
AcDbEntity
  8
1
100
AcDbPolyline
 90
        9
 70
   128
 43
0.0
 10
567.059075
 20
214.775557
 10
567.096637
 20
214.7794
 10
567.132755
 20
214.790781
 10
567.166041
 20
214.809263
 10
567.195217
 20
214.834135
 10
567.219161
 20
214.864443
 10
567.236953
 20
214.89902
 10
567.247909
 20
214.936539
 10
567.251608
 20
214.975557
  0
LINE
  5
95C0
100
AcDbEntity
  8
1
100
AcDbLine
 10
567.251608
 20
214.975557
 30
0.0
 11
567.808658
 21
214.975557
 31
0.0
  0
LWPOLYLINE
  5
95C1
100
AcDbEntity
  8
1
100
AcDbPolyline
 90
        9
 70
   128
 43
0.0
 10
567.808658
 20
214.975557
 10
567.804959
 20
214.936539
 10
567.794002
 20
214.89902
 10
567.77621
 20
214.864443
 10
567.752267
 20
214.834135
 10
567.723091
 20
214.809263
 10
567.689804
 20
214.790781
 10
567.653687
 20
214.7794
 10
567.616125
 20
214.775557
  0
LINE
  5
95C2
100
AcDbEntity
  8
1
100
AcDbLine
 10
567.816125
 20
214.975557
 30
0.0
 11
567.808658
 21
214.975557
 31
0.0
  0
LWPOLYLINE
  5
95C3
100
AcDbEntity
  8
1
100
AcDbPolyline
 90
        7
 70
   128
 43
0.0
 10
567.204243
 20
215.875557
 10
567.162141
 20
215.882595
 10
567.115525
 20
215.901127
 10
567.050596
 20
215.939171
 10
566.974619
 20
216.000141
 10
566.90918
 20
216.073468
 10
566.907675
 20
216.075557
  0
LINE
  5
95C4
100
AcDbEntity
  8
1
100
AcDbLine
 10
566.907675
 20
216.075557
 30
0.0
 11
567.81608
 21
216.075557
 31
0.0
  0
LINE
  5
95C5
100
AcDbEntity
  8
1
100
AcDbLine
 10
567.81608
 20
215.875557
 30
0.0
 11
567.204243
 21
215.875557
 31
0.0
  0
LINE
  5
95C6
100
AcDbEntity
  8
1
100
AcDbLine
 10
567.81608
 20
215.875557
 30
0.0
 11
567.81608
 21
216.075557
 31
0.0
  0
LINE
  5
95C7
100
AcDbEntity
  8
1
100
AcDbLine
 10
566.583437
 20
216.075557
 30
0.0
 11
566.597147
 21
214.975557
 31
0.0
  0
LWPOLYLINE
  5
95C8
100
AcDbEntity
  8
1
100
AcDbPolyline
 90
        9
 70
   128
 43
0.0
 10
566.797139
 20
214.775557
 10
566.758123
 20
214.7794
 10
566.720606
 20
214.790781
 10
566.686029
 20
214.809263
 10
566.655723
 20
214.834135
 10
566.630852
 20
214.864443
 10
566.61237
 20
214.89902
 10
566.60099
 20
214.936539
 10
566.597147
 20
214.975557
  0
LINE
  5
95C9
100
AcDbEntity
  8
1
100
AcDbLine
 10
566.816118
 20
214.775557
 30
0.0
 11
566.797139
 21
214.775557
 31
0.0
  0
LWPOLYLINE
  5
95CA
100
AcDbEntity
  8
1
100
AcDbPolyline
 90
        9
 70
   128
 43
0.0
 10
566.816118
 20
214.775557
 10
566.777101
 20
214.7794
 10
566.739584
 20
214.790781
 10
566.705008
 20
214.809263
 10
566.674702
 20
214.834135
 10
566.64983
 20
214.864443
 10
566.631349
 20
214.89902
 10
566.619968
 20
214.936539
 10
566.616125
 20
214.975557
  0
LINE
  5
95CB
100
AcDbEntity
  8
1
100
AcDbLine
 10
566.597147
 20
214.975557
 30
0.0
 11
566.616125
 21
214.975557
 31
0.0
  0
LINE
  5
95CD
100
AcDbEntity
  8
1
100
AcDbLine
 10
566.540968
 20
216.075557
 30
0.0
 11
566.583437
 21
216.075557
 31
0.0
  0
LWPOLYLINE
  5
95CE
100
AcDbEntity
  8
1
100
AcDbPolyline
 90
        5
 70
   128
 43
0.0
 10
566.584998
 20
215.950361
 10
566.574672
 20
215.964443
 10
566.556191
 20
215.99902
 10
566.54481
 20
216.036539
 10
566.540968
 20
216.075557
  0
LINE
  5
95D1
100
AcDbEntity
  8
1
100
AcDbLine
 10
567.059075
 20
214.775557
 30
0.0
 11
566.816118
 21
214.775557
 31
0.0
  0
LINE
  5
95D2
100
AcDbEntity
  8
1
100
AcDbLine
 10
566.616125
 20
214.975557
 30
0.0
 11
566.907675
 21
214.975557
 31
0.0
  0
LINE
  5
95D3
100
AcDbEntity
  8
1
100
AcDbLine
 10
570.338533
 20
214.625557
 30
0.0
 11
570.326026
 21
214.625557
 31
0.0
  0
LINE
  5
95D4
100
AcDbEntity
  8
1
100
AcDbLine
 10
572.052449
 20
214.625557
 30
0.0
 11
572.039942
 21
214.625557
 31
0.0
  0
LINE
  5
95D5
100
AcDbEntity
  8
1
100
AcDbLine
 10
572.039942
 20
214.625557
 30
0.0
 11
570.338533
 21
214.625557
 31
0.0
  0
LINE
  5
95D6
100
AcDbEntity
  8
1
100
AcDbLine
 10
567.81608
 20
223.836088
 30
0.0
 11
568.842744
 21
223.836088
 31
0.0
  0
LINE
  5
95D7
100
AcDbEntity
  8
1
100
AcDbLine
 10
568.842744
 20
223.636095
 30
0.0
 11
567.81608
 21
223.636095
 31
0.0
  0
LINE
  5
95D8
100
AcDbEntity
  8
1
100
AcDbLine
 10
568.842744
 20
220.915026
 30
0.0
 11
567.81608
 21
220.915026
 31
0.0
  0
LINE
  5
95D9
100
AcDbEntity
  8
1
100
AcDbLine
 10
567.81608
 20
221.115018
 30
0.0
 11
568.842744
 21
221.115018
 31
0.0
  0
LINE
  5
95DA
100
AcDbEntity
  8
1
100
AcDbLine
 10
567.81608
 20
223.836088
 30
0.0
 11
567.81608
 21
223.636095
 31
0.0
  0
LINE
  5
95DB
100
AcDbEntity
  8
1
100
AcDbLine
 10
567.81608
 20
221.115018
 30
0.0
 11
567.81608
 21
220.915026
 31
0.0
  0
LWPOLYLINE
  5
95DC
100
AcDbEntity
  8
1
100
AcDbPolyline
 90
        9
 70
   128
 43
0.0
 10
566.616125
 20
223.827437
 10
566.619971
 20
223.788422
 10
566.631353
 20
223.750907
 10
566.649835
 20
223.716332
 10
566.674707
 20
223.686026
 10
566.705013
 20
223.661155
 10
566.739587
 20
223.642672
 10
566.777103
 20
223.63129
 10
566.816118
 20
223.627445
  0
LINE
  5
95DE
100
AcDbEntity
  8
1
100
AcDbLine
 10
566.816118
 20
223.627445
 30
0.0
 11
566.74096
 21
223.552287
 31
0.0
  0
LINE
  5
95DF
100
AcDbEntity
  8
1
100
AcDbLine
 10
566.540968
 20
223.752279
 30
0.0
 11
566.616125
 21
223.827437
 31
0.0
  0
LWPOLYLINE
  5
95E0
100
AcDbEntity
  8
1
100
AcDbPolyline
 90
        9
 70
   128
 43
0.0
 10
566.540968
 20
223.752279
 10
566.544813
 20
223.713265
 10
566.556195
 20
223.675749
 10
566.574678
 20
223.641174
 10
566.599549
 20
223.610869
 10
566.629855
 20
223.585997
 10
566.66443
 20
223.567515
 10
566.701945
 20
223.556132
 10
566.74096
 20
223.552287
  0
LWPOLYLINE
  5
95E3
100
AcDbEntity
  8
1
100
AcDbPolyline
 90
        9
 70
   128
 43
0.0
 10
566.816118
 20
221.123669
 10
566.777103
 20
221.119824
 10
566.739587
 20
221.108441
 10
566.705013
 20
221.089959
 10
566.674707
 20
221.065087
 10
566.649835
 20
221.034782
 10
566.631353
 20
221.000207
 10
566.619971
 20
220.962691
 10
566.616125
 20
220.923677
  0
LINE
  5
95E4
100
AcDbEntity
  8
1
100
AcDbLine
 10
566.74096
 20
221.198827
 30
0.0
 11
566.816118
 21
221.123669
 31
0.0
  0
LINE
  5
95E6
100
AcDbEntity
  8
1
100
AcDbLine
 10
566.616125
 20
220.923677
 30
0.0
 11
566.540968
 21
220.998834
 31
0.0
  0
LWPOLYLINE
  5
95E7
100
AcDbEntity
  8
1
100
AcDbPolyline
 90
        9
 70
   128
 43
0.0
 10
566.74096
 20
221.198827
 10
566.701945
 20
221.194981
 10
566.66443
 20
221.183599
 10
566.629855
 20
221.165117
 10
566.599549
 20
221.140245
 10
566.574678
 20
221.109939
 10
566.556195
 20
221.075364
 10
566.544813
 20
221.037849
 10
566.540968
 20
220.998834
  0
LWPOLYLINE
  5
95EA
100
AcDbEntity
  8
1
100
AcDbPolyline
 90
        9
 70
   128
 43
0.0
 10
567.81608
 20
220.915026
 10
567.583255
 20
220.915192
 10
567.359279
 20
220.915683
 10
567.152664
 20
220.916481
 10
566.971262
 20
220.917555
 10
566.821967
 20
220.918865
 10
566.710453
 20
220.92036
 10
566.640959
 20
220.921985
 10
566.616125
 20
220.923677
  0
LWPOLYLINE
  5
95EB
100
AcDbEntity
  8
1
100
AcDbPolyline
 90
        9
 70
   128
 43
0.0
 10
566.816118
 20
221.123669
 10
566.836813
 20
221.121977
 10
566.894724
 20
221.120353
 10
566.987652
 20
221.118857
 10
567.112065
 20
221.117547
 10
567.263233
 20
221.116473
 10
567.435413
 20
221.115675
 10
567.622059
 20
221.115184
 10
567.81608
 20
221.115018
  0
LWPOLYLINE
  5
95EC
100
AcDbEntity
  8
1
100
AcDbPolyline
 90
        9
 70
   128
 43
0.0
 10
566.616125
 20
223.827437
 10
566.640959
 20
223.829129
 10
566.710453
 20
223.830753
 10
566.821967
 20
223.832249
 10
566.971262
 20
223.833558
 10
567.152664
 20
223.834633
 10
567.359279
 20
223.835431
 10
567.583255
 20
223.835922
 10
567.81608
 20
223.836088
  0
LWPOLYLINE
  5
95ED
100
AcDbEntity
  8
1
100
AcDbPolyline
 90
        9
 70
   128
 43
0.0
 10
567.81608
 20
223.636095
 10
567.622059
 20
223.635929
 10
567.435413
 20
223.635438
 10
567.263233
 20
223.63464
 10
567.112065
 20
223.633566
 10
566.987652
 20
223.632256
 10
566.894724
 20
223.630761
 10
566.836813
 20
223.629136
 10
566.816118
 20
223.627445
  0
LINE
  5
95EE
100
AcDbEntity
  8
1
100
AcDbLine
 10
575.739237
 20
222.375557
 30
0.0
 11
574.914237
 21
222.375557
 31
0.0
  0
LINE
  5
95EF
100
AcDbEntity
  8
1
100
AcDbLine
 10
579.739237
 20
222.375557
 30
0.0
 11
580.564237
 21
222.375557
 31
0.0
  0
LINE
  5
95F0
100
AcDbEntity
  8
1
100
AcDbLine
 10
557.34099
 20
228.875557
 30
0.0
 11
557.974057
 21
228.875557
 31
0.0
  0
LINE
  5
95F1
100
AcDbEntity
  8
1
100
AcDbLine
 10
557.393761
 20
229.075557
 30
0.0
 11
566.588423
 21
229.075557
 31
0.0
  0
LINE
  5
95F2
100
AcDbEntity
  8
1
100
AcDbLine
 10
566.596524
 20
229.725557
 30
0.0
 11
557.393761
 21
229.725557
 31
0.0
  0
LINE
  5
95F3
100
AcDbEntity
  8
1
100
AcDbLine
 10
557.974057
 20
228.675557
 30
0.0
 11
557.34099
 21
228.675557
 31
0.0
  0
LINE
  5
95F4
100
AcDbEntity
  8
1
100
AcDbLine
 10
556.805451
 20
230.125557
 30
0.0
 11
570.298557
 21
230.125557
 31
0.0
  0
LINE
  5
95F5
100
AcDbEntity
  8
1
100
AcDbLine
 10
549.546993
 20
229.225557
 30
0.0
 11
551.877791
 21
229.225557
 31
0.0
  0
LINE
  5
95F6
100
AcDbEntity
  8
1
100
AcDbLine
 10
551.045755
 20
229.725557
 30
0.0
 11
551.428262
 21
229.725557
 31
0.0
  0
LINE
  5
95F7
100
AcDbEntity
  8
1
100
AcDbLine
 10
551.828218
 20
230.125557
 30
0.0
 11
551.063203
 21
230.125557
 31
0.0
  0
LINE
  5
95F8
100
AcDbEntity
  8
1
100
AcDbLine
 10
550.120983
 20
229.225557
 30
0.0
 11
550.120983
 21
230.025557
 31
0.0
  0
LINE
  5
95F9
100
AcDbEntity
  8
1
100
AcDbLine
 10
551.045755
 20
229.225557
 30
0.0
 11
551.045755
 21
229.725557
 31
0.0
  0
LWPOLYLINE
  5
95FA
100
AcDbEntity
  8
1
100
AcDbPolyline
 90
        9
 70
   128
 43
0.0
 10
551.063203
 20
230.125557
 10
551.059799
 20
230.117871
 10
551.056526
 20
230.095109
 10
551.053509
 20
230.058145
 10
551.050865
 20
230.008399
 10
551.048695
 20
229.947785
 10
551.047083
 20
229.87863
 10
551.04609
 20
229.803593
 10
551.045755
 20
229.725557
  0
LINE
  5
95FB
100
AcDbEntity
  8
1
100
AcDbLine
 10
551.045755
 20
229.725557
 30
0.0
 11
550.120983
 21
229.725557
 31
0.0
  0
LINE
  5
95FC
100
AcDbEntity
  8
1
100
AcDbLine
 10
549.020983
 20
230.025557
 30
0.0
 11
549.020983
 21
229.225557
 31
0.0
  0
LINE
  5
95FD
100
AcDbEntity
  8
1
100
AcDbLine
 10
549.042412
 20
229.225557
 30
0.0
 11
548.320179
 21
229.225557
 31
0.0
  0
LWPOLYLINE
  5
95FE
100
AcDbEntity
  8
1
100
AcDbPolyline
 90
        4
 70
   128
 43
0.0
 10
548.620535
 20
229.225557
 10
548.645793
 20
229.240592
 10
548.671336
 20
229.255833
 10
548.697059
 20
229.271217
  0
LINE
  5
95FF
100
AcDbEntity
  8
1
100
AcDbLine
 10
548.697059
 20
229.271217
 30
0.0
 11
549.020983
 21
229.465157
 31
0.0
  0
LINE
  5
9600
100
AcDbEntity
  8
1
100
AcDbLine
 10
548.289255
 20
230.125557
 30
0.0
 11
548.714507
 21
230.125557
 31
0.0
  0
LINE
  5
9601
100
AcDbEntity
  8
1
100
AcDbLine
 10
549.042412
 20
228.9601
 30
0.0
 11
549.137299
 21
228.9601
 31
0.0
  0
LINE
  5
9602
100
AcDbEntity
  8
1
100
AcDbLine
 10
549.042412
 20
228.9601
 30
0.0
 11
549.042412
 21
229.225557
 31
0.0
  0
LWPOLYLINE
  5
9603
100
AcDbEntity
  8
1
100
AcDbPolyline
 90
        7
 70
   128
 43
0.0
 10
548.320179
 20
228.910699
 10
548.350585
 20
228.919041
 10
548.417222
 20
228.927361
 10
548.519959
 20
228.935643
 10
548.658594
 20
228.943871
 10
548.832859
 20
228.952028
 10
549.042412
 20
228.9601
  0
LINE
  5
9604
100
AcDbEntity
  8
1
100
AcDbLine
 10
548.320179
 20
228.910699
 30
0.0
 11
548.320179
 21
229.225557
 31
0.0
  0
LINE
  5
9605
100
AcDbEntity
  8
1
100
AcDbLine
 10
549.020983
 20
229.263952
 30
0.0
 11
548.956952
 21
229.225557
 31
0.0
  0
LINE
  5
9606
100
AcDbEntity
  8
1
100
AcDbLine
 10
548.665321
 20
229.225557
 30
0.0
 11
549.020983
 21
229.438824
 31
0.0
  0
LINE
  5
9607
100
AcDbEntity
  8
1
100
AcDbLine
 10
549.020983
 20
229.725557
 30
0.0
 11
548.697059
 21
229.725557
 31
0.0
  0
LINE
  5
9608
100
AcDbEntity
  8
1
100
AcDbLine
 10
548.697059
 20
229.725557
 30
0.0
 11
548.697059
 21
229.271217
 31
0.0
  0
LWPOLYLINE
  5
9609
100
AcDbEntity
  8
1
100
AcDbPolyline
 90
        9
 70
   128
 43
0.0
 10
548.714507
 20
230.125557
 10
548.711103
 20
230.117871
 10
548.70783
 20
230.095109
 10
548.704814
 20
230.058145
 10
548.70217
 20
230.008399
 10
548.7
 20
229.947785
 10
548.698387
 20
229.87863
 10
548.697395
 20
229.803593
 10
548.697059
 20
229.725557
  0
LINE
  5
960A
100
AcDbEntity
  8
1
100
AcDbLine
 10
548.314551
 20
229.225557
 30
0.0
 11
548.314551
 21
229.725557
 31
0.0
  0
LINE
  5
960B
100
AcDbEntity
  8
1
100
AcDbLine
 10
548.314551
 20
229.725557
 30
0.0
 11
548.697059
 21
229.725557
 31
0.0
  0
LWPOLYLINE
  5
960C
100
AcDbEntity
  8
1
100
AcDbPolyline
 90
        9
 70
   128
 43
0.0
 10
548.714507
 20
230.125557
 10
548.63648
 20
230.117871
 10
548.561451
 20
230.095109
 10
548.492304
 20
230.058145
 10
548.431696
 20
230.008399
 10
548.381956
 20
229.947785
 10
548.344996
 20
229.87863
 10
548.322236
 20
229.803593
 10
548.314551
 20
229.725557
  0
LWPOLYLINE
  5
960D
100
AcDbEntity
  8
1
100
AcDbPolyline
 90
        6
 70
   128
 43
0.0
 10
547.889237
 20
229.725557
 10
547.911785
 20
229.857955
 10
547.976886
 20
229.975426
 10
548.077202
 20
230.064729
 10
548.201427
 20
230.115796
 10
548.289255
 20
230.125557
  0
LINE
  5
960E
100
AcDbEntity
  8
1
100
AcDbLine
 10
548.314551
 20
229.725557
 30
0.0
 11
547.889237
 21
229.725557
 31
0.0
  0
LINE
  5
960F
100
AcDbEntity
  8
1
100
AcDbLine
 10
549.020983
 20
230.025557
 30
0.0
 11
550.120983
 21
230.025557
 31
0.0
  0
LINE
  5
9610
100
AcDbEntity
  8
1
100
AcDbLine
 10
548.714507
 20
230.125557
 30
0.0
 11
551.063203
 21
230.125557
 31
0.0
  0
LINE
  5
9611
100
AcDbEntity
  8
1
100
AcDbLine
 10
548.089237
 20
228.15027
 30
0.0
 11
548.062986
 21
228.176464
 31
0.0
  0
LWPOLYLINE
  5
9612
100
AcDbEntity
  8
1
100
AcDbPolyline
 90
        5
 70
   128
 43
0.0
 10
547.912993
 20
228.550916
 10
547.913029
 20
228.546763
 10
547.934179
 20
228.403007
 10
547.997219
 20
228.261806
 10
548.062986
 20
228.176464
  0
LINE
  5
9613
100
AcDbEntity
  8
1
100
AcDbLine
 10
549.029458
 20
228.284202
 30
0.0
 11
549.116938
 21
228.389179
 31
0.0
  0
LWPOLYLINE
  5
9614
100
AcDbEntity
  8
1
100
AcDbPolyline
 90
        5
 70
   128
 43
0.0
 10
549.135468
 20
228.649759
 10
549.133331
 20
228.569865
 10
549.131114
 20
228.512764
 10
549.126533
 20
228.44031
 10
549.116938
 20
228.389179
  0
LINE
  5
9615
100
AcDbEntity
  8
1
100
AcDbLine
 10
548.980588
 20
228.225557
 30
0.0
 11
549.029458
 21
228.284202
 31
0.0
  0
LINE
  5
9616
100
AcDbEntity
  8
1
100
AcDbLine
 10
548.689209
 20
228.225557
 30
0.0
 11
548.980588
 21
228.225557
 31
0.0
  0
LWPOLYLINE
  5
9617
100
AcDbEntity
  8
1
100
AcDbPolyline
 90
        7
 70
   128
 43
0.0
 10
548.271659
 20
228.407675
 10
548.28753
 20
228.39298
 10
548.328648
 20
228.356078
 10
548.404843
 20
228.302927
 10
548.533496
 20
228.247708
 10
548.643893
 20
228.227415
 10
548.671644
 20
228.225837
  0
LINE
  5
9618
100
AcDbEntity
  8
1
100
AcDbLine
 10
548.689209
 20
228.225557
 30
0.0
 11
548.671644
 21
228.225837
 31
0.0
  0
LWPOLYLINE
  5
9619
100
AcDbEntity
  8
1
100
AcDbPolyline
 90
        4
 70
   128
 43
0.0
 10
549.116938
 20
228.389179
 10
548.988996
 20
228.379743
 10
548.906652
 20
228.370252
 10
548.870118
 20
228.360729
  0
LINE
  5
961A
100
AcDbEntity
  8
1
100
AcDbLine
 10
548.870118
 20
228.360729
 30
0.0
 11
548.689209
 21
228.225557
 31
0.0
  0
LWPOLYLINE
  5
961B
100
AcDbEntity
  8
1
100
AcDbPolyline
 90
        4
 70
   128
 43
0.0
 10
548.271659
 20
228.407675
 10
548.265522
 20
228.397363
 10
548.227128
 20
228.336697
 10
548.089237
 20
228.15027
  0
LWPOLYLINE
  5
961C
100
AcDbEntity
  8
1
100
AcDbPolyline
 90
        9
 70
   128
 43
0.0
 10
549.137299
 20
228.9601
 10
549.137267
 20
228.910586
 10
549.137171
 20
228.862163
 10
549.137014
 20
228.815898
 10
549.136798
 20
228.772812
 10
549.13653
 20
228.733852
 10
549.136214
 20
228.699879
 10
549.135857
 20
228.671641
 10
549.135468
 20
228.649759
  0
LWPOLYLINE
  5
961D
100
AcDbEntity
  8
1
100
AcDbPolyline
 90
        9
 70
   128
 43
0.0
 10
549.042412
 20
228.9601
 10
549.04401
 20
228.91892
 10
549.048567
 20
228.877972
 10
549.056057
 20
228.837485
 10
549.066438
 20
228.797686
 10
549.079651
 20
228.758799
 10
549.095623
 20
228.721042
 10
549.114264
 20
228.684627
 10
549.135468
 20
228.649759
  0
LWPOLYLINE
  5
961E
100
AcDbEntity
  8
1
100
AcDbPolyline
 90
        9
 70
   128
 43
0.0
 10
548.320179
 20
228.910699
 10
548.330761
 20
228.803416
 10
548.362065
 20
228.700255
 10
548.41289
 20
228.605179
 10
548.481283
 20
228.521842
 10
548.564615
 20
228.453446
 10
548.659685
 20
228.402618
 10
548.76284
 20
228.371311
 10
548.870118
 20
228.360729
  0
LWPOLYLINE
  5
961F
100
AcDbEntity
  8
1
100
AcDbPolyline
 90
        6
 70
   128
 43
0.0
 10
547.912993
 20
228.550916
 10
547.91438
 20
228.552472
 10
547.924675
 20
228.56399
 10
547.966546
 20
228.610062
 10
548.162418
 20
228.794334
 10
548.320179
 20
228.910699
  0
LINE
  5
9620
100
AcDbEntity
  8
1
100
AcDbLine
 10
551.895238
 20
230.125557
 30
0.0
 11
555.753846
 21
230.125557
 31
0.0
  0
LINE
  5
9621
100
AcDbEntity
  8
1
100
AcDbLine
 10
555.736398
 20
229.725557
 30
0.0
 11
551.877791
 21
229.725557
 31
0.0
  0
LINE
  5
9622
100
AcDbEntity
  8
1
100
AcDbLine
 10
551.495284
 20
229.225557
 30
0.0
 11
551.495284
 21
229.725557
 31
0.0
  0
LINE
  5
9623
100
AcDbEntity
  8
1
100
AcDbLine
 10
551.428262
 20
229.725557
 30
0.0
 11
551.428262
 21
229.225557
 31
0.0
  0
LINE
  5
9624
100
AcDbEntity
  8
1
100
AcDbLine
 10
551.495284
 20
229.725557
 30
0.0
 11
551.428262
 21
229.725557
 31
0.0
  0
LINE
  5
9625
100
AcDbEntity
  8
1
100
AcDbLine
 10
551.828218
 20
230.125557
 30
0.0
 11
551.895238
 21
230.125557
 31
0.0
  0
LINE
  5
9626
100
AcDbEntity
  8
1
100
AcDbLine
 10
551.877791
 20
229.725557
 30
0.0
 11
551.877791
 21
229.225557
 31
0.0
  0
LWPOLYLINE
  5
9627
100
AcDbEntity
  8
1
100
AcDbPolyline
 90
        9
 70
   128
 43
0.0
 10
551.895238
 20
230.125557
 10
551.891834
 20
230.117871
 10
551.888561
 20
230.095109
 10
551.885545
 20
230.058145
 10
551.882901
 20
230.008399
 10
551.880731
 20
229.947785
 10
551.879119
 20
229.87863
 10
551.878126
 20
229.803593
 10
551.877791
 20
229.725557
  0
LINE
  5
9628
100
AcDbEntity
  8
1
100
AcDbLine
 10
551.495284
 20
229.725557
 30
0.0
 11
551.877791
 21
229.725557
 31
0.0
  0
LWPOLYLINE
  5
9629
100
AcDbEntity
  8
1
100
AcDbPolyline
 90
        9
 70
   128
 43
0.0
 10
551.895238
 20
230.125557
 10
551.817211
 20
230.117871
 10
551.742182
 20
230.095109
 10
551.673036
 20
230.058145
 10
551.612428
 20
230.008399
 10
551.562688
 20
229.947785
 10
551.525729
 20
229.87863
 10
551.502969
 20
229.803593
 10
551.495284
 20
229.725557
  0
LWPOLYLINE
  5
962A
100
AcDbEntity
  8
1
100
AcDbPolyline
 90
        9
 70
   128
 43
0.0
 10
551.828218
 20
230.125557
 10
551.75019
 20
230.117871
 10
551.675161
 20
230.095109
 10
551.606014
 20
230.058145
 10
551.545407
 20
230.008399
 10
551.495667
 20
229.947785
 10
551.458707
 20
229.87863
 10
551.435947
 20
229.803593
 10
551.428262
 20
229.725557
  0
LINE
  5
962B
100
AcDbEntity
  8
1
100
AcDbLine
 10
555.753846
 20
230.125557
 30
0.0
 11
556.588711
 21
230.125557
 31
0.0
  0
LWPOLYLINE
  5
962C
100
AcDbEntity
  8
1
100
AcDbPolyline
 90
        7
 70
   128
 43
0.0
 10
557.200416
 20
229.725557
 10
557.191647
 20
229.809376
 10
557.168364
 20
229.8834
 10
557.111322
 20
229.978622
 10
556.994128
 20
230.076965
 10
556.808228
 20
230.125547
 10
556.805451
 20
230.125557
  0
LINE
  5
962D
100
AcDbEntity
  8
1
100
AcDbLine
 10
556.588711
 20
230.125557
 30
0.0
 11
556.805451
 21
230.125557
 31
0.0
  0
LINE
  5
962E
100
AcDbEntity
  8
1
100
AcDbLine
 10
556.988696
 20
229.725557
 30
0.0
 11
555.736398
 21
229.725557
 31
0.0
  0
LWPOLYLINE
  5
962F
100
AcDbEntity
  8
1
100
AcDbPolyline
 90
        9
 70
   128
 43
0.0
 10
556.588711
 20
230.125557
 10
556.666744
 20
230.117871
 10
556.741779
 20
230.095109
 10
556.810931
 20
230.058145
 10
556.871543
 20
230.008399
 10
556.921286
 20
229.947785
 10
556.958249
 20
229.87863
 10
556.98101
 20
229.803593
 10
556.988696
 20
229.725557
  0
LWPOLYLINE
  5
9630
100
AcDbEntity
  8
1
100
AcDbPolyline
 90
        9
 70
   128
 43
0.0
 10
555.753846
 20
230.125557
 10
555.750442
 20
230.117871
 10
555.747169
 20
230.095109
 10
555.744153
 20
230.058145
 10
555.741509
 20
230.008399
 10
555.739339
 20
229.947785
 10
555.737726
 20
229.87863
 10
555.736733
 20
229.803593
 10
555.736398
 20
229.725557
  0
LINE
  5
9631
100
AcDbEntity
  8
1
100
AcDbLine
 10
557.200416
 20
229.725557
 30
0.0
 11
556.988696
 21
229.725557
 31
0.0
  0
LINE
  5
9632
100
AcDbEntity
  8
1
100
AcDbLine
 10
557.200416
 20
229.075557
 30
0.0
 11
557.200416
 21
229.725557
 31
0.0
  0
LINE
  5
9633
100
AcDbEntity
  8
1
100
AcDbLine
 10
557.137507
 20
229.075557
 30
0.0
 11
557.200416
 21
229.075557
 31
0.0
  0
LWPOLYLINE
  5
9634
100
AcDbEntity
  8
1
100
AcDbPolyline
 90
        9
 70
   128
 43
0.0
 10
557.400408
 20
228.875557
 10
557.399111
 20
228.8794
 10
557.397864
 20
228.890781
 10
557.396715
 20
228.909263
 10
557.395708
 20
228.934135
 10
557.394881
 20
228.964443
 10
557.394267
 20
228.99902
 10
557.393889
 20
229.036539
 10
557.393761
 20
229.075557
  0
LWPOLYLINE
  5
9635
100
AcDbEntity
  8
1
100
AcDbPolyline
 90
        7
 70
   128
 43
0.0
 10
556.805451
 20
230.125557
 10
556.809587
 20
230.125547
 10
557.086482
 20
230.076965
 10
557.261052
 20
229.978617
 10
557.346019
 20
229.883392
 10
557.380699
 20
229.809372
 10
557.393761
 20
229.725557
  0
LINE
  5
9636
100
AcDbEntity
  8
1
100
AcDbLine
 10
557.393761
 20
229.725557
 30
0.0
 11
557.393761
 21
229.075557
 31
0.0
  0
LWPOLYLINE
  5
9637
100
AcDbEntity
  8
1
100
AcDbPolyline
 90
        9
 70
   128
 43
0.0
 10
557.137507
 20
229.075557
 10
557.141985
 20
229.036753
 10
557.153893
 20
228.999423
 10
557.172779
 20
228.964987
 10
557.197925
 20
228.934754
 10
557.228376
 20
228.909871
 10
557.262974
 20
228.891286
 10
557.300405
 20
228.879703
 10
557.339245
 20
228.875564
  0
LWPOLYLINE
  5
9638
100
AcDbEntity
  8
1
100
AcDbPolyline
 90
        9
 70
   128
 43
0.0
 10
557.200416
 20
229.075557
 10
557.204258
 20
229.036539
 10
557.215639
 20
228.99902
 10
557.23412
 20
228.964443
 10
557.258992
 20
228.934135
 10
557.289298
 20
228.909263
 10
557.323874
 20
228.890781
 10
557.361391
 20
228.8794
 10
557.400408
 20
228.875557
  0
LINE
  5
9639
100
AcDbEntity
  8
1
100
AcDbLine
 10
557.339245
 20
228.875564
 30
0.0
 11
557.34099
 21
228.875557
 31
0.0
  0
LINE
  5
963A
100
AcDbEntity
  8
1
100
AcDbLine
 10
557.200416
 20
229.725557
 30
0.0
 11
557.393761
 21
229.725557
 31
0.0
  0
LINE
  5
963B
100
AcDbEntity
  8
1
100
AcDbLine
 10
557.200416
 20
229.075557
 30
0.0
 11
557.393761
 21
229.075557
 31
0.0
  0
TEXT
  5
963C
100
AcDbEntity
  8
1
100
AcDbText
 10
554.639398
 20
228.84853
 30
0.0
 40
1.0
  1
A
 50
270.0
  7
ITALIC
 71
     2
100
AcDbText
  0
LINE
  5
963D
100
AcDbEntity
  8
OSIE
100
AcDbLine
 10
553.889237
 20
226.125557
 30
0.0
 11
551.889237
 21
226.125557
 31
0.0
  0
LINE
  5
963E
100
AcDbEntity
  8
OSIE
100
AcDbLine
 10
552.889237
 20
227.125557
 30
0.0
 11
552.889237
 21
225.125557
 31
0.0
  0
LINE
  5
963F
100
AcDbEntity
  8
1
100
AcDbLine
 10
557.34099
 20
228.675557
 30
0.0
 11
557.3375
 21
228.675572
 31
0.0
  0
TEXT
  5
9640
100
AcDbEntity
  8
1
100
AcDbText
 10
554.639398
 20
228.836584
 30
0.0
 40
1.0
  1
2
 50
270.0
  7
ITALIC
100
AcDbText
  0
LWPOLYLINE
  5
9641
100
AcDbEntity
  8
1
100
AcDbPolyline
 90
        9
 70
   128
 43
0.0
 10
557.3375
 20
228.675572
 10
557.298696
 20
228.68385
 10
557.261366
 20
228.707015
 10
557.22693
 20
228.744186
 10
557.196697
 20
228.793951
 10
557.171814
 20
228.854418
 10
557.153229
 20
228.92329
 10
557.141646
 20
228.997949
 10
557.137507
 20
229.075557
  0
LINE
  5
9642
100
AcDbEntity
  8
1
100
AcDbLine
 10
557.339245
 20
228.875564
 30
0.0
 11
557.3375
 21
228.675572
 31
0.0
  0
LINE
  5
9643
100
AcDbEntity
  8
1
100
AcDbLine
 10
557.34099
 20
228.875557
 30
0.0
 11
557.34099
 21
228.675557
 31
0.0
  0
LINE
  5
9644
100
AcDbEntity
  8
WY
 62
     3
100
AcDbLine
 10
591.61803
 20
230.125557
 30
0.0
 11
568.842744
 21
230.125557
 31
0.0
  0
LINE
  5
9645
100
AcDbEntity
  8
WY
 62
     3
100
AcDbLine
 10
591.61803
 20
230.125557
 30
0.0
 11
568.842744
 21
230.125557
 31
0.0
  0
LINE
  5
9646
100
AcDbEntity
  8
1
100
AcDbLine
 10
566.786529
 20
228.625557
 30
0.0
 11
580.278873
 21
228.625557
 31
0.0
  0
LINE
  5
9647
100
AcDbEntity
  8
1
100
AcDbLine
 10
567.81608
 20
228.875557
 30
0.0
 11
568.842744
 21
228.875557
 31
0.0
  0
LINE
  5
9648
100
AcDbEntity
  8
1
100
AcDbLine
 10
567.816125
 20
229.075557
 30
0.0
 11
568.842744
 21
229.075557
 31
0.0
  0
LINE
  5
9649
100
AcDbEntity
  8
1
100
AcDbLine
 10
568.842744
 20
229.725557
 30
0.0
 11
567.816125
 21
229.725557
 31
0.0
  0
LINE
  5
964A
100
AcDbEntity
  8
1
100
AcDbLine
 10
568.842744
 20
228.675557
 30
0.0
 11
567.81608
 21
228.675557
 31
0.0
  0
LINE
  5
964B
100
AcDbEntity
  8
1
100
AcDbLine
 10
567.251608
 20
229.775557
 30
0.0
 11
566.907675
 21
229.775557
 31
0.0
  0
LWPOLYLINE
  5
964C
100
AcDbEntity
  8
1
100
AcDbPolyline
 90
        9
 70
   128
 43
0.0
 10
567.059075
 20
229.975557
 10
567.029539
 20
229.971714
 10
567.001137
 20
229.960333
 10
566.974962
 20
229.941851
 10
566.952019
 20
229.916978
 10
566.93319
 20
229.886671
 10
566.919199
 20
229.852093
 10
566.910584
 20
229.814575
 10
566.907675
 20
229.775557
  0
LINE
  5
964D
100
AcDbEntity
  8
1
100
AcDbLine
 10
567.204243
 20
228.875557
 30
0.0
 11
567.81608
 21
228.875557
 31
0.0
  0
LINE
  5
964E
100
AcDbEntity
  8
1
100
AcDbLine
 10
567.059075
 20
229.975557
 30
0.0
 11
567.616125
 21
229.975557
 31
0.0
  0
LINE
  5
964F
100
AcDbEntity
  8
1
100
AcDbLine
 10
567.816125
 20
229.775557
 30
0.0
 11
567.816125
 21
228.875557
 31
0.0
  0
ARC
  5
9650
100
AcDbEntity
  8
1
100
AcDbCircle
 10
567.616125
 20
229.775557
 30
0.0
 40
0.2
100
AcDbArc
 50
0.0
 51
90.0
  0
LINE
  5
9651
100
AcDbEntity
  8
1
100
AcDbLine
 10
567.251608
 20
229.775557
 30
0.0
 11
567.251608
 21
228.875557
 31
0.0
  0
LWPOLYLINE
  5
9652
100
AcDbEntity
  8
1
100
AcDbPolyline
 90
        9
 70
   128
 43
0.0
 10
567.251608
 20
229.775557
 10
567.247909
 20
229.814575
 10
567.236953
 20
229.852093
 10
567.219161
 20
229.886671
 10
567.195217
 20
229.916978
 10
567.166041
 20
229.941851
 10
567.132755
 20
229.960333
 10
567.096637
 20
229.971714
 10
567.059075
 20
229.975557
  0
LINE
  5
9653
100
AcDbEntity
  8
1
100
AcDbLine
 10
567.808658
 20
229.775557
 30
0.0
 11
567.251608
 21
229.775557
 31
0.0
  0
LINE
  5
9654
100
AcDbEntity
  8
1
100
AcDbLine
 10
567.808658
 20
228.875557
 30
0.0
 11
567.808658
 21
229.775557
 31
0.0
  0
LWPOLYLINE
  5
9655
100
AcDbEntity
  8
1
100
AcDbPolyline
 90
        9
 70
   128
 43
0.0
 10
567.808658
 20
229.775557
 10
567.804959
 20
229.814575
 10
567.794002
 20
229.852093
 10
567.77621
 20
229.886671
 10
567.752267
 20
229.916978
 10
567.723091
 20
229.941851
 10
567.689804
 20
229.960333
 10
567.653687
 20
229.971714
 10
567.616125
 20
229.975557
  0
LINE
  5
9656
100
AcDbEntity
  8
1
100
AcDbLine
 10
567.808658
 20
229.775557
 30
0.0
 11
567.816125
 21
229.775557
 31
0.0
  0
LINE
  5
9657
100
AcDbEntity
  8
1
100
AcDbLine
 10
567.81608
 20
228.675557
 30
0.0
 11
566.907675
 21
228.675557
 31
0.0
  0
LWPOLYLINE
  5
9658
100
AcDbEntity
  8
1
100
AcDbPolyline
 90
        7
 70
   128
 43
0.0
 10
567.204243
 20
228.875557
 10
567.162141
 20
228.868519
 10
567.115525
 20
228.849986
 10
567.050596
 20
228.811942
 10
566.974619
 20
228.750973
 10
566.90918
 20
228.677646
 10
566.907675
 20
228.675557
  0
LINE
  5
9659
100
AcDbEntity
  8
1
100
AcDbLine
 10
566.907675
 20
228.675557
 30
0.0
 11
566.907675
 21
229.775557
 31
0.0
  0
LINE
  5
965A
100
AcDbEntity
  8
1
100
AcDbLine
 10
567.81608
 20
228.875557
 30
0.0
 11
567.81608
 21
228.675557
 31
0.0
  0
LWPOLYLINE
  5
965B
100
AcDbEntity
  8
1
100
AcDbPolyline
 90
        9
 70
   128
 43
0.0
 10
566.797139
 20
229.975557
 10
566.758123
 20
229.971714
 10
566.720606
 20
229.960333
 10
566.686029
 20
229.941851
 10
566.655723
 20
229.916978
 10
566.630852
 20
229.886671
 10
566.61237
 20
229.852093
 10
566.60099
 20
229.814575
 10
566.597147
 20
229.775557
  0
LINE
  5
965C
100
AcDbEntity
  8
1
100
AcDbLine
 10
566.797139
 20
229.975557
 30
0.0
 11
566.816118
 21
229.975557
 31
0.0
  0
LWPOLYLINE
  5
965E
100
AcDbEntity
  8
1
100
AcDbPolyline
 90
        9
 70
   128
 43
0.0
 10
566.816118
 20
229.975557
 10
566.777101
 20
229.971714
 10
566.739584
 20
229.960333
 10
566.705008
 20
229.941851
 10
566.674702
 20
229.916978
 10
566.64983
 20
229.886671
 10
566.631349
 20
229.852093
 10
566.619968
 20
229.814575
 10
566.616125
 20
229.775557
  0
LINE
  5
965F
100
AcDbEntity
  8
1
100
AcDbLine
 10
566.616125
 20
229.775557
 30
0.0
 11
566.597147
 21
229.775557
 31
0.0
  0
LINE
  5
9666
100
AcDbEntity
  8
1
100
AcDbLine
 10
566.583437
 20
228.675557
 30
0.0
 11
566.540968
 21
228.675557
 31
0.0
  0
LWPOLYLINE
  5
9667
100
AcDbEntity
  8
1
100
AcDbPolyline
 90
        5
 70
   128
 43
0.0
 10
566.584998
 20
228.800752
 10
566.574672
 20
228.786671
 10
566.556191
 20
228.752093
 10
566.54481
 20
228.714575
 10
566.540968
 20
228.675557
  0
LINE
  5
9669
100
AcDbEntity
  8
1
100
AcDbLine
 10
566.597147
 20
229.775557
 30
0.0
 11
566.583437
 21
228.675557
 31
0.0
  0
LINE
  5
966B
100
AcDbEntity
  8
1
100
AcDbLine
 10
566.816118
 20
229.975557
 30
0.0
 11
567.059075
 21
229.975557
 31
0.0
  0
LINE
  5
966C
100
AcDbEntity
  8
1
100
AcDbLine
 10
566.907675
 20
229.775557
 30
0.0
 11
566.616125
 21
229.775557
 31
0.0
  0
LINE
  5
966D
100
AcDbEntity
  8
1
100
AcDbLine
 10
570.326026
 20
230.125557
 30
0.0
 11
570.338533
 21
230.125557
 31
0.0
  0
LINE
  5
966E
100
AcDbEntity
  8
1
100
AcDbLine
 10
572.039942
 20
230.125557
 30
0.0
 11
572.052449
 21
230.125557
 31
0.0
  0
LINE
  5
966F
100
AcDbEntity
  8
1
100
AcDbLine
 10
570.338533
 20
230.125557
 30
0.0
 11
572.039942
 21
230.125557
 31
0.0
  0
LINE
  5
9670
100
AcDbEntity
  8
1
100
AcDbLine
 10
622.049889
 20
228.291271
 30
0.0
 11
622.049889
 21
224.059843
 31
0.0
  0
LINE
  5
9671
100
AcDbEntity
  8
1
100
AcDbLine
 10
623.144148
 20
228.745666
 30
0.0
 11
623.144148
 21
223.405474
 31
0.0
  0
LINE
  5
9672
100
AcDbEntity
  8
1
100
AcDbLine
 10
622.969135
 20
228.415276
 30
0.0
 11
622.969135
 21
223.803013
 31
0.0
  0
LINE
  5
9673
100
AcDbEntity
  8
1
100
AcDbLine
 10
622.260207
 20
224.125557
 30
0.0
 11
622.260207
 21
228.225557
 31
0.0
  0
LINE
  5
9674
100
AcDbEntity
  8
1
100
AcDbLine
 10
622.989237
 20
223.85693
 30
0.0
 11
622.989237
 21
228.36734
 31
0.0
  0
LINE
  5
9675
100
AcDbEntity
  8
1
100
AcDbLine
 10
622.56915
 20
224.090559
 30
0.0
 11
622.56915
 21
228.226194
 31
0.0
  0
LINE
  5
9676
100
AcDbEntity
  8
1
100
AcDbLine
 10
622.994172
 20
223.850346
 30
0.0
 11
622.994172
 21
228.372573
 31
0.0
  0
LINE
  5
9677
100
AcDbEntity
  8
1
100
AcDbLine
 10
614.149016
 20
228.284202
 30
0.0
 11
614.149016
 21
224.066912
 31
0.0
  0
LINE
  5
9678
100
AcDbEntity
  8
1
100
AcDbLine
 10
614.19792
 20
224.125596
 30
0.0
 11
614.19792
 21
228.225517
 31
0.0
  0
LINE
  5
9679
100
AcDbEntity
  8
1
100
AcDbLine
 10
605.749016
 20
228.284188
 30
0.0
 11
605.749016
 21
224.066925
 31
0.0
  0
LINE
  5
967A
100
AcDbEntity
  8
1
100
AcDbLine
 10
605.79792
 20
224.125557
 30
0.0
 11
605.79792
 21
228.225557
 31
0.0
  0
INSERT
  5
967B
100
AcDbEntity
  8
WY
100
AcDbBlockReference
  2
A$C25565E68
 10
607.789238
 20
223.675557
 30
0.0
 41
0.5
 42
0.5
 43
0.5
  0
CIRCLE
  5
967C
100
AcDbEntity
  8
1
100
AcDbCircle
 10
610.289237
 20
226.175557
 30
0.0
 40
2.604184
  0
INSERT
  5
967D
100
AcDbEntity
  8
WY
100
AcDbBlockReference
  2
A$C25565E68
 10
615.689238
 20
223.675557
 30
0.0
 41
0.5
 42
0.5
 43
0.5
  0
CIRCLE
  5
967E
100
AcDbEntity
  8
1
100
AcDbCircle
 10
618.189237
 20
226.175557
 30
0.0
 40
2.604184
  0
LINE
  5
967F
100
AcDbEntity
  8
1
100
AcDbLine
 10
605.640803
 20
228.960469
 30
0.0
 11
605.640803
 21
223.386526
 31
0.0
  0
LINE
  5
9680
100
AcDbEntity
  8
1
100
AcDbLine
 10
614.040908
 20
228.960673
 30
0.0
 11
614.040908
 21
223.378911
 31
0.0
  0
LINE
  5
9681
100
AcDbEntity
  8
1
100
AcDbLine
 10
621.940664
 20
228.9619
 30
0.0
 11
621.940664
 21
223.398774
 31
0.0
  0
DIMENSION
  5
9682
100
AcDbEntity
  8
WY
100
AcDbDimension
  2
*D7
 10
633.140022
 20
230.103003
 30
0.0
 11
629.840022
 21
222.36428
 31
0.0
 12
10.454213
 22
115.523743
 32
0.0
 70
    32
  1
15.5
  3
STANDARD
100
AcDbAlignedDimension
 13
622.416133
 23
214.625557
 33
0.0
 14
622.416133
 24
230.103003
 34
0.0
 50
90.0
100
AcDbRotatedDimension
  0
LINE
  5
9683
100
AcDbEntity
  8
1
100
AcDbLine
 10
605.210972
 20
215.525557
 30
0.0
 11
605.210972
 21
229.225557
 31
0.0
  0
LINE
  5
9684
100
AcDbEntity
  8
1
100
AcDbLine
 10
623.189237
 20
215.025557
 30
0.0
 11
623.189237
 21
229.725557
 31
0.0
  0
LINE
  5
9685
100
AcDbEntity
  8
1
100
AcDbLine
 10
613.608736
 20
215.525557
 30
0.0
 11
613.608736
 21
229.225557
 31
0.0
  0
LINE
  5
9686
100
AcDbEntity
  8
1
100
AcDbLine
 10
621.516137
 20
215.525557
 30
0.0
 11
621.516137
 21
229.225557
 31
0.0
  0
LINE
  5
9687
100
AcDbEntity
  8
1
100
AcDbLine
 10
597.340975
 20
223.771817
 30
0.0
 11
597.340975
 21
228.675572
 31
0.0
  0
LINE
  5
9688
100
AcDbEntity
  8
1
100
AcDbLine
 10
597.540968
 20
229.075557
 30
0.0
 11
597.540968
 21
223.775277
 31
0.0
  0
LINE
  5
9689
100
AcDbEntity
  8
1
100
AcDbLine
 10
599.005875
 20
229.725557
 30
0.0
 11
599.005875
 21
215.025557
 31
0.0
  0
LINE
  5
968A
100
AcDbEntity
  8
1
100
AcDbLine
 10
597.764041
 20
215.025557
 30
0.0
 11
597.764041
 21
229.725557
 31
0.0
  0
INSERT
  5
968B
100
AcDbEntity
  8
WY
100
AcDbBlockReference
  2
A$C25565E68
 10
599.389238
 20
223.675557
 30
0.0
 41
0.5
 42
0.5
 43
0.5
  0
CIRCLE
  5
968C
100
AcDbEntity
  8
1
100
AcDbCircle
 10
601.889237
 20
226.175557
 30
0.0
 40
2.604184
  0
LINE
  5
968D
100
AcDbEntity
  8
1
100
AcDbLine
 10
611.286832
 20
215.525557
 30
0.0
 11
613.608736
 21
215.525557
 31
0.0
  0
LINE
  5
968E
100
AcDbEntity
  8
1
100
AcDbLine
 10
611.427661
 20
214.625557
 30
0.0
 11
612.199289
 21
214.625557
 31
0.0
  0
LINE
  5
968F
100
AcDbEntity
  8
1
100
AcDbLine
 10
612.213249
 20
215.025557
 30
0.0
 11
611.827435
 21
215.025557
 31
0.0
  0
INSERT
  5
9690
100
AcDbEntity
  8
WY
100
AcDbBlockReference
  2
A$C25565E68
 10
607.789238
 20
216.075557
 30
0.0
 41
0.5
 42
0.5
 43
0.5
  0
CIRCLE
  5
9691
100
AcDbEntity
  8
1
100
AcDbCircle
 10
610.289237
 20
218.575557
 30
0.0
 40
2.604184
  0
LINE
  5
9692
100
AcDbEntity
  8
OSIE
100
AcDbLine
 10
601.889237
 20
219.575557
 30
0.0
 11
601.889237
 21
217.575557
 31
0.0
  0
LINE
  5
9693
100
AcDbEntity
  8
OSIE
100
AcDbLine
 10
610.289237
 20
219.575557
 30
0.0
 11
610.289237
 21
217.575557
 31
0.0
  0
LINE
  5
9694
100
AcDbEntity
  8
1
100
AcDbLine
 10
605.640803
 20
221.364587
 30
0.0
 11
605.640803
 21
215.790644
 31
0.0
  0
LINE
  5
9695
100
AcDbEntity
  8
1
100
AcDbLine
 10
605.749016
 20
220.684188
 30
0.0
 11
605.749016
 21
216.466925
 31
0.0
  0
LINE
  5
9696
100
AcDbEntity
  8
1
100
AcDbLine
 10
605.79792
 20
216.525557
 30
0.0
 11
605.79792
 21
220.625557
 31
0.0
  0
LINE
  5
9697
100
AcDbEntity
  8
1
100
AcDbLine
 10
597.540968
 20
220.975836
 30
0.0
 11
597.540968
 21
215.675557
 31
0.0
  0
LINE
  5
9698
100
AcDbEntity
  8
1
100
AcDbLine
 10
597.340975
 20
216.075542
 30
0.0
 11
597.340975
 21
220.979297
 31
0.0
  0
INSERT
  5
9699
100
AcDbEntity
  8
WY
100
AcDbBlockReference
  2
A$C25565E68
 10
599.389238
 20
216.075557
 30
0.0
 41
0.5
 42
0.5
 43
0.5
  0
CIRCLE
  5
969A
100
AcDbEntity
  8
1
100
AcDbCircle
 10
601.889237
 20
218.575557
 30
0.0
 40
2.604184
  0
LINE
  5
969B
100
AcDbEntity
  8
1
100
AcDbLine
 10
603.019276
 20
214.625557
 30
0.0
 11
603.790917
 21
214.625557
 31
0.0
  0
LINE
  5
969C
100
AcDbEntity
  8
1
100
AcDbLine
 10
602.888017
 20
215.525557
 30
0.0
 11
605.210972
 21
215.525557
 31
0.0
  0
LINE
  5
969D
100
AcDbEntity
  8
1
100
AcDbLine
 10
603.300844
 20
215.025557
 30
0.0
 11
603.419056
 21
215.025557
 31
0.0
  0
LWPOLYLINE
  5
969E
100
AcDbEntity
  8
1
100
AcDbPolyline
 90
        9
 70
   128
 43
0.0
 10
603.419056
 20
215.025557
 10
603.411375
 20
214.947521
 10
603.388625
 20
214.872483
 10
603.351681
 20
214.803329
 10
603.301963
 20
214.742714
 10
603.241382
 20
214.692969
 10
603.172265
 20
214.656005
 10
603.097269
 20
214.633243
 10
603.019276
 20
214.625557
  0
LWPOLYLINE
  5
969F
100
AcDbEntity
  8
1
100
AcDbPolyline
 90
        9
 70
   128
 43
0.0
 10
603.300844
 20
215.025557
 10
603.293162
 20
214.947521
 10
603.270412
 20
214.872483
 10
603.233467
 20
214.803329
 10
603.183748
 20
214.742714
 10
603.123165
 20
214.692969
 10
603.054046
 20
214.656005
 10
602.979048
 20
214.633243
 10
602.901052
 20
214.625557
  0
LINE
  5
96A0
100
AcDbEntity
  8
1
100
AcDbLine
 10
602.901052
 20
214.625557
 30
0.0
 11
602.874058
 21
214.625557
 31
0.0
  0
LINE
  5
96A1
100
AcDbEntity
  8
1
100
AcDbLine
 10
603.019276
 20
214.625557
 30
0.0
 11
602.901052
 21
214.625557
 31
0.0
  0
LWPOLYLINE
  5
96A2
100
AcDbEntity
  8
1
100
AcDbPolyline
 90
        9
 70
   128
 43
0.0
 10
602.888017
 20
215.025557
 10
602.887749
 20
214.947521
 10
602.886955
 20
214.872483
 10
602.885665
 20
214.803329
 10
602.883929
 20
214.742714
 10
602.881813
 20
214.692969
 10
602.8794
 20
214.656005
 10
602.876781
 20
214.633243
 10
602.874058
 20
214.625557
  0
LINE
  5
96A3
100
AcDbEntity
  8
1
100
AcDbLine
 10
602.888017
 20
215.025557
 30
0.0
 11
602.888017
 21
215.525557
 31
0.0
  0
LWPOLYLINE
  5
96A4
100
AcDbEntity
  8
1
100
AcDbPolyline
 90
        9
 70
   128
 43
0.0
 10
603.273849
 20
215.025557
 10
603.266167
 20
214.947521
 10
603.243417
 20
214.872483
 10
603.206472
 20
214.803329
 10
603.156753
 20
214.742714
 10
603.09617
 20
214.692969
 10
603.027051
 20
214.656005
 10
602.952053
 20
214.633243
 10
602.874058
 20
214.625557
  0
LINE
  5
96A5
100
AcDbEntity
  8
1
100
AcDbLine
 10
603.273849
 20
215.025557
 30
0.0
 11
602.888017
 21
215.025557
 31
0.0
  0
LINE
  5
96A6
100
AcDbEntity
  8
1
100
AcDbLine
 10
603.273849
 20
215.525557
 30
0.0
 11
603.273849
 21
215.025557
 31
0.0
  0
LINE
  5
96A7
100
AcDbEntity
  8
1
100
AcDbLine
 10
603.300844
 20
215.525557
 30
0.0
 11
603.300844
 21
215.025557
 31
0.0
  0
LINE
  5
96A8
100
AcDbEntity
  8
1
100
AcDbLine
 10
603.273849
 20
215.025557
 30
0.0
 11
603.300844
 21
215.025557
 31
0.0
  0
LWPOLYLINE
  5
96A9
100
AcDbEntity
  8
1
100
AcDbPolyline
 90
        9
 70
   128
 43
0.0
 10
597.478136
 20
215.675557
 10
597.474294
 20
215.714575
 10
597.462913
 20
215.752093
 10
597.444432
 20
215.786671
 10
597.41956
 20
215.816978
 10
597.389254
 20
215.841851
 10
597.354678
 20
215.860333
 10
597.317161
 20
215.871714
 10
597.278144
 20
215.875557
  0
LWPOLYLINE
  5
96AA
100
AcDbEntity
  8
1
100
AcDbPolyline
 90
        9
 70
   128
 43
0.0
 10
597.278144
 20
215.875557
 10
597.294412
 20
215.871714
 10
597.310055
 20
215.860333
 10
597.324472
 20
215.841851
 10
597.337108
 20
215.816978
 10
597.347478
 20
215.786671
 10
597.355184
 20
215.752093
 10
597.359929
 20
215.714575
 10
597.361532
 20
215.675557
  0
LWPOLYLINE
  5
96AB
100
AcDbEntity
  8
1
100
AcDbPolyline
 90
        9
 70
   128
 43
0.0
 10
597.540968
 20
215.675557
 10
597.53649
 20
215.714361
 10
597.524582
 20
215.75169
 10
597.505696
 20
215.786126
 10
597.480549
 20
215.81636
 10
597.450099
 20
215.841242
 10
597.415501
 20
215.859828
 10
597.37807
 20
215.87141
 10
597.33923
 20
215.875549
  0
LWPOLYLINE
  5
96AC
100
AcDbEntity
  8
1
100
AcDbPolyline
 90
        9
 70
   128
 43
0.0
 10
597.340975
 20
216.075542
 10
597.379779
 20
216.067264
 10
597.417109
 20
216.044099
 10
597.451544
 20
216.006928
 10
597.481778
 20
215.957163
 10
597.506661
 20
215.896695
 10
597.525246
 20
215.827824
 10
597.536829
 20
215.753165
 10
597.540968
 20
215.675557
  0
LINE
  5
96AD
100
AcDbEntity
  8
1
100
AcDbLine
 10
598.164026
 20
214.625557
 30
0.0
 11
597.874795
 21
214.625557
 31
0.0
  0
LINE
  5
96AE
100
AcDbEntity
  8
1
100
AcDbLine
 10
597.764041
 20
215.025557
 30
0.0
 11
599.005875
 21
215.025557
 31
0.0
  0
LWPOLYLINE
  5
96AF
100
AcDbEntity
  8
1
100
AcDbPolyline
 90
        9
 70
   128
 43
0.0
 10
597.764041
 20
215.025557
 10
597.771727
 20
214.947521
 10
597.794488
 20
214.872483
 10
597.831451
 20
214.803329
 10
597.881194
 20
214.742714
 10
597.941807
 20
214.692969
 10
598.010959
 20
214.656005
 10
598.085993
 20
214.633243
 10
598.164026
 20
214.625557
  0
LINE
  5
96B0
100
AcDbEntity
  8
1
100
AcDbLine
 10
597.478136
 20
215.675557
 30
0.0
 11
597.478136
 21
215.025557
 31
0.0
  0
LINE
  5
96B1
100
AcDbEntity
  8
1
100
AcDbLine
 10
597.361532
 20
215.025557
 30
0.0
 11
597.361532
 21
215.675557
 31
0.0
  0
LINE
  5
96B2
100
AcDbEntity
  8
1
100
AcDbLine
 10
597.478136
 20
215.025557
 30
0.0
 11
597.361532
 21
215.025557
 31
0.0
  0
LINE
  5
96B3
100
AcDbEntity
  8
1
100
AcDbLine
 10
597.478136
 20
215.675557
 30
0.0
 11
597.361532
 21
215.675557
 31
0.0
  0
LWPOLYLINE
  5
96B4
100
AcDbEntity
  8
1
100
AcDbPolyline
 90
        7
 70
   128
 43
0.0
 10
597.478136
 20
215.025557
 10
597.490878
 20
214.924989
 10
597.525736
 20
214.835567
 10
597.601446
 20
214.735701
 10
597.730045
 20
214.653142
 10
597.87118
 20
214.625573
 10
597.874795
 20
214.625557
  0
LINE
  5
96B5
100
AcDbEntity
  8
1
100
AcDbLine
 10
597.478136
 20
215.025557
 30
0.0
 11
597.764041
 21
215.025557
 31
0.0
  0
LINE
  5
96B6
100
AcDbEntity
  8
1
100
AcDbLine
 10
597.540968
 20
215.675557
 30
0.0
 11
597.478136
 21
215.675557
 31
0.0
  0
LWPOLYLINE
  5
96B7
100
AcDbEntity
  8
1
100
AcDbPolyline
 90
        7
 70
   128
 43
0.0
 10
597.874795
 20
214.625557
 10
597.870117
 20
214.625573
 10
597.687493
 20
214.653142
 10
597.52109
 20
214.735702
 10
597.423123
 20
214.835568
 10
597.378018
 20
214.92499
 10
597.361532
 20
215.025557
  0
LINE
  5
96B8
100
AcDbEntity
  8
1
100
AcDbLine
 10
598.991915
 20
214.625557
 30
0.0
 11
598.164026
 21
214.625557
 31
0.0
  0
LWPOLYLINE
  5
96B9
100
AcDbEntity
  8
1
100
AcDbPolyline
 90
        9
 70
   128
 43
0.0
 10
599.005875
 20
215.025557
 10
599.005607
 20
214.947521
 10
599.004813
 20
214.872483
 10
599.003522
 20
214.803329
 10
599.001786
 20
214.742714
 10
598.999671
 20
214.692969
 10
598.997258
 20
214.656005
 10
598.994639
 20
214.633243
 10
598.991915
 20
214.625557
  0
LINE
  5
96BA
100
AcDbEntity
  8
1
100
AcDbLine
 10
597.33923
 20
215.875549
 30
0.0
 11
597.337484
 21
215.875557
 31
0.0
  0
LINE
  5
96BB
100
AcDbEntity
  8
1
100
AcDbLine
 10
597.33923
 20
215.875549
 30
0.0
 11
597.340975
 21
216.075542
 31
0.0
  0
LINE
  5
96BC
100
AcDbEntity
  8
1
100
AcDbLine
 10
597.337484
 20
215.875557
 30
0.0
 11
597.337484
 21
216.075557
 31
0.0
  0
LINE
  5
96BD
100
AcDbEntity
  8
1
100
AcDbLine
 10
597.337484
 20
216.075557
 30
0.0
 11
597.340975
 21
216.075542
 31
0.0
  0
TEXT
  5
96BE
100
AcDbEntity
  8
1
100
AcDbText
 10
603.791845
 20
221.405976
 30
0.0
 40
1.0
  1
4
 50
270.0
  7
ITALIC
100
AcDbText
  0
TEXT
  5
96BF
100
AcDbEntity
  8
1
100
AcDbText
 10
603.791845
 20
222.027678
 30
0.0
 40
1.0
  1
1
 50
270.0
  7
ITALIC
100
AcDbText
  0
LINE
  5
96C0
100
AcDbEntity
  8
1
100
AcDbLine
 10
602.874058
 20
214.625557
 30
0.0
 11
598.991915
 21
214.625557
 31
0.0
  0
LINE
  5
96C1
100
AcDbEntity
  8
1
100
AcDbLine
 10
599.005875
 20
215.025557
 30
0.0
 11
602.888017
 21
215.025557
 31
0.0
  0
LINE
  5
96C2
100
AcDbEntity
  8
OSIE
100
AcDbLine
 10
602.889237
 20
218.575557
 30
0.0
 11
600.889237
 21
218.575557
 31
0.0
  0
LINE
  5
96C3
100
AcDbEntity
  8
OSIE
100
AcDbLine
 10
611.289237
 20
218.575557
 30
0.0
 11
609.289237
 21
218.575557
 31
0.0
  0
LWPOLYLINE
  5
96C4
100
AcDbEntity
  8
1
100
AcDbPolyline
 90
        9
 70
   128
 43
0.0
 10
611.702319
 20
215.025557
 10
611.694638
 20
214.947521
 10
611.67189
 20
214.872483
 10
611.634949
 20
214.803329
 10
611.585234
 20
214.742714
 10
611.524657
 20
214.692969
 10
611.455545
 20
214.656005
 10
611.380554
 20
214.633243
 10
611.302566
 20
214.625557
  0
LINE
  5
96C5
100
AcDbEntity
  8
1
100
AcDbLine
 10
611.302566
 20
214.625557
 30
0.0
 11
611.272873
 21
214.625557
 31
0.0
  0
LINE
  5
96C6
100
AcDbEntity
  8
1
100
AcDbLine
 10
611.427661
 20
214.625557
 30
0.0
 11
611.302566
 21
214.625557
 31
0.0
  0
LINE
  5
96C7
100
AcDbEntity
  8
1
100
AcDbLine
 10
611.286832
 20
215.025557
 30
0.0
 11
611.286832
 21
215.525557
 31
0.0
  0
LWPOLYLINE
  5
96C8
100
AcDbEntity
  8
1
100
AcDbPolyline
 90
        9
 70
   128
 43
0.0
 10
611.286832
 20
215.025557
 10
611.286564
 20
214.947521
 10
611.28577
 20
214.872483
 10
611.28448
 20
214.803329
 10
611.282744
 20
214.742714
 10
611.280628
 20
214.692969
 10
611.278215
 20
214.656005
 10
611.275596
 20
214.633243
 10
611.272873
 20
214.625557
  0
LINE
  5
96C9
100
AcDbEntity
  8
1
100
AcDbLine
 10
611.672626
 20
215.525557
 30
0.0
 11
611.672626
 21
215.025557
 31
0.0
  0
LINE
  5
96CA
100
AcDbEntity
  8
1
100
AcDbLine
 10
611.672626
 20
215.025557
 30
0.0
 11
611.286832
 21
215.025557
 31
0.0
  0
LWPOLYLINE
  5
96CB
100
AcDbEntity
  8
1
100
AcDbPolyline
 90
        9
 70
   128
 43
0.0
 10
611.672626
 20
215.025557
 10
611.664945
 20
214.947521
 10
611.642197
 20
214.872483
 10
611.605256
 20
214.803329
 10
611.555541
 20
214.742714
 10
611.494964
 20
214.692969
 10
611.425852
 20
214.656005
 10
611.350861
 20
214.633243
 10
611.272873
 20
214.625557
  0
LINE
  5
96CC
100
AcDbEntity
  8
1
100
AcDbLine
 10
611.702319
 20
215.525557
 30
0.0
 11
611.702319
 21
215.025557
 31
0.0
  0
LINE
  5
96CD
100
AcDbEntity
  8
1
100
AcDbLine
 10
611.672626
 20
215.025557
 30
0.0
 11
611.702319
 21
215.025557
 31
0.0
  0
LINE
  5
96CE
100
AcDbEntity
  8
1
100
AcDbLine
 10
611.827435
 20
215.025557
 30
0.0
 11
611.827435
 21
215.525557
 31
0.0
  0
LINE
  5
96CF
100
AcDbEntity
  8
1
100
AcDbLine
 10
611.702319
 20
215.025557
 30
0.0
 11
611.827435
 21
215.025557
 31
0.0
  0
LWPOLYLINE
  5
96D0
100
AcDbEntity
  8
1
100
AcDbPolyline
 90
        9
 70
   128
 43
0.0
 10
611.427661
 20
214.625557
 10
611.505653
 20
214.633243
 10
611.580648
 20
214.656005
 10
611.649763
 20
214.692969
 10
611.710344
 20
214.742714
 10
611.760061
 20
214.803329
 10
611.797004
 20
214.872483
 10
611.819753
 20
214.947521
 10
611.827435
 20
215.025557
  0
LINE
  5
96D1
100
AcDbEntity
  8
1
100
AcDbLine
 10
606.889237
 20
215.025557
 30
0.0
 11
606.889237
 21
215.975728
 31
0.0
  0
LINE
  5
96D2
100
AcDbEntity
  8
1
100
AcDbLine
 10
605.717117
 20
215.525557
 30
0.0
 11
605.717117
 21
215.790644
 31
0.0
  0
LINE
  5
96D3
100
AcDbEntity
  8
1
100
AcDbLine
 10
606.536813
 20
215.525557
 30
0.0
 11
606.536813
 21
215.839734
 31
0.0
  0
LINE
  5
96D4
100
AcDbEntity
  8
1
100
AcDbLine
 10
603.804877
 20
215.025557
 30
0.0
 11
603.419056
 21
215.025557
 31
0.0
  0
LINE
  5
96D5
100
AcDbEntity
  8
1
100
AcDbLine
 10
603.419056
 20
215.025557
 30
0.0
 11
603.419056
 21
215.525557
 31
0.0
  0
LINE
  5
96D6
100
AcDbEntity
  8
1
100
AcDbLine
 10
605.717117
 20
215.525557
 30
0.0
 11
606.536813
 21
215.525557
 31
0.0
  0
LINE
  5
96D7
100
AcDbEntity
  8
1
100
AcDbLine
 10
606.489237
 20
214.625557
 30
0.0
 11
606.149552
 21
214.625557
 31
0.0
  0
LINE
  5
96D8
100
AcDbEntity
  8
1
100
AcDbLine
 10
606.549326
 20
215.025557
 30
0.0
 11
606.163512
 21
215.025557
 31
0.0
  0
LWPOLYLINE
  5
96D9
100
AcDbEntity
  8
1
100
AcDbPolyline
 90
        9
 70
   128
 43
0.0
 10
606.549326
 20
215.025557
 10
606.541645
 20
214.947521
 10
606.518895
 20
214.872483
 10
606.481952
 20
214.803329
 10
606.432235
 20
214.742714
 10
606.371655
 20
214.692969
 10
606.302539
 20
214.656005
 10
606.227544
 20
214.633243
 10
606.149552
 20
214.625557
  0
LINE
  5
96DA
100
AcDbEntity
  8
1
100
AcDbLine
 10
603.804877
 20
215.525557
 30
0.0
 11
603.804877
 21
215.025557
 31
0.0
  0
LWPOLYLINE
  5
96DB
100
AcDbEntity
  8
1
100
AcDbPolyline
 90
        9
 70
   128
 43
0.0
 10
603.804877
 20
215.025557
 10
603.804609
 20
214.947521
 10
603.803814
 20
214.872483
 10
603.802524
 20
214.803329
 10
603.800788
 20
214.742714
 10
603.798673
 20
214.692969
 10
603.796259
 20
214.656005
 10
603.79364
 20
214.633243
 10
603.790917
 20
214.625557
  0
LINE
  5
96DC
100
AcDbEntity
  8
1
100
AcDbLine
 10
605.741777
 20
214.725557
 30
0.0
 11
605.741777
 21
215.525557
 31
0.0
  0
LINE
  5
96DD
100
AcDbEntity
  8
1
100
AcDbLine
 10
604.641777
 20
215.525557
 30
0.0
 11
604.641777
 21
214.725557
 31
0.0
  0
LINE
  5
96DE
100
AcDbEntity
  8
1
100
AcDbLine
 10
604.641777
 20
214.725557
 30
0.0
 11
605.741777
 21
214.725557
 31
0.0
  0
LINE
  5
96DF
100
AcDbEntity
  8
1
100
AcDbLine
 10
606.140996
 20
215.525557
 30
0.0
 11
605.741777
 21
215.286463
 31
0.0
  0
LINE
  5
96E0
100
AcDbEntity
  8
1
100
AcDbLine
 10
605.741777
 20
215.487162
 30
0.0
 11
605.805808
 21
215.525557
 31
0.0
  0
LINE
  5
96E1
100
AcDbEntity
  8
1
100
AcDbLine
 10
606.097439
 20
215.525557
 30
0.0
 11
605.741777
 21
215.312289
 31
0.0
  0
LINE
  5
96E2
100
AcDbEntity
  8
1
100
AcDbLine
 10
605.741777
 20
215.025557
 30
0.0
 11
606.163512
 21
215.025557
 31
0.0
  0
LWPOLYLINE
  5
96E3
100
AcDbEntity
  8
1
100
AcDbPolyline
 90
        9
 70
   128
 43
0.0
 10
606.163512
 20
215.025557
 10
606.163244
 20
214.947521
 10
606.162449
 20
214.872483
 10
606.161159
 20
214.803329
 10
606.159423
 20
214.742714
 10
606.157308
 20
214.692969
 10
606.154894
 20
214.656005
 10
606.152276
 20
214.633243
 10
606.149552
 20
214.625557
  0
LINE
  5
96E4
100
AcDbEntity
  8
1
100
AcDbLine
 10
606.163512
 20
215.025557
 30
0.0
 11
606.163512
 21
215.525557
 31
0.0
  0
LINE
  5
96E5
100
AcDbEntity
  8
1
100
AcDbLine
 10
606.149552
 20
214.625557
 30
0.0
 11
603.790917
 21
214.625557
 31
0.0
  0
LINE
  5
96E6
100
AcDbEntity
  8
1
100
AcDbLine
 10
603.804877
 20
215.025557
 30
0.0
 11
604.641777
 21
215.025557
 31
0.0
  0
LWPOLYLINE
  5
96E7
100
AcDbEntity
  8
1
100
AcDbPolyline
 90
        7
 70
   128
 43
0.0
 10
606.889237
 20
215.025557
 10
606.875002
 20
214.919793
 10
606.836486
 20
214.827016
 10
606.756263
 20
214.727736
 10
606.621205
 20
214.647953
 10
606.492116
 20
214.625567
 10
606.489237
 20
214.625557
  0
LINE
  5
96E8
100
AcDbEntity
  8
1
100
AcDbLine
 10
606.549326
 20
215.525557
 30
0.0
 11
606.549326
 21
215.025557
 31
0.0
  0
LINE
  5
96E9
100
AcDbEntity
  8
1
100
AcDbLine
 10
606.549326
 20
215.025557
 30
0.0
 11
606.889237
 21
215.025557
 31
0.0
  0
LWPOLYLINE
  5
96EA
100
AcDbEntity
  8
1
100
AcDbPolyline
 90
        6
 70
   128
 43
0.0
 10
606.339438
 20
216.525557
 10
606.521521
 20
216.494537
 10
606.683076
 20
216.404949
 10
606.805805
 20
216.266942
 10
606.875891
 20
216.096158
 10
606.889237
 20
215.975728
  0
LWPOLYLINE
  5
96EB
100
AcDbEntity
  8
1
100
AcDbPolyline
 90
        9
 70
   128
 43
0.0
 10
606.536813
 20
215.839734
 10
606.526223
 20
215.94698
 10
606.494934
 20
216.050108
 10
606.444148
 20
216.145158
 10
606.375815
 20
216.228483
 10
606.292558
 20
216.296881
 10
606.197574
 20
216.347727
 10
606.094509
 20
216.379069
 10
605.987321
 20
216.389704
  0
LWPOLYLINE
  5
96EC
100
AcDbEntity
  8
1
100
AcDbPolyline
 90
        7
 70
   128
 43
0.0
 10
606.536813
 20
215.839734
 10
606.490944
 20
215.831393
 10
606.408486
 20
215.823094
 10
606.289603
 20
215.814853
 10
606.13453
 20
215.806687
 10
605.943575
 20
215.798612
 10
605.717117
 20
215.790644
  0
LINE
  5
96ED
100
AcDbEntity
  8
1
100
AcDbLine
 10
605.749016
 20
216.466925
 30
0.0
 11
605.659685
 21
216.359824
 31
0.0
  0
LWPOLYLINE
  5
96EE
100
AcDbEntity
  8
1
100
AcDbPolyline
 90
        6
 70
   128
 43
0.0
 10
605.64233
 20
216.072023
 10
605.642858
 20
216.099797
 10
605.644797
 20
216.177834
 10
605.650091
 20
216.295581
 10
605.654879
 20
216.343368
 10
605.659685
 20
216.359824
  0
LWPOLYLINE
  5
96EF
100
AcDbEntity
  8
1
100
AcDbPolyline
 90
        9
 70
   128
 43
0.0
 10
605.640803
 20
215.790644
 10
605.640829
 20
215.834144
 10
605.640908
 20
215.876803
 10
605.641038
 20
215.917798
 10
605.641216
 20
215.956335
 10
605.641439
 20
215.99167
 10
605.641703
 20
216.02312
 10
605.642002
 20
216.050078
 10
605.64233
 20
216.072023
  0
LINE
  5
96F0
100
AcDbEntity
  8
1
100
AcDbLine
 10
605.79792
 20
216.525557
 30
0.0
 11
605.749016
 21
216.466925
 31
0.0
  0
LINE
  5
96F1
100
AcDbEntity
  8
1
100
AcDbLine
 10
606.339438
 20
216.525557
 30
0.0
 11
605.79792
 21
216.525557
 31
0.0
  0
LINE
  5
96F2
100
AcDbEntity
  8
1
100
AcDbLine
 10
605.717117
 20
215.790644
 30
0.0
 11
605.640803
 21
215.790644
 31
0.0
  0
LWPOLYLINE
  5
96F3
100
AcDbEntity
  8
1
100
AcDbPolyline
 90
        9
 70
   128
 43
0.0
 10
605.717117
 20
215.790644
 10
605.715825
 20
215.827539
 10
605.712173
 20
215.864267
 10
605.706176
 20
215.900663
 10
605.697861
 20
215.936563
 10
605.687267
 20
215.971806
 10
605.67444
 20
216.006233
 10
605.659439
 20
216.039689
 10
605.64233
 20
216.072023
  0
LWPOLYLINE
  5
96F4
100
AcDbEntity
  8
1
100
AcDbPolyline
 90
        4
 70
   128
 43
0.0
 10
605.659685
 20
216.359824
 10
605.820079
 20
216.369699
 10
605.929396
 20
216.379669
 10
605.987321
 20
216.389704
  0
LWPOLYLINE
  5
96F5
100
AcDbEntity
  8
1
100
AcDbPolyline
 90
        4
 70
   128
 43
0.0
 10
605.987321
 20
216.389704
 10
606.212966
 20
216.457595
 10
606.303124
 20
216.491557
 10
606.339438
 20
216.525557
  0
LWPOLYLINE
  5
96F6
100
AcDbEntity
  8
1
100
AcDbPolyline
 90
        4
 70
   128
 43
0.0
 10
606.889237
 20
215.975728
 10
606.884981
 20
215.964263
 10
606.795068
 20
215.918382
 10
606.536813
 20
215.839734
  0
LINE
  5
96F7
100
AcDbEntity
  8
1
100
AcDbLine
 10
611.272873
 20
214.625557
 30
0.0
 11
606.489237
 21
214.625557
 31
0.0
  0
LINE
  5
96F8
100
AcDbEntity
  8
1
100
AcDbLine
 10
606.889237
 20
215.025557
 30
0.0
 11
611.286832
 21
215.025557
 31
0.0
  0
LINE
  5
96F9
100
AcDbEntity
  8
1
100
AcDbLine
 10
597.340975
 20
223.771817
 30
0.0
 11
597.340975
 21
223.571824
 31
0.0
  0
LWPOLYLINE
  5
96FA
100
AcDbEntity
  8
1
100
AcDbPolyline
 90
        5
 70
   128
 43
0.0
 10
597.540968
 20
223.775277
 10
597.54095
 20
223.77326
 10
597.539885
 20
223.659888
 10
597.538831
 20
223.591019
 10
597.53796
 20
223.572277
  0
LINE
  5
96FB
100
AcDbEntity
  8
1
100
AcDbLine
 10
597.49124
 20
223.525557
 30
0.0
 11
597.53796
 21
223.572277
 31
0.0
  0
LWPOLYLINE
  5
96FC
100
AcDbEntity
  8
1
100
AcDbPolyline
 90
        9
 70
   128
 43
0.0
 10
597.340975
 20
223.771817
 10
597.379779
 20
223.771883
 10
597.417109
 20
223.77208
 10
597.451544
 20
223.772399
 10
597.481778
 20
223.772828
 10
597.506661
 20
223.773352
 10
597.525246
 20
223.773951
 10
597.536829
 20
223.7746
 10
597.540968
 20
223.775277
  0
LWPOLYLINE
  5
96FD
100
AcDbEntity
  8
1
100
AcDbPolyline
 90
        4
 70
   128
 43
0.0
 10
597.53796
 20
223.572277
 10
597.475605
 20
223.572028
 10
597.409294
 20
223.571876
 10
597.340975
 20
223.571824
  0
LINE
  5
96FE
100
AcDbEntity
  8
1
100
AcDbLine
 10
597.340975
 20
221.179289
 30
0.0
 11
597.340975
 21
220.979297
 31
0.0
  0
LWPOLYLINE
  5
96FF
100
AcDbEntity
  8
1
100
AcDbPolyline
 90
        5
 70
   128
 43
0.0
 10
597.53796
 20
221.178836
 10
597.538831
 20
221.160094
 10
597.539885
 20
221.091226
 10
597.54095
 20
220.977854
 10
597.540968
 20
220.975836
  0
LINE
  5
9700
100
AcDbEntity
  8
1
100
AcDbLine
 10
597.49124
 20
221.225557
 30
0.0
 11
597.53796
 21
221.178836
 31
0.0
  0
LWPOLYLINE
  5
9701
100
AcDbEntity
  8
1
100
AcDbPolyline
 90
        9
 70
   128
 43
0.0
 10
597.540968
 20
220.975836
 10
597.536829
 20
220.976513
 10
597.525246
 20
220.977163
 10
597.506661
 20
220.977761
 10
597.481778
 20
220.978285
 10
597.451544
 20
220.978715
 10
597.417109
 20
220.979034
 10
597.379779
 20
220.97923
 10
597.340975
 20
220.979297
  0
LWPOLYLINE
  5
9702
100
AcDbEntity
  8
1
100
AcDbPolyline
 90
        4
 70
   128
 43
0.0
 10
597.340975
 20
221.179289
 10
597.409294
 20
221.179238
 10
597.475605
 20
221.179085
 10
597.53796
 20
221.178836
  0
LINE
  5
9703
100
AcDbEntity
  8
1
100
AcDbLine
 10
597.49124
 20
221.225557
 30
0.0
 11
597.49124
 21
223.525557
 31
0.0
  0
LWPOLYLINE
  5
9704
100
AcDbEntity
  8
1
100
AcDbPolyline
 90
        6
 70
   128
 43
0.0
 10
606.139512
 20
224.125557
 10
606.387805
 20
224.083257
 10
606.608108
 20
223.961091
 10
606.775467
 20
223.7729
 10
606.871038
 20
223.540013
 10
606.889237
 20
223.37579
  0
LWPOLYLINE
  5
9705
100
AcDbEntity
  8
1
100
AcDbPolyline
 90
        9
 70
   128
 43
0.0
 10
606.536813
 20
223.239866
 10
606.522372
 20
223.38611
 10
606.479706
 20
223.526739
 10
606.410452
 20
223.656354
 10
606.31727
 20
223.769978
 10
606.203738
 20
223.863248
 10
606.074214
 20
223.932584
 10
605.933671
 20
223.975323
 10
605.787506
 20
223.989825
  0
LWPOLYLINE
  5
9706
100
AcDbEntity
  8
1
100
AcDbPolyline
 90
        7
 70
   128
 43
0.0
 10
606.536813
 20
223.239866
 10
606.490944
 20
223.231618
 10
606.408486
 20
223.223411
 10
606.289603
 20
223.215262
 10
606.13453
 20
223.207187
 10
605.943575
 20
223.199202
 10
605.717117
 20
223.191323
  0
LWPOLYLINE
  5
9707
100
AcDbEntity
  8
1
100
AcDbPolyline
 90
        3
 70
   128
 43
0.0
 10
605.717117
 20
223.191323
 10
605.716036
 20
223.195442
 10
605.640803
 20
223.386526
  0
LINE
  5
9708
100
AcDbEntity
  8
1
100
AcDbLine
 10
605.749016
 20
224.066925
 30
0.0
 11
605.671493
 21
223.973981
 31
0.0
  0
LWPOLYLINE
  5
9709
100
AcDbEntity
  8
1
100
AcDbPolyline
 90
        8
 70
   128
 43
0.0
 10
605.640803
 20
223.386526
 10
605.641835
 20
223.487115
 10
605.643055
 20
223.568229
 10
605.646619
 20
223.719271
 10
605.650418
 20
223.816245
 10
605.655633
 20
223.896684
 10
605.660885
 20
223.940624
 10
605.671493
 20
223.973981
  0
LINE
  5
970A
100
AcDbEntity
  8
1
100
AcDbLine
 10
605.79792
 20
224.125557
 30
0.0
 11
605.749016
 21
224.066925
 31
0.0
  0
LINE
  5
970B
100
AcDbEntity
  8
1
100
AcDbLine
 10
606.139512
 20
224.125557
 30
0.0
 11
605.79792
 21
224.125557
 31
0.0
  0
LWPOLYLINE
  5
970C
100
AcDbEntity
  8
1
100
AcDbPolyline
 90
        4
 70
   128
 43
0.0
 10
605.671493
 20
223.973981
 10
605.72462
 20
223.979245
 10
605.763302
 20
223.984527
 10
605.787506
 20
223.989825
  0
LWPOLYLINE
  5
970D
100
AcDbEntity
  8
1
100
AcDbPolyline
 90
        4
 70
   128
 43
0.0
 10
605.787506
 20
223.989825
 10
606.01296
 20
224.057655
 10
606.103111
 20
224.091587
 10
606.139512
 20
224.125557
  0
LWPOLYLINE
  5
970E
100
AcDbEntity
  8
1
100
AcDbPolyline
 90
        5
 70
   128
 43
0.0
 10
606.889237
 20
223.37579
 10
606.881278
 20
223.360178
 10
606.82352
 20
223.328933
 10
606.729628
 20
223.297643
 10
606.536813
 20
223.239866
  0
LWPOLYLINE
  5
970F
100
AcDbEntity
  8
1
100
AcDbPolyline
 90
        3
 70
   128
 43
0.0
 10
605.640803
 20
221.364587
 10
605.716036
 20
221.555671
 10
605.717117
 20
221.55979
  0
LWPOLYLINE
  5
9710
100
AcDbEntity
  8
1
100
AcDbPolyline
 90
        9
 70
   128
 43
0.0
 10
605.787506
 20
220.761288
 10
605.933671
 20
220.77579
 10
606.074214
 20
220.81853
 10
606.203738
 20
220.887865
 10
606.31727
 20
220.981136
 10
606.410452
 20
221.09476
 10
606.479706
 20
221.224374
 10
606.522372
 20
221.365003
 10
606.536813
 20
221.511247
  0
LWPOLYLINE
  5
9711
100
AcDbEntity
  8
1
100
AcDbPolyline
 90
        5
 70
   128
 43
0.0
 10
606.536813
 20
221.511247
 10
606.587547
 20
221.49557
 10
606.794155
 20
221.432922
 10
606.862832
 20
221.404112
 10
606.889237
 20
221.375324
  0
LWPOLYLINE
  5
9712
100
AcDbEntity
  8
1
100
AcDbPolyline
 90
        6
 70
   128
 43
0.0
 10
606.889237
 20
221.375324
 10
606.847012
 20
221.127223
 10
606.725094
 20
220.907093
 10
606.537233
 20
220.739729
 10
606.304512
 20
220.643934
 10
606.139512
 20
220.625557
  0
LWPOLYLINE
  5
9713
100
AcDbEntity
  8
1
100
AcDbPolyline
 90
        9
 70
   128
 43
0.0
 10
605.671493
 20
220.777133
 10
605.664946
 20
220.791164
 10
605.658407
 20
220.828058
 10
605.654124
 20
220.873204
 10
605.649873
 20
220.946231
 10
605.646591
 20
221.031643
 10
605.643434
 20
221.162058
 10
605.641161
 20
221.324043
 10
605.640803
 20
221.364587
  0
LINE
  5
9714
100
AcDbEntity
  8
1
100
AcDbLine
 10
605.671493
 20
220.777133
 30
0.0
 11
605.749016
 21
220.684188
 31
0.0
  0
LINE
  5
9715
100
AcDbEntity
  8
1
100
AcDbLine
 10
605.79792
 20
220.625557
 30
0.0
 11
606.139512
 21
220.625557
 31
0.0
  0
LINE
  5
9716
100
AcDbEntity
  8
1
100
AcDbLine
 10
605.79792
 20
220.625557
 30
0.0
 11
605.749016
 21
220.684188
 31
0.0
  0
LWPOLYLINE
  5
9717
100
AcDbEntity
  8
1
100
AcDbPolyline
 90
        4
 70
   128
 43
0.0
 10
605.787506
 20
220.761288
 10
605.763302
 20
220.766586
 10
605.72462
 20
220.771869
 10
605.671493
 20
220.777133
  0
LWPOLYLINE
  5
9718
100
AcDbEntity
  8
1
100
AcDbPolyline
 90
        5
 70
   128
 43
0.0
 10
606.139512
 20
220.625557
 10
606.131313
 20
220.641252
 10
606.073038
 20
220.672622
 10
605.978814
 20
220.703975
 10
605.787506
 20
220.761288
  0
LWPOLYLINE
  5
9719
100
AcDbEntity
  8
1
100
AcDbPolyline
 90
        7
 70
   128
 43
0.0
 10
605.717117
 20
221.55979
 10
605.943575
 20
221.551911
 10
606.13453
 20
221.543926
 10
606.289603
 20
221.535851
 10
606.408486
 20
221.527702
 10
606.490944
 20
221.519496
 10
606.536813
 20
221.511247
  0
TEXT
  5
971A
100
AcDbEntity
  8
1
100
AcDbText
 10
607.882167
 20
222.755496
 30
0.0
 40
1.0
  1
O
 50
270.0
  7
ITALIC
100
AcDbText
  0
TEXT
  5
971B
100
AcDbEntity
  8
1
100
AcDbText
 10
607.882167
 20
221.858319
 30
0.0
 40
0.96
  1
M
 50
270.0
  7
ITALIC
100
AcDbText
  0
TEXT
  5
971C
100
AcDbEntity
  8
1
100
AcDbText
 10
599.640041
 20
222.14731
 30
0.0
 40
1.0
  1
0
 50
270.0
  7
ITALIC
100
AcDbText
  0
LINE
  5
971D
100
AcDbEntity
  8
1
100
AcDbLine
 10
606.889237
 20
221.375324
 30
0.0
 11
606.889237
 21
223.37579
 31
0.0
  0
LINE
  5
971E
100
AcDbEntity
  8
1
100
AcDbLine
 10
605.717117
 20
221.55979
 30
0.0
 11
605.717117
 21
223.191323
 31
0.0
  0
LINE
  5
971F
100
AcDbEntity
  8
1
100
AcDbLine
 10
606.536813
 20
221.511247
 30
0.0
 11
606.536813
 21
223.239866
 31
0.0
  0
TEXT
  5
9720
100
AcDbEntity
  8
1
100
AcDbText
 10
607.882167
 20
223.619946
 30
0.0
 40
1.0
  1
C
 50
270.0
  7
ITALIC
100
AcDbText
  0
TEXT
  5
9721
100
AcDbEntity
  8
1
100
AcDbText
 10
599.640041
 20
223.2273
 30
0.0
 40
1.0
  1
N
 50
270.0
  7
ITALIC
100
AcDbText
  0
LINE
  5
9722
100
AcDbEntity
  8
OSIE
100
AcDbLine
 10
618.189237
 20
219.575557
 30
0.0
 11
618.189237
 21
217.575557
 31
0.0
  0
INSERT
  5
9723
100
AcDbEntity
  8
WY
100
AcDbBlockReference
  2
A$C25565E68
 10
615.689238
 20
216.075557
 30
0.0
 41
0.5
 42
0.5
 43
0.5
  0
CIRCLE
  5
9724
100
AcDbEntity
  8
1
100
AcDbCircle
 10
618.189237
 20
218.575557
 30
0.0
 40
2.604184
  0
LINE
  5
9725
100
AcDbEntity
  8
1
100
AcDbLine
 10
614.040908
 20
221.372202
 30
0.0
 11
614.040908
 21
215.79044
 31
0.0
  0
LINE
  5
9726
100
AcDbEntity
  8
1
100
AcDbLine
 10
614.149016
 20
220.684202
 30
0.0
 11
614.149016
 21
216.466912
 31
0.0
  0
LINE
  5
9727
100
AcDbEntity
  8
1
100
AcDbLine
 10
614.19792
 20
216.525596
 30
0.0
 11
614.19792
 21
220.625517
 31
0.0
  0
LINE
  5
9728
100
AcDbEntity
  8
1
100
AcDbLine
 10
621.940664
 20
221.35234
 30
0.0
 11
621.940664
 21
215.789213
 31
0.0
  0
LINE
  5
9729
100
AcDbEntity
  8
1
100
AcDbLine
 10
622.049889
 20
220.691271
 30
0.0
 11
622.049889
 21
216.459843
 31
0.0
  0
LINE
  5
972A
100
AcDbEntity
  8
1
100
AcDbLine
 10
623.144148
 20
221.34564
 30
0.0
 11
623.144148
 21
216.005447
 31
0.0
  0
LINE
  5
972B
100
AcDbEntity
  8
1
100
AcDbLine
 10
622.969135
 20
220.948101
 30
0.0
 11
622.969135
 21
216.335837
 31
0.0
  0
LINE
  5
972C
100
AcDbEntity
  8
1
100
AcDbLine
 10
622.260207
 20
216.525557
 30
0.0
 11
622.260207
 21
220.625557
 31
0.0
  0
LINE
  5
972D
100
AcDbEntity
  8
1
100
AcDbLine
 10
622.989237
 20
216.383774
 30
0.0
 11
622.989237
 21
220.894183
 31
0.0
  0
LINE
  5
972E
100
AcDbEntity
  8
1
100
AcDbLine
 10
622.56915
 20
216.52492
 30
0.0
 11
622.56915
 21
220.660554
 31
0.0
  0
LINE
  5
972F
100
AcDbEntity
  8
1
100
AcDbLine
 10
622.994172
 20
216.37854
 30
0.0
 11
622.994172
 21
220.900767
 31
0.0
  0
LINE
  5
9730
100
AcDbEntity
  8
1
100
AcDbLine
 10
619.190913
 20
215.525557
 30
0.0
 11
621.516137
 21
215.525557
 31
0.0
  0
LINE
  5
9731
100
AcDbEntity
  8
1
100
AcDbLine
 10
622.416133
 20
214.625557
 30
0.0
 11
620.064847
 21
214.625557
 31
0.0
  0
LINE
  5
9732
100
AcDbEntity
  8
1
100
AcDbLine
 10
620.078807
 20
215.025557
 30
0.0
 11
620.946942
 21
215.025557
 31
0.0
  0
LINE
  5
9733
100
AcDbEntity
  8
OSIE
100
AcDbLine
 10
619.189237
 20
218.575557
 30
0.0
 11
617.189237
 21
218.575557
 31
0.0
  0
LWPOLYLINE
  5
9734
100
AcDbEntity
  8
1
100
AcDbPolyline
 90
        9
 70
   128
 43
0.0
 10
619.198334
 20
214.625557
 10
619.276344
 20
214.633243
 10
619.351355
 20
214.656005
 10
619.420486
 20
214.692969
 10
619.48108
 20
214.742714
 10
619.530808
 20
214.803329
 10
619.567759
 20
214.872483
 10
619.590513
 20
214.947521
 10
619.598197
 20
215.025557
  0
LINE
  5
9735
100
AcDbEntity
  8
1
100
AcDbLine
 10
619.198334
 20
214.625557
 30
0.0
 11
619.176953
 21
214.625557
 31
0.0
  0
LINE
  5
9736
100
AcDbEntity
  8
1
100
AcDbLine
 10
619.29303
 20
214.625557
 30
0.0
 11
619.198334
 21
214.625557
 31
0.0
  0
LINE
  5
9737
100
AcDbEntity
  8
1
100
AcDbLine
 10
619.29303
 20
214.625557
 30
0.0
 11
620.064847
 21
214.625557
 31
0.0
  0
LINE
  5
9738
100
AcDbEntity
  8
1
100
AcDbLine
 10
619.190913
 20
215.025557
 30
0.0
 11
619.190913
 21
215.525557
 31
0.0
  0
LWPOLYLINE
  5
9739
100
AcDbEntity
  8
1
100
AcDbPolyline
 90
        9
 70
   128
 43
0.0
 10
619.176953
 20
214.625557
 10
619.179677
 20
214.633243
 10
619.182295
 20
214.656005
 10
619.184709
 20
214.692969
 10
619.186824
 20
214.742714
 10
619.18856
 20
214.803329
 10
619.18985
 20
214.872483
 10
619.190645
 20
214.947521
 10
619.190913
 20
215.025557
  0
LINE
  5
973A
100
AcDbEntity
  8
1
100
AcDbLine
 10
619.576815
 20
215.025557
 30
0.0
 11
619.190913
 21
215.025557
 31
0.0
  0
LWPOLYLINE
  5
973B
100
AcDbEntity
  8
1
100
AcDbPolyline
 90
        9
 70
   128
 43
0.0
 10
619.176953
 20
214.625557
 10
619.254962
 20
214.633243
 10
619.329974
 20
214.656005
 10
619.399105
 20
214.692969
 10
619.459698
 20
214.742714
 10
619.509426
 20
214.803329
 10
619.546378
 20
214.872483
 10
619.569132
 20
214.947521
 10
619.576815
 20
215.025557
  0
LINE
  5
973C
100
AcDbEntity
  8
1
100
AcDbLine
 10
619.576815
 20
215.525557
 30
0.0
 11
619.576815
 21
215.025557
 31
0.0
  0
LINE
  5
973D
100
AcDbEntity
  8
1
100
AcDbLine
 10
619.598197
 20
215.525557
 30
0.0
 11
619.598197
 21
215.025557
 31
0.0
  0
LINE
  5
973E
100
AcDbEntity
  8
1
100
AcDbLine
 10
619.576815
 20
215.025557
 30
0.0
 11
619.598197
 21
215.025557
 31
0.0
  0
LINE
  5
973F
100
AcDbEntity
  8
1
100
AcDbLine
 10
619.692898
 20
215.025557
 30
0.0
 11
619.692898
 21
215.525557
 31
0.0
  0
LINE
  5
9740
100
AcDbEntity
  8
1
100
AcDbLine
 10
619.598197
 20
215.025557
 30
0.0
 11
619.692898
 21
215.025557
 31
0.0
  0
LWPOLYLINE
  5
9741
100
AcDbEntity
  8
1
100
AcDbPolyline
 90
        9
 70
   128
 43
0.0
 10
619.29303
 20
214.625557
 10
619.37104
 20
214.633243
 10
619.446053
 20
214.656005
 10
619.515185
 20
214.692969
 10
619.575779
 20
214.742714
 10
619.625508
 20
214.803329
 10
619.66246
 20
214.872483
 10
619.685215
 20
214.947521
 10
619.692898
 20
215.025557
  0
LINE
  5
9742
100
AcDbEntity
  8
1
100
AcDbLine
 10
620.078807
 20
215.525557
 30
0.0
 11
620.078807
 21
215.025557
 31
0.0
  0
LINE
  5
9743
100
AcDbEntity
  8
1
100
AcDbLine
 10
620.078807
 20
215.025557
 30
0.0
 11
619.692898
 21
215.025557
 31
0.0
  0
LWPOLYLINE
  5
9744
100
AcDbEntity
  8
1
100
AcDbPolyline
 90
        9
 70
   128
 43
0.0
 10
620.064847
 20
214.625557
 10
620.067571
 20
214.633243
 10
620.07019
 20
214.656005
 10
620.072603
 20
214.692969
 10
620.074719
 20
214.742714
 10
620.076455
 20
214.803329
 10
620.077745
 20
214.872483
 10
620.078539
 20
214.947521
 10
620.078807
 20
215.025557
  0
LINE
  5
9745
100
AcDbEntity
  8
1
100
AcDbLine
 10
615.290186
 20
215.025557
 30
0.0
 11
615.290186
 21
215.976096
 31
0.0
  0
LINE
  5
9746
100
AcDbEntity
  8
1
100
AcDbLine
 10
614.114119
 20
215.525557
 30
0.0
 11
614.114119
 21
215.79044
 31
0.0
  0
LINE
  5
9747
100
AcDbEntity
  8
1
100
AcDbLine
 10
614.945258
 20
215.525557
 30
0.0
 11
614.945258
 21
215.839853
 31
0.0
  0
LINE
  5
9748
100
AcDbEntity
  8
1
100
AcDbLine
 10
614.945258
 20
215.525557
 30
0.0
 11
614.114119
 21
215.525557
 31
0.0
  0
LWPOLYLINE
  5
9749
100
AcDbEntity
  8
1
100
AcDbPolyline
 90
        7
 70
   128
 43
0.0
 10
614.898828
 20
214.625557
 10
614.901676
 20
214.625567
 10
615.0265
 20
214.64744
 10
615.158592
 20
214.726375
 10
615.237801
 20
214.825639
 10
615.27607
 20
214.919094
 10
615.290186
 20
215.025557
  0
LINE
  5
974A
100
AcDbEntity
  8
1
100
AcDbLine
 10
614.957587
 20
215.025557
 30
0.0
 11
614.571762
 21
215.025557
 31
0.0
  0
LWPOLYLINE
  5
974B
100
AcDbEntity
  8
1
100
AcDbPolyline
 90
        9
 70
   128
 43
0.0
 10
614.557803
 20
214.625557
 10
614.635797
 20
214.633243
 10
614.710794
 20
214.656005
 10
614.779911
 20
214.692969
 10
614.840493
 20
214.742714
 10
614.890211
 20
214.803329
 10
614.927155
 20
214.872483
 10
614.949905
 20
214.947521
 10
614.957587
 20
215.025557
  0
LINE
  5
974C
100
AcDbEntity
  8
1
100
AcDbLine
 10
613.039541
 20
215.525557
 30
0.0
 11
613.039541
 21
214.725557
 31
0.0
  0
LINE
  5
974D
100
AcDbEntity
  8
1
100
AcDbLine
 10
612.213249
 20
215.525557
 30
0.0
 11
612.213249
 21
215.025557
 31
0.0
  0
LWPOLYLINE
  5
974E
100
AcDbEntity
  8
1
100
AcDbPolyline
 90
        9
 70
   128
 43
0.0
 10
612.199289
 20
214.625557
 10
612.202012
 20
214.633243
 10
612.204631
 20
214.656005
 10
612.207045
 20
214.692969
 10
612.20916
 20
214.742714
 10
612.210896
 20
214.803329
 10
612.212186
 20
214.872483
 10
612.212981
 20
214.947521
 10
612.213249
 20
215.025557
  0
LINE
  5
974F
100
AcDbEntity
  8
1
100
AcDbLine
 10
612.213249
 20
215.025557
 30
0.0
 11
613.039541
 21
215.025557
 31
0.0
  0
LINE
  5
9750
100
AcDbEntity
  8
1
100
AcDbLine
 10
614.139541
 20
214.725557
 30
0.0
 11
614.139541
 21
215.525557
 31
0.0
  0
LINE
  5
9751
100
AcDbEntity
  8
1
100
AcDbLine
 10
614.538747
 20
215.525557
 30
0.0
 11
614.139541
 21
215.286471
 31
0.0
  0
LINE
  5
9752
100
AcDbEntity
  8
1
100
AcDbLine
 10
614.898828
 20
214.625557
 30
0.0
 11
614.557803
 21
214.625557
 31
0.0
  0
LINE
  5
9753
100
AcDbEntity
  8
1
100
AcDbLine
 10
614.495203
 20
215.525557
 30
0.0
 11
614.139541
 21
215.312289
 31
0.0
  0
LINE
  5
9754
100
AcDbEntity
  8
1
100
AcDbLine
 10
614.139541
 20
215.487162
 30
0.0
 11
614.203572
 21
215.525557
 31
0.0
  0
LINE
  5
9755
100
AcDbEntity
  8
1
100
AcDbLine
 10
614.571762
 20
215.025557
 30
0.0
 11
614.571762
 21
215.525557
 31
0.0
  0
LINE
  5
9756
100
AcDbEntity
  8
1
100
AcDbLine
 10
614.139541
 20
215.025557
 30
0.0
 11
614.571762
 21
215.025557
 31
0.0
  0
LWPOLYLINE
  5
9757
100
AcDbEntity
  8
1
100
AcDbPolyline
 90
        9
 70
   128
 43
0.0
 10
614.557803
 20
214.625557
 10
614.560526
 20
214.633243
 10
614.563145
 20
214.656005
 10
614.565558
 20
214.692969
 10
614.567674
 20
214.742714
 10
614.56941
 20
214.803329
 10
614.5707
 20
214.872483
 10
614.571494
 20
214.947521
 10
614.571762
 20
215.025557
  0
LINE
  5
9758
100
AcDbEntity
  8
1
100
AcDbLine
 10
613.039541
 20
214.725557
 30
0.0
 11
614.139541
 21
214.725557
 31
0.0
  0
LINE
  5
9759
100
AcDbEntity
  8
1
100
AcDbLine
 10
614.557803
 20
214.625557
 30
0.0
 11
612.199289
 21
214.625557
 31
0.0
  0
LINE
  5
975A
100
AcDbEntity
  8
1
100
AcDbLine
 10
614.957587
 20
215.525557
 30
0.0
 11
614.957587
 21
215.025557
 31
0.0
  0
LINE
  5
975B
100
AcDbEntity
  8
1
100
AcDbLine
 10
614.957587
 20
215.025557
 30
0.0
 11
615.290186
 21
215.025557
 31
0.0
  0
LWPOLYLINE
  5
975C
100
AcDbEntity
  8
1
100
AcDbPolyline
 90
        6
 70
   128
 43
0.0
 10
614.739741
 20
216.525795
 10
614.922138
 20
216.494799
 10
615.083997
 20
216.405118
 10
615.206867
 20
216.26697
 10
615.276906
 20
216.096163
 10
615.290186
 20
215.976096
  0
LWPOLYLINE
  5
975D
100
AcDbEntity
  8
1
100
AcDbPolyline
 90
        9
 70
   128
 43
0.0
 10
614.945258
 20
215.839853
 10
614.934663
 20
215.947124
 10
614.90336
 20
216.050274
 10
614.852551
 20
216.145341
 10
614.784188
 20
216.228673
 10
614.700897
 20
216.29707
 10
614.605876
 20
216.347904
 10
614.502778
 20
216.379223
 10
614.39556
 20
216.389823
  0
LWPOLYLINE
  5
975E
100
AcDbEntity
  8
1
100
AcDbPolyline
 90
        7
 70
   128
 43
0.0
 10
614.945258
 20
215.839853
 10
614.899217
 20
215.831486
 10
614.815878
 20
215.823149
 10
614.695413
 20
215.814859
 10
614.538071
 20
215.806633
 10
614.344173
 20
215.798488
 10
614.114119
 20
215.79044
  0
LINE
  5
975F
100
AcDbEntity
  8
1
100
AcDbLine
 10
614.149016
 20
216.466912
 30
0.0
 11
614.059547
 21
216.359547
 31
0.0
  0
LWPOLYLINE
  5
9760
100
AcDbEntity
  8
1
100
AcDbPolyline
 90
        5
 70
   128
 43
0.0
 10
614.04238
 20
216.066568
 10
614.045346
 20
216.191987
 10
614.049954
 20
216.292963
 10
614.054732
 20
216.342193
 10
614.059547
 20
216.359547
  0
LWPOLYLINE
  5
9761
100
AcDbEntity
  8
1
100
AcDbPolyline
 90
        9
 70
   128
 43
0.0
 10
614.040908
 20
215.79044
 10
614.040933
 20
215.832857
 10
614.041009
 20
215.874478
 10
614.041133
 20
215.914521
 10
614.041305
 20
215.952235
 10
614.041519
 20
215.986912
 10
614.041773
 20
216.017901
 10
614.042062
 20
216.04462
 10
614.04238
 20
216.066568
  0
LINE
  5
9762
100
AcDbEntity
  8
1
100
AcDbLine
 10
614.19792
 20
216.525596
 30
0.0
 11
614.149016
 21
216.466912
 31
0.0
  0
LINE
  5
9763
100
AcDbEntity
  8
1
100
AcDbLine
 10
614.739741
 20
216.525795
 30
0.0
 11
614.19792
 21
216.525596
 31
0.0
  0
LINE
  5
9764
100
AcDbEntity
  8
1
100
AcDbLine
 10
614.114119
 20
215.79044
 30
0.0
 11
614.040908
 21
215.79044
 31
0.0
  0
LWPOLYLINE
  5
9765
100
AcDbEntity
  8
1
100
AcDbPolyline
 90
        9
 70
   128
 43
0.0
 10
614.114119
 20
215.79044
 10
614.112877
 20
215.826575
 10
614.109374
 20
215.862553
 10
614.103624
 20
215.89822
 10
614.095652
 20
215.933421
 10
614.085494
 20
215.968004
 10
614.073192
 20
216.00182
 10
614.0588
 20
216.034722
 10
614.04238
 20
216.066568
  0
LWPOLYLINE
  5
9766
100
AcDbEntity
  8
1
100
AcDbPolyline
 90
        4
 70
   128
 43
0.0
 10
614.059547
 20
216.359547
 10
614.224557
 20
216.36957
 10
614.336675
 20
216.379672
 10
614.39556
 20
216.389823
  0
LWPOLYLINE
  5
9767
100
AcDbEntity
  8
1
100
AcDbPolyline
 90
        3
 70
   128
 43
0.0
 10
614.39556
 20
216.389823
 10
614.586412
 20
216.457802
 10
614.739741
 20
216.525795
  0
LWPOLYLINE
  5
9768
100
AcDbEntity
  8
1
100
AcDbPolyline
 90
        4
 70
   128
 43
0.0
 10
615.290186
 20
215.976096
 10
615.265284
 20
215.96458
 10
615.161951
 20
215.918529
 10
614.945258
 20
215.839853
  0
LINE
  5
9769
100
AcDbEntity
  8
1
100
AcDbLine
 10
619.176953
 20
214.625557
 30
0.0
 11
614.898828
 21
214.625557
 31
0.0
  0
LINE
  5
976A
100
AcDbEntity
  8
1
100
AcDbLine
 10
615.290186
 20
215.025557
 30
0.0
 11
619.190913
 21
215.025557
 31
0.0
  0
LINE
  5
976B
100
AcDbEntity
  8
1
100
AcDbLine
 10
622.023316
 20
215.525557
 30
0.0
 11
622.023316
 21
215.789213
 31
0.0
  0
LINE
  5
976C
100
AcDbEntity
  8
1
100
AcDbLine
 10
622.806433
 20
215.525557
 30
0.0
 11
622.806433
 21
215.838565
 31
0.0
  0
LINE
  5
976D
100
AcDbEntity
  8
1
100
AcDbLine
 10
622.046942
 20
214.725557
 30
0.0
 11
622.046942
 21
215.525557
 31
0.0
  0
LINE
  5
976E
100
AcDbEntity
  8
1
100
AcDbLine
 10
620.946942
 20
215.525557
 30
0.0
 11
620.946942
 21
214.725557
 31
0.0
  0
LINE
  5
976F
100
AcDbEntity
  8
1
100
AcDbLine
 10
620.946942
 20
214.725557
 30
0.0
 11
622.046942
 21
214.725557
 31
0.0
  0
LINE
  5
9770
100
AcDbEntity
  8
1
100
AcDbLine
 10
622.806433
 20
215.525557
 30
0.0
 11
622.023316
 21
215.525557
 31
0.0
  0
LWPOLYLINE
  5
9771
100
AcDbEntity
  8
1
100
AcDbPolyline
 90
        3
 70
   128
 43
0.0
 10
622.446214
 20
215.525557
 10
622.438158
 20
215.520737
 10
622.430092
 20
215.515908
  0
LINE
  5
9772
100
AcDbEntity
  8
1
100
AcDbLine
 10
622.430092
 20
215.515908
 30
0.0
 11
622.046942
 21
215.286438
 31
0.0
  0
LWPOLYLINE
  5
9773
100
AcDbEntity
  8
1
100
AcDbPolyline
 90
        6
 70
   128
 43
0.0
 10
623.189237
 20
215.025557
 10
623.166691
 20
214.89317
 10
623.101595
 20
214.775709
 10
623.001286
 20
214.686406
 10
622.877055
 20
214.635327
 10
622.789175
 20
214.625557
  0
LINE
  5
9774
100
AcDbEntity
  8
1
100
AcDbLine
 10
622.789175
 20
214.625557
 30
0.0
 11
622.416133
 21
214.625557
 31
0.0
  0
LINE
  5
9775
100
AcDbEntity
  8
1
100
AcDbLine
 10
622.046942
 20
215.487162
 30
0.0
 11
622.110973
 21
215.525557
 31
0.0
  0
LINE
  5
9776
100
AcDbEntity
  8
1
100
AcDbLine
 10
622.402604
 20
215.525557
 30
0.0
 11
622.046942
 21
215.312289
 31
0.0
  0
LINE
  5
9777
100
AcDbEntity
  8
1
100
AcDbLine
 10
622.046942
 20
215.025557
 30
0.0
 11
622.430092
 21
215.025557
 31
0.0
  0
LWPOLYLINE
  5
9778
100
AcDbEntity
  8
1
100
AcDbPolyline
 90
        9
 70
   128
 43
0.0
 10
622.416133
 20
214.625557
 10
622.418856
 20
214.633243
 10
622.421475
 20
214.656005
 10
622.423888
 20
214.692969
 10
622.426004
 20
214.742714
 10
622.42774
 20
214.803329
 10
622.42903
 20
214.872483
 10
622.429824
 20
214.947521
 10
622.430092
 20
215.025557
  0
LINE
  5
9779
100
AcDbEntity
  8
1
100
AcDbLine
 10
622.430092
 20
215.025557
 30
0.0
 11
622.430092
 21
215.515908
 31
0.0
  0
LINE
  5
977A
100
AcDbEntity
  8
1
100
AcDbLine
 10
622.816004
 20
215.025557
 30
0.0
 11
622.430092
 21
215.025557
 31
0.0
  0
LWPOLYLINE
  5
977B
100
AcDbEntity
  8
1
100
AcDbPolyline
 90
        9
 70
   128
 43
0.0
 10
622.416133
 20
214.625557
 10
622.494144
 20
214.633243
 10
622.569157
 20
214.656005
 10
622.638289
 20
214.692969
 10
622.698884
 20
214.742714
 10
622.748614
 20
214.803329
 10
622.785566
 20
214.872483
 10
622.808321
 20
214.947521
 10
622.816004
 20
215.025557
  0
LINE
  5
977C
100
AcDbEntity
  8
1
100
AcDbLine
 10
622.816004
 20
215.525557
 30
0.0
 11
622.816004
 21
215.025557
 31
0.0
  0
LINE
  5
977D
100
AcDbEntity
  8
1
100
AcDbLine
 10
622.816004
 20
215.025557
 30
0.0
 11
623.189237
 21
215.025557
 31
0.0
  0
LINE
  5
977E
100
AcDbEntity
  8
1
100
AcDbLine
 10
622.043999
 20
216.459843
 30
0.0
 11
621.960012
 21
216.359057
 31
0.0
  0
LWPOLYLINE
  5
977F
100
AcDbEntity
  8
1
100
AcDbPolyline
 90
        6
 70
   128
 43
0.0
 10
621.942296
 20
216.08097
 10
621.943804
 20
216.147946
 10
621.947059
 20
216.241701
 10
621.950417
 20
216.299474
 10
621.955201
 20
216.343236
 10
621.960012
 20
216.359057
  0
LWPOLYLINE
  5
9780
100
AcDbEntity
  8
1
100
AcDbPolyline
 90
        9
 70
   128
 43
0.0
 10
621.940664
 20
215.789213
 10
621.940692
 20
215.834814
 10
621.940777
 20
215.879491
 10
621.940916
 20
215.922338
 10
621.941107
 20
215.962486
 10
621.941346
 20
215.999121
 10
621.941627
 20
216.031501
 10
621.941946
 20
216.05897
 10
621.942296
 20
216.08097
  0
LINE
  5
9781
100
AcDbEntity
  8
1
100
AcDbLine
 10
622.043999
 20
216.459843
 30
0.0
 11
622.205446
 21
216.459843
 31
0.0
  0
LINE
  5
9782
100
AcDbEntity
  8
1
100
AcDbLine
 10
622.260207
 20
216.525557
 30
0.0
 11
622.205446
 21
216.459843
 31
0.0
  0
LINE
  5
9783
100
AcDbEntity
  8
1
100
AcDbLine
 10
622.542688
 20
216.525557
 30
0.0
 11
622.260207
 21
216.525557
 31
0.0
  0
LWPOLYLINE
  5
9784
100
AcDbEntity
  8
1
100
AcDbPolyline
 90
        6
 70
   128
 43
0.0
 10
622.969135
 20
216.335837
 10
622.953692
 20
216.350011
 10
622.913803
 20
216.386854
 10
622.817695
 20
216.453706
 10
622.682947
 20
216.50763
 10
622.56915
 20
216.52492
  0
LWPOLYLINE
  5
9785
100
AcDbEntity
  8
1
100
AcDbPolyline
 90
        3
 70
   128
 43
0.0
 10
622.969135
 20
216.335837
 10
622.975272
 20
216.350918
 10
622.989237
 20
216.383774
  0
LINE
  5
9786
100
AcDbEntity
  8
1
100
AcDbLine
 10
622.989237
 20
216.383774
 30
0.0
 11
622.994172
 21
216.37854
 31
0.0
  0
LWPOLYLINE
  5
9787
100
AcDbEntity
  8
1
100
AcDbPolyline
 90
        5
 70
   128
 43
0.0
 10
623.144148
 20
216.005447
 10
623.144094
 20
216.0096
 10
623.123322
 20
216.149882
 10
623.060163
 20
216.292374
 10
622.994172
 20
216.37854
  0
LINE
  5
9788
100
AcDbEntity
  8
1
100
AcDbLine
 10
622.542688
 20
216.525557
 30
0.0
 11
622.56915
 21
216.52492
 31
0.0
  0
LINE
  5
9789
100
AcDbEntity
  8
1
100
AcDbLine
 10
622.023316
 20
215.789213
 30
0.0
 11
621.940664
 21
215.789213
 31
0.0
  0
LWPOLYLINE
  5
978A
100
AcDbEntity
  8
1
100
AcDbPolyline
 90
        9
 70
   128
 43
0.0
 10
622.023316
 20
215.789213
 10
622.021919
 20
215.827624
 10
622.017959
 20
215.865847
 10
622.011453
 20
215.903695
 10
622.002435
 20
215.940985
 10
621.990949
 20
215.977533
 10
621.977049
 20
216.013162
 10
621.960805
 20
216.047697
 10
621.942296
 20
216.08097
  0
LWPOLYLINE
  5
978B
100
AcDbEntity
  8
1
100
AcDbPolyline
 90
        9
 70
   128
 43
0.0
 10
622.806433
 20
215.838565
 10
622.795843
 20
215.945841
 10
622.764538
 20
216.048995
 10
622.71372
 20
216.144066
 10
622.645342
 20
216.2274
 10
622.56203
 20
216.295797
 10
622.466985
 20
216.346629
 10
622.363858
 20
216.377942
 10
622.256611
 20
216.388535
  0
LWPOLYLINE
  5
978C
100
AcDbEntity
  8
1
100
AcDbPolyline
 90
        7
 70
   128
 43
0.0
 10
622.806433
 20
215.838565
 10
622.76707
 20
215.830219
 10
622.690967
 20
215.821898
 10
622.578279
 20
215.813621
 10
622.429229
 20
215.805404
 10
622.244118
 20
215.797262
 10
622.023316
 20
215.789213
  0
LWPOLYLINE
  5
978D
100
AcDbEntity
  8
1
100
AcDbPolyline
 90
        4
 70
   128
 43
0.0
 10
621.960012
 20
216.359057
 10
622.108583
 20
216.368824
 10
622.207542
 20
216.378659
 10
622.256611
 20
216.388535
  0
LINE
  5
978E
100
AcDbEntity
  8
1
100
AcDbLine
 10
622.256611
 20
216.388535
 30
0.0
 11
622.542688
 21
216.525557
 31
0.0
  0
LWPOLYLINE
  5
978F
100
AcDbEntity
  8
1
100
AcDbPolyline
 90
        5
 70
   128
 43
0.0
 10
623.144148
 20
216.005447
 10
623.141526
 20
216.003905
 10
623.12183
 20
215.992389
 10
623.039618
 20
215.94633
 10
622.806433
 20
215.838565
  0
TEXT
  5
9790
100
AcDbEntity
  8
1
100
AcDbText
 10
620.271126
 20
224.236642
 30
0.0
 40
1.0
  1
2
 50
270.0
  7
ITALIC
100
AcDbText
  0
TEXT
  5
9791
100
AcDbEntity
  8
1
100
AcDbText
 10
620.247086
 20
221.793081
 30
0.0
 40
1.0
  1
1
 50
270.0
  7
ITALIC
100
AcDbText
  0
TEXT
  5
9792
100
AcDbEntity
  8
1
100
AcDbText
 10
620.247086
 20
221.214749
 30
0.0
 40
1.0
  1
2
 50
270.0
  7
ITALIC
100
AcDbText
  0
TEXT
  5
9793
100
AcDbEntity
  8
1
100
AcDbText
 10
620.271126
 20
223.446518
 30
0.0
 40
1.0
  1
2
 50
270.0
  7
ITALIC
100
AcDbText
  0
LWPOLYLINE
  5
9794
100
AcDbEntity
  8
1
100
AcDbPolyline
 90
        6
 70
   128
 43
0.0
 10
614.539579
 20
224.125721
 10
614.788303
 20
224.083455
 10
615.009019
 20
223.961162
 10
615.176569
 20
223.772779
 10
615.272077
 20
223.53986
 10
615.290186
 20
223.376132
  0
LWPOLYLINE
  5
9795
100
AcDbEntity
  8
1
100
AcDbPolyline
 90
        9
 70
   128
 43
0.0
 10
614.945258
 20
223.239912
 10
614.930811
 20
223.38619
 10
614.888124
 20
223.526848
 10
614.818839
 20
223.656485
 10
614.725617
 20
223.770121
 10
614.612038
 20
223.863389
 10
614.482465
 20
223.932709
 10
614.341876
 20
223.975416
 10
614.19567
 20
223.989871
  0
LWPOLYLINE
  5
9796
100
AcDbEntity
  8
1
100
AcDbPolyline
 90
        7
 70
   128
 43
0.0
 10
614.945258
 20
223.239912
 10
614.899217
 20
223.23164
 10
614.815878
 20
223.223397
 10
614.695413
 20
223.215201
 10
614.538071
 20
223.207068
 10
614.344173
 20
223.199015
 10
614.114119
 20
223.191059
  0
TEXT
  5
9797
100
AcDbEntity
  8
1
100
AcDbText
 10
612.326541
 20
224.133148
 30
0.0
 40
1.0
  1
2
 50
270.0
  7
ITALIC
100
AcDbText
  0
TEXT
  5
9798
100
AcDbEntity
  8
1
100
AcDbText
 10
612.326541
 20
223.294599
 30
0.0
 40
1.0
  1
1
 50
270.0
  7
ITALIC
100
AcDbText
  0
LWPOLYLINE
  5
9799
100
AcDbEntity
  8
1
100
AcDbPolyline
 90
        3
 70
   128
 43
0.0
 10
614.114119
 20
223.191059
 10
614.113023
 20
223.195177
 10
614.040908
 20
223.378911
  0
LWPOLYLINE
  5
979A
100
AcDbEntity
  8
1
100
AcDbPolyline
 90
        8
 70
   128
 43
0.0
 10
614.040908
 20
223.378911
 10
614.041875
 20
223.478161
 10
614.04303
 20
223.55887
 10
614.046321
 20
223.706424
 10
614.049843
 20
223.803269
 10
614.055072
 20
223.890617
 10
614.060344
 20
223.937915
 10
614.071012
 20
223.973305
  0
LINE
  5
979B
100
AcDbEntity
  8
1
100
AcDbLine
 10
614.149016
 20
224.066912
 30
0.0
 11
614.071012
 21
223.973305
 31
0.0
  0
LINE
  5
979C
100
AcDbEntity
  8
1
100
AcDbLine
 10
614.19792
 20
224.125596
 30
0.0
 11
614.149016
 21
224.066912
 31
0.0
  0
LINE
  5
979D
100
AcDbEntity
  8
1
100
AcDbLine
 10
614.539579
 20
224.125721
 30
0.0
 11
614.19792
 21
224.125596
 31
0.0
  0
LWPOLYLINE
  5
979E
100
AcDbEntity
  8
1
100
AcDbPolyline
 90
        4
 70
   128
 43
0.0
 10
614.071012
 20
223.973305
 10
614.12855
 20
223.978813
 10
614.170116
 20
223.984336
 10
614.19567
 20
223.989871
  0
LWPOLYLINE
  5
979F
100
AcDbEntity
  8
1
100
AcDbPolyline
 90
        3
 70
   128
 43
0.0
 10
614.19567
 20
223.989871
 10
614.386369
 20
224.05779
 10
614.539579
 20
224.125721
  0
LWPOLYLINE
  5
97A0
100
AcDbEntity
  8
1
100
AcDbPolyline
 90
        4
 70
   128
 43
0.0
 10
615.290186
 20
223.376132
 10
615.256193
 20
223.36043
 10
615.110732
 20
223.297648
 10
614.945258
 20
223.239912
  0
TEXT
  5
97A1
100
AcDbEntity
  8
1
100
AcDbText
 10
612.264036
 20
221.672519
 30
0.0
 40
1.0
  1
1
 50
270.0
  7
ITALIC
100
AcDbText
  0
LWPOLYLINE
  5
97A2
100
AcDbEntity
  8
1
100
AcDbPolyline
 90
        3
 70
   128
 43
0.0
 10
614.040908
 20
221.372202
 10
614.113023
 20
221.555936
 10
614.114119
 20
221.560055
  0
LWPOLYLINE
  5
97A3
100
AcDbEntity
  8
1
100
AcDbPolyline
 90
        9
 70
   128
 43
0.0
 10
614.19567
 20
220.761243
 10
614.341876
 20
220.775698
 10
614.482465
 20
220.818405
 10
614.612038
 20
220.887724
 10
614.725617
 20
220.980993
 10
614.818839
 20
221.094628
 10
614.888124
 20
221.224265
 10
614.930811
 20
221.364924
 10
614.945258
 20
221.511202
  0
LWPOLYLINE
  5
97A4
100
AcDbEntity
  8
1
100
AcDbPolyline
 90
        4
 70
   128
 43
0.0
 10
614.945258
 20
221.511202
 10
614.993904
 20
221.495514
 10
615.161435
 20
221.432762
 10
615.290186
 20
221.374981
  0
LWPOLYLINE
  5
97A5
100
AcDbEntity
  8
1
100
AcDbPolyline
 90
        6
 70
   128
 43
0.0
 10
615.290186
 20
221.374981
 10
615.247996
 20
221.127116
 10
615.126196
 20
220.907196
 10
614.938488
 20
220.739892
 10
614.705748
 20
220.643934
 10
614.539579
 20
220.625392
  0
TEXT
  5
97A6
100
AcDbEntity
  8
1
100
AcDbText
 10
612.264036
 20
221.050818
 30
0.0
 40
1.0
  1
1
 50
270.0
  7
ITALIC
100
AcDbText
  0
LWPOLYLINE
  5
97A7
100
AcDbEntity
  8
1
100
AcDbPolyline
 90
        9
 70
   128
 43
0.0
 10
614.071012
 20
220.777809
 10
614.064464
 20
220.79236
 10
614.057926
 20
220.831477
 10
614.053876
 20
220.876401
 10
614.049857
 20
220.94753
 10
614.047157
 20
221.014781
 10
614.044525
 20
221.110979
 10
614.042101
 20
221.255015
 10
614.040908
 20
221.372202
  0
LINE
  5
97A8
100
AcDbEntity
  8
1
100
AcDbLine
 10
614.149016
 20
220.684202
 30
0.0
 11
614.071012
 21
220.777809
 31
0.0
  0
LINE
  5
97A9
100
AcDbEntity
  8
1
100
AcDbLine
 10
614.539579
 20
220.625392
 30
0.0
 11
614.19792
 21
220.625517
 31
0.0
  0
LINE
  5
97AA
100
AcDbEntity
  8
1
100
AcDbLine
 10
614.19792
 20
220.625517
 30
0.0
 11
614.149016
 21
220.684202
 31
0.0
  0
LWPOLYLINE
  5
97AB
100
AcDbEntity
  8
1
100
AcDbPolyline
 90
        4
 70
   128
 43
0.0
 10
614.19567
 20
220.761243
 10
614.170116
 20
220.766777
 10
614.12855
 20
220.772301
 10
614.071012
 20
220.777809
  0
LWPOLYLINE
  5
97AC
100
AcDbEntity
  8
1
100
AcDbPolyline
 90
        4
 70
   128
 43
0.0
 10
614.539579
 20
220.625392
 10
614.50558
 20
220.641096
 10
614.359978
 20
220.703908
 10
614.19567
 20
220.761243
  0
LWPOLYLINE
  5
97AD
100
AcDbEntity
  8
1
100
AcDbPolyline
 90
        7
 70
   128
 43
0.0
 10
614.114119
 20
221.560055
 10
614.344173
 20
221.552098
 10
614.538071
 20
221.544045
 10
614.695413
 20
221.535912
 10
614.815878
 20
221.527716
 10
614.899217
 20
221.519474
 10
614.945258
 20
221.511202
  0
TEXT
  5
97AE
100
AcDbEntity
  8
1
100
AcDbText
 10
616.225933
 20
222.250616
 30
0.0
 40
1.0
  1
C
 50
270.0
  7
ITALIC
100
AcDbText
  0
LINE
  5
97AF
100
AcDbEntity
  8
1
100
AcDbLine
 10
615.290186
 20
221.374981
 30
0.0
 11
615.290186
 21
223.376132
 31
0.0
  0
LINE
  5
97B0
100
AcDbEntity
  8
1
100
AcDbLine
 10
614.114119
 20
221.560055
 30
0.0
 11
614.114119
 21
223.191059
 31
0.0
  0
LINE
  5
97B1
100
AcDbEntity
  8
1
100
AcDbLine
 10
614.945258
 20
221.511202
 30
0.0
 11
614.945258
 21
223.239912
 31
0.0
  0
TEXT
  5
97B2
100
AcDbEntity
  8
1
100
AcDbText
 10
616.225933
 20
223.20808
 30
0.0
 40
1.0
  1
N
 50
270.0
  7
ITALIC
100
AcDbText
  0
LWPOLYLINE
  5
97B3
100
AcDbEntity
  8
1
100
AcDbPolyline
 90
        3
 70
   128
 43
0.0
 10
622.023316
 20
223.189809
 10
622.022258
 20
223.193928
 10
621.940664
 20
223.398774
  0
LINE
  5
97B4
100
AcDbEntity
  8
1
100
AcDbLine
 10
622.043999
 20
224.059843
 30
0.0
 11
621.973055
 21
223.97471
 31
0.0
  0
LWPOLYLINE
  5
97B5
100
AcDbEntity
  8
1
100
AcDbPolyline
 90
        8
 70
   128
 43
0.0
 10
621.940664
 20
223.398774
 10
621.941979
 20
223.51329
 10
621.943518
 20
223.602252
 10
621.947957
 20
223.760084
 10
621.952633
 20
223.854334
 10
621.957709
 20
223.914475
 10
621.962805
 20
223.94796
 10
621.973055
 20
223.97471
  0
LINE
  5
97B6
100
AcDbEntity
  8
1
100
AcDbLine
 10
622.043999
 20
224.059843
 30
0.0
 11
622.205446
 21
224.059843
 31
0.0
  0
LINE
  5
97B7
100
AcDbEntity
  8
1
100
AcDbLine
 10
622.260207
 20
224.125557
 30
0.0
 11
622.205446
 21
224.059843
 31
0.0
  0
LINE
  5
97B8
100
AcDbEntity
  8
1
100
AcDbLine
 10
622.342692
 20
224.125557
 30
0.0
 11
622.260207
 21
224.125557
 31
0.0
  0
LWPOLYLINE
  5
97B9
100
AcDbEntity
  8
1
100
AcDbPolyline
 90
        6
 70
   128
 43
0.0
 10
622.969135
 20
223.803013
 10
622.960086
 20
223.813014
 10
622.927062
 20
223.853056
 10
622.841242
 20
223.938763
 10
622.715158
 20
224.027132
 10
622.56915
 20
224.090559
  0
LWPOLYLINE
  5
97BA
100
AcDbEntity
  8
1
100
AcDbPolyline
 90
        3
 70
   128
 43
0.0
 10
622.969135
 20
223.803013
 10
622.978761
 20
223.829421
 10
622.989237
 20
223.85693
  0
LINE
  5
97BB
100
AcDbEntity
  8
1
100
AcDbLine
 10
622.989237
 20
223.85693
 30
0.0
 11
622.994172
 21
223.850346
 31
0.0
  0
LWPOLYLINE
  5
97BC
100
AcDbEntity
  8
1
100
AcDbPolyline
 90
        5
 70
   128
 43
0.0
 10
623.144148
 20
223.405474
 10
623.144092
 20
223.41047
 10
623.134306
 20
223.520378
 10
623.067744
 20
223.729217
 10
622.994172
 20
223.850346
  0
LINE
  5
97BD
100
AcDbEntity
  8
1
100
AcDbLine
 10
622.342692
 20
224.125557
 30
0.0
 11
622.56915
 21
224.090559
 31
0.0
  0
LWPOLYLINE
  5
97BE
100
AcDbEntity
  8
1
100
AcDbPolyline
 90
        4
 70
   128
 43
0.0
 10
621.973055
 20
223.97471
 10
622.011992
 20
223.979321
 10
622.039871
 20
223.983941
 10
622.056676
 20
223.988566
  0
LWPOLYLINE
  5
97BF
100
AcDbEntity
  8
1
100
AcDbPolyline
 90
        9
 70
   128
 43
0.0
 10
622.806433
 20
223.238607
 10
622.791992
 20
223.384892
 10
622.749303
 20
223.525558
 10
622.680006
 20
223.6552
 10
622.586763
 20
223.768838
 10
622.473156
 20
223.862106
 10
622.343549
 20
223.931421
 10
622.202922
 20
223.974122
 10
622.056676
 20
223.988566
  0
LWPOLYLINE
  5
97C0
100
AcDbEntity
  8
1
100
AcDbPolyline
 90
        7
 70
   128
 43
0.0
 10
622.806433
 20
223.238607
 10
622.76707
 20
223.230355
 10
622.690967
 20
223.222128
 10
622.578279
 20
223.213944
 10
622.429229
 20
223.205818
 10
622.244118
 20
223.197768
 10
622.023316
 20
223.189809
  0
LINE
  5
97C1
100
AcDbEntity
  8
1
100
AcDbLine
 10
622.056676
 20
223.988566
 30
0.0
 11
622.342692
 21
224.125557
 31
0.0
  0
LWPOLYLINE
  5
97C2
100
AcDbEntity
  8
1
100
AcDbPolyline
 90
        5
 70
   128
 43
0.0
 10
623.144148
 20
223.405474
 10
623.141526
 20
223.403931
 10
623.114606
 20
223.388228
 10
622.999511
 20
223.325428
 10
622.806433
 20
223.238607
  0
LWPOLYLINE
  5
97C3
100
AcDbEntity
  8
1
100
AcDbPolyline
 90
        3
 70
   128
 43
0.0
 10
621.940664
 20
221.35234
 10
622.022258
 20
221.557186
 10
622.023316
 20
221.561304
  0
LWPOLYLINE
  5
97C4
100
AcDbEntity
  8
1
100
AcDbPolyline
 90
        9
 70
   128
 43
0.0
 10
622.056676
 20
220.762547
 10
622.202922
 20
220.776992
 10
622.343549
 20
220.819692
 10
622.473156
 20
220.889008
 10
622.586763
 20
220.982276
 10
622.680006
 20
221.095914
 10
622.749303
 20
221.225556
 10
622.791992
 20
221.366221
 10
622.806433
 20
221.512506
  0
LWPOLYLINE
  5
97C5
100
AcDbEntity
  8
1
100
AcDbPolyline
 90
        5
 70
   128
 43
0.0
 10
622.806433
 20
221.512506
 10
622.844229
 20
221.496808
 10
622.9829
 20
221.434024
 10
623.141526
 20
221.347183
 10
623.144148
 20
221.34564
  0
LWPOLYLINE
  5
97C6
100
AcDbEntity
  8
1
100
AcDbPolyline
 90
        9
 70
   128
 43
0.0
 10
621.973055
 20
220.776404
 10
621.959969
 20
220.819415
 10
621.955115
 20
220.862986
 10
621.950292
 20
220.937796
 10
621.947442
 20
221.004485
 10
621.944654
 20
221.098236
 10
621.943041
 20
221.172937
 10
621.941531
 20
221.270801
 10
621.940664
 20
221.35234
  0
LINE
  5
97C7
100
AcDbEntity
  8
1
100
AcDbLine
 10
621.973055
 20
220.776404
 30
0.0
 11
622.043999
 21
220.691271
 31
0.0
  0
LINE
  5
97C8
100
AcDbEntity
  8
1
100
AcDbLine
 10
622.260207
 20
220.625557
 30
0.0
 11
622.342692
 21
220.625557
 31
0.0
  0
LINE
  5
97C9
100
AcDbEntity
  8
1
100
AcDbLine
 10
622.205446
 20
220.691271
 30
0.0
 11
622.260207
 21
220.625557
 31
0.0
  0
LINE
  5
97CA
100
AcDbEntity
  8
1
100
AcDbLine
 10
622.205446
 20
220.691271
 30
0.0
 11
622.043999
 21
220.691271
 31
0.0
  0
LWPOLYLINE
  5
97CB
100
AcDbEntity
  8
1
100
AcDbPolyline
 90
        3
 70
   128
 43
0.0
 10
622.989237
 20
220.894183
 10
622.976151
 20
220.928735
 10
622.969135
 20
220.948101
  0
LWPOLYLINE
  5
97CC
100
AcDbEntity
  8
1
100
AcDbPolyline
 90
        7
 70
   128
 43
0.0
 10
622.56915
 20
220.660554
 10
622.701564
 20
220.716508
 10
622.812043
 20
220.788468
 10
622.908735
 20
220.877543
 10
622.951116
 20
220.926933
 10
622.967352
 20
220.94678
 10
622.969135
 20
220.948101
  0
LWPOLYLINE
  5
97CD
100
AcDbEntity
  8
1
100
AcDbPolyline
 90
        3
 70
   128
 43
0.0
 10
622.56915
 20
220.660554
 10
622.568337
 20
220.660297
 10
622.342692
 20
220.625557
  0
LWPOLYLINE
  5
97CE
100
AcDbEntity
  8
1
100
AcDbPolyline
 90
        5
 70
   128
 43
0.0
 10
622.994172
 20
220.900767
 10
623.067744
 20
221.021896
 10
623.134306
 20
221.230736
 10
623.144092
 20
221.340644
 10
623.144148
 20
221.34564
  0
LINE
  5
97CF
100
AcDbEntity
  8
1
100
AcDbLine
 10
622.994172
 20
220.900767
 30
0.0
 11
622.989237
 21
220.894183
 31
0.0
  0
LWPOLYLINE
  5
97D0
100
AcDbEntity
  8
1
100
AcDbPolyline
 90
        4
 70
   128
 43
0.0
 10
622.056676
 20
220.762547
 10
622.039871
 20
220.767173
 10
622.011992
 20
220.771793
 10
621.973055
 20
220.776404
  0
LINE
  5
97D1
100
AcDbEntity
  8
1
100
AcDbLine
 10
622.342692
 20
220.625557
 30
0.0
 11
622.056676
 21
220.762547
 31
0.0
  0
LWPOLYLINE
  5
97D2
100
AcDbEntity
  8
1
100
AcDbPolyline
 90
        7
 70
   128
 43
0.0
 10
622.023316
 20
221.561304
 10
622.244118
 20
221.553345
 10
622.429229
 20
221.545295
 10
622.578279
 20
221.53717
 10
622.690967
 20
221.528986
 10
622.76707
 20
221.520759
 10
622.806433
 20
221.512506
  0
LINE
  5
97D3
100
AcDbEntity
  8
1
100
AcDbLine
 10
622.023316
 20
221.561304
 30
0.0
 11
622.023316
 21
223.189809
 31
0.0
  0
LINE
  5
97D4
100
AcDbEntity
  8
1
100
AcDbLine
 10
622.806433
 20
221.512506
 30
0.0
 11
622.806433
 21
223.238607
 31
0.0
  0
LINE
  5
97D5
100
AcDbEntity
  8
1
100
AcDbLine
 10
611.286832
 20
229.225557
 30
0.0
 11
613.608736
 21
229.225557
 31
0.0
  0
LINE
  5
97D6
100
AcDbEntity
  8
1
100
AcDbLine
 10
612.199289
 20
230.125557
 30
0.0
 11
611.427661
 21
230.125557
 31
0.0
  0
LINE
  5
97D7
100
AcDbEntity
  8
1
100
AcDbLine
 10
611.827435
 20
229.725557
 30
0.0
 11
612.213249
 21
229.725557
 31
0.0
  0
LINE
  5
97D8
100
AcDbEntity
  8
1
100
AcDbLine
 10
603.790917
 20
230.125557
 30
0.0
 11
603.019276
 21
230.125557
 31
0.0
  0
LINE
  5
97D9
100
AcDbEntity
  8
1
100
AcDbLine
 10
602.888017
 20
229.225557
 30
0.0
 11
605.210972
 21
229.225557
 31
0.0
  0
LINE
  5
97DA
100
AcDbEntity
  8
1
100
AcDbLine
 10
603.419056
 20
229.725557
 30
0.0
 11
603.300844
 21
229.725557
 31
0.0
  0
LWPOLYLINE
  5
97DB
100
AcDbEntity
  8
1
100
AcDbPolyline
 90
        9
 70
   128
 43
0.0
 10
603.019276
 20
230.125557
 10
603.097269
 20
230.117871
 10
603.172265
 20
230.095109
 10
603.241382
 20
230.058145
 10
603.301963
 20
230.008399
 10
603.351681
 20
229.947785
 10
603.388625
 20
229.87863
 10
603.411375
 20
229.803593
 10
603.419056
 20
229.725557
  0
LWPOLYLINE
  5
97DC
100
AcDbEntity
  8
1
100
AcDbPolyline
 90
        9
 70
   128
 43
0.0
 10
602.901052
 20
230.125557
 10
602.979048
 20
230.117871
 10
603.054046
 20
230.095109
 10
603.123165
 20
230.058145
 10
603.183748
 20
230.008399
 10
603.233467
 20
229.947785
 10
603.270412
 20
229.87863
 10
603.293162
 20
229.803593
 10
603.300844
 20
229.725557
  0
LINE
  5
97DD
100
AcDbEntity
  8
1
100
AcDbLine
 10
602.874058
 20
230.125557
 30
0.0
 11
602.901052
 21
230.125557
 31
0.0
  0
LINE
  5
97DE
100
AcDbEntity
  8
1
100
AcDbLine
 10
602.901052
 20
230.125557
 30
0.0
 11
603.019276
 21
230.125557
 31
0.0
  0
LINE
  5
97DF
100
AcDbEntity
  8
1
100
AcDbLine
 10
602.888017
 20
229.225557
 30
0.0
 11
602.888017
 21
229.725557
 31
0.0
  0
LWPOLYLINE
  5
97E0
100
AcDbEntity
  8
1
100
AcDbPolyline
 90
        9
 70
   128
 43
0.0
 10
602.874058
 20
230.125557
 10
602.876781
 20
230.117871
 10
602.8794
 20
230.095109
 10
602.881813
 20
230.058145
 10
602.883929
 20
230.008399
 10
602.885665
 20
229.947785
 10
602.886955
 20
229.87863
 10
602.887749
 20
229.803593
 10
602.888017
 20
229.725557
  0
LINE
  5
97E1
100
AcDbEntity
  8
1
100
AcDbLine
 10
602.888017
 20
229.725557
 30
0.0
 11
603.273849
 21
229.725557
 31
0.0
  0
LINE
  5
97E2
100
AcDbEntity
  8
1
100
AcDbLine
 10
603.273849
 20
229.725557
 30
0.0
 11
603.273849
 21
229.225557
 31
0.0
  0
LWPOLYLINE
  5
97E3
100
AcDbEntity
  8
1
100
AcDbPolyline
 90
        9
 70
   128
 43
0.0
 10
602.874058
 20
230.125557
 10
602.952053
 20
230.117871
 10
603.027051
 20
230.095109
 10
603.09617
 20
230.058145
 10
603.156753
 20
230.008399
 10
603.206472
 20
229.947785
 10
603.243417
 20
229.87863
 10
603.266167
 20
229.803593
 10
603.273849
 20
229.725557
  0
LINE
  5
97E4
100
AcDbEntity
  8
1
100
AcDbLine
 10
603.300844
 20
229.725557
 30
0.0
 11
603.273849
 21
229.725557
 31
0.0
  0
LINE
  5
97E5
100
AcDbEntity
  8
1
100
AcDbLine
 10
603.300844
 20
229.225557
 30
0.0
 11
603.300844
 21
229.725557
 31
0.0
  0
LINE
  5
97E6
100
AcDbEntity
  8
OSIE
100
AcDbLine
 10
601.889237
 20
227.175557
 30
0.0
 11
601.889237
 21
225.175557
 31
0.0
  0
LINE
  5
97E7
100
AcDbEntity
  8
1
100
AcDbLine
 10
597.874795
 20
230.125557
 30
0.0
 11
598.164026
 21
230.125557
 31
0.0
  0
LINE
  5
97E8
100
AcDbEntity
  8
1
100
AcDbLine
 10
599.005875
 20
229.725557
 30
0.0
 11
597.764041
 21
229.725557
 31
0.0
  0
LWPOLYLINE
  5
97E9
100
AcDbEntity
  8
1
100
AcDbPolyline
 90
        9
 70
   128
 43
0.0
 10
598.164026
 20
230.125557
 10
598.085993
 20
230.117871
 10
598.010959
 20
230.095109
 10
597.941807
 20
230.058145
 10
597.881194
 20
230.008399
 10
597.831451
 20
229.947785
 10
597.794488
 20
229.87863
 10
597.771727
 20
229.803593
 10
597.764041
 20
229.725557
  0
LINE
  5
97EA
100
AcDbEntity
  8
1
100
AcDbLine
 10
597.478136
 20
229.725557
 30
0.0
 11
597.478136
 21
229.075557
 31
0.0
  0
LWPOLYLINE
  5
97EB
100
AcDbEntity
  8
1
100
AcDbPolyline
 90
        9
 70
   128
 43
0.0
 10
597.278144
 20
228.875557
 10
597.317161
 20
228.8794
 10
597.354678
 20
228.890781
 10
597.389254
 20
228.909263
 10
597.41956
 20
228.934135
 10
597.444432
 20
228.964443
 10
597.462913
 20
228.99902
 10
597.474294
 20
229.036539
 10
597.478136
 20
229.075557
  0
LINE
  5
97EC
100
AcDbEntity
  8
1
100
AcDbLine
 10
597.337484
 20
228.875557
 30
0.0
 11
597.33923
 21
228.875564
 31
0.0
  0
LWPOLYLINE
  5
97ED
100
AcDbEntity
  8
1
100
AcDbPolyline
 90
        9
 70
   128
 43
0.0
 10
597.278144
 20
228.875557
 10
597.294412
 20
228.8794
 10
597.310055
 20
228.890781
 10
597.324472
 20
228.909263
 10
597.337108
 20
228.934135
 10
597.347478
 20
228.964443
 10
597.355184
 20
228.99902
 10
597.359929
 20
229.036539
 10
597.361532
 20
229.075557
  0
LINE
  5
97EE
100
AcDbEntity
  8
1
100
AcDbLine
 10
597.361532
 20
229.075557
 30
0.0
 11
597.361532
 21
229.725557
 31
0.0
  0
LINE
  5
97EF
100
AcDbEntity
  8
1
100
AcDbLine
 10
597.478136
 20
229.725557
 30
0.0
 11
597.361532
 21
229.725557
 31
0.0
  0
LINE
  5
97F0
100
AcDbEntity
  8
1
100
AcDbLine
 10
597.478136
 20
229.075557
 30
0.0
 11
597.361532
 21
229.075557
 31
0.0
  0
LWPOLYLINE
  5
97F1
100
AcDbEntity
  8
1
100
AcDbPolyline
 90
        7
 70
   128
 43
0.0
 10
597.874795
 20
230.125557
 10
597.87118
 20
230.12554
 10
597.730045
 20
230.097972
 10
597.601446
 20
230.015412
 10
597.525736
 20
229.915547
 10
597.490878
 20
229.826124
 10
597.478136
 20
229.725557
  0
LINE
  5
97F2
100
AcDbEntity
  8
1
100
AcDbLine
 10
597.478136
 20
229.075557
 30
0.0
 11
597.540968
 21
229.075557
 31
0.0
  0
LINE
  5
97F3
100
AcDbEntity
  8
1
100
AcDbLine
 10
597.764041
 20
229.725557
 30
0.0
 11
597.478136
 21
229.725557
 31
0.0
  0
LWPOLYLINE
  5
97F4
100
AcDbEntity
  8
1
100
AcDbPolyline
 90
        9
 70
   128
 43
0.0
 10
597.33923
 20
228.875564
 10
597.37807
 20
228.879703
 10
597.415501
 20
228.891286
 10
597.450099
 20
228.909871
 10
597.480549
 20
228.934754
 10
597.505696
 20
228.964987
 10
597.524582
 20
228.999423
 10
597.53649
 20
229.036753
 10
597.540968
 20
229.075557
  0
LWPOLYLINE
  5
97F5
100
AcDbEntity
  8
1
100
AcDbPolyline
 90
        7
 70
   128
 43
0.0
 10
597.361532
 20
229.725557
 10
597.378018
 20
229.826124
 10
597.423123
 20
229.915545
 10
597.52109
 20
230.015411
 10
597.687493
 20
230.097972
 10
597.870117
 20
230.12554
 10
597.874795
 20
230.125557
  0
LINE
  5
97F6
100
AcDbEntity
  8
1
100
AcDbLine
 10
598.164026
 20
230.125557
 30
0.0
 11
598.991915
 21
230.125557
 31
0.0
  0
LWPOLYLINE
  5
97F7
100
AcDbEntity
  8
1
100
AcDbPolyline
 90
        9
 70
   128
 43
0.0
 10
598.991915
 20
230.125557
 10
598.994639
 20
230.117871
 10
598.997258
 20
230.095109
 10
598.999671
 20
230.058145
 10
599.001786
 20
230.008399
 10
599.003522
 20
229.947785
 10
599.004813
 20
229.87863
 10
599.005607
 20
229.803593
 10
599.005875
 20
229.725557
  0
TEXT
  5
97F8
100
AcDbEntity
  8
1
100
AcDbText
 10
603.832083
 20
224.090133
 30
0.0
 40
1.0
  1
2
 50
270.0
  7
ITALIC
100
AcDbText
  0
LINE
  5
97FA
100
AcDbEntity
  8
1
100
AcDbLine
 10
597.340975
 20
228.675572
 30
0.0
 11
597.337484
 21
228.675557
 31
0.0
  0
LINE
  5
97FB
100
AcDbEntity
  8
1
100
AcDbLine
 10
597.340975
 20
228.675572
 30
0.0
 11
597.33923
 21
228.875564
 31
0.0
  0
LINE
  5
97FC
100
AcDbEntity
  8
1
100
AcDbLine
 10
597.337484
 20
228.675557
 30
0.0
 11
597.337484
 21
228.875557
 31
0.0
  0
LWPOLYLINE
  5
97FD
100
AcDbEntity
  8
1
100
AcDbPolyline
 90
        9
 70
   128
 43
0.0
 10
597.540968
 20
229.075557
 10
597.536829
 20
228.997949
 10
597.525246
 20
228.92329
 10
597.506661
 20
228.854418
 10
597.481778
 20
228.793951
 10
597.451544
 20
228.744186
 10
597.417109
 20
228.707015
 10
597.379779
 20
228.68385
 10
597.340975
 20
228.675572
  0
TEXT
  5
97FE
100
AcDbEntity
  8
1
100
AcDbText
 10
603.832083
 20
223.438864
 30
0.0
 40
1.0
  1
4
 50
270.0
  7
ITALIC
100
AcDbText
  0
LINE
  5
97FF
100
AcDbEntity
  8
OSIE
100
AcDbLine
 10
602.889237
 20
226.175557
 30
0.0
 11
600.889237
 21
226.175557
 31
0.0
  0
LINE
  5
9800
100
AcDbEntity
  8
1
100
AcDbLine
 10
598.991915
 20
230.125557
 30
0.0
 11
602.874058
 21
230.125557
 31
0.0
  0
LINE
  5
9801
100
AcDbEntity
  8
1
100
AcDbLine
 10
602.888017
 20
229.725557
 30
0.0
 11
599.005875
 21
229.725557
 31
0.0
  0
LWPOLYLINE
  5
9802
100
AcDbEntity
  8
1
100
AcDbPolyline
 90
        9
 70
   128
 43
0.0
 10
611.302566
 20
230.125557
 10
611.380554
 20
230.117871
 10
611.455545
 20
230.095109
 10
611.524657
 20
230.058145
 10
611.585234
 20
230.008399
 10
611.634949
 20
229.947785
 10
611.67189
 20
229.87863
 10
611.694638
 20
229.803593
 10
611.702319
 20
229.725557
  0
LINE
  5
9803
100
AcDbEntity
  8
1
100
AcDbLine
 10
611.272873
 20
230.125557
 30
0.0
 11
611.302566
 21
230.125557
 31
0.0
  0
LINE
  5
9804
100
AcDbEntity
  8
1
100
AcDbLine
 10
611.302566
 20
230.125557
 30
0.0
 11
611.427661
 21
230.125557
 31
0.0
  0
LINE
  5
9805
100
AcDbEntity
  8
1
100
AcDbLine
 10
611.286832
 20
229.225557
 30
0.0
 11
611.286832
 21
229.725557
 31
0.0
  0
LWPOLYLINE
  5
9806
100
AcDbEntity
  8
1
100
AcDbPolyline
 90
        9
 70
   128
 43
0.0
 10
611.272873
 20
230.125557
 10
611.275596
 20
230.117871
 10
611.278215
 20
230.095109
 10
611.280628
 20
230.058145
 10
611.282744
 20
230.008399
 10
611.28448
 20
229.947785
 10
611.28577
 20
229.87863
 10
611.286564
 20
229.803593
 10
611.286832
 20
229.725557
  0
LINE
  5
9807
100
AcDbEntity
  8
1
100
AcDbLine
 10
611.286832
 20
229.725557
 30
0.0
 11
611.672626
 21
229.725557
 31
0.0
  0
LINE
  5
9808
100
AcDbEntity
  8
1
100
AcDbLine
 10
611.672626
 20
229.725557
 30
0.0
 11
611.672626
 21
229.225557
 31
0.0
  0
LWPOLYLINE
  5
9809
100
AcDbEntity
  8
1
100
AcDbPolyline
 90
        9
 70
   128
 43
0.0
 10
611.272873
 20
230.125557
 10
611.350861
 20
230.117871
 10
611.425852
 20
230.095109
 10
611.494964
 20
230.058145
 10
611.555541
 20
230.008399
 10
611.605256
 20
229.947785
 10
611.642197
 20
229.87863
 10
611.664945
 20
229.803593
 10
611.672626
 20
229.725557
  0
LINE
  5
980A
100
AcDbEntity
  8
1
100
AcDbLine
 10
611.702319
 20
229.225557
 30
0.0
 11
611.702319
 21
229.725557
 31
0.0
  0
LINE
  5
980B
100
AcDbEntity
  8
1
100
AcDbLine
 10
611.702319
 20
229.725557
 30
0.0
 11
611.672626
 21
229.725557
 31
0.0
  0
LINE
  5
980C
100
AcDbEntity
  8
1
100
AcDbLine
 10
611.827435
 20
229.725557
 30
0.0
 11
611.702319
 21
229.725557
 31
0.0
  0
LINE
  5
980D
100
AcDbEntity
  8
1
100
AcDbLine
 10
611.827435
 20
229.225557
 30
0.0
 11
611.827435
 21
229.725557
 31
0.0
  0
LWPOLYLINE
  5
980E
100
AcDbEntity
  8
1
100
AcDbPolyline
 90
        9
 70
   128
 43
0.0
 10
611.827435
 20
229.725557
 10
611.819753
 20
229.803593
 10
611.797004
 20
229.87863
 10
611.760061
 20
229.947785
 10
611.710344
 20
230.008399
 10
611.649763
 20
230.058145
 10
611.580648
 20
230.095109
 10
611.505653
 20
230.117871
 10
611.427661
 20
230.125557
  0
LINE
  5
980F
100
AcDbEntity
  8
1
100
AcDbLine
 10
603.419056
 20
229.725557
 30
0.0
 11
603.804877
 21
229.725557
 31
0.0
  0
LINE
  5
9810
100
AcDbEntity
  8
1
100
AcDbLine
 10
603.419056
 20
229.225557
 30
0.0
 11
603.419056
 21
229.725557
 31
0.0
  0
LINE
  5
9811
100
AcDbEntity
  8
1
100
AcDbLine
 10
606.536813
 20
229.225557
 30
0.0
 11
605.717117
 21
229.225557
 31
0.0
  0
LINE
  5
9812
100
AcDbEntity
  8
1
100
AcDbLine
 10
606.149552
 20
230.125557
 30
0.0
 11
606.489237
 21
230.125557
 31
0.0
  0
LWPOLYLINE
  5
9813
100
AcDbEntity
  8
1
100
AcDbPolyline
 90
        7
 70
   128
 43
0.0
 10
605.717117
 20
228.960469
 10
605.943575
 20
228.952501
 10
606.13453
 20
228.944426
 10
606.289603
 20
228.93626
 10
606.408486
 20
228.92802
 10
606.490944
 20
228.91972
 10
606.536813
 20
228.911379
  0
LINE
  5
9814
100
AcDbEntity
  8
1
100
AcDbLine
 10
606.163512
 20
229.725557
 30
0.0
 11
606.549326
 21
229.725557
 31
0.0
  0
LWPOLYLINE
  5
9815
100
AcDbEntity
  8
1
100
AcDbPolyline
 90
        9
 70
   128
 43
0.0
 10
606.149552
 20
230.125557
 10
606.227544
 20
230.117871
 10
606.302539
 20
230.095109
 10
606.371655
 20
230.058145
 10
606.432235
 20
230.008399
 10
606.481952
 20
229.947785
 10
606.518895
 20
229.87863
 10
606.541645
 20
229.803593
 10
606.549326
 20
229.725557
  0
LINE
  5
9816
100
AcDbEntity
  8
1
100
AcDbLine
 10
603.804877
 20
229.725557
 30
0.0
 11
603.804877
 21
229.225557
 31
0.0
  0
LWPOLYLINE
  5
9817
100
AcDbEntity
  8
1
100
AcDbPolyline
 90
        9
 70
   128
 43
0.0
 10
603.790917
 20
230.125557
 10
603.79364
 20
230.117871
 10
603.796259
 20
230.095109
 10
603.798673
 20
230.058145
 10
603.800788
 20
230.008399
 10
603.802524
 20
229.947785
 10
603.803814
 20
229.87863
 10
603.804609
 20
229.803593
 10
603.804877
 20
229.725557
  0
LINE
  5
9818
100
AcDbEntity
  8
1
100
AcDbLine
 10
605.741777
 20
229.225557
 30
0.0
 11
605.741777
 21
230.025557
 31
0.0
  0
LINE
  5
9819
100
AcDbEntity
  8
1
100
AcDbLine
 10
604.641777
 20
230.025557
 30
0.0
 11
604.641777
 21
229.225557
 31
0.0
  0
LINE
  5
981A
100
AcDbEntity
  8
1
100
AcDbLine
 10
604.641777
 20
230.025557
 30
0.0
 11
605.741777
 21
230.025557
 31
0.0
  0
LINE
  5
981B
100
AcDbEntity
  8
1
100
AcDbLine
 10
605.741777
 20
229.46465
 30
0.0
 11
606.140996
 21
229.225557
 31
0.0
  0
LINE
  5
981C
100
AcDbEntity
  8
1
100
AcDbLine
 10
605.717117
 20
228.960469
 30
0.0
 11
605.717117
 21
229.225557
 31
0.0
  0
LINE
  5
981D
100
AcDbEntity
  8
1
100
AcDbLine
 10
605.640803
 20
228.960469
 30
0.0
 11
605.717117
 21
228.960469
 31
0.0
  0
LINE
  5
981E
100
AcDbEntity
  8
1
100
AcDbLine
 10
605.805808
 20
229.225557
 30
0.0
 11
605.741777
 21
229.263952
 31
0.0
  0
LINE
  5
981F
100
AcDbEntity
  8
1
100
AcDbLine
 10
605.741777
 20
229.438824
 30
0.0
 11
606.097439
 21
229.225557
 31
0.0
  0
LINE
  5
9820
100
AcDbEntity
  8
1
100
AcDbLine
 10
606.163512
 20
229.725557
 30
0.0
 11
605.741777
 21
229.725557
 31
0.0
  0
LINE
  5
9821
100
AcDbEntity
  8
1
100
AcDbLine
 10
606.163512
 20
229.225557
 30
0.0
 11
606.163512
 21
229.725557
 31
0.0
  0
LWPOLYLINE
  5
9822
100
AcDbEntity
  8
1
100
AcDbPolyline
 90
        9
 70
   128
 43
0.0
 10
606.149552
 20
230.125557
 10
606.152276
 20
230.117871
 10
606.154894
 20
230.095109
 10
606.157308
 20
230.058145
 10
606.159423
 20
230.008399
 10
606.161159
 20
229.947785
 10
606.162449
 20
229.87863
 10
606.163244
 20
229.803593
 10
606.163512
 20
229.725557
  0
LINE
  5
9823
100
AcDbEntity
  8
1
100
AcDbLine
 10
603.790917
 20
230.125557
 30
0.0
 11
606.149552
 21
230.125557
 31
0.0
  0
LINE
  5
9824
100
AcDbEntity
  8
1
100
AcDbLine
 10
604.641777
 20
229.725557
 30
0.0
 11
603.804877
 21
229.725557
 31
0.0
  0
LWPOLYLINE
  5
9825
100
AcDbEntity
  8
1
100
AcDbPolyline
 90
        7
 70
   128
 43
0.0
 10
606.489237
 20
230.125557
 10
606.492116
 20
230.125546
 10
606.621205
 20
230.10316
 10
606.756263
 20
230.023378
 10
606.836486
 20
229.924098
 10
606.875002
 20
229.83132
 10
606.889237
 20
229.725557
  0
LINE
  5
9826
100
AcDbEntity
  8
1
100
AcDbLine
 10
606.536813
 20
228.911379
 30
0.0
 11
606.536813
 21
229.225557
 31
0.0
  0
LINE
  5
9827
100
AcDbEntity
  8
1
100
AcDbLine
 10
606.549326
 20
229.725557
 30
0.0
 11
606.549326
 21
229.225557
 31
0.0
  0
LINE
  5
9828
100
AcDbEntity
  8
1
100
AcDbLine
 10
606.889237
 20
229.725557
 30
0.0
 11
606.549326
 21
229.725557
 31
0.0
  0
LINE
  5
9829
100
AcDbEntity
  8
1
100
AcDbLine
 10
606.489237
 20
230.125557
 30
0.0
 11
611.272873
 21
230.125557
 31
0.0
  0
LINE
  5
982A
100
AcDbEntity
  8
1
100
AcDbLine
 10
611.286832
 20
229.725557
 30
0.0
 11
606.889237
 21
229.725557
 31
0.0
  0
LWPOLYLINE
  5
982B
100
AcDbEntity
  8
1
100
AcDbPolyline
 90
        6
 70
   128
 43
0.0
 10
606.889237
 20
228.775386
 10
606.858272
 20
228.593445
 10
606.768865
 20
228.432017
 10
606.631101
 20
228.309283
 10
606.460439
 20
228.239034
 10
606.339438
 20
228.225557
  0
LWPOLYLINE
  5
982C
100
AcDbEntity
  8
1
100
AcDbPolyline
 90
        6
 70
   128
 43
0.0
 10
605.659685
 20
228.391289
 10
605.654879
 20
228.407746
 10
605.650091
 20
228.455533
 10
605.644797
 20
228.573279
 10
605.642858
 20
228.651317
 10
605.64233
 20
228.679091
  0
LINE
  5
982D
100
AcDbEntity
  8
1
100
AcDbLine
 10
605.659685
 20
228.391289
 30
0.0
 11
605.749016
 21
228.284188
 31
0.0
  0
LINE
  5
982E
100
AcDbEntity
  8
1
100
AcDbLine
 10
605.79792
 20
228.225557
 30
0.0
 11
606.339438
 21
228.225557
 31
0.0
  0
LINE
  5
982F
100
AcDbEntity
  8
1
100
AcDbLine
 10
605.79792
 20
228.225557
 30
0.0
 11
605.749016
 21
228.284188
 31
0.0
  0
LWPOLYLINE
  5
9830
100
AcDbEntity
  8
1
100
AcDbPolyline
 90
        4
 70
   128
 43
0.0
 10
605.987321
 20
228.36141
 10
605.929396
 20
228.371445
 10
605.820079
 20
228.381414
 10
605.659685
 20
228.391289
  0
LWPOLYLINE
  5
9831
100
AcDbEntity
  8
1
100
AcDbPolyline
 90
        4
 70
   128
 43
0.0
 10
606.339438
 20
228.225557
 10
606.335058
 20
228.237067
 10
606.244612
 20
228.283076
 10
605.987321
 20
228.36141
  0
LINE
  5
9832
100
AcDbEntity
  8
OSIE
100
AcDbLine
 10
610.289237
 20
227.175557
 30
0.0
 11
610.289237
 21
225.175557
 31
0.0
  0
LINE
  5
9833
100
AcDbEntity
  8
OSIE
100
AcDbLine
 10
611.289237
 20
226.175557
 30
0.0
 11
609.289237
 21
226.175557
 31
0.0
  0
LWPOLYLINE
  5
9834
100
AcDbEntity
  8
1
100
AcDbPolyline
 90
        9
 70
   128
 43
0.0
 10
605.987321
 20
228.36141
 10
606.094509
 20
228.372044
 10
606.197574
 20
228.403386
 10
606.292558
 20
228.454233
 10
606.375815
 20
228.522631
 10
606.444148
 20
228.605955
 10
606.494934
 20
228.701006
 10
606.526223
 20
228.804134
 10
606.536813
 20
228.911379
  0
LWPOLYLINE
  5
9835
100
AcDbEntity
  8
1
100
AcDbPolyline
 90
        9
 70
   128
 43
0.0
 10
605.64233
 20
228.679091
 10
605.642002
 20
228.701035
 10
605.641703
 20
228.727993
 10
605.641439
 20
228.759444
 10
605.641216
 20
228.794779
 10
605.641038
 20
228.833316
 10
605.640908
 20
228.87431
 10
605.640829
 20
228.916969
 10
605.640803
 20
228.960469
  0
LWPOLYLINE
  5
9836
100
AcDbEntity
  8
1
100
AcDbPolyline
 90
        9
 70
   128
 43
0.0
 10
605.64233
 20
228.679091
 10
605.659439
 20
228.711424
 10
605.67444
 20
228.74488
 10
605.687267
 20
228.779307
 10
605.697861
 20
228.81455
 10
605.706176
 20
228.850451
 10
605.712173
 20
228.886847
 10
605.715825
 20
228.923575
 10
605.717117
 20
228.960469
  0
LINE
  5
9837
100
AcDbEntity
  8
1
100
AcDbLine
 10
606.889237
 20
228.775386
 30
0.0
 11
606.889237
 21
229.725557
 31
0.0
  0
LWPOLYLINE
  5
9838
100
AcDbEntity
  8
1
100
AcDbPolyline
 90
        5
 70
   128
 43
0.0
 10
606.536813
 20
228.911379
 10
606.573887
 20
228.899884
 10
606.728591
 20
228.853917
 10
606.841901
 20
228.814641
 10
606.889237
 20
228.775386
  0
LINE
  5
9839
100
AcDbEntity
  8
1
100
AcDbLine
 10
619.190913
 20
229.225557
 30
0.0
 11
621.516137
 21
229.225557
 31
0.0
  0
LINE
  5
983A
100
AcDbEntity
  8
1
100
AcDbLine
 10
620.064847
 20
230.125557
 30
0.0
 11
622.416133
 21
230.125557
 31
0.0
  0
LINE
  5
983B
100
AcDbEntity
  8
1
100
AcDbLine
 10
620.946942
 20
229.725557
 30
0.0
 11
620.078807
 21
229.725557
 31
0.0
  0
LWPOLYLINE
  5
983C
100
AcDbEntity
  8
1
100
AcDbPolyline
 90
        9
 70
   128
 43
0.0
 10
619.598197
 20
229.725557
 10
619.590513
 20
229.803593
 10
619.567759
 20
229.87863
 10
619.530808
 20
229.947785
 10
619.48108
 20
230.008399
 10
619.420486
 20
230.058145
 10
619.351355
 20
230.095109
 10
619.276344
 20
230.117871
 10
619.198334
 20
230.125557
  0
LINE
  5
983D
100
AcDbEntity
  8
1
100
AcDbLine
 10
619.176953
 20
230.125557
 30
0.0
 11
619.198334
 21
230.125557
 31
0.0
  0
LINE
  5
983E
100
AcDbEntity
  8
1
100
AcDbLine
 10
619.198334
 20
230.125557
 30
0.0
 11
619.29303
 21
230.125557
 31
0.0
  0
LINE
  5
983F
100
AcDbEntity
  8
1
100
AcDbLine
 10
620.064847
 20
230.125557
 30
0.0
 11
619.29303
 21
230.125557
 31
0.0
  0
LINE
  5
9840
100
AcDbEntity
  8
1
100
AcDbLine
 10
619.190913
 20
229.225557
 30
0.0
 11
619.190913
 21
229.725557
 31
0.0
  0
LWPOLYLINE
  5
9841
100
AcDbEntity
  8
1
100
AcDbPolyline
 90
        9
 70
   128
 43
0.0
 10
619.190913
 20
229.725557
 10
619.190645
 20
229.803593
 10
619.18985
 20
229.87863
 10
619.18856
 20
229.947785
 10
619.186824
 20
230.008399
 10
619.184709
 20
230.058145
 10
619.182295
 20
230.095109
 10
619.179677
 20
230.117871
 10
619.176953
 20
230.125557
  0
LINE
  5
9842
100
AcDbEntity
  8
1
100
AcDbLine
 10
619.190913
 20
229.725557
 30
0.0
 11
619.576815
 21
229.725557
 31
0.0
  0
LINE
  5
9843
100
AcDbEntity
  8
1
100
AcDbLine
 10
619.576815
 20
229.725557
 30
0.0
 11
619.576815
 21
229.225557
 31
0.0
  0
LWPOLYLINE
  5
9844
100
AcDbEntity
  8
1
100
AcDbPolyline
 90
        9
 70
   128
 43
0.0
 10
619.576815
 20
229.725557
 10
619.569132
 20
229.803593
 10
619.546378
 20
229.87863
 10
619.509426
 20
229.947785
 10
619.459698
 20
230.008399
 10
619.399105
 20
230.058145
 10
619.329974
 20
230.095109
 10
619.254962
 20
230.117871
 10
619.176953
 20
230.125557
  0
LINE
  5
9845
100
AcDbEntity
  8
1
100
AcDbLine
 10
619.598197
 20
229.225557
 30
0.0
 11
619.598197
 21
229.725557
 31
0.0
  0
LINE
  5
9846
100
AcDbEntity
  8
1
100
AcDbLine
 10
619.598197
 20
229.725557
 30
0.0
 11
619.576815
 21
229.725557
 31
0.0
  0
LINE
  5
9847
100
AcDbEntity
  8
1
100
AcDbLine
 10
619.692898
 20
229.725557
 30
0.0
 11
619.598197
 21
229.725557
 31
0.0
  0
LINE
  5
9848
100
AcDbEntity
  8
1
100
AcDbLine
 10
619.692898
 20
229.225557
 30
0.0
 11
619.692898
 21
229.725557
 31
0.0
  0
LWPOLYLINE
  5
9849
100
AcDbEntity
  8
1
100
AcDbPolyline
 90
        9
 70
   128
 43
0.0
 10
619.692898
 20
229.725557
 10
619.685215
 20
229.803593
 10
619.66246
 20
229.87863
 10
619.625508
 20
229.947785
 10
619.575779
 20
230.008399
 10
619.515185
 20
230.058145
 10
619.446053
 20
230.095109
 10
619.37104
 20
230.117871
 10
619.29303
 20
230.125557
  0
LINE
  5
984A
100
AcDbEntity
  8
1
100
AcDbLine
 10
619.692898
 20
229.725557
 30
0.0
 11
620.078807
 21
229.725557
 31
0.0
  0
LINE
  5
984B
100
AcDbEntity
  8
1
100
AcDbLine
 10
620.078807
 20
229.725557
 30
0.0
 11
620.078807
 21
229.225557
 31
0.0
  0
LWPOLYLINE
  5
984C
100
AcDbEntity
  8
1
100
AcDbPolyline
 90
        9
 70
   128
 43
0.0
 10
620.078807
 20
229.725557
 10
620.078539
 20
229.803593
 10
620.077745
 20
229.87863
 10
620.076455
 20
229.947785
 10
620.074719
 20
230.008399
 10
620.072603
 20
230.058145
 10
620.07019
 20
230.095109
 10
620.067571
 20
230.117871
 10
620.064847
 20
230.125557
  0
LINE
  5
984D
100
AcDbEntity
  8
1
100
AcDbLine
 10
614.114119
 20
229.225557
 30
0.0
 11
614.945258
 21
229.225557
 31
0.0
  0
LWPOLYLINE
  5
984E
100
AcDbEntity
  8
1
100
AcDbPolyline
 90
        7
 70
   128
 43
0.0
 10
615.290186
 20
229.725557
 10
615.27607
 20
229.83202
 10
615.237801
 20
229.925474
 10
615.158592
 20
230.024739
 10
615.0265
 20
230.103673
 10
614.901676
 20
230.125546
 10
614.898828
 20
230.125557
  0
LWPOLYLINE
  5
984F
100
AcDbEntity
  8
1
100
AcDbPolyline
 90
        7
 70
   128
 43
0.0
 10
614.114119
 20
228.960673
 10
614.344173
 20
228.952625
 10
614.538071
 20
228.94448
 10
614.695413
 20
228.936254
 10
614.815878
 20
228.927964
 10
614.899217
 20
228.919627
 10
614.945258
 20
228.91126
  0
LINE
  5
9850
100
AcDbEntity
  8
1
100
AcDbLine
 10
614.571762
 20
229.725557
 30
0.0
 11
614.957587
 21
229.725557
 31
0.0
  0
LWPOLYLINE
  5
9851
100
AcDbEntity
  8
1
100
AcDbPolyline
 90
        9
 70
   128
 43
0.0
 10
614.957587
 20
229.725557
 10
614.949905
 20
229.803593
 10
614.927155
 20
229.87863
 10
614.890211
 20
229.947785
 10
614.840493
 20
230.008399
 10
614.779911
 20
230.058145
 10
614.710794
 20
230.095109
 10
614.635797
 20
230.117871
 10
614.557803
 20
230.125557
  0
LINE
  5
9852
100
AcDbEntity
  8
1
100
AcDbLine
 10
613.039541
 20
230.025557
 30
0.0
 11
613.039541
 21
229.225557
 31
0.0
  0
LINE
  5
9853
100
AcDbEntity
  8
1
100
AcDbLine
 10
612.213249
 20
229.725557
 30
0.0
 11
612.213249
 21
229.225557
 31
0.0
  0
LWPOLYLINE
  5
9854
100
AcDbEntity
  8
1
100
AcDbPolyline
 90
        9
 70
   128
 43
0.0
 10
612.213249
 20
229.725557
 10
612.212981
 20
229.803593
 10
612.212186
 20
229.87863
 10
612.210896
 20
229.947785
 10
612.20916
 20
230.008399
 10
612.207045
 20
230.058145
 10
612.204631
 20
230.095109
 10
612.202012
 20
230.117871
 10
612.199289
 20
230.125557
  0
LINE
  5
9855
100
AcDbEntity
  8
1
100
AcDbLine
 10
613.039541
 20
229.725557
 30
0.0
 11
612.213249
 21
229.725557
 31
0.0
  0
LINE
  5
9856
100
AcDbEntity
  8
1
100
AcDbLine
 10
614.139541
 20
229.225557
 30
0.0
 11
614.139541
 21
230.025557
 31
0.0
  0
LINE
  5
9857
100
AcDbEntity
  8
1
100
AcDbLine
 10
614.139541
 20
229.464643
 30
0.0
 11
614.538747
 21
229.225557
 31
0.0
  0
LINE
  5
9858
100
AcDbEntity
  8
1
100
AcDbLine
 10
614.557803
 20
230.125557
 30
0.0
 11
614.898828
 21
230.125557
 31
0.0
  0
LINE
  5
9859
100
AcDbEntity
  8
1
100
AcDbLine
 10
614.114119
 20
228.960673
 30
0.0
 11
614.114119
 21
229.225557
 31
0.0
  0
LINE
  5
985A
100
AcDbEntity
  8
1
100
AcDbLine
 10
614.040908
 20
228.960673
 30
0.0
 11
614.114119
 21
228.960673
 31
0.0
  0
LINE
  5
985B
100
AcDbEntity
  8
1
100
AcDbLine
 10
614.203572
 20
229.225557
 30
0.0
 11
614.139541
 21
229.263952
 31
0.0
  0
LINE
  5
985C
100
AcDbEntity
  8
1
100
AcDbLine
 10
614.139541
 20
229.438824
 30
0.0
 11
614.495203
 21
229.225557
 31
0.0
  0
LINE
  5
985D
100
AcDbEntity
  8
1
100
AcDbLine
 10
614.571762
 20
229.725557
 30
0.0
 11
614.139541
 21
229.725557
 31
0.0
  0
LINE
  5
985E
100
AcDbEntity
  8
1
100
AcDbLine
 10
614.571762
 20
229.225557
 30
0.0
 11
614.571762
 21
229.725557
 31
0.0
  0
LWPOLYLINE
  5
985F
100
AcDbEntity
  8
1
100
AcDbPolyline
 90
        9
 70
   128
 43
0.0
 10
614.571762
 20
229.725557
 10
614.571494
 20
229.803593
 10
614.5707
 20
229.87863
 10
614.56941
 20
229.947785
 10
614.567674
 20
230.008399
 10
614.565558
 20
230.058145
 10
614.563145
 20
230.095109
 10
614.560526
 20
230.117871
 10
614.557803
 20
230.125557
  0
LINE
  5
9860
100
AcDbEntity
  8
1
100
AcDbLine
 10
613.039541
 20
230.025557
 30
0.0
 11
614.139541
 21
230.025557
 31
0.0
  0
LINE
  5
9861
100
AcDbEntity
  8
1
100
AcDbLine
 10
612.199289
 20
230.125557
 30
0.0
 11
614.557803
 21
230.125557
 31
0.0
  0
LINE
  5
9862
100
AcDbEntity
  8
1
100
AcDbLine
 10
614.945258
 20
228.91126
 30
0.0
 11
614.945258
 21
229.225557
 31
0.0
  0
LINE
  5
9863
100
AcDbEntity
  8
1
100
AcDbLine
 10
614.957587
 20
229.725557
 30
0.0
 11
614.957587
 21
229.225557
 31
0.0
  0
LINE
  5
9864
100
AcDbEntity
  8
1
100
AcDbLine
 10
615.290186
 20
229.725557
 30
0.0
 11
614.957587
 21
229.725557
 31
0.0
  0
LINE
  5
9865
100
AcDbEntity
  8
1
100
AcDbLine
 10
614.898828
 20
230.125557
 30
0.0
 11
619.176953
 21
230.125557
 31
0.0
  0
LINE
  5
9866
100
AcDbEntity
  8
1
100
AcDbLine
 10
619.190913
 20
229.725557
 30
0.0
 11
615.290186
 21
229.725557
 31
0.0
  0
LINE
  5
9867
100
AcDbEntity
  8
OSIE
100
AcDbLine
 10
618.189237
 20
227.175557
 30
0.0
 11
618.189237
 21
225.175557
 31
0.0
  0
LWPOLYLINE
  5
9868
100
AcDbEntity
  8
1
100
AcDbPolyline
 90
        6
 70
   128
 43
0.0
 10
615.290186
 20
228.775017
 10
615.259246
 20
228.59325
 10
615.169927
 20
228.431975
 10
615.032274
 20
228.309286
 10
614.861598
 20
228.238916
 10
614.739741
 20
228.225319
  0
LWPOLYLINE
  5
9869
100
AcDbEntity
  8
1
100
AcDbPolyline
 90
        5
 70
   128
 43
0.0
 10
614.059547
 20
228.391566
 10
614.054749
 20
228.408814
 10
614.049954
 20
228.458151
 10
614.045346
 20
228.559126
 10
614.04238
 20
228.684545
  0
LINE
  5
986A
100
AcDbEntity
  8
1
100
AcDbLine
 10
614.059547
 20
228.391566
 30
0.0
 11
614.149016
 21
228.284202
 31
0.0
  0
LINE
  5
986B
100
AcDbEntity
  8
1
100
AcDbLine
 10
614.739741
 20
228.225319
 30
0.0
 11
614.19792
 21
228.225517
 31
0.0
  0
LINE
  5
986C
100
AcDbEntity
  8
1
100
AcDbLine
 10
614.19792
 20
228.225517
 30
0.0
 11
614.149016
 21
228.284202
 31
0.0
  0
LWPOLYLINE
  5
986D
100
AcDbEntity
  8
1
100
AcDbPolyline
 90
        4
 70
   128
 43
0.0
 10
614.39556
 20
228.36129
 10
614.336675
 20
228.371442
 10
614.224557
 20
228.381544
 10
614.059547
 20
228.391566
  0
LWPOLYLINE
  5
986E
100
AcDbEntity
  8
1
100
AcDbPolyline
 90
        4
 70
   128
 43
0.0
 10
614.739741
 20
228.225319
 10
614.714836
 20
228.236835
 10
614.611449
 20
228.282898
 10
614.39556
 20
228.36129
  0
LINE
  5
986F
100
AcDbEntity
  8
OSIE
100
AcDbLine
 10
619.189237
 20
226.175557
 30
0.0
 11
617.189237
 21
226.175557
 31
0.0
  0
LWPOLYLINE
  5
9870
100
AcDbEntity
  8
1
100
AcDbPolyline
 90
        9
 70
   128
 43
0.0
 10
614.39556
 20
228.36129
 10
614.502778
 20
228.37189
 10
614.605876
 20
228.403209
 10
614.700897
 20
228.454043
 10
614.784188
 20
228.52244
 10
614.852551
 20
228.605773
 10
614.90336
 20
228.70084
 10
614.934663
 20
228.80399
 10
614.945258
 20
228.91126
  0
LWPOLYLINE
  5
9871
100
AcDbEntity
  8
1
100
AcDbPolyline
 90
        9
 70
   128
 43
0.0
 10
614.04238
 20
228.684545
 10
614.042062
 20
228.706493
 10
614.041773
 20
228.733212
 10
614.041519
 20
228.764201
 10
614.041305
 20
228.798878
 10
614.041133
 20
228.836592
 10
614.041009
 20
228.876635
 10
614.040933
 20
228.918256
 10
614.040908
 20
228.960673
  0
LWPOLYLINE
  5
9872
100
AcDbEntity
  8
1
100
AcDbPolyline
 90
        9
 70
   128
 43
0.0
 10
614.04238
 20
228.684545
 10
614.0588
 20
228.716392
 10
614.073192
 20
228.749294
 10
614.085494
 20
228.78311
 10
614.095652
 20
228.817693
 10
614.103624
 20
228.852894
 10
614.109374
 20
228.88856
 10
614.112877
 20
228.924539
 10
614.114119
 20
228.960673
  0
LINE
  5
9873
100
AcDbEntity
  8
1
100
AcDbLine
 10
615.290186
 20
228.775017
 30
0.0
 11
615.290186
 21
229.725557
 31
0.0
  0
LWPOLYLINE
  5
9874
100
AcDbEntity
  8
1
100
AcDbPolyline
 90
        4
 70
   128
 43
0.0
 10
614.945258
 20
228.91126
 10
614.981158
 20
228.899753
 10
615.110177
 20
228.853729
 10
615.290186
 20
228.775017
  0
LINE
  5
9875
100
AcDbEntity
  8
1
100
AcDbLine
 10
622.046942
 20
229.225557
 30
0.0
 11
622.046942
 21
230.025557
 31
0.0
  0
LINE
  5
9876
100
AcDbEntity
  8
1
100
AcDbLine
 10
620.946942
 20
230.025557
 30
0.0
 11
620.946942
 21
229.225557
 31
0.0
  0
LINE
  5
9877
100
AcDbEntity
  8
1
100
AcDbLine
 10
620.946942
 20
230.025557
 30
0.0
 11
622.046942
 21
230.025557
 31
0.0
  0
LINE
  5
9878
100
AcDbEntity
  8
1
100
AcDbLine
 10
622.023316
 20
229.225557
 30
0.0
 11
622.806433
 21
229.225557
 31
0.0
  0
LINE
  5
9879
100
AcDbEntity
  8
1
100
AcDbLine
 10
622.046942
 20
229.464675
 30
0.0
 11
622.430092
 21
229.235205
 31
0.0
  0
LWPOLYLINE
  5
987A
100
AcDbEntity
  8
1
100
AcDbPolyline
 90
        3
 70
   128
 43
0.0
 10
622.430092
 20
229.235205
 10
622.438158
 20
229.230377
 10
622.446214
 20
229.225557
  0
LWPOLYLINE
  5
987B
100
AcDbEntity
  8
1
100
AcDbPolyline
 90
        6
 70
   128
 43
0.0
 10
622.789175
 20
230.125557
 10
622.921614
 20
230.103003
 10
623.03912
 20
230.037882
 10
623.128438
 20
229.93754
 10
623.179493
 20
229.813305
 10
623.189237
 20
229.725557
  0
LINE
  5
987C
100
AcDbEntity
  8
1
100
AcDbLine
 10
622.416133
 20
230.125557
 30
0.0
 11
622.789175
 21
230.125557
 31
0.0
  0
LINE
  5
987D
100
AcDbEntity
  8
1
100
AcDbLine
 10
622.023316
 20
228.9619
 30
0.0
 11
622.023316
 21
229.225557
 31
0.0
  0
LINE
  5
987E
100
AcDbEntity
  8
1
100
AcDbLine
 10
621.940664
 20
228.9619
 30
0.0
 11
622.023316
 21
228.9619
 31
0.0
  0
LWPOLYLINE
  5
987F
100
AcDbEntity
  8
1
100
AcDbPolyline
 90
        7
 70
   128
 43
0.0
 10
622.023316
 20
228.9619
 10
622.244118
 20
228.953851
 10
622.429229
 20
228.94571
 10
622.578279
 20
228.937492
 10
622.690967
 20
228.929215
 10
622.76707
 20
228.920895
 10
622.806433
 20
228.912549
  0
LINE
  5
9880
100
AcDbEntity
  8
1
100
AcDbLine
 10
622.806433
 20
228.912549
 30
0.0
 11
622.806433
 21
229.225557
 31
0.0
  0
LINE
  5
9881
100
AcDbEntity
  8
1
100
AcDbLine
 10
622.110973
 20
229.225557
 30
0.0
 11
622.046942
 21
229.263952
 31
0.0
  0
LINE
  5
9882
100
AcDbEntity
  8
1
100
AcDbLine
 10
622.046942
 20
229.438824
 30
0.0
 11
622.402604
 21
229.225557
 31
0.0
  0
LINE
  5
9883
100
AcDbEntity
  8
1
100
AcDbLine
 10
622.430092
 20
229.725557
 30
0.0
 11
622.046942
 21
229.725557
 31
0.0
  0
LINE
  5
9884
100
AcDbEntity
  8
1
100
AcDbLine
 10
622.430092
 20
229.235205
 30
0.0
 11
622.430092
 21
229.725557
 31
0.0
  0
LWPOLYLINE
  5
9885
100
AcDbEntity
  8
1
100
AcDbPolyline
 90
        9
 70
   128
 43
0.0
 10
622.430092
 20
229.725557
 10
622.429824
 20
229.803593
 10
622.42903
 20
229.87863
 10
622.42774
 20
229.947785
 10
622.426004
 20
230.008399
 10
622.423888
 20
230.058145
 10
622.421475
 20
230.095109
 10
622.418856
 20
230.117871
 10
622.416133
 20
230.125557
  0
LWPOLYLINE
  5
9886
100
AcDbEntity
  8
1
100
AcDbPolyline
 90
        9
 70
   128
 43
0.0
 10
622.816004
 20
229.725557
 10
622.808321
 20
229.803593
 10
622.785566
 20
229.87863
 10
622.748614
 20
229.947785
 10
622.698884
 20
230.008399
 10
622.638289
 20
230.058145
 10
622.569157
 20
230.095109
 10
622.494144
 20
230.117871
 10
622.416133
 20
230.125557
  0
LINE
  5
9887
100
AcDbEntity
  8
1
100
AcDbLine
 10
622.430092
 20
229.725557
 30
0.0
 11
622.816004
 21
229.725557
 31
0.0
  0
LINE
  5
9888
100
AcDbEntity
  8
1
100
AcDbLine
 10
622.816004
 20
229.725557
 30
0.0
 11
622.816004
 21
229.225557
 31
0.0
  0
LINE
  5
9889
100
AcDbEntity
  8
1
100
AcDbLine
 10
623.189237
 20
229.725557
 30
0.0
 11
622.816004
 21
229.725557
 31
0.0
  0
LWPOLYLINE
  5
988A
100
AcDbEntity
  8
1
100
AcDbPolyline
 90
        6
 70
   128
 43
0.0
 10
621.960012
 20
228.392056
 10
621.955213
 20
228.407804
 10
621.950417
 20
228.45164
 10
621.947092
 20
228.508694
 10
621.943804
 20
228.603167
 10
621.942296
 20
228.670144
  0
LINE
  5
988B
100
AcDbEntity
  8
1
100
AcDbLine
 10
621.960012
 20
228.392056
 30
0.0
 11
622.043999
 21
228.291271
 31
0.0
  0
LINE
  5
988C
100
AcDbEntity
  8
1
100
AcDbLine
 10
622.260207
 20
228.225557
 30
0.0
 11
622.542688
 21
228.225557
 31
0.0
  0
LINE
  5
988D
100
AcDbEntity
  8
1
100
AcDbLine
 10
622.205446
 20
228.291271
 30
0.0
 11
622.260207
 21
228.225557
 31
0.0
  0
LINE
  5
988E
100
AcDbEntity
  8
1
100
AcDbLine
 10
622.205446
 20
228.291271
 30
0.0
 11
622.043999
 21
228.291271
 31
0.0
  0
LWPOLYLINE
  5
988F
100
AcDbEntity
  8
1
100
AcDbPolyline
 90
        3
 70
   128
 43
0.0
 10
622.989237
 20
228.36734
 10
622.97964
 20
228.389716
 10
622.969135
 20
228.415276
  0
LWPOLYLINE
  5
9890
100
AcDbEntity
  8
1
100
AcDbPolyline
 90
        7
 70
   128
 43
0.0
 10
622.56915
 20
228.226194
 10
622.686778
 20
228.244489
 10
622.789483
 20
228.282721
 10
622.879348
 20
228.336978
 10
622.94938
 20
228.39687
 10
622.967862
 20
228.414696
 10
622.969135
 20
228.415276
  0
LINE
  5
9891
100
AcDbEntity
  8
1
100
AcDbLine
 10
622.56915
 20
228.226194
 30
0.0
 11
622.542688
 21
228.225557
 31
0.0
  0
LWPOLYLINE
  5
9892
100
AcDbEntity
  8
1
100
AcDbPolyline
 90
        5
 70
   128
 43
0.0
 10
622.994172
 20
228.372573
 10
623.060163
 20
228.458739
 10
623.123322
 20
228.601232
 10
623.144094
 20
228.741513
 10
623.144148
 20
228.745666
  0
LINE
  5
9893
100
AcDbEntity
  8
1
100
AcDbLine
 10
622.994172
 20
228.372573
 30
0.0
 11
622.989237
 21
228.36734
 31
0.0
  0
LWPOLYLINE
  5
9894
100
AcDbEntity
  8
1
100
AcDbPolyline
 90
        4
 70
   128
 43
0.0
 10
622.256611
 20
228.362579
 10
622.207542
 20
228.372455
 10
622.108583
 20
228.38229
 10
621.960012
 20
228.392056
  0
LINE
  5
9895
100
AcDbEntity
  8
1
100
AcDbLine
 10
622.542688
 20
228.225557
 30
0.0
 11
622.256611
 21
228.362579
 31
0.0
  0
LWPOLYLINE
  5
9896
100
AcDbEntity
  8
1
100
AcDbPolyline
 90
        9
 70
   128
 43
0.0
 10
621.942296
 20
228.670144
 10
621.941946
 20
228.692144
 10
621.941627
 20
228.719612
 10
621.941346
 20
228.751992
 10
621.941107
 20
228.788628
 10
621.940916
 20
228.828776
 10
621.940777
 20
228.871622
 10
621.940692
 20
228.916299
 10
621.940664
 20
228.9619
  0
LWPOLYLINE
  5
9897
100
AcDbEntity
  8
1
100
AcDbPolyline
 90
        9
 70
   128
 43
0.0
 10
621.942296
 20
228.670144
 10
621.960805
 20
228.703416
 10
621.977049
 20
228.737951
 10
621.990949
 20
228.77358
 10
622.002435
 20
228.810129
 10
622.011453
 20
228.847418
 10
622.017959
 20
228.885267
 10
622.021919
 20
228.92349
 10
622.023316
 20
228.9619
  0
LWPOLYLINE
  5
9898
100
AcDbEntity
  8
1
100
AcDbPolyline
 90
        9
 70
   128
 43
0.0
 10
622.256611
 20
228.362579
 10
622.363858
 20
228.373171
 10
622.466985
 20
228.404485
 10
622.56203
 20
228.455316
 10
622.645342
 20
228.523713
 10
622.71372
 20
228.607048
 10
622.764538
 20
228.702118
 10
622.795843
 20
228.805273
 10
622.806433
 20
228.912549
  0
LWPOLYLINE
  5
9899
100
AcDbEntity
  8
1
100
AcDbPolyline
 90
        5
 70
   128
 43
0.0
 10
622.806433
 20
228.912549
 10
622.834239
 20
228.901036
 10
622.939365
 20
228.854988
 10
623.141526
 20
228.747209
 10
623.144148
 20
228.745666
  0
LINE
  5
9DB0
100
AcDbEntity
  8
WYMIARY
 62
     3
100
AcDbLine
 10
557.974057
 20
229.075557
 30
0.0
 11
557.974057
 21
215.025557
 31
0.0
  0
LINE
  5
9DB2
100
AcDbEntity
  8
1
100
AcDbLine
 10
557.974057
 20
223.533103
 30
0.0
 11
557.156691
 21
223.533103
 31
0.0
  0
LINE
  5
9DB3
100
AcDbEntity
  8
OSIE
100
AcDbLine
 10
557.974057
 20
222.375557
 30
0.0
 11
546.727676
 21
222.375557
 31
0.0
  0
LINE
  5
9DB4
100
AcDbEntity
  8
1
100
AcDbLine
 10
566.786529
 20
221.21801
 30
0.0
 11
568.842744
 21
221.21801
 31
0.0
  0
LINE
  5
9DB6
100
AcDbEntity
  8
WYMIARY
 62
     3
100
AcDbLine
 10
566.588423
 20
229.075557
 30
0.0
 11
566.596524
 21
215.025557
 31
0.0
  0
LINE
  5
9E79
100
AcDbEntity
  8
WYMIARY
 62
     3
100
AcDbLine
 10
561.558908
 20
223.67016
 30
0.0
 11
561.558908
 21
221.021092
 31
0.0
  0
LINE
  5
9E7A
100
AcDbEntity
  8
WYMIARY
 62
     3
100
AcDbLine
 10
563.557899
 20
223.67016
 30
0.0
 11
563.557899
 21
221.021092
 31
0.0
  0
LINE
  5
9E7B
100
AcDbEntity
  8
WYMIARY
 62
     3
100
AcDbLine
 10
561.558908
 20
223.67016
 30
0.0
 11
563.557899
 21
223.67016
 31
0.0
  0
LINE
  5
9E7C
100
AcDbEntity
  8
WYMIARY
 62
     3
100
AcDbLine
 10
561.558908
 20
221.021092
 30
0.0
 11
563.557899
 21
221.021092
 31
0.0
  0
TEXT
  5
A2B6
100
AcDbEntity
  8
1
100
AcDbText
 10
647.221844
 20
12.018428
 30
0.0
 40
3.0
  1
z
 41
0.6
 51
15.0
  7
ITALIC
100
AcDbText
  0
LINE
  5
A2B7
100
AcDbEntity
  8
WYMIARY
 62
     3
100
AcDbLine
 10
646.456077
 20
9.108784
 30
0.0
 11
652.667122
 21
14.057435
 31
0.0
  0
TEXT
  5
A2B8
100
AcDbEntity
  8
1
100
AcDbText
 10
650.327365
 20
9.064009
 30
0.0
 40
3.0
  1
with
 41
0.6
 51
15.0
  7
ITALIC
100
AcDbText
  0
TEXT
  5
A2C4
100
AcDbEntity
  8
1
100
AcDbText
 10
578.194294
 20
278.971122
 30
0.0
 40
3.0
  1
with
 41
0.6
 51
15.0
  7
ITALIC
100
AcDbText
  0
LINE
  5
A2C5
100
AcDbEntity
  8
WYMIARY
 62
     3
100
AcDbLine
 10
574.323006
 20
279.015897
 30
0.0
 11
580.534051
 21
283.964547
 31
0.0
  0
TEXT
  5
A2C6
100
AcDbEntity
  8
1
100
AcDbText
 10
575.088773
 20
281.925541
 30
0.0
 40
3.0
  1
z
 41
0.6
 51
15.0
  7
ITALIC
100
AcDbText
  0
TEXT
  5
A2C7
100
AcDbEntity
  8
1
100
AcDbText
 10
559.487221
 20
278.971122
 30
0.0
 40
5.0
  1
PI85    GZT80
 41
0.8
 51
15.0
  7
ITALIC
100
AcDbText
  0
LINE
  5
A2DB
100
AcDbEntity
  8
WYMIARY
 62
     3
100
AcDbLine
 10
597.320288
 20
228.675557
 30
0.0
 11
597.320288
 21
216.075557
 31
0.0
  0
LINE
  5
A30C
100
AcDbEntity
  8
WYMIARY
 62
     3
100
AcDbLine
 10
561.558908
 20
223.67016
 30
0.0
 11
561.558908
 21
223.72016
 31
0.0
  0
DIMENSION
  5
A31A
100
AcDbEntity
  8
WY
100
AcDbDimension
  2
*D9
 10
543.130148
 20
218.625557
 30
0.0
 11
539.830148
 21
205.025557
 31
0.0
 12
10.454213
 22
115.523743
 32
0.0
 70
    32
  3
STANDARD
100
AcDbAlignedDimension
 13
552.889237
 23
226.125557
 33
0.0
 14
552.889237
 24
218.625557
 34
0.0
 50
90.0
100
AcDbRotatedDimension
  0
ENDSEC
  0
SECTION
  2
OBJECTS
  0
DICTIONARY
  5
C
100
AcDbDictionary
  3
ACAD_GROUP
350
D
  3
ACAD_MLINESTYLE
350
E
  3
ACDBVARIABLEDICTIONARY
350
C1B
  0
DICTIONARY
  5
D
102
{ACAD_REACTORS
330
C
102
}
100
AcDbDictionary
  0
DICTIONARY
  5
E
102
{ACAD_REACTORS
330
C
102
}
100
AcDbDictionary
  3
STANDARD
350
1B
  0
DICTIONARY
  5
C1B
102
{ACAD_REACTORS
330
C
102
}
100
AcDbDictionary
  3
SORTENTS
350
C1C
  0
MLINESTYLE
  5
1B
102
{ACAD_REACTORS
330
E
102
}
100
AcDbMlineStyle
  2
STANDARD
 70
     0
  3

 62
     0
 51
90.0
 52
90.0
 71
     2
 49
0.5
 62
   256
  6
BYLAYER
 49
-0.5
 62
   256
  6
BYLAYER
  0
DICTIONARYVAR
  5
C1C
102
{ACAD_REACTORS
330
C1B
102
}
100
DictionaryVariables
280
     0
  1
96
  0
ENDSEC
  0
EOF
