  0
SECTION
  2
HEADER
  9
$ACADVER
  1
AC1021
  9
$ACADMAINTVER
 70
     1
  9
$DWGCODEPAGE
  3
ANSI_1252
  9
$LASTSAVEDBY
  1
gdseiver
  9
$INSBASE
 10
0.0
 20
0.0
 30
0.0
  9
$EXTMIN
 10
0.0000000005964589
 20
-2.221499999999999
 30
-0.0000000000000003
  9
$EXTMAX
 10
1.765420699403541
 20
0.9585000000000004
 30
3.332000000000001
  9
$LIMMIN
 10
0.0
 20
0.0
  9
$LIMMAX
 10
12.0
 20
9.0
  9
$ORTHOMODE
 70
     0
  9
$REGENMODE
 70
     1
  9
$FILLMODE
 70
     1
  9
$QTEXTMODE
 70
     0
  9
$MIRRTEXT
 70
     1
  9
$LTSCALE
 40
1.0
  9
$ATTMODE
 70
     0
  9
$TEXTSIZE
 40
0.12
  9
$TRACEWID
 40
0.05
  9
$TEXTSTYLE
  7
STANDARD
  9
$CLAYER
  8
0
  9
$CELTYPE
  6
ByLayer
  9
$CECOLOR
 62
   256
  9
$CELTSCALE
 40
1.0
  9
$DISPSILH
 70
     0
  9
$DIMSCALE
 40
1.0
  9
$DIMASZ
 40
0.18
  9
$DIMEXO
 40
0.0625
  9
$DIMDLI
 40
0.375
  9
$DIMRND
 40
0.0
  9
$DIMDLE
 40
0.0
  9
$DIMEXE
 40
0.18
  9
$DIMTP
 40
0.0
  9
$DIMTM
 40
0.0
  9
$DIMTXT
 40
0.18
  9
$DIMCEN
 40
0.09
  9
$DIMTSZ
 40
0.0
  9
$DIMTOL
 70
     0
  9
$DIMLIM
 70
     0
  9
$DIMTIH
 70
     0
  9
$DIMTOH
 70
     1
  9
$DIMSE1
 70
     0
  9
$DIMSE2
 70
     0
  9
$DIMTAD
 70
     0
  9
$DIMZIN
 70
     4
  9
$DIMBLK
  1

  9
$DIMASO
 70
     1
  9
$DIMSHO
 70
     1
  9
$DIMPOST
  1

  9
$DIMAPOST
  1

  9
$DIMALT
 70
     1
  9
$DIMALTD
 70
     1
  9
$DIMALTF
 40
25.4
  9
$DIMLFAC
 40
1.0
  9
$DIMTOFL
 70
     0
  9
$DIMTVP
 40
0.0
  9
$DIMTIX
 70
     0
  9
$DIMSOXD
 70
     0
  9
$DIMSAH
 70
     0
  9
$DIMBLK1
  1

  9
$DIMBLK2
  1

  9
$DIMSTYLE
  2
ABECAD
  9
$DIMCLRD
 70
     0
  9
$DIMCLRE
 70
     0
  9
$DIMCLRT
 70
     0
  9
$DIMTFAC
 40
1.5
  9
$DIMGAP
 40
0.09
  9
$DIMJUST
 70
     0
  9
$DIMSD1
 70
     0
  9
$DIMSD2
 70
     0
  9
$DIMTOLJ
 70
     1
  9
$DIMTZIN
 70
     4
  9
$DIMALTZ
 70
     4
  9
$DIMALTTZ
 70
     4
  9
$DIMUPT
 70
     1
  9
$DIMDEC
 70
     6
  9
$DIMTDEC
 70
     6
  9
$DIMALTU
 70
     2
  9
$DIMALTTD
 70
     1
  9
$DIMTXSTY
  7
STANDARD
  9
$DIMAUNIT
 70
     0
  9
$DIMADEC
 70
     0
  9
$DIMALTRND
 40
0.0
  9
$DIMAZIN
 70
     0
  9
$DIMDSEP
 70
    46
  9
$DIMATFIT
 70
     3
  9
$DIMFRAC
 70
     2
  9
$DIMLDRBLK
  1

  9
$DIMLUNIT
 70
     5
  9
$DIMLWD
 70
    -2
  9
$DIMLWE
 70
    -2
  9
$DIMTMOVE
 70
     2
  9
$DIMFXL
 40
1.0
  9
$DIMFXLON
 70
     0
  9
$DIMJOGANG
 40
0.7853981633974483
  9
$DIMTFILL
 70
     0
  9
$DIMTFILLCLR
 70
     0
  9
$DIMARCSYM
 70
     0
  9
$DIMLTYPE
  6

  9
$DIMLTEX1
  6

  9
$DIMLTEX2
  6

  9
$LUNITS
 70
     2
  9
$LUPREC
 70
     4
  9
$SKETCHINC
 40
0.1
  9
$FILLETRAD
 40
0.0
  9
$AUNITS
 70
     0
  9
$AUPREC
 70
     0
  9
$MENU
  1

  9
$ELEVATION
 40
0.0
  9
$PELEVATION
 40
0.0
  9
$THICKNESS
 40
0.0
  9
$LIMCHECK
 70
     0
  9
$CHAMFERA
 40
0.0
  9
$CHAMFERB
 40
0.0
  9
$CHAMFERC
 40
0.0
  9
$CHAMFERD
 40
0.0
  9
$SKPOLY
 70
     0
  9
$TDCREATE
 40
2450287.374446412
  9
$TDUCREATE
 40
2450287.582779746
  9
$TDUPDATE
 40
2454228.717015116
  9
$TDUUPDATE
 40
2454228.925348449
  9
$TDINDWG
 40
0.1808945602
  9
$TDUSRTIMER
 40
0.1808945602
  9
$USRTIMER
 70
     1
  9
$ANGBASE
 50
0.0
  9
$ANGDIR
 70
     0
  9
$PDMODE
 70
     3
  9
$PDSIZE
 40
0.09
  9
$PLINEWID
 40
0.0
  9
$SPLFRAME
 70
     1
  9
$SPLINETYPE
 70
     6
  9
$SPLINESEGS
 70
     8
  9
$HANDSEED
  5
3BA38
  9
$SURFTAB1
 70
     6
  9
$SURFTAB2
 70
     6
  9
$SURFTYPE
 70
     6
  9
$SURFU
 70
     6
  9
$SURFV
 70
     6
  9
$UCSBASE
  2

  9
$UCSNAME
  2

  9
$UCSORG
 10
0.0
 20
0.0
 30
0.0
  9
$UCSXDIR
 10
1.0
 20
0.0
 30
0.0
  9
$UCSYDIR
 10
0.0
 20
1.0
 30
0.0
  9
$UCSORTHOREF
  2

  9
$UCSORTHOVIEW
 70
     1
  9
$UCSORGTOP
 10
0.0
 20
0.0
 30
0.0
  9
$UCSORGBOTTOM
 10
0.0
 20
0.0
 30
0.0
  9
$UCSORGLEFT
 10
0.0
 20
0.0
 30
0.0
  9
$UCSORGRIGHT
 10
0.0
 20
0.0
 30
0.0
  9
$UCSORGFRONT
 10
0.0
 20
0.0
 30
0.0
  9
$UCSORGBACK
 10
0.0
 20
0.0
 30
0.0
  9
$PUCSBASE
  2

  9
$PUCSNAME
  2

  9
$PUCSORG
 10
0.0
 20
0.0
 30
0.0
  9
$PUCSXDIR
 10
1.0
 20
0.0
 30
0.0
  9
$PUCSYDIR
 10
0.0
 20
1.0
 30
0.0
  9
$PUCSORTHOREF
  2

  9
$PUCSORTHOVIEW
 70
     0
  9
$PUCSORGTOP
 10
0.0
 20
0.0
 30
0.0
  9
$PUCSORGBOTTOM
 10
0.0
 20
0.0
 30
0.0
  9
$PUCSORGLEFT
 10
0.0
 20
0.0
 30
0.0
  9
$PUCSORGRIGHT
 10
0.0
 20
0.0
 30
0.0
  9
$PUCSORGFRONT
 10
0.0
 20
0.0
 30
0.0
  9
$PUCSORGBACK
 10
0.0
 20
0.0
 30
0.0
  9
$USERI1
 70
     0
  9
$USERI2
 70
     0
  9
$USERI3
 70
     0
  9
$USERI4
 70
     0
  9
$USERI5
 70
     0
  9
$USERR1
 40
0.0
  9
$USERR2
 40
0.0
  9
$USERR3
 40
0.0
  9
$USERR4
 40
0.0
  9
$USERR5
 40
0.0
  9
$WORLDVIEW
 70
     1
  9
$SHADEDGE
 70
     3
  9
$SHADEDIF
 70
    70
  9
$TILEMODE
 70
     1
  9
$MAXACTVP
 70
    16
  9
$PINSBASE
 10
0.0
 20
0.0
 30
0.0
  9
$PLIMCHECK
 70
     0
  9
$PEXTMIN
 10
1.000000000000000E+20
 20
1.000000000000000E+20
 30
1.000000000000000E+20
  9
$PEXTMAX
 10
-1.000000000000000E+20
 20
-1.000000000000000E+20
 30
-1.000000000000000E+20
  9
$PLIMMIN
 10
0.0
 20
0.0
  9
$PLIMMAX
 10
12.0
 20
9.0
  9
$UNITMODE
 70
     0
  9
$VISRETAIN
 70
     0
  9
$PLINEGEN
 70
     0
  9
$PSLTSCALE
 70
     1
  9
$TREEDEPTH
 70
  3020
  9
$CMLSTYLE
  2
Standard
  9
$CMLJUST
 70
     0
  9
$CMLSCALE
 40
1.0
  9
$PROXYGRAPHICS
 70
     1
  9
$MEASUREMENT
 70
     0
  9
$CELWEIGHT
370
    -1
  9
$ENDCAPS
280
     0
  9
$JOINSTYLE
280
     0
  9
$LWDISPLAY
290
     0
  9
$INSUNITS
 70
     0
  9
$HYPERLINKBASE
  1

  9
$STYLESHEET
  1

  9
$XEDIT
290
     1
  9
$CEPSNTYPE
380
     0
  9
$PSTYLEMODE
290
     1
  9
$FINGERPRINTGUID
  2
{473DDD60-5D5F-11D4-9AC8-00A0CC3303EC}
  9
$VERSIONGUID
  2
{B0A0CAF3-BFC7-4972-B5A1-3BD00C3CFBEC}
  9
$EXTNAMES
290
     1
  9
$PSVPSCALE
 40
0.0
  9
$OLESTARTUP
290
     0
  9
$SORTENTS
280
   127
  9
$INDEXCTL
280
     0
  9
$HIDETEXT
280
     0
  9
$XCLIPFRAME
290
     0
  9
$HALOGAP
280
     0
  9
$OBSCOLOR
 70
   257
  9
$OBSLTYPE
280
     0
  9
$INTERSECTIONDISPLAY
280
     0
  9
$INTERSECTIONCOLOR
 70
   257
  9
$DIMASSOC
280
     1
  9
$PROJECTNAME
  1

  9
$CAMERADISPLAY
290
     0
  9
$LENSLENGTH
 40
50.0
  9
$CAMERAHEIGHT
 40
0.0
  9
$STEPSPERSEC
 40
2.0
  9
$STEPSIZE
 40
6.0
  9
$3DDWFPREC
 40
2.0
  9
$PSOLWIDTH
 40
0.25
  9
$PSOLHEIGHT
 40
4.0
  9
$LOFTANG1
 40
1.570796326794896
  9
$LOFTANG2
 40
1.570796326794896
  9
$LOFTMAG1
 40
0.0
  9
$LOFTMAG2
 40
0.0
  9
$LOFTPARAM
 70
     7
  9
$LOFTNORMALS
280
     1
  9
$LATITUDE
 40
37.795
  9
$LONGITUDE
 40
-122.394
  9
$NORTHDIRECTION
 40
0.0
  9
$TIMEZONE
 70
 -8000
  9
$LIGHTGLYPHDISPLAY
280
     1
  9
$TILEMODELIGHTSYNCH
280
     1
  9
$CMATERIAL
347
3B9F1
  9
$SOLIDHIST
280
     1
  9
$SHOWHIST
280
     1
  9
$DWFFRAME
280
     2
  9
$DGNFRAME
280
     0
  9
$REALWORLDSCALE
290
     1
  9
$INTERFERECOLOR
 62
     1
  9
$INTERFEREOBJVS
345
3B9FE
  9
$INTERFEREVPVS
346
3B9FB
  9
$CSHADOW
280
     0
  9
$SHADOWPLANELOCATION
 40
0.0
  0
ENDSEC
  0
SECTION
  2
CLASSES
  0
CLASS
  1
ACDBDICTIONARYWDFLT
  2
AcDbDictionaryWithDefault
  3
ObjectDBX Classes
 90
        0
 91
        1
280
     0
281
     0
  0
CLASS
  1
MATERIAL
  2
AcDbMaterial
  3
ObjectDBX Classes
 90
     1024
 91
        3
280
     0
281
     0
  0
CLASS
  1
VISUALSTYLE
  2
AcDbVisualStyle
  3
ObjectDBX Classes
 90
     4095
 91
       16
280
     0
281
     0
  0
CLASS
  1
TABLESTYLE
  2
AcDbTableStyle
  3
ObjectDBX Classes
 90
     4095
 91
        1
280
     0
281
     0
  0
CLASS
  1
EXACXREFPANELOBJECT
  2
ExAcXREFPanelObject
  3
EXAC_ESW
 90
     1025
 91
        0
280
     0
281
     0
  0
CLASS
  1
NPOCOLLECTION
  2
AcDbImpNonPersistentObjectsCollection
  3
ObjectDBX Classes
 90
     1153
 91
        0
280
     0
281
     0
  0
CLASS
  1
DICTIONARYVAR
  2
AcDbDictionaryVar
  3
ObjectDBX Classes
 90
        0
 91
        1
280
     0
281
     0
  0
ENDSEC
  0
SECTION
  2
TABLES
  0
TABLE
  2
VPORT
  5
3B3C5
102
{ACAD_XDICTIONARY
360
3BA1B
102
}
330
0
100
AcDbSymbolTable
 70
     1
  0
VPORT
  5
3B9B5
330
3B3C5
100
AcDbSymbolTableRecord
100
AcDbViewportTableRecord
  2
*Active
 70
     0
 10
0.0
 20
0.0
 11
1.0
 21
1.0
 12
0.8824571291248801
 22
-0.6313079433259024
 13
0.0
 23
0.0
 14
0.25
 24
0.25
 15
0.25
 25
0.25
 16
0.0
 26
0.0
 36
1.0
 17
0.0
 27
0.0
 37
0.0
 40
3.203830917670128
 41
1.421818181818181
 42
50.0
 43
0.0
 44
0.0
 50
0.0
 51
0.0
 71
     0
 72
 20000
 73
     1
 74
     1
 75
     0
 76
     0
 77
     0
 78
     0
281
     0
 65
     1
110
0.0
120
0.0
130
0.0
111
1.0
121
0.0
131
0.0
112
0.0
122
1.0
132
0.0
 79
     0
146
0.0
348
3B9FA
 60
     3
 61
     5
292
     1
282
     1
141
0.0
142
0.0
 63
   250
421
  3355443
  0
ENDTAB
  0
TABLE
  2
LTYPE
  5
3B3C2
330
0
100
AcDbSymbolTable
 70
     1
  0
LTYPE
  5
3B3D0
330
3B3C2
100
AcDbSymbolTableRecord
100
AcDbLinetypeTableRecord
  2
ByBlock
 70
     0
  3

 72
    65
 73
     0
 40
0.0
  0
LTYPE
  5
3B3D1
330
3B3C2
100
AcDbSymbolTableRecord
100
AcDbLinetypeTableRecord
  2
ByLayer
 70
     0
  3

 72
    65
 73
     0
 40
0.0
  0
LTYPE
  5
3B3D2
330
3B3C2
100
AcDbSymbolTableRecord
100
AcDbLinetypeTableRecord
  2
CONTINUOUS
 70
     0
  3
Solid line
 72
    65
 73
     0
 40
0.0
  0
ENDTAB
  0
TABLE
  2
LAYER
  5
3B3BF
330
0
100
AcDbSymbolTable
 70
     8
  0
LAYER
  5
3B3CD
330
3B3BF
100
AcDbSymbolTableRecord
100
AcDbLayerTableRecord
  2
0
 70
     0
 62
     7
  6
CONTINUOUS
370
    -3
390
3B3CC
347
3B9F3
  0
LAYER
  5
3B3E4
330
3B3BF
100
AcDbSymbolTableRecord
100
AcDbLayerTableRecord
  2
DIMS-MTG-HOLES
 70
     0
 62
     1
  6
CONTINUOUS
370
    -3
390
3B3CC
347
3B9F3
  0
LAYER
  5
3B4E7
330
3B3BF
100
AcDbSymbolTableRecord
100
AcDbLayerTableRecord
  2
ATTRIBUTES
 70
     0
 62
     7
  6
CONTINUOUS
370
    -3
390
3B3CC
347
3B9F3
  0
LAYER
  5
3B4E8
330
3B3BF
100
AcDbSymbolTableRecord
100
AcDbLayerTableRecord
  2
AREA1
 70
     1
 62
     7
  6
CONTINUOUS
290
     0
370
    -3
390
3B3CC
347
3B9F3
  0
LAYER
  5
3B4E9
330
3B3BF
100
AcDbSymbolTableRecord
100
AcDbLayerTableRecord
  2
Defpoints
 70
     1
 62
     7
  6
CONTINUOUS
290
     0
370
    -3
390
3B3CC
347
3B9F3
  0
LAYER
  5
3B4EA
330
3B3BF
100
AcDbSymbolTableRecord
100
AcDbLayerTableRecord
  2
SCALE
 70
     1
 62
     7
  6
CONTINUOUS
370
    -3
390
3B3CC
347
3B9F3
  0
LAYER
  5
3B4EB
330
3B3BF
100
AcDbSymbolTableRecord
100
AcDbLayerTableRecord
  2
SNAP_POINTS
 70
     1
 62
     1
  6
CONTINUOUS
370
    -3
390
3B3CC
347
3B9F3
  0
LAYER
  5
3BA0C
102
{ACAD_XDICTIONARY
360
3BA0D
102
}
330
3B3BF
100
AcDbSymbolTableRecord
100
AcDbLayerTableRecord
  2
WIRES
 70
     0
 62
     7
  6
CONTINUOUS
370
    -3
390
3B3CC
347
3B9F3
  0
ENDTAB
  0
TABLE
  2
STYLE
  5
3B3C0
330
0
100
AcDbSymbolTable
 70
     1
  0
STYLE
  5
3B3CE
330
3B3C0
100
AcDbSymbolTableRecord
100
AcDbTextStyleTableRecord
  2
STANDARD
 70
     0
 40
0.0
 41
1.0
 50
0.0
 71
     0
 42
0.12
  3
txt
  4

  0
ENDTAB
  0
TABLE
  2
VIEW
  5
3B3C3
330
0
100
AcDbSymbolTable
 70
     0
  0
ENDTAB
  0
TABLE
  2
UCS
  5
3B3C4
330
0
100
AcDbSymbolTable
 70
     0
  0
ENDTAB
  0
TABLE
  2
APPID
  5
3B3C6
330
0
100
AcDbSymbolTable
 70
     3
  0
APPID
  5
3B3CF
330
3B3C6
100
AcDbSymbolTableRecord
100
AcDbRegAppTableRecord
  2
ACAD
 70
     0
  0
APPID
  5
3B3E2
330
3B3C6
100
AcDbSymbolTableRecord
100
AcDbRegAppTableRecord
  2
AVE_RENDER
 70
     0
  0
APPID
  5
3BA11
330
3B3C6
100
AcDbSymbolTableRecord
100
AcDbRegAppTableRecord
  2
DCO15
 70
     0
  0
ENDTAB
  0
TABLE
  2
DIMSTYLE
  5
3B3C7
330
0
100
AcDbSymbolTable
 70
     2
100
AcDbDimStyleTable
 71
     0
  0
DIMSTYLE
105
3B4EC
102
{ACAD_REACTORS
330
3B924
330
3B96A
102
}
330
3B3C7
100
AcDbSymbolTableRecord
100
AcDbDimStyleTableRecord
  2
ABECAD
 70
     0
 43
0.375
 73
     0
 78
     4
146
1.5
170
     1
171
     1
271
     6
272
     6
274
     1
276
     2
277
     5
279
     2
284
     4
285
     4
286
     4
288
     1
340
3B3CE
  0
DIMSTYLE
105
3B4ED
330
3B3C7
100
AcDbSymbolTableRecord
100
AcDbDimStyleTableRecord
  2
ABECAD_3D
 70
     0
 43
0.375
 73
     0
 78
     4
146
1.5
170
     1
171
     1
271
     6
272
     6
274
     1
276
     2
277
     5
284
     4
285
     4
286
     4
340
3B3CE
  0
ENDTAB
  0
TABLE
  2
BLOCK_RECORD
  5
3B3BE
330
0
100
AcDbSymbolTable
 70
     4
  0
BLOCK_RECORD
  5
3B3DB
102
{ACAD_XDICTIONARY
360
3B454
102
}
330
3B3BE
100
AcDbSymbolTableRecord
100
AcDbBlockTableRecord
  2
*Model_Space
340
3B3DE
 70
     0
280
     1
281
     0
  0
BLOCK_RECORD
  5
3B3D7
102
{ACAD_XDICTIONARY
360
3B456
102
}
330
3B3BE
100
AcDbSymbolTableRecord
100
AcDbBlockTableRecord
  2
*Paper_Space
340
3B3DA
 70
     0
280
     1
281
     0
  0
BLOCK_RECORD
  5
3B3DF
330
3B3BE
100
AcDbSymbolTableRecord
100
AcDbBlockTableRecord
  2
AVE_RENDER
340
0
102
{BLKREFS
331
70E4
331
70E5
331
70E6
102
}
 70
     0
280
     1
281
     0
  0
BLOCK_RECORD
  5
3B4BF
330
3B3BE
100
AcDbSymbolTableRecord
100
AcDbBlockTableRecord
  2
scale
340
0
102
{BLKREFS
331
3B702
102
}
 70
     1
280
     1
281
     0
  0
BLOCK_RECORD
  5
3B925
330
3B3BE
100
AcDbSymbolTableRecord
100
AcDbBlockTableRecord
  2
*D2
340
0
 70
     0
280
     1
281
     0
  0
BLOCK_RECORD
  5
3B96B
330
3B3BE
100
AcDbSymbolTableRecord
100
AcDbBlockTableRecord
  2
*D3
340
0
 70
     0
280
     1
281
     0
  0
ENDTAB
  0
ENDSEC
  0
SECTION
  2
BLOCKS
  0
BLOCK
  5
3B3E7
330
3B3DB
100
AcDbEntity
  8
0
100
AcDbBlockBegin
  2
*Model_Space
 70
     0
 10
0.0
 20
0.0
 30
0.0
  3
*Model_Space
  1

  0
ENDBLK
  5
3B3E8
330
3B3DB
100
AcDbEntity
  8
0
100
AcDbBlockEnd
  0
BLOCK
  5
3B3E5
330
3B3D7
100
AcDbEntity
 67
     1
  8
0
100
AcDbBlockBegin
  2
*Paper_Space
 70
     0
 10
0.0
 20
0.0
 30
0.0
  3
*Paper_Space
  1

  0
ENDBLK
  5
3B3E6
330
3B3D7
100
AcDbEntity
 67
     1
  8
0
100
AcDbBlockEnd
  0
BLOCK
  5
70E2
330
3B3DF
100
AcDbEntity
  8
0
100
AcDbBlockBegin
  2
AVE_RENDER
 70
     0
 10
0.0
 20
0.0
 30
0.0
  3
AVE_RENDER
  1
AVE_RENDER
  0
ENDBLK
  5
70E3
330
3B3DF
100
AcDbEntity
  8
0
100
AcDbBlockEnd
  0
BLOCK
  5
3B4CB
330
3B4BF
100
AcDbEntity
  8
0
100
AcDbBlockBegin
  2
scale
 70
     0
 10
0.0
 20
0.0
 30
0.0
  3
scale
  1

  0
LINE
  5
3B4C0
330
3B4BF
100
AcDbEntity
  8
SCALE
100
AcDbLine
 10
0.057998664226762
 20
-0.380078318704216
 30
0.0
 11
1.057998664226762
 21
-0.380078318704216
 31
0.0
  0
LWPOLYLINE
  5
3B4C1
330
3B4BF
100
AcDbEntity
  8
SCALE
100
AcDbPolyline
 90
        4
 70
     1
 43
0.0
 10
0.0
 20
0.0
 10
1.135628819541972
 20
0.0
 10
1.135628819541972
 20
-0.8416095667780147
 10
0.0
 20
-0.8416095667780147
  0
LINE
  5
3B4C2
330
3B4BF
100
AcDbEntity
  8
SCALE
100
AcDbLine
 10
0.057998664226762
 20
-0.4800783187042157
 30
0.0
 11
0.057998664226762
 21
-0.2800783187042146
 31
0.0
  0
TEXT
  5
3B4C3
330
3B4BF
100
AcDbEntity
  8
SCALE
100
AcDbText
 10
0.1174208193753392
 20
-0.6343386734301007
 30
0.0
 40
0.0625
  1
[10mm]
100
AcDbText
  0
LINE
  5
3B4C4
330
3B4BF
100
AcDbEntity
  8
SCALE
100
AcDbLine
 10
0.057998664226762
 20
-0.680078318704215
 30
0.0
 11
0.451698664226762
 21
-0.680078318704215
 31
0.0
  0
LINE
  5
3B4C5
330
3B4BF
100
AcDbEntity
  8
SCALE
100
AcDbLine
 10
0.057998664226762
 20
-0.7800783187042147
 30
0.0
 11
0.057998664226762
 21
-0.5800783187042154
 31
0.0
  0
LINE
  5
3B4C6
330
3B4BF
100
AcDbEntity
  8
SCALE
100
AcDbLine
 10
0.451698664226762
 20
-0.7800783187042147
 30
0.0
 11
0.451698664226762
 21
-0.5800783187042154
 31
0.0
  0
TEXT
  5
3B4C7
330
3B4BF
100
AcDbEntity
  8
SCALE
100
AcDbText
 10
0.0595289294732879
 20
-0.1052011974306026
 30
0.0
 40
0.0625
  1
SCALE:
100
AcDbText
  0
TEXT
  5
3B4C8
330
3B4BF
100
AcDbEntity
  8
SCALE
100
AcDbText
 10
0.4212816527106718
 20
-0.3110296233310148
 30
0.0
 40
0.0625
  1
1 Inch
100
AcDbText
  0
LINE
  5
3B4C9
330
3B4BF
100
AcDbEntity
  8
SCALE
100
AcDbLine
 10
1.057998664226762
 20
-0.380078318704216
 30
0.0
 11
1.057998664226762
 21
-0.4800783187042157
 31
0.0
  0
LINE
  5
3B4CA
330
3B4BF
100
AcDbEntity
  8
SCALE
100
AcDbLine
 10
1.057998664226762
 20
-0.4800783187042157
 30
0.0
 11
1.057998664226762
 21
-0.2800783187042146
 31
0.0
  0
ENDBLK
  5
3B4CC
330
3B4BF
100
AcDbEntity
  8
0
100
AcDbBlockEnd
  0
BLOCK
  5
3B930
330
3B925
100
AcDbEntity
  8
0
100
AcDbBlockBegin
  2
*D2
 70
     1
 10
0.0
 20
0.0
 30
0.0
  3
*D2
  1

  0
LINE
  5
3B961
330
3B925
100
AcDbEntity
  8
AREA1
 62
     0
370
    -2
100
AcDbLine
 10
0.00521035
 20
0.7810000000000002
 30
0.0
 11
0.00521035
 21
1.368225080014767
 31
0.0
  0
LINE
  5
3B962
330
3B925
100
AcDbEntity
  8
AREA1
 62
     0
370
    -2
100
AcDbLine
 10
1.765210349999999
 20
0.637
 30
0.0
 11
1.765210349999999
 21
1.368225080014767
 31
0.0
  0
LINE
  5
3B963
330
3B925
100
AcDbEntity
  8
AREA1
 62
     0
370
    -2
100
AcDbLine
 10
0.18521035
 20
1.188225080014767
 30
0.0
 11
1.585210349999999
 21
1.188225080014767
 31
0.0
  0
MTEXT
  5
3B964
330
3B925
100
AcDbEntity
  8
AREA1
 62
     0
100
AcDbMText
 10
0.9131873261793614
 20
1.542356720660437
 30
0.0
 40
0.18
 41
0.0
 46
0.0
 71
     5
 72
     1
  1
\A1;1 49/64 [44.7]
 73
     1
 44
1.0
  0
SOLID
  5
3B965
330
3B925
100
AcDbEntity
  8
AREA1
 62
     0
100
AcDbTrace
 10
0.18521035
 20
1.218225080014767
 30
0.0
 11
0.18521035
 21
1.158225080014767
 31
0.0
 12
0.00521035
 22
1.188225080014767
 32
0.0
 13
0.00521035
 23
1.188225080014767
 33
0.0
  0
SOLID
  5
3B966
330
3B925
100
AcDbEntity
  8
AREA1
 62
     0
100
AcDbTrace
 10
1.585210349999999
 20
1.218225080014767
 30
0.0
 11
1.585210349999999
 21
1.158225080014767
 31
0.0
 12
1.765210349999999
 22
1.188225080014767
 32
0.0
 13
1.765210349999999
 23
1.188225080014767
 33
0.0
  0
POINT
  5
3B967
330
3B925
100
AcDbEntity
  8
Defpoints
 62
     0
100
AcDbPoint
 10
0.00521035
 20
0.7185000000000002
 30
0.0
  0
POINT
  5
3B968
330
3B925
100
AcDbEntity
  8
Defpoints
 62
     0
100
AcDbPoint
 10
1.765210349999999
 20
0.5745
 30
0.0
  0
POINT
  5
3B969
330
3B925
100
AcDbEntity
  8
Defpoints
 62
     0
100
AcDbPoint
 10
1.765210349999999
 20
1.188225080014767
 30
0.0
  0
ENDBLK
  5
3B931
330
3B925
100
AcDbEntity
  8
0
100
AcDbBlockEnd
  0
BLOCK
  5
3B976
330
3B96B
100
AcDbEntity
  8
0
100
AcDbBlockBegin
  2
*D3
 70
     1
 10
0.0
 20
0.0
 30
0.0
  3
*D3
  1

  0
LINE
  5
3B96C
330
3B96B
100
AcDbEntity
  8
AREA1
 62
     0
370
    -2
100
AcDbLine
 10
1.500210349999999
 20
0.9585000000000004
 30
0.0
 11
2.347220820315669
 21
0.9585
 31
0.0
  0
LINE
  5
3B96D
330
3B96B
100
AcDbEntity
  8
AREA1
 62
     0
370
    -2
100
AcDbLine
 10
1.827710349999999
 20
-2.165499999999999
 30
0.0
 11
2.347220820315669
 21
-2.165499999999999
 31
0.0
  0
LINE
  5
3B96E
330
3B96B
100
AcDbEntity
  8
AREA1
 62
     0
370
    -2
100
AcDbLine
 10
2.167220820315669
 20
0.7785000000000002
 30
0.0
 11
2.167220820315669
 21
0.4438880809855938
 31
0.0
  0
LINE
  5
3B96F
330
3B96B
100
AcDbEntity
  8
AREA1
 62
     0
370
    -2
100
AcDbLine
 10
2.167220820315669
 20
-1.985499999999999
 30
0.0
 11
2.167220820315669
 21
-1.536111919014406
 31
0.0
  0
MTEXT
  5
3B970
330
3B96B
100
AcDbEntity
  8
AREA1
 62
     0
100
AcDbMText
 10
2.167220820315669
 20
-0.5461119190144057
 30
0.0
 40
0.18
 41
0.0
 46
0.0
 71
     5
 72
     1
  1
\A1;3 1/8 [79.3]
 11
0.0000000000000001
 21
1.0
 31
0.0
 73
     1
 44
1.0
  0
SOLID
  5
3B971
330
3B96B
100
AcDbEntity
  8
AREA1
 62
     0
100
AcDbTrace
 10
2.13722082031567
 20
0.7785000000000002
 30
0.0
 11
2.197220820315669
 21
0.7785000000000002
 31
0.0
 12
2.167220820315669
 22
0.9585000000000002
 32
0.0
 13
2.167220820315669
 23
0.9585000000000002
 33
0.0
  0
SOLID
  5
3B972
330
3B96B
100
AcDbEntity
  8
AREA1
 62
     0
100
AcDbTrace
 10
2.137220820315669
 20
-1.985499999999999
 30
0.0
 11
2.197220820315669
 21
-1.985499999999999
 31
0.0
 12
2.167220820315669
 22
-2.165499999999999
 32
0.0
 13
2.167220820315669
 23
-2.165499999999999
 33
0.0
  0
POINT
  5
3B973
330
3B96B
100
AcDbEntity
  8
Defpoints
 62
     0
100
AcDbPoint
 10
1.437710349999999
 20
0.9585000000000004
 30
1.386
  0
POINT
  5
3B974
330
3B96B
100
AcDbEntity
  8
Defpoints
 62
     0
100
AcDbPoint
 10
1.765210349999999
 20
-2.165499999999999
 30
0.0
  0
POINT
  5
3B975
330
3B96B
100
AcDbEntity
  8
Defpoints
 62
     0
100
AcDbPoint
 10
2.167220820315669
 20
-2.165499999999999
 30
0.0
  0
ENDBLK
  5
3B977
330
3B96B
100
AcDbEntity
  8
0
100
AcDbBlockEnd
  0
ENDSEC
  0
SECTION
  2
ENTITIES
  0
ATTDEF
  5
1
330
3B3DB
100
AcDbEntity
  8
ATTRIBUTES
100
AcDbText
 10
0.1001048036306815
 20
-0.1342429569443211
 30
0.0
 40
0.0805203758744914
  1
SPRECHER+SCHUH
100
AcDbAttributeDefinition
  3
MANUFACTURER NAME?
  2
AC_VND_LABEL
 70
     1
280
     0
  0
ATTDEF
  5
2
330
3B3DB
100
AcDbEntity
  8
ATTRIBUTES
100
AcDbText
 10
0.1001048036306815
 20
-0.3019937400161781
 30
0.0
 40
0.0805203758744914
  1
CAL7-20-M40-*
100
AcDbAttributeDefinition
  3
CATALOG NUMBER?
  2
AC_PART_NO
 70
     1
280
     0
  0
ATTDEF
  5
3
330
3B3DB
100
AcDbEntity
  8
ATTRIBUTES
100
AcDbText
 10
0.1001048036306815
 20
-0.4697445230880351
 30
0.0
 40
0.0805203758744914
  1
IEC AC ELECTRICALLY HELD LIGHTING CONTACTOR; 20A, 4 POLE
100
AcDbAttributeDefinition
  3
PART DESCRIPTION?
  2
AC_DESCRIPTION
 70
     1
280
     0
  0
ATTDEF
  5
4
330
3B3DB
100
AcDbEntity
  8
ATTRIBUTES
100
AcDbText
 10
0.1001048036306815
 20
-0.6374953061598921
 30
0.0
 40
0.0805203758744914
  1

100
AcDbAttributeDefinition
  3
DEVICE ID?
  2
DEVICE_ID
 70
     1
280
     0
  0
ATTDEF
  5
5
330
3B3DB
100
AcDbEntity
  8
ATTRIBUTES
100
AcDbText
 10
0.1001048036306815
 20
-0.805246089231749
 30
0.0
 40
0.0805203758744914
  1

100
AcDbAttributeDefinition
  3
CUSTOMER PART NUMBER?
  2
AC_CPART_NO
 70
     1
280
     0
  0
ATTDEF
  5
6
330
3B3DB
100
AcDbEntity
  8
ATTRIBUTES
100
AcDbText
 10
0.1001048036306815
 20
-0.9729968723036069
 30
0.0
 40
0.0805203758744914
  1

100
AcDbAttributeDefinition
  3
CUSTOMER NOTE?
  2
AC_NOTE
 70
     1
280
     0
  0
ATTDEF
  5
7
330
3B3DB
100
AcDbEntity
  8
ATTRIBUTES
100
AcDbText
 10
0.1001048036306815
 20
-1.140747655375463
 30
0.0
 40
0.0805203758744914
  1

100
AcDbAttributeDefinition
  3
FASTENER DATA?
  2
FASTENER
 70
     1
280
     0
  0
ATTDEF
  5
8
330
3B3DB
100
AcDbEntity
  8
ATTRIBUTES
100
AcDbText
 10
0.1001048036306815
 20
-1.30849843844732
 30
0.0
 40
0.0805203758744914
  1
INCH
100
AcDbAttributeDefinition
  3
UNIT OF SCALE?
  2
AC_SCALE_UNIT
 70
     1
280
     0
  0
ATTDEF
  5
9
330
3B3DB
100
AcDbEntity
  8
ATTRIBUTES
100
AcDbText
 10
0.1001048036306815
 20
-1.476249221519177
 30
0.0
 40
0.0805203758744914
  1
0
100
AcDbAttributeDefinition
  3
VIEW CODE?
  2
AC_VIEW_CODE
 70
     1
280
     0
  0
POLYLINE
  5
6D36
330
3B3DB
100
AcDbEntity
  8
0
100
AcDbPolygonMesh
 66
     1
 10
0.0
 20
0.0
 30
0.0
 70
    16
 71
     6
 72
     3
  0
VERTEX
  5
6D37
330
6D36
100
AcDbEntity
  8
0
100
AcDbVertex
100
AcDbPolygonMeshVertex
 10
1.765210349999999
 20
0.2384999999999997
 30
0.316
 70
    64
  0
VERTEX
  5
6D38
330
6D36
100
AcDbEntity
  8
0
100
AcDbVertex
100
AcDbPolygonMeshVertex
 10
1.765210349999999
 20
0.2384999999999997
 30
0.0
 70
    64
  0
VERTEX
  5
6D39
330
6D36
100
AcDbEntity
  8
0
100
AcDbVertex
100
AcDbPolygonMeshVertex
 10
1.765210349999999
 20
0.2384999999999997
 30
0.0
 70
    64
  0
VERTEX
  5
6D3A
330
6D36
100
AcDbEntity
  8
0
100
AcDbVertex
100
AcDbPolygonMeshVertex
 10
1.374210349999999
 20
0.2384999999999997
 30
0.316
 70
    64
  0
VERTEX
  5
6D3B
330
6D36
100
AcDbEntity
  8
0
100
AcDbVertex
100
AcDbPolygonMeshVertex
 10
1.374210349999999
 20
0.2384999999999997
 30
0.0
 70
    64
  0
VERTEX
  5
6D3C
330
6D36
100
AcDbEntity
  8
0
100
AcDbVertex
100
AcDbPolygonMeshVertex
 10
1.374210349999999
 20
0.2384999999999997
 30
0.0
 70
    64
  0
VERTEX
  5
6D3D
330
6D36
100
AcDbEntity
  8
0
100
AcDbVertex
100
AcDbPolygonMeshVertex
 10
1.374210349999999
 20
0.5745
 30
0.316
 70
    64
  0
VERTEX
  5
6D3E
330
6D36
100
AcDbEntity
  8
0
100
AcDbVertex
100
AcDbPolygonMeshVertex
 10
1.374210349999999
 20
0.5745
 30
0.0
 70
    64
  0
VERTEX
  5
6D3F
330
6D36
100
AcDbEntity
  8
0
100
AcDbVertex
100
AcDbPolygonMeshVertex
 10
1.374210349999999
 20
0.2384999999999997
 30
0.0
 70
    64
  0
VERTEX
  5
6D40
330
6D36
100
AcDbEntity
  8
0
100
AcDbVertex
100
AcDbPolygonMeshVertex
 10
1.765210349999999
 20
0.5745
 30
0.316
 70
    64
  0
VERTEX
  5
6D41
330
6D36
100
AcDbEntity
  8
0
100
AcDbVertex
100
AcDbPolygonMeshVertex
 10
1.765210349999999
 20
0.5745
 30
0.0
 70
    64
  0
VERTEX
  5
6D42
330
6D36
100
AcDbEntity
  8
0
100
AcDbVertex
100
AcDbPolygonMeshVertex
 10
1.765210349999999
 20
0.2384999999999997
 30
0.0
 70
    64
  0
VERTEX
  5
6D43
330
6D36
100
AcDbEntity
  8
0
100
AcDbVertex
100
AcDbPolygonMeshVertex
 10
1.765210349999999
 20
0.5745
 30
0.316
 70
    64
  0
VERTEX
  5
6D44
330
6D36
100
AcDbEntity
  8
0
100
AcDbVertex
100
AcDbPolygonMeshVertex
 10
1.765210349999999
 20
0.5745
 30
0.316
 70
    64
  0
VERTEX
  5
6D45
330
6D36
100
AcDbEntity
  8
0
100
AcDbVertex
100
AcDbPolygonMeshVertex
 10
1.765210349999999
 20
0.2384999999999997
 30
0.316
 70
    64
  0
VERTEX
  5
6D46
330
6D36
100
AcDbEntity
  8
0
100
AcDbVertex
100
AcDbPolygonMeshVertex
 10
1.374210349999999
 20
0.5745
 30
0.316
 70
    64
  0
VERTEX
  5
6D47
330
6D36
100
AcDbEntity
  8
0
100
AcDbVertex
100
AcDbPolygonMeshVertex
 10
1.374210349999999
 20
0.5745
 30
0.316
 70
    64
  0
VERTEX
  5
6D48
330
6D36
100
AcDbEntity
  8
0
100
AcDbVertex
100
AcDbPolygonMeshVertex
 10
1.374210349999999
 20
0.2384999999999997
 30
0.316
 70
    64
  0
SEQEND
  5
6D49
330
6D36
100
AcDbEntity
  8
0
  0
POLYLINE
  5
6D5E
330
3B3DB
100
AcDbEntity
  8
0
100
AcDbPolygonMesh
 66
     1
 10
0.0
 20
0.0
 30
0.0
 70
    16
 71
     6
 72
     3
  0
VERTEX
  5
6D5F
330
6D5E
100
AcDbEntity
  8
0
100
AcDbVertex
100
AcDbPolygonMeshVertex
 10
0.39621035
 20
-1.685499999999999
 30
1.318
 70
    64
  0
VERTEX
  5
6D60
330
6D5E
100
AcDbEntity
  8
0
100
AcDbVertex
100
AcDbPolygonMeshVertex
 10
0.39621035
 20
-1.685499999999999
 30
0.187
 70
    64
  0
VERTEX
  5
6D61
330
6D5E
100
AcDbEntity
  8
0
100
AcDbVertex
100
AcDbPolygonMeshVertex
 10
0.39621035
 20
-1.685499999999999
 30
0.187
 70
    64
  0
VERTEX
  5
6D62
330
6D5E
100
AcDbEntity
  8
0
100
AcDbVertex
100
AcDbPolygonMeshVertex
 10
0.00521035
 20
-1.685499999999999
 30
1.318
 70
    64
  0
VERTEX
  5
6D63
330
6D5E
100
AcDbEntity
  8
0
100
AcDbVertex
100
AcDbPolygonMeshVertex
 10
0.00521035
 20
-1.685499999999999
 30
0.187
 70
    64
  0
VERTEX
  5
6D64
330
6D5E
100
AcDbEntity
  8
0
100
AcDbVertex
100
AcDbPolygonMeshVertex
 10
0.00521035
 20
-1.685499999999999
 30
0.187
 70
    64
  0
VERTEX
  5
6D65
330
6D5E
100
AcDbEntity
  8
0
100
AcDbVertex
100
AcDbPolygonMeshVertex
 10
0.00521035
 20
0.5215000000000001
 30
1.318
 70
    64
  0
VERTEX
  5
6D66
330
6D5E
100
AcDbEntity
  8
0
100
AcDbVertex
100
AcDbPolygonMeshVertex
 10
0.00521035
 20
0.5215000000000001
 30
0.187
 70
    64
  0
VERTEX
  5
6D67
330
6D5E
100
AcDbEntity
  8
0
100
AcDbVertex
100
AcDbPolygonMeshVertex
 10
0.00521035
 20
-1.685499999999999
 30
0.187
 70
    64
  0
VERTEX
  5
6D68
330
6D5E
100
AcDbEntity
  8
0
100
AcDbVertex
100
AcDbPolygonMeshVertex
 10
0.39621035
 20
0.5215000000000001
 30
1.318
 70
    64
  0
VERTEX
  5
6D69
330
6D5E
100
AcDbEntity
  8
0
100
AcDbVertex
100
AcDbPolygonMeshVertex
 10
0.39621035
 20
0.5215000000000001
 30
0.187
 70
    64
  0
VERTEX
  5
6D6A
330
6D5E
100
AcDbEntity
  8
0
100
AcDbVertex
100
AcDbPolygonMeshVertex
 10
0.39621035
 20
-1.685499999999999
 30
0.187
 70
    64
  0
VERTEX
  5
6D6B
330
6D5E
100
AcDbEntity
  8
0
100
AcDbVertex
100
AcDbPolygonMeshVertex
 10
0.39621035
 20
0.5215000000000001
 30
1.318
 70
    64
  0
VERTEX
  5
6D6C
330
6D5E
100
AcDbEntity
  8
0
100
AcDbVertex
100
AcDbPolygonMeshVertex
 10
0.39621035
 20
0.5215000000000001
 30
1.318
 70
    64
  0
VERTEX
  5
6D6D
330
6D5E
100
AcDbEntity
  8
0
100
AcDbVertex
100
AcDbPolygonMeshVertex
 10
0.39621035
 20
-1.685499999999999
 30
1.318
 70
    64
  0
VERTEX
  5
6D6E
330
6D5E
100
AcDbEntity
  8
0
100
AcDbVertex
100
AcDbPolygonMeshVertex
 10
0.00521035
 20
0.5215000000000001
 30
1.318
 70
    64
  0
VERTEX
  5
6D6F
330
6D5E
100
AcDbEntity
  8
0
100
AcDbVertex
100
AcDbPolygonMeshVertex
 10
0.00521035
 20
0.5215000000000001
 30
1.318
 70
    64
  0
VERTEX
  5
6D70
330
6D5E
100
AcDbEntity
  8
0
100
AcDbVertex
100
AcDbPolygonMeshVertex
 10
0.00521035
 20
-1.685499999999999
 30
1.318
 70
    64
  0
SEQEND
  5
6D71
330
6D5E
100
AcDbEntity
  8
0
  0
POLYLINE
  5
6D86
330
3B3DB
100
AcDbEntity
  8
0
100
AcDbPolygonMesh
 66
     1
 10
0.0
 20
0.0
 30
0.0
 70
    16
 71
     6
 72
     3
  0
VERTEX
  5
6D87
330
6D86
100
AcDbEntity
  8
0
100
AcDbVertex
100
AcDbPolygonMeshVertex
 10
1.765210349999999
 20
-1.9685
 30
1.318
 70
    64
  0
VERTEX
  5
6D88
330
6D86
100
AcDbEntity
  8
0
100
AcDbVertex
100
AcDbPolygonMeshVertex
 10
1.765210349999999
 20
-1.9685
 30
0.187
 70
    64
  0
VERTEX
  5
6D89
330
6D86
100
AcDbEntity
  8
0
100
AcDbVertex
100
AcDbPolygonMeshVertex
 10
1.765210349999999
 20
-1.9685
 30
0.187
 70
    64
  0
VERTEX
  5
6D8A
330
6D86
100
AcDbEntity
  8
0
100
AcDbVertex
100
AcDbPolygonMeshVertex
 10
1.374210349999999
 20
-1.9685
 30
1.318
 70
    64
  0
VERTEX
  5
6D8B
330
6D86
100
AcDbEntity
  8
0
100
AcDbVertex
100
AcDbPolygonMeshVertex
 10
1.374210349999999
 20
-1.9685
 30
0.187
 70
    64
  0
VERTEX
  5
6D8C
330
6D86
100
AcDbEntity
  8
0
100
AcDbVertex
100
AcDbPolygonMeshVertex
 10
1.374210349999999
 20
-1.9685
 30
0.187
 70
    64
  0
VERTEX
  5
6D8D
330
6D86
100
AcDbEntity
  8
0
100
AcDbVertex
100
AcDbPolygonMeshVertex
 10
1.374210349999999
 20
0.2384999999999997
 30
1.318
 70
    64
  0
VERTEX
  5
6D8E
330
6D86
100
AcDbEntity
  8
0
100
AcDbVertex
100
AcDbPolygonMeshVertex
 10
1.374210349999999
 20
0.2384999999999997
 30
0.187
 70
    64
  0
VERTEX
  5
6D8F
330
6D86
100
AcDbEntity
  8
0
100
AcDbVertex
100
AcDbPolygonMeshVertex
 10
1.374210349999999
 20
-1.9685
 30
0.187
 70
    64
  0
VERTEX
  5
6D90
330
6D86
100
AcDbEntity
  8
0
100
AcDbVertex
100
AcDbPolygonMeshVertex
 10
1.765210349999999
 20
0.2384999999999997
 30
1.318
 70
    64
  0
VERTEX
  5
6D91
330
6D86
100
AcDbEntity
  8
0
100
AcDbVertex
100
AcDbPolygonMeshVertex
 10
1.765210349999999
 20
0.2384999999999997
 30
0.187
 70
    64
  0
VERTEX
  5
6D92
330
6D86
100
AcDbEntity
  8
0
100
AcDbVertex
100
AcDbPolygonMeshVertex
 10
1.765210349999999
 20
-1.9685
 30
0.187
 70
    64
  0
VERTEX
  5
6D93
330
6D86
100
AcDbEntity
  8
0
100
AcDbVertex
100
AcDbPolygonMeshVertex
 10
1.765210349999999
 20
0.2384999999999997
 30
1.318
 70
    64
  0
VERTEX
  5
6D94
330
6D86
100
AcDbEntity
  8
0
100
AcDbVertex
100
AcDbPolygonMeshVertex
 10
1.765210349999999
 20
0.2384999999999997
 30
1.318
 70
    64
  0
VERTEX
  5
6D95
330
6D86
100
AcDbEntity
  8
0
100
AcDbVertex
100
AcDbPolygonMeshVertex
 10
1.765210349999999
 20
-1.9685
 30
1.318
 70
    64
  0
VERTEX
  5
6D96
330
6D86
100
AcDbEntity
  8
0
100
AcDbVertex
100
AcDbPolygonMeshVertex
 10
1.374210349999999
 20
0.2384999999999997
 30
1.318
 70
    64
  0
VERTEX
  5
6D97
330
6D86
100
AcDbEntity
  8
0
100
AcDbVertex
100
AcDbPolygonMeshVertex
 10
1.374210349999999
 20
0.2384999999999997
 30
1.318
 70
    64
  0
VERTEX
  5
6D98
330
6D86
100
AcDbEntity
  8
0
100
AcDbVertex
100
AcDbPolygonMeshVertex
 10
1.374210349999999
 20
-1.9685
 30
1.318
 70
    64
  0
SEQEND
  5
6D99
330
6D86
100
AcDbEntity
  8
0
  0
POLYLINE
  5
6DD6
330
3B3DB
100
AcDbEntity
  8
0
100
AcDbPolygonMesh
 66
     1
 10
0.0
 20
0.0
 30
0.0
 70
    16
 71
     6
 72
     3
  0
VERTEX
  5
6DD7
330
6DD6
100
AcDbEntity
  8
0
100
AcDbVertex
100
AcDbPolygonMeshVertex
 10
1.374210349999999
 20
-1.9685
 30
1.318
 70
    64
  0
VERTEX
  5
6DD8
330
6DD6
100
AcDbEntity
  8
0
100
AcDbVertex
100
AcDbPolygonMeshVertex
 10
1.374210349999999
 20
-1.9685
 30
0.187
 70
    64
  0
VERTEX
  5
6DD9
330
6DD6
100
AcDbEntity
  8
0
100
AcDbVertex
100
AcDbPolygonMeshVertex
 10
1.374210349999999
 20
-1.9685
 30
0.187
 70
    64
  0
VERTEX
  5
6DDA
330
6DD6
100
AcDbEntity
  8
0
100
AcDbVertex
100
AcDbPolygonMeshVertex
 10
0.39621035
 20
-1.9685
 30
1.318
 70
    64
  0
VERTEX
  5
6DDB
330
6DD6
100
AcDbEntity
  8
0
100
AcDbVertex
100
AcDbPolygonMeshVertex
 10
0.39621035
 20
-1.9685
 30
0.187
 70
    64
  0
VERTEX
  5
6DDC
330
6DD6
100
AcDbEntity
  8
0
100
AcDbVertex
100
AcDbPolygonMeshVertex
 10
0.39621035
 20
-1.9685
 30
0.187
 70
    64
  0
VERTEX
  5
6DDD
330
6DD6
100
AcDbEntity
  8
0
100
AcDbVertex
100
AcDbPolygonMeshVertex
 10
0.39621035
 20
0.5215000000000001
 30
1.318
 70
    64
  0
VERTEX
  5
6DDE
330
6DD6
100
AcDbEntity
  8
0
100
AcDbVertex
100
AcDbPolygonMeshVertex
 10
0.39621035
 20
0.5215000000000001
 30
0.187
 70
    64
  0
VERTEX
  5
6DDF
330
6DD6
100
AcDbEntity
  8
0
100
AcDbVertex
100
AcDbPolygonMeshVertex
 10
0.39621035
 20
-1.9685
 30
0.187
 70
    64
  0
VERTEX
  5
6DE0
330
6DD6
100
AcDbEntity
  8
0
100
AcDbVertex
100
AcDbPolygonMeshVertex
 10
1.374210349999999
 20
0.5215000000000001
 30
1.318
 70
    64
  0
VERTEX
  5
6DE1
330
6DD6
100
AcDbEntity
  8
0
100
AcDbVertex
100
AcDbPolygonMeshVertex
 10
1.374210349999999
 20
0.5215000000000001
 30
0.187
 70
    64
  0
VERTEX
  5
6DE2
330
6DD6
100
AcDbEntity
  8
0
100
AcDbVertex
100
AcDbPolygonMeshVertex
 10
1.374210349999999
 20
-1.9685
 30
0.187
 70
    64
  0
VERTEX
  5
6DE3
330
6DD6
100
AcDbEntity
  8
0
100
AcDbVertex
100
AcDbPolygonMeshVertex
 10
1.374210349999999
 20
0.5215000000000001
 30
1.318
 70
    64
  0
VERTEX
  5
6DE4
330
6DD6
100
AcDbEntity
  8
0
100
AcDbVertex
100
AcDbPolygonMeshVertex
 10
1.374210349999999
 20
0.5215000000000001
 30
1.318
 70
    64
  0
VERTEX
  5
6DE5
330
6DD6
100
AcDbEntity
  8
0
100
AcDbVertex
100
AcDbPolygonMeshVertex
 10
1.374210349999999
 20
-1.9685
 30
1.318
 70
    64
  0
VERTEX
  5
6DE6
330
6DD6
100
AcDbEntity
  8
0
100
AcDbVertex
100
AcDbPolygonMeshVertex
 10
0.39621035
 20
0.5215000000000001
 30
1.318
 70
    64
  0
VERTEX
  5
6DE7
330
6DD6
100
AcDbEntity
  8
0
100
AcDbVertex
100
AcDbPolygonMeshVertex
 10
0.39621035
 20
0.5215000000000001
 30
1.318
 70
    64
  0
VERTEX
  5
6DE8
330
6DD6
100
AcDbEntity
  8
0
100
AcDbVertex
100
AcDbPolygonMeshVertex
 10
0.39621035
 20
-1.9685
 30
1.318
 70
    64
  0
SEQEND
  5
6DE9
330
6DD6
100
AcDbEntity
  8
0
  0
POLYLINE
  5
6E47
330
3B3DB
100
AcDbEntity
  8
0
100
AcDbPolygonMesh
 66
     1
 10
0.0
 20
0.0
 30
0.0
 70
    16
 71
     6
 72
     3
  0
VERTEX
  5
6E48
330
6E47
100
AcDbEntity
  8
0
100
AcDbVertex
100
AcDbPolygonMeshVertex
 10
1.070710349999999
 20
-2.221499999999999
 30
2.06
 70
    64
  0
VERTEX
  5
6E49
330
6E47
100
AcDbEntity
  8
0
100
AcDbVertex
100
AcDbPolygonMeshVertex
 10
1.070710349999999
 20
-2.221499999999999
 30
1.386
 70
    64
  0
VERTEX
  5
6E4A
330
6E47
100
AcDbEntity
  8
0
100
AcDbVertex
100
AcDbPolygonMeshVertex
 10
1.070710349999999
 20
-2.221499999999999
 30
1.386
 70
    64
  0
VERTEX
  5
6E4B
330
6E47
100
AcDbEntity
  8
0
100
AcDbVertex
100
AcDbPolygonMeshVertex
 10
0.6997103499999997
 20
-2.221499999999999
 30
2.06
 70
    64
  0
VERTEX
  5
6E4C
330
6E47
100
AcDbEntity
  8
0
100
AcDbVertex
100
AcDbPolygonMeshVertex
 10
0.6997103499999997
 20
-2.221499999999999
 30
1.386
 70
    64
  0
VERTEX
  5
6E4D
330
6E47
100
AcDbEntity
  8
0
100
AcDbVertex
100
AcDbPolygonMeshVertex
 10
0.6997103499999997
 20
-2.221499999999999
 30
1.386
 70
    64
  0
VERTEX
  5
6E4E
330
6E47
100
AcDbEntity
  8
0
100
AcDbVertex
100
AcDbPolygonMeshVertex
 10
0.6997103499999997
 20
-1.968499999999999
 30
2.06
 70
    64
  0
VERTEX
  5
6E4F
330
6E47
100
AcDbEntity
  8
0
100
AcDbVertex
100
AcDbPolygonMeshVertex
 10
0.6997103499999997
 20
-1.968499999999999
 30
1.386
 70
    64
  0
VERTEX
  5
6E50
330
6E47
100
AcDbEntity
  8
0
100
AcDbVertex
100
AcDbPolygonMeshVertex
 10
0.6997103499999997
 20
-2.221499999999999
 30
1.386
 70
    64
  0
VERTEX
  5
6E51
330
6E47
100
AcDbEntity
  8
0
100
AcDbVertex
100
AcDbPolygonMeshVertex
 10
1.070710349999999
 20
-1.968499999999999
 30
2.06
 70
    64
  0
VERTEX
  5
6E52
330
6E47
100
AcDbEntity
  8
0
100
AcDbVertex
100
AcDbPolygonMeshVertex
 10
1.070710349999999
 20
-1.968499999999999
 30
1.386
 70
    64
  0
VERTEX
  5
6E53
330
6E47
100
AcDbEntity
  8
0
100
AcDbVertex
100
AcDbPolygonMeshVertex
 10
1.070710349999999
 20
-2.221499999999999
 30
1.386
 70
    64
  0
VERTEX
  5
6E54
330
6E47
100
AcDbEntity
  8
0
100
AcDbVertex
100
AcDbPolygonMeshVertex
 10
1.070710349999999
 20
-1.968499999999999
 30
2.06
 70
    64
  0
VERTEX
  5
6E55
330
6E47
100
AcDbEntity
  8
0
100
AcDbVertex
100
AcDbPolygonMeshVertex
 10
1.070710349999999
 20
-1.968499999999999
 30
2.06
 70
    64
  0
VERTEX
  5
6E56
330
6E47
100
AcDbEntity
  8
0
100
AcDbVertex
100
AcDbPolygonMeshVertex
 10
1.070710349999999
 20
-2.221499999999999
 30
2.06
 70
    64
  0
VERTEX
  5
6E57
330
6E47
100
AcDbEntity
  8
0
100
AcDbVertex
100
AcDbPolygonMeshVertex
 10
0.6997103499999997
 20
-1.968499999999999
 30
2.06
 70
    64
  0
VERTEX
  5
6E58
330
6E47
100
AcDbEntity
  8
0
100
AcDbVertex
100
AcDbPolygonMeshVertex
 10
0.6997103499999997
 20
-1.968499999999999
 30
2.06
 70
    64
  0
VERTEX
  5
6E59
330
6E47
100
AcDbEntity
  8
0
100
AcDbVertex
100
AcDbPolygonMeshVertex
 10
0.6997103499999997
 20
-2.221499999999999
 30
2.06
 70
    64
  0
SEQEND
  5
6E5A
330
6E47
100
AcDbEntity
  8
0
  0
LWPOLYLINE
  5
6F7F
330
3B3DB
100
AcDbEntity
  8
0
100
AcDbPolyline
 90
        4
 70
     1
 43
0.0
 38
2.062
 10
0.7517103500000002
 20
-2.020499999999999
 10
1.01871035
 20
-2.020499999999999
 10
1.01871035
 20
-2.169499999999999
 10
0.7517103500000002
 20
-2.169499999999999
  0
LWPOLYLINE
  5
6F85
330
3B3DB
100
AcDbEntity
  8
0
100
AcDbPolyline
 90
        4
 70
     1
 43
0.0
 38
1.388
 10
0.7517103500000002
 20
-2.020499999999999
 10
1.01871035
 20
-2.020499999999999
 10
1.01871035
 20
-2.169499999999999
 10
0.7517103500000002
 20
-2.169499999999999
  0
POLYLINE
  5
6FA4
330
3B3DB
100
AcDbEntity
  8
0
100
AcDbPolygonMesh
 66
     1
 10
0.0
 20
0.0
 30
0.0
 70
    16
 71
     6
 72
     3
  0
VERTEX
  5
6FA5
330
6FA4
100
AcDbEntity
  8
0
100
AcDbVertex
100
AcDbPolygonMeshVertex
 10
0.3327103499999988
 20
0.9585000000000004
 30
2.06
 70
    64
  0
VERTEX
  5
6FA6
330
6FA4
100
AcDbEntity
  8
0
100
AcDbVertex
100
AcDbPolygonMeshVertex
 10
0.3327103499999988
 20
0.9585000000000004
 30
1.386
 70
    64
  0
VERTEX
  5
6FA7
330
6FA4
100
AcDbEntity
  8
0
100
AcDbVertex
100
AcDbPolygonMeshVertex
 10
0.3327103499999988
 20
0.9585000000000004
 30
1.386
 70
    64
  0
VERTEX
  5
6FA8
330
6FA4
100
AcDbEntity
  8
0
100
AcDbVertex
100
AcDbPolygonMeshVertex
 10
1.437710349999999
 20
0.9585000000000004
 30
2.06
 70
    64
  0
VERTEX
  5
6FA9
330
6FA4
100
AcDbEntity
  8
0
100
AcDbVertex
100
AcDbPolygonMeshVertex
 10
1.437710349999999
 20
0.9585000000000004
 30
1.386
 70
    64
  0
VERTEX
  5
6FAA
330
6FA4
100
AcDbEntity
  8
0
100
AcDbVertex
100
AcDbPolygonMeshVertex
 10
1.437710349999999
 20
0.9585000000000004
 30
1.386
 70
    64
  0
VERTEX
  5
6FAB
330
6FA4
100
AcDbEntity
  8
0
100
AcDbVertex
100
AcDbPolygonMeshVertex
 10
1.437710349999999
 20
0.5215000000000001
 30
2.06
 70
    64
  0
VERTEX
  5
6FAC
330
6FA4
100
AcDbEntity
  8
0
100
AcDbVertex
100
AcDbPolygonMeshVertex
 10
1.437710349999999
 20
0.5215000000000001
 30
1.386
 70
    64
  0
VERTEX
  5
6FAD
330
6FA4
100
AcDbEntity
  8
0
100
AcDbVertex
100
AcDbPolygonMeshVertex
 10
1.437710349999999
 20
0.9585000000000004
 30
1.386
 70
    64
  0
VERTEX
  5
6FAE
330
6FA4
100
AcDbEntity
  8
0
100
AcDbVertex
100
AcDbPolygonMeshVertex
 10
0.3327103499999988
 20
0.5215000000000001
 30
2.06
 70
    64
  0
VERTEX
  5
6FAF
330
6FA4
100
AcDbEntity
  8
0
100
AcDbVertex
100
AcDbPolygonMeshVertex
 10
0.3327103499999988
 20
0.5215000000000001
 30
1.386
 70
    64
  0
VERTEX
  5
6FB0
330
6FA4
100
AcDbEntity
  8
0
100
AcDbVertex
100
AcDbPolygonMeshVertex
 10
0.3327103499999988
 20
0.9585000000000004
 30
1.386
 70
    64
  0
VERTEX
  5
6FB1
330
6FA4
100
AcDbEntity
  8
0
100
AcDbVertex
100
AcDbPolygonMeshVertex
 10
0.3327103499999988
 20
0.5215000000000001
 30
2.06
 70
    64
  0
VERTEX
  5
6FB2
330
6FA4
100
AcDbEntity
  8
0
100
AcDbVertex
100
AcDbPolygonMeshVertex
 10
0.3327103499999988
 20
0.5215000000000001
 30
2.06
 70
    64
  0
VERTEX
  5
6FB3
330
6FA4
100
AcDbEntity
  8
0
100
AcDbVertex
100
AcDbPolygonMeshVertex
 10
0.3327103499999988
 20
0.9585000000000004
 30
2.06
 70
    64
  0
VERTEX
  5
6FB4
330
6FA4
100
AcDbEntity
  8
0
100
AcDbVertex
100
AcDbPolygonMeshVertex
 10
1.437710349999999
 20
0.5215000000000001
 30
2.06
 70
    64
  0
VERTEX
  5
6FB5
330
6FA4
100
AcDbEntity
  8
0
100
AcDbVertex
100
AcDbPolygonMeshVertex
 10
1.437710349999999
 20
0.5215000000000001
 30
2.06
 70
    64
  0
VERTEX
  5
6FB6
330
6FA4
100
AcDbEntity
  8
0
100
AcDbVertex
100
AcDbPolygonMeshVertex
 10
1.437710349999999
 20
0.9585000000000004
 30
2.06
 70
    64
  0
SEQEND
  5
6FB7
330
6FA4
100
AcDbEntity
  8
0
  0
LINE
  5
6FB9
330
3B3DB
100
AcDbEntity
  8
0
100
AcDbLine
 10
0.7452103499999994
 20
0.5215000000000001
 30
2.06
 11
0.7452103499999994
 21
0.7565
 31
2.06
  0
LINE
  5
6FBA
330
3B3DB
100
AcDbEntity
  8
0
100
AcDbLine
 10
1.025210349999998
 20
0.5215000000000001
 30
2.06
 11
1.025210349999998
 21
0.7565
 31
2.06
  0
LINE
  5
6FBC
330
3B3DB
100
AcDbEntity
  8
0
100
AcDbLine
 10
1.025210349999998
 20
0.7565
 30
2.06
 11
0.7452103499999994
 21
0.7565
 31
2.06
  0
CIRCLE
  5
6FCB
330
3B3DB
100
AcDbEntity
  8
0
100
AcDbCircle
 10
0.5462103499999969
 20
0.7399999999999998
 30
2.06
 40
0.12
  0
CIRCLE
  5
6FCE
330
3B3DB
100
AcDbEntity
  8
0
100
AcDbCircle
 10
1.224210350000001
 20
0.7399999999999998
 30
2.06
 40
0.12
  0
POLYLINE
  5
6FE0
330
3B3DB
100
AcDbEntity
  8
0
100
AcDb3dPolyline
 66
     1
 10
0.0
 20
0.0
 30
0.0
 70
     8
  0
VERTEX
  5
6FE1
330
6FE0
100
AcDbEntity
  8
0
100
AcDbVertex
100
AcDb3dPolylineVertex
 10
1.765210349999999
 20
-1.352499999999999
 30
0.187
 70
    32
  0
VERTEX
  5
6FE2
330
6FE0
100
AcDbEntity
  8
0
100
AcDbVertex
100
AcDb3dPolylineVertex
 10
1.765210349999999
 20
-1.352499999999999
 30
1.056999999999999
 70
    32
  0
VERTEX
  5
6FE3
330
6FE0
100
AcDbEntity
  8
0
100
AcDbVertex
100
AcDb3dPolylineVertex
 10
1.765210349999999
 20
-1.507499999999999
 30
1.056999999999999
 70
    32
  0
VERTEX
  5
6FE4
330
6FE0
100
AcDbEntity
  8
0
100
AcDbVertex
100
AcDb3dPolylineVertex
 10
1.765210349999999
 20
-1.507499999999999
 30
0.187
 70
    32
  0
SEQEND
  5
6FE5
330
6FE0
100
AcDbEntity
  8
0
  0
POLYLINE
  5
6FE7
330
3B3DB
100
AcDbEntity
  8
0
100
AcDb3dPolyline
 66
     1
 10
0.0
 20
0.0
 30
0.0
 70
     8
  0
VERTEX
  5
6FE8
330
6FE7
100
AcDbEntity
  8
0
100
AcDbVertex
100
AcDb3dPolylineVertex
 10
1.765210349999999
 20
0.0265
 30
0.187
 70
    32
  0
VERTEX
  5
6FE9
330
6FE7
100
AcDbEntity
  8
0
100
AcDbVertex
100
AcDb3dPolylineVertex
 10
1.765210349999999
 20
0.0265
 30
1.056999999999999
 70
    32
  0
VERTEX
  5
6FEA
330
6FE7
100
AcDbEntity
  8
0
100
AcDbVertex
100
AcDb3dPolylineVertex
 10
1.765210349999999
 20
-0.1285000000000003
 30
1.056999999999999
 70
    32
  0
VERTEX
  5
6FEB
330
6FE7
100
AcDbEntity
  8
0
100
AcDbVertex
100
AcDb3dPolylineVertex
 10
1.765210349999999
 20
-0.1285000000000003
 30
0.187
 70
    32
  0
SEQEND
  5
6FEC
330
6FE7
100
AcDbEntity
  8
0
  0
LINE
  5
6FF3
330
3B3DB
100
AcDbEntity
  8
0
100
AcDbLine
 10
1.765210349999999
 20
-0.6294999999999998
 30
0.5170000000000002
 11
1.765210349999999
 21
-0.8515
 31
0.5170000000000002
  0
LINE
  5
6FF6
330
3B3DB
100
AcDbEntity
  8
0
100
AcDbLine
 10
1.765210349999999
 20
-0.8515
 30
0.5170000000000002
 11
1.765210349999999
 21
-0.8515
 31
0.187
  0
LINE
  5
6FF7
330
3B3DB
100
AcDbEntity
  8
0
100
AcDbLine
 10
1.765210349999999
 20
-0.6294999999999998
 30
0.5170000000000002
 11
1.765210349999999
 21
-0.6294999999999998
 31
0.187
  0
POLYLINE
  5
6FF8
330
3B3DB
100
AcDbEntity
  8
0
100
AcDb3dPolyline
 66
     1
 10
0.0
 20
0.0
 30
0.0
 70
     8
  0
VERTEX
  5
6FF9
330
6FF8
100
AcDbEntity
  8
0
100
AcDbVertex
100
AcDb3dPolylineVertex
 10
0.00521035
 20
0.0265
 30
0.187
 70
    32
  0
VERTEX
  5
6FFA
330
6FF8
100
AcDbEntity
  8
0
100
AcDbVertex
100
AcDb3dPolylineVertex
 10
0.00521035
 20
0.0265
 30
1.056999999999999
 70
    32
  0
VERTEX
  5
6FFB
330
6FF8
100
AcDbEntity
  8
0
100
AcDbVertex
100
AcDb3dPolylineVertex
 10
0.00521035
 20
-0.1285000000000003
 30
1.056999999999999
 70
    32
  0
VERTEX
  5
6FFC
330
6FF8
100
AcDbEntity
  8
0
100
AcDbVertex
100
AcDb3dPolylineVertex
 10
0.00521035
 20
-0.1285000000000003
 30
0.187
 70
    32
  0
SEQEND
  5
6FFD
330
6FF8
100
AcDbEntity
  8
0
  0
POLYLINE
  5
6FFE
330
3B3DB
100
AcDbEntity
  8
0
100
AcDb3dPolyline
 66
     1
 10
0.0
 20
0.0
 30
0.0
 70
     8
  0
VERTEX
  5
6FFF
330
6FFE
100
AcDbEntity
  8
0
100
AcDbVertex
100
AcDb3dPolylineVertex
 10
0.00521035
 20
-1.352499999999999
 30
0.187
 70
    32
  0
VERTEX
  5
7000
330
6FFE
100
AcDbEntity
  8
0
100
AcDbVertex
100
AcDb3dPolylineVertex
 10
0.00521035
 20
-1.352499999999999
 30
1.056999999999999
 70
    32
  0
VERTEX
  5
7001
330
6FFE
100
AcDbEntity
  8
0
100
AcDbVertex
100
AcDb3dPolylineVertex
 10
0.00521035
 20
-1.507499999999999
 30
1.056999999999999
 70
    32
  0
VERTEX
  5
7002
330
6FFE
100
AcDbEntity
  8
0
100
AcDbVertex
100
AcDb3dPolylineVertex
 10
0.00521035
 20
-1.507499999999999
 30
0.187
 70
    32
  0
SEQEND
  5
7003
330
6FFE
100
AcDbEntity
  8
0
  0
LINE
  5
7006
330
3B3DB
100
AcDbEntity
  8
0
100
AcDbLine
 10
1.765210349999999
 20
-1.5675
 30
0.187
 11
1.765210349999999
 21
-1.5675
 31
0.0
  0
LINE
  5
7007
330
3B3DB
100
AcDbEntity
  8
0
100
AcDbLine
 10
1.765210349999999
 20
-1.5675
 30
0.0
 11
0.8852103499999998
 21
-1.5675
 31
0.0
  0
POLYLINE
  5
7008
330
3B3DB
100
AcDbEntity
  8
0
100
AcDbPolygonMesh
 66
     1
 10
0.0
 20
0.0
 30
0.0
 70
    16
 71
     6
 72
     3
  0
VERTEX
  5
7009
330
7008
100
AcDbEntity
  8
0
100
AcDbVertex
100
AcDbPolygonMeshVertex
 10
0.8852103500000009
 20
-1.5675
 30
0.187
 70
    64
  0
VERTEX
  5
700A
330
7008
100
AcDbEntity
  8
0
100
AcDbVertex
100
AcDbPolygonMeshVertex
 10
0.8852103500000009
 20
-1.5675
 30
0.0
 70
    64
  0
VERTEX
  5
700B
330
7008
100
AcDbEntity
  8
0
100
AcDbVertex
100
AcDbPolygonMeshVertex
 10
0.8852103500000009
 20
-1.5675
 30
0.0
 70
    64
  0
VERTEX
  5
700C
330
7008
100
AcDbEntity
  8
0
100
AcDbVertex
100
AcDbPolygonMeshVertex
 10
1.765210349999999
 20
-1.5675
 30
0.187
 70
    64
  0
VERTEX
  5
700D
330
7008
100
AcDbEntity
  8
0
100
AcDbVertex
100
AcDbPolygonMeshVertex
 10
1.765210349999999
 20
-1.5675
 30
0.0
 70
    64
  0
VERTEX
  5
700E
330
7008
100
AcDbEntity
  8
0
100
AcDbVertex
100
AcDbPolygonMeshVertex
 10
1.765210349999999
 20
-1.5675
 30
0.0
 70
    64
  0
VERTEX
  5
700F
330
7008
100
AcDbEntity
  8
0
100
AcDbVertex
100
AcDbPolygonMeshVertex
 10
1.765210349999999
 20
-2.165499999999999
 30
0.187
 70
    64
  0
VERTEX
  5
7010
330
7008
100
AcDbEntity
  8
0
100
AcDbVertex
100
AcDbPolygonMeshVertex
 10
1.765210349999999
 20
-2.165499999999999
 30
0.0
 70
    64
  0
VERTEX
  5
7011
330
7008
100
AcDbEntity
  8
0
100
AcDbVertex
100
AcDbPolygonMeshVertex
 10
1.765210349999999
 20
-1.5675
 30
0.0
 70
    64
  0
VERTEX
  5
7012
330
7008
100
AcDbEntity
  8
0
100
AcDbVertex
100
AcDbPolygonMeshVertex
 10
0.8852103500000009
 20
-2.165499999999999
 30
0.187
 70
    64
  0
VERTEX
  5
7013
330
7008
100
AcDbEntity
  8
0
100
AcDbVertex
100
AcDbPolygonMeshVertex
 10
0.8852103500000009
 20
-2.165499999999999
 30
0.0
 70
    64
  0
VERTEX
  5
7014
330
7008
100
AcDbEntity
  8
0
100
AcDbVertex
100
AcDbPolygonMeshVertex
 10
0.8852103500000009
 20
-1.5675
 30
0.0
 70
    64
  0
VERTEX
  5
7015
330
7008
100
AcDbEntity
  8
0
100
AcDbVertex
100
AcDbPolygonMeshVertex
 10
0.8852103500000009
 20
-2.165499999999999
 30
0.187
 70
    64
  0
VERTEX
  5
7016
330
7008
100
AcDbEntity
  8
0
100
AcDbVertex
100
AcDbPolygonMeshVertex
 10
0.8852103500000009
 20
-2.165499999999999
 30
0.187
 70
    64
  0
VERTEX
  5
7017
330
7008
100
AcDbEntity
  8
0
100
AcDbVertex
100
AcDbPolygonMeshVertex
 10
0.8852103500000009
 20
-1.5675
 30
0.187
 70
    64
  0
VERTEX
  5
7018
330
7008
100
AcDbEntity
  8
0
100
AcDbVertex
100
AcDbPolygonMeshVertex
 10
1.765210349999999
 20
-2.165499999999999
 30
0.187
 70
    64
  0
VERTEX
  5
7019
330
7008
100
AcDbEntity
  8
0
100
AcDbVertex
100
AcDbPolygonMeshVertex
 10
1.765210349999999
 20
-2.165499999999999
 30
0.187
 70
    64
  0
VERTEX
  5
701A
330
7008
100
AcDbEntity
  8
0
100
AcDbVertex
100
AcDbPolygonMeshVertex
 10
1.765210349999999
 20
-1.5675
 30
0.187
 70
    64
  0
SEQEND
  5
701B
330
7008
100
AcDbEntity
  8
0
  0
POLYLINE
  5
701C
330
3B3DB
100
AcDbEntity
  8
0
100
AcDbPolygonMesh
 66
     1
 10
0.0
 20
0.0
 30
0.0
 70
    16
 71
     6
 72
     3
  0
VERTEX
  5
701D
330
701C
100
AcDbEntity
  8
0
100
AcDbVertex
100
AcDbPolygonMeshVertex
 10
0.00521035
 20
0.7185000000000002
 30
0.187
 70
    64
  0
VERTEX
  5
701E
330
701C
100
AcDbEntity
  8
0
100
AcDbVertex
100
AcDbPolygonMeshVertex
 10
0.00521035
 20
0.7185000000000002
 30
0.0
 70
    64
  0
VERTEX
  5
701F
330
701C
100
AcDbEntity
  8
0
100
AcDbVertex
100
AcDbPolygonMeshVertex
 10
0.00521035
 20
0.7185000000000002
 30
0.0
 70
    64
  0
VERTEX
  5
7020
330
701C
100
AcDbEntity
  8
0
100
AcDbVertex
100
AcDbPolygonMeshVertex
 10
0.8852103499999991
 20
0.7185000000000002
 30
0.187
 70
    64
  0
VERTEX
  5
7021
330
701C
100
AcDbEntity
  8
0
100
AcDbVertex
100
AcDbPolygonMeshVertex
 10
0.8852103499999991
 20
0.7185000000000002
 30
0.0
 70
    64
  0
VERTEX
  5
7022
330
701C
100
AcDbEntity
  8
0
100
AcDbVertex
100
AcDbPolygonMeshVertex
 10
0.8852103499999991
 20
0.7185000000000002
 30
0.0
 70
    64
  0
VERTEX
  5
7023
330
701C
100
AcDbEntity
  8
0
100
AcDbVertex
100
AcDbPolygonMeshVertex
 10
0.8852103499999991
 20
0.1205000000000003
 30
0.187
 70
    64
  0
VERTEX
  5
7024
330
701C
100
AcDbEntity
  8
0
100
AcDbVertex
100
AcDbPolygonMeshVertex
 10
0.8852103499999991
 20
0.1205000000000003
 30
0.0
 70
    64
  0
VERTEX
  5
7025
330
701C
100
AcDbEntity
  8
0
100
AcDbVertex
100
AcDbPolygonMeshVertex
 10
0.8852103499999991
 20
0.7185000000000002
 30
0.0
 70
    64
  0
VERTEX
  5
7026
330
701C
100
AcDbEntity
  8
0
100
AcDbVertex
100
AcDbPolygonMeshVertex
 10
0.00521035
 20
0.1205000000000003
 30
0.187
 70
    64
  0
VERTEX
  5
7027
330
701C
100
AcDbEntity
  8
0
100
AcDbVertex
100
AcDbPolygonMeshVertex
 10
0.00521035
 20
0.1205000000000003
 30
0.0
 70
    64
  0
VERTEX
  5
7028
330
701C
100
AcDbEntity
  8
0
100
AcDbVertex
100
AcDbPolygonMeshVertex
 10
0.00521035
 20
0.7185000000000002
 30
0.0
 70
    64
  0
VERTEX
  5
7029
330
701C
100
AcDbEntity
  8
0
100
AcDbVertex
100
AcDbPolygonMeshVertex
 10
0.00521035
 20
0.1205000000000003
 30
0.187
 70
    64
  0
VERTEX
  5
702A
330
701C
100
AcDbEntity
  8
0
100
AcDbVertex
100
AcDbPolygonMeshVertex
 10
0.00521035
 20
0.1205000000000003
 30
0.187
 70
    64
  0
VERTEX
  5
702B
330
701C
100
AcDbEntity
  8
0
100
AcDbVertex
100
AcDbPolygonMeshVertex
 10
0.00521035
 20
0.7185000000000002
 30
0.187
 70
    64
  0
VERTEX
  5
702C
330
701C
100
AcDbEntity
  8
0
100
AcDbVertex
100
AcDbPolygonMeshVertex
 10
0.8852103499999991
 20
0.1205000000000003
 30
0.187
 70
    64
  0
VERTEX
  5
702D
330
701C
100
AcDbEntity
  8
0
100
AcDbVertex
100
AcDbPolygonMeshVertex
 10
0.8852103499999991
 20
0.1205000000000003
 30
0.187
 70
    64
  0
VERTEX
  5
702E
330
701C
100
AcDbEntity
  8
0
100
AcDbVertex
100
AcDbPolygonMeshVertex
 10
0.8852103499999991
 20
0.7185000000000002
 30
0.187
 70
    64
  0
SEQEND
  5
702F
330
701C
100
AcDbEntity
  8
0
  0
LINE
  5
703F
330
3B3DB
100
AcDbEntity
  8
0
100
AcDbLine
 10
1.765210349999996
 20
-0.8065000000000001
 30
1.8785
 11
1.765210349999996
 21
-0.6404999999999999
 31
1.8785
  0
POLYLINE
  5
7041
330
3B3DB
100
AcDbEntity
  8
0
100
AcDb3dPolyline
 66
     1
 10
0.0
 20
0.0
 30
0.0
 70
     8
  0
VERTEX
  5
7042
330
7041
100
AcDbEntity
  8
0
100
AcDbVertex
100
AcDb3dPolylineVertex
 10
0.0000000005964589
 20
-0.6404999999999999
 30
1.592
 70
    32
  0
VERTEX
  5
7043
330
7041
100
AcDbEntity
  8
0
100
AcDbVertex
100
AcDb3dPolylineVertex
 10
0.0000000005964589
 20
-0.6404999999999999
 30
2.165
 70
    32
  0
VERTEX
  5
7044
330
7041
100
AcDbEntity
  8
0
100
AcDbVertex
100
AcDb3dPolylineVertex
 10
0.0000000005964589
 20
-0.8064999999999997
 30
2.165
 70
    32
  0
VERTEX
  5
7045
330
7041
100
AcDbEntity
  8
0
100
AcDbVertex
100
AcDb3dPolylineVertex
 10
0.0000000005964589
 20
-0.8065000000000001
 30
1.592
 70
    32
  0
VERTEX
  5
7046
330
7041
100
AcDbEntity
  8
0
100
AcDbVertex
100
AcDb3dPolylineVertex
 10
0.0000000005964589
 20
-0.6404999999999999
 30
1.592
 70
    32
  0
SEQEND
  5
7047
330
7041
100
AcDbEntity
  8
0
  0
LINE
  5
7048
330
3B3DB
100
AcDbEntity
  8
0
100
AcDbLine
 10
0.0000000005964589
 20
-0.8065000000000001
 30
1.8785
 11
0.0000000005964589
 21
-0.6404999999999999
 31
1.8785
  0
LINE
  5
7049
330
3B3DB
100
AcDbEntity
  8
0
100
AcDbLine
 10
0.0000000005964589
 20
-0.8065000000000001
 30
2.0685
 11
0.0000000005964589
 21
-0.6404999999999999
 31
2.0685
  0
CIRCLE
  5
704E
330
3B3DB
100
AcDbEntity
  8
0
100
AcDbCircle
 10
1.571210349999998
 20
0.4255
 30
0.316
 40
0.086
  0
POLYLINE
  5
7089
330
3B3DB
100
AcDbEntity
  8
0
100
AcDb3dPolyline
 66
     1
 10
0.0
 20
0.0
 30
0.0
 70
     8
  0
VERTEX
  5
708A
330
7089
100
AcDbEntity
  8
0
100
AcDbVertex
100
AcDb3dPolylineVertex
 10
0.550543683333332
 20
0.5215000000000001
 30
0.187
 70
    32
  0
VERTEX
  5
708B
330
7089
100
AcDbEntity
  8
0
100
AcDbVertex
100
AcDb3dPolylineVertex
 10
0.550543683333332
 20
0.6564999999999999
 30
0.187
 70
    32
  0
VERTEX
  5
708C
330
7089
100
AcDbEntity
  8
0
100
AcDbVertex
100
AcDb3dPolylineVertex
 10
0.3398770166666662
 20
0.6564999999999999
 30
0.187
 70
    32
  0
VERTEX
  5
708D
330
7089
100
AcDbEntity
  8
0
100
AcDbVertex
100
AcDb3dPolylineVertex
 10
0.3398770166666662
 20
0.5215000000000001
 30
0.187
 70
    32
  0
SEQEND
  5
708E
330
7089
100
AcDbEntity
  8
0
  0
POLYLINE
  5
7095
330
3B3DB
100
AcDbEntity
  8
0
100
AcDb3dPolyline
 66
     1
 10
0.0
 20
0.0
 30
0.0
 70
     8
  0
VERTEX
  5
7096
330
7095
100
AcDbEntity
  8
0
100
AcDbVertex
100
AcDb3dPolylineVertex
 10
0.2778770166666659
 20
0.5215000000000001
 30
0.187
 70
    32
  0
VERTEX
  5
7097
330
7095
100
AcDbEntity
  8
0
100
AcDbVertex
100
AcDb3dPolylineVertex
 10
0.2778770166666659
 20
0.6564999999999999
 30
0.187
 70
    32
  0
VERTEX
  5
7098
330
7095
100
AcDbEntity
  8
0
100
AcDbVertex
100
AcDb3dPolylineVertex
 10
0.0672103500000003
 20
0.6564999999999999
 30
0.187
 70
    32
  0
VERTEX
  5
7099
330
7095
100
AcDbEntity
  8
0
100
AcDbVertex
100
AcDb3dPolylineVertex
 10
0.0672103500000003
 20
0.5215000000000001
 30
0.187
 70
    32
  0
SEQEND
  5
709A
330
7095
100
AcDbEntity
  8
0
  0
POLYLINE
  5
709B
330
3B3DB
100
AcDbEntity
  8
0
100
AcDb3dPolyline
 66
     1
 10
0.0
 20
0.0
 30
0.0
 70
     8
  0
VERTEX
  5
709C
330
709B
100
AcDbEntity
  8
0
100
AcDbVertex
100
AcDb3dPolylineVertex
 10
0.8232103499999979
 20
0.5215000000000001
 30
0.187
 70
    32
  0
VERTEX
  5
709D
330
709B
100
AcDbEntity
  8
0
100
AcDbVertex
100
AcDb3dPolylineVertex
 10
0.8232103499999979
 20
0.6564999999999999
 30
0.187
 70
    32
  0
VERTEX
  5
709E
330
709B
100
AcDbEntity
  8
0
100
AcDbVertex
100
AcDb3dPolylineVertex
 10
0.6125436833333322
 20
0.6564999999999999
 30
0.187
 70
    32
  0
VERTEX
  5
709F
330
709B
100
AcDbEntity
  8
0
100
AcDbVertex
100
AcDb3dPolylineVertex
 10
0.6125436833333322
 20
0.5215000000000001
 30
0.187
 70
    32
  0
SEQEND
  5
70A0
330
709B
100
AcDbEntity
  8
0
  0
POLYLINE
  5
70A1
330
3B3DB
100
AcDbEntity
  8
0
100
AcDb3dPolyline
 66
     1
 10
0.0
 20
0.0
 30
0.0
 70
     8
  0
VERTEX
  5
70A2
330
70A1
100
AcDbEntity
  8
0
100
AcDbVertex
100
AcDb3dPolylineVertex
 10
1.492543683333333
 20
-1.9685
 30
0.187
 70
    32
  0
VERTEX
  5
70A3
330
70A1
100
AcDbEntity
  8
0
100
AcDbVertex
100
AcDb3dPolylineVertex
 10
1.492543683333333
 20
-2.103499999999999
 30
0.187
 70
    32
  0
VERTEX
  5
70A4
330
70A1
100
AcDbEntity
  8
0
100
AcDbVertex
100
AcDb3dPolylineVertex
 10
1.703210349999998
 20
-2.103499999999999
 30
0.187
 70
    32
  0
VERTEX
  5
70A5
330
70A1
100
AcDbEntity
  8
0
100
AcDbVertex
100
AcDb3dPolylineVertex
 10
1.703210349999998
 20
-1.9685
 30
0.187
 70
    32
  0
SEQEND
  5
70A6
330
70A1
100
AcDbEntity
  8
0
  0
POLYLINE
  5
70A7
330
3B3DB
100
AcDbEntity
  8
0
100
AcDb3dPolyline
 66
     1
 10
0.0
 20
0.0
 30
0.0
 70
     8
  0
VERTEX
  5
70A8
330
70A7
100
AcDbEntity
  8
0
100
AcDbVertex
100
AcDb3dPolylineVertex
 10
1.219877016666667
 20
-1.9685
 30
0.187
 70
    32
  0
VERTEX
  5
70A9
330
70A7
100
AcDbEntity
  8
0
100
AcDbVertex
100
AcDb3dPolylineVertex
 10
1.219877016666667
 20
-2.103499999999999
 30
0.187
 70
    32
  0
VERTEX
  5
70AA
330
70A7
100
AcDbEntity
  8
0
100
AcDbVertex
100
AcDb3dPolylineVertex
 10
1.430543683333332
 20
-2.103499999999999
 30
0.187
 70
    32
  0
VERTEX
  5
70AB
330
70A7
100
AcDbEntity
  8
0
100
AcDbVertex
100
AcDb3dPolylineVertex
 10
1.430543683333332
 20
-1.9685
 30
0.187
 70
    32
  0
SEQEND
  5
70AC
330
70A7
100
AcDbEntity
  8
0
  0
POLYLINE
  5
70AD
330
3B3DB
100
AcDbEntity
  8
0
100
AcDb3dPolyline
 66
     1
 10
0.0
 20
0.0
 30
0.0
 70
     8
  0
VERTEX
  5
70AE
330
70AD
100
AcDbEntity
  8
0
100
AcDbVertex
100
AcDb3dPolylineVertex
 10
0.947210350000002
 20
-1.9685
 30
0.187
 70
    32
  0
VERTEX
  5
70AF
330
70AD
100
AcDbEntity
  8
0
100
AcDbVertex
100
AcDb3dPolylineVertex
 10
0.947210350000002
 20
-2.103499999999999
 30
0.187
 70
    32
  0
VERTEX
  5
70B0
330
70AD
100
AcDbEntity
  8
0
100
AcDbVertex
100
AcDb3dPolylineVertex
 10
1.157877016666666
 20
-2.103499999999999
 30
0.187
 70
    32
  0
VERTEX
  5
70B1
330
70AD
100
AcDbEntity
  8
0
100
AcDbVertex
100
AcDb3dPolylineVertex
 10
1.157877016666666
 20
-1.9685
 30
0.187
 70
    32
  0
SEQEND
  5
70B2
330
70AD
100
AcDbEntity
  8
0
  0
CIRCLE
  5
70B3
330
3B3DB
100
AcDbEntity
  8
0
100
AcDbCircle
 10
0.1912103500000008
 20
-1.934499999999999
 30
0.316
 40
0.086
  0
INSERT
  5
70E4
330
3B3DB
100
AcDbEntity
  8
0
 62
     1
100
AcDbBlockReference
  2
AVE_RENDER
 10
-6.627499309116598
 20
-2.735105295632668
 30
0.0
1001
AVE_RENDER
1002
{
1070
     2
1000
Pref
1070
    30
1070
    20
1070
     0
1070
     0
1000

1070
    10
1070
     0
1070
    30
1040
1.0
1070
     1
1040
0.3
1040
0.4
1040
0.76
1040
1.538461538461538
1010
-1.0
1020
-1.0
1030
-1.0
1040
0.3
1070
    49
1002
}
  0
INSERT
  5
70E5
330
3B3DB
100
AcDbEntity
  8
0
 62
     3
100
AcDbBlockReference
  2
AVE_RENDER
 10
-6.627499309116598
 20
-2.735105295632668
 30
0.0
1001
AVE_RENDER
1002
{
1070
     0
1000
Full Opt
1070
     0
1070
     1
1070
     1
1070
     1
1070
     0
1070
     0
1070
     0
1070
     1
1070
     1
1040
0.0001
1040
0.0001
1002
}
  0
INSERT
  5
70E6
330
3B3DB
100
AcDbEntity
  8
0
 62
     4
100
AcDbBlockReference
  2
AVE_RENDER
 10
-6.627499309116598
 20
-2.735105295632668
 30
0.0
1001
AVE_RENDER
1002
{
1070
     0
1000
Quick Opt
1070
     0
1070
     1
1070
     1
1070
     1
1070
     0
1070
     0
1070
     1
1002
}
  0
CIRCLE
  5
714B
330
3B3DB
100
AcDbEntity
  8
0
100
AcDbCircle
 10
0.1912103499999999
 20
-1.934499999999999
 30
0.0
 40
0.086
  0
CIRCLE
  5
714C
330
3B3DB
100
AcDbEntity
  8
0
100
AcDbCircle
 10
1.571210349999998
 20
0.4255
 30
0.0
 40
0.086
  0
POLYLINE
  5
714F
330
3B3DB
100
AcDbEntity
  8
0
100
AcDb3dPolyline
 66
     1
 10
0.0
 20
0.0
 30
0.0
 70
     8
  0
VERTEX
  5
7150
330
714F
100
AcDbEntity
  8
0
100
AcDbVertex
100
AcDb3dPolylineVertex
 10
0.947210350000002
 20
-1.9685
 30
-0.0000000000000001
 70
    32
  0
VERTEX
  5
7151
330
714F
100
AcDbEntity
  8
0
100
AcDbVertex
100
AcDb3dPolylineVertex
 10
0.947210350000002
 20
-2.103499999999999
 30
0.0
 70
    32
  0
VERTEX
  5
7152
330
714F
100
AcDbEntity
  8
0
100
AcDbVertex
100
AcDb3dPolylineVertex
 10
1.157877016666666
 20
-2.103499999999999
 30
0.0
 70
    32
  0
VERTEX
  5
7153
330
714F
100
AcDbEntity
  8
0
100
AcDbVertex
100
AcDb3dPolylineVertex
 10
1.157877016666666
 20
-1.9685
 30
-0.0000000000000001
 70
    32
  0
SEQEND
  5
7154
330
714F
100
AcDbEntity
  8
0
  0
POLYLINE
  5
7155
330
3B3DB
100
AcDbEntity
  8
0
100
AcDb3dPolyline
 66
     1
 10
0.0
 20
0.0
 30
0.0
 70
     8
  0
VERTEX
  5
7156
330
7155
100
AcDbEntity
  8
0
100
AcDbVertex
100
AcDb3dPolylineVertex
 10
1.219877016666667
 20
-1.9685
 30
-0.0000000000000001
 70
    32
  0
VERTEX
  5
7157
330
7155
100
AcDbEntity
  8
0
100
AcDbVertex
100
AcDb3dPolylineVertex
 10
1.219877016666667
 20
-2.103499999999999
 30
0.0
 70
    32
  0
VERTEX
  5
7158
330
7155
100
AcDbEntity
  8
0
100
AcDbVertex
100
AcDb3dPolylineVertex
 10
1.430543683333332
 20
-2.103499999999999
 30
0.0
 70
    32
  0
VERTEX
  5
7159
330
7155
100
AcDbEntity
  8
0
100
AcDbVertex
100
AcDb3dPolylineVertex
 10
1.430543683333332
 20
-1.9685
 30
-0.0000000000000001
 70
    32
  0
SEQEND
  5
715A
330
7155
100
AcDbEntity
  8
0
  0
POLYLINE
  5
715B
330
3B3DB
100
AcDbEntity
  8
0
100
AcDb3dPolyline
 66
     1
 10
0.0
 20
0.0
 30
0.0
 70
     8
  0
VERTEX
  5
715C
330
715B
100
AcDbEntity
  8
0
100
AcDbVertex
100
AcDb3dPolylineVertex
 10
1.492543683333333
 20
-1.9685
 30
-0.0000000000000001
 70
    32
  0
VERTEX
  5
715D
330
715B
100
AcDbEntity
  8
0
100
AcDbVertex
100
AcDb3dPolylineVertex
 10
1.492543683333333
 20
-2.103499999999999
 30
0.0
 70
    32
  0
VERTEX
  5
715E
330
715B
100
AcDbEntity
  8
0
100
AcDbVertex
100
AcDb3dPolylineVertex
 10
1.703210349999998
 20
-2.103499999999999
 30
0.0
 70
    32
  0
VERTEX
  5
715F
330
715B
100
AcDbEntity
  8
0
100
AcDbVertex
100
AcDb3dPolylineVertex
 10
1.703210349999998
 20
-1.9685
 30
-0.0000000000000001
 70
    32
  0
SEQEND
  5
7160
330
715B
100
AcDbEntity
  8
0
  0
POLYLINE
  5
7161
330
3B3DB
100
AcDbEntity
  8
0
100
AcDb3dPolyline
 66
     1
 10
0.0
 20
0.0
 30
0.0
 70
     8
  0
VERTEX
  5
7162
330
7161
100
AcDbEntity
  8
0
100
AcDbVertex
100
AcDb3dPolylineVertex
 10
0.8232103499999979
 20
0.5215000000000001
 30
-0.0000000000000001
 70
    32
  0
VERTEX
  5
7163
330
7161
100
AcDbEntity
  8
0
100
AcDbVertex
100
AcDb3dPolylineVertex
 10
0.8232103499999979
 20
0.6564999999999999
 30
0.0
 70
    32
  0
VERTEX
  5
7164
330
7161
100
AcDbEntity
  8
0
100
AcDbVertex
100
AcDb3dPolylineVertex
 10
0.6125436833333322
 20
0.6564999999999999
 30
0.0
 70
    32
  0
VERTEX
  5
7165
330
7161
100
AcDbEntity
  8
0
100
AcDbVertex
100
AcDb3dPolylineVertex
 10
0.6125436833333322
 20
0.5215000000000001
 30
-0.0000000000000001
 70
    32
  0
SEQEND
  5
7166
330
7161
100
AcDbEntity
  8
0
  0
POLYLINE
  5
7167
330
3B3DB
100
AcDbEntity
  8
0
100
AcDb3dPolyline
 66
     1
 10
0.0
 20
0.0
 30
0.0
 70
     8
  0
VERTEX
  5
7168
330
7167
100
AcDbEntity
  8
0
100
AcDbVertex
100
AcDb3dPolylineVertex
 10
0.550543683333332
 20
0.5215000000000001
 30
-0.0000000000000001
 70
    32
  0
VERTEX
  5
7169
330
7167
100
AcDbEntity
  8
0
100
AcDbVertex
100
AcDb3dPolylineVertex
 10
0.550543683333332
 20
0.6564999999999999
 30
0.0
 70
    32
  0
VERTEX
  5
716A
330
7167
100
AcDbEntity
  8
0
100
AcDbVertex
100
AcDb3dPolylineVertex
 10
0.3398770166666662
 20
0.6564999999999999
 30
0.0
 70
    32
  0
VERTEX
  5
716B
330
7167
100
AcDbEntity
  8
0
100
AcDbVertex
100
AcDb3dPolylineVertex
 10
0.3398770166666662
 20
0.5215000000000001
 30
-0.0000000000000001
 70
    32
  0
SEQEND
  5
716C
330
7167
100
AcDbEntity
  8
0
  0
POLYLINE
  5
716D
330
3B3DB
100
AcDbEntity
  8
0
100
AcDb3dPolyline
 66
     1
 10
0.0
 20
0.0
 30
0.0
 70
     8
  0
VERTEX
  5
716E
330
716D
100
AcDbEntity
  8
0
100
AcDbVertex
100
AcDb3dPolylineVertex
 10
0.2778770166666659
 20
0.5215000000000001
 30
-0.0000000000000001
 70
    32
  0
VERTEX
  5
716F
330
716D
100
AcDbEntity
  8
0
100
AcDbVertex
100
AcDb3dPolylineVertex
 10
0.2778770166666659
 20
0.6564999999999999
 30
0.0
 70
    32
  0
VERTEX
  5
7170
330
716D
100
AcDbEntity
  8
0
100
AcDbVertex
100
AcDb3dPolylineVertex
 10
0.0672103500000003
 20
0.6564999999999999
 30
0.0
 70
    32
  0
VERTEX
  5
7171
330
716D
100
AcDbEntity
  8
0
100
AcDbVertex
100
AcDb3dPolylineVertex
 10
0.0672103500000003
 20
0.5215000000000001
 30
-0.0000000000000001
 70
    32
  0
SEQEND
  5
7172
330
716D
100
AcDbEntity
  8
0
  0
LINE
  5
7173
330
3B3DB
100
AcDbEntity
  8
0
100
AcDbLine
 10
1.703210349999998
 20
-1.9685
 30
-0.0000000000000001
 11
1.492543683333333
 21
-1.9685
 31
-0.0000000000000001
  0
LINE
  5
7174
330
3B3DB
100
AcDbEntity
  8
0
100
AcDbLine
 10
1.430543683333332
 20
-1.9685
 30
-0.0000000000000001
 11
1.219877016666667
 21
-1.9685
 31
-0.0000000000000001
  0
LINE
  5
7175
330
3B3DB
100
AcDbEntity
  8
0
100
AcDbLine
 10
1.157877016666666
 20
-1.9685
 30
-0.0000000000000001
 11
0.947210350000002
 21
-1.9685
 31
-0.0000000000000001
  0
LINE
  5
7176
330
3B3DB
100
AcDbEntity
  8
0
100
AcDbLine
 10
0.8232103499999979
 20
0.5215000000000001
 30
-0.0000000000000001
 11
0.6125436833333322
 21
0.5215000000000001
 31
-0.0000000000000001
  0
LINE
  5
7177
330
3B3DB
100
AcDbEntity
  8
0
100
AcDbLine
 10
0.550543683333332
 20
0.5215000000000001
 30
-0.0000000000000001
 11
0.3398770166666662
 21
0.5215000000000001
 31
-0.0000000000000001
  0
LINE
  5
7178
330
3B3DB
100
AcDbEntity
  8
0
100
AcDbLine
 10
0.2778770166666659
 20
0.5215000000000001
 30
-0.0000000000000001
 11
0.0672103500000003
 21
0.5215000000000001
 31
-0.0000000000000001
  0
POLYLINE
  5
71B8
330
3B3DB
100
AcDbEntity
  8
0
100
AcDbPolygonMesh
 66
     1
 10
0.0
 20
0.0
 30
0.0
 70
    16
 71
     6
 72
     3
  0
VERTEX
  5
71B9
330
71B8
100
AcDbEntity
  8
0
100
AcDbVertex
100
AcDbPolygonMeshVertex
 10
0.90571035
 20
-1.985499999999999
 30
2.929
 70
    64
  0
VERTEX
  5
71BA
330
71B8
100
AcDbEntity
  8
0
100
AcDbVertex
100
AcDbPolygonMeshVertex
 10
0.90571035
 20
-1.985499999999999
 30
2.319
 70
    64
  0
VERTEX
  5
71BB
330
71B8
100
AcDbEntity
  8
0
100
AcDbVertex
100
AcDbPolygonMeshVertex
 10
0.90571035
 20
-1.985499999999999
 30
2.319
 70
    64
  0
VERTEX
  5
71BC
330
71B8
100
AcDbEntity
  8
0
100
AcDbVertex
100
AcDbPolygonMeshVertex
 10
0.8597103499999999
 20
-1.985499999999999
 30
2.929
 70
    64
  0
VERTEX
  5
71BD
330
71B8
100
AcDbEntity
  8
0
100
AcDbVertex
100
AcDbPolygonMeshVertex
 10
0.8597103499999999
 20
-1.985499999999999
 30
2.319
 70
    64
  0
VERTEX
  5
71BE
330
71B8
100
AcDbEntity
  8
0
100
AcDbVertex
100
AcDbPolygonMeshVertex
 10
0.8597103499999999
 20
-1.985499999999999
 30
2.319
 70
    64
  0
VERTEX
  5
71BF
330
71B8
100
AcDbEntity
  8
0
100
AcDbVertex
100
AcDbPolygonMeshVertex
 10
0.8597103499999999
 20
-1.845499999999999
 30
2.929
 70
    64
  0
VERTEX
  5
71C0
330
71B8
100
AcDbEntity
  8
0
100
AcDbVertex
100
AcDbPolygonMeshVertex
 10
0.8597103499999999
 20
-1.845499999999999
 30
2.319
 70
    64
  0
VERTEX
  5
71C1
330
71B8
100
AcDbEntity
  8
0
100
AcDbVertex
100
AcDbPolygonMeshVertex
 10
0.8597103499999999
 20
-1.985499999999999
 30
2.319
 70
    64
  0
VERTEX
  5
71C2
330
71B8
100
AcDbEntity
  8
0
100
AcDbVertex
100
AcDbPolygonMeshVertex
 10
0.90571035
 20
-1.845499999999999
 30
2.929
 70
    64
  0
VERTEX
  5
71C3
330
71B8
100
AcDbEntity
  8
0
100
AcDbVertex
100
AcDbPolygonMeshVertex
 10
0.90571035
 20
-1.845499999999999
 30
2.319
 70
    64
  0
VERTEX
  5
71C4
330
71B8
100
AcDbEntity
  8
0
100
AcDbVertex
100
AcDbPolygonMeshVertex
 10
0.90571035
 20
-1.985499999999999
 30
2.319
 70
    64
  0
VERTEX
  5
71C5
330
71B8
100
AcDbEntity
  8
0
100
AcDbVertex
100
AcDbPolygonMeshVertex
 10
0.90571035
 20
-1.845499999999999
 30
2.929
 70
    64
  0
VERTEX
  5
71C6
330
71B8
100
AcDbEntity
  8
0
100
AcDbVertex
100
AcDbPolygonMeshVertex
 10
0.90571035
 20
-1.845499999999999
 30
2.929
 70
    64
  0
VERTEX
  5
71C7
330
71B8
100
AcDbEntity
  8
0
100
AcDbVertex
100
AcDbPolygonMeshVertex
 10
0.90571035
 20
-1.985499999999999
 30
2.929
 70
    64
  0
VERTEX
  5
71C8
330
71B8
100
AcDbEntity
  8
0
100
AcDbVertex
100
AcDbPolygonMeshVertex
 10
0.8597103499999999
 20
-1.845499999999999
 30
2.929
 70
    64
  0
VERTEX
  5
71C9
330
71B8
100
AcDbEntity
  8
0
100
AcDbVertex
100
AcDbPolygonMeshVertex
 10
0.8597103499999999
 20
-1.845499999999999
 30
2.929
 70
    64
  0
VERTEX
  5
71CA
330
71B8
100
AcDbEntity
  8
0
100
AcDbVertex
100
AcDbPolygonMeshVertex
 10
0.8597103499999999
 20
-1.985499999999999
 30
2.929
 70
    64
  0
SEQEND
  5
71CB
330
71B8
100
AcDbEntity
  8
0
  0
POLYLINE
  5
71F8
330
3B3DB
100
AcDbEntity
  8
0
100
AcDbPolygonMesh
 66
     1
 10
0.0
 20
0.0
 30
0.0
 70
    16
 71
     6
 72
     3
  0
VERTEX
  5
71F9
330
71F8
100
AcDbEntity
  8
0
100
AcDbVertex
100
AcDbPolygonMeshVertex
 10
1.335460349999999
 20
-1.985499999999999
 30
2.929
 70
    64
  0
VERTEX
  5
71FA
330
71F8
100
AcDbEntity
  8
0
100
AcDbVertex
100
AcDbPolygonMeshVertex
 10
1.335460349999999
 20
-1.985499999999999
 30
2.319
 70
    64
  0
VERTEX
  5
71FB
330
71F8
100
AcDbEntity
  8
0
100
AcDbVertex
100
AcDbPolygonMeshVertex
 10
1.335460349999999
 20
-1.985499999999999
 30
2.319
 70
    64
  0
VERTEX
  5
71FC
330
71F8
100
AcDbEntity
  8
0
100
AcDbVertex
100
AcDbPolygonMeshVertex
 10
1.28946035
 20
-1.985499999999999
 30
2.929
 70
    64
  0
VERTEX
  5
71FD
330
71F8
100
AcDbEntity
  8
0
100
AcDbVertex
100
AcDbPolygonMeshVertex
 10
1.28946035
 20
-1.985499999999999
 30
2.319
 70
    64
  0
VERTEX
  5
71FE
330
71F8
100
AcDbEntity
  8
0
100
AcDbVertex
100
AcDbPolygonMeshVertex
 10
1.28946035
 20
-1.985499999999999
 30
2.319
 70
    64
  0
VERTEX
  5
71FF
330
71F8
100
AcDbEntity
  8
0
100
AcDbVertex
100
AcDbPolygonMeshVertex
 10
1.28946035
 20
-1.845499999999999
 30
2.929
 70
    64
  0
VERTEX
  5
7200
330
71F8
100
AcDbEntity
  8
0
100
AcDbVertex
100
AcDbPolygonMeshVertex
 10
1.28946035
 20
-1.845499999999999
 30
2.319
 70
    64
  0
VERTEX
  5
7201
330
71F8
100
AcDbEntity
  8
0
100
AcDbVertex
100
AcDbPolygonMeshVertex
 10
1.28946035
 20
-1.985499999999999
 30
2.319
 70
    64
  0
VERTEX
  5
7202
330
71F8
100
AcDbEntity
  8
0
100
AcDbVertex
100
AcDbPolygonMeshVertex
 10
1.335460349999999
 20
-1.845499999999999
 30
2.929
 70
    64
  0
VERTEX
  5
7203
330
71F8
100
AcDbEntity
  8
0
100
AcDbVertex
100
AcDbPolygonMeshVertex
 10
1.335460349999999
 20
-1.845499999999999
 30
2.319
 70
    64
  0
VERTEX
  5
7204
330
71F8
100
AcDbEntity
  8
0
100
AcDbVertex
100
AcDbPolygonMeshVertex
 10
1.335460349999999
 20
-1.985499999999999
 30
2.319
 70
    64
  0
VERTEX
  5
7205
330
71F8
100
AcDbEntity
  8
0
100
AcDbVertex
100
AcDbPolygonMeshVertex
 10
1.335460349999999
 20
-1.845499999999999
 30
2.929
 70
    64
  0
VERTEX
  5
7206
330
71F8
100
AcDbEntity
  8
0
100
AcDbVertex
100
AcDbPolygonMeshVertex
 10
1.335460349999999
 20
-1.845499999999999
 30
2.929
 70
    64
  0
VERTEX
  5
7207
330
71F8
100
AcDbEntity
  8
0
100
AcDbVertex
100
AcDbPolygonMeshVertex
 10
1.335460349999999
 20
-1.985499999999999
 30
2.929
 70
    64
  0
VERTEX
  5
7208
330
71F8
100
AcDbEntity
  8
0
100
AcDbVertex
100
AcDbPolygonMeshVertex
 10
1.28946035
 20
-1.845499999999999
 30
2.929
 70
    64
  0
VERTEX
  5
7209
330
71F8
100
AcDbEntity
  8
0
100
AcDbVertex
100
AcDbPolygonMeshVertex
 10
1.28946035
 20
-1.845499999999999
 30
2.929
 70
    64
  0
VERTEX
  5
720A
330
71F8
100
AcDbEntity
  8
0
100
AcDbVertex
100
AcDbPolygonMeshVertex
 10
1.28946035
 20
-1.985499999999999
 30
2.929
 70
    64
  0
SEQEND
  5
720B
330
71F8
100
AcDbEntity
  8
0
  0
POLYLINE
  5
7227
330
3B3DB
100
AcDbEntity
  8
0
100
AcDbPolygonMesh
 66
     1
 10
0.0
 20
0.0
 30
0.0
 70
    16
 71
     6
 72
     3
  0
VERTEX
  5
7228
330
7227
100
AcDbEntity
  8
0
100
AcDbVertex
100
AcDbPolygonMeshVertex
 10
1.719210349999999
 20
-2.057499999999999
 30
2.319
 70
    64
  0
VERTEX
  5
7229
330
7227
100
AcDbEntity
  8
0
100
AcDbVertex
100
AcDbPolygonMeshVertex
 10
1.719210349999999
 20
-2.057499999999999
 30
2.06
 70
    64
  0
VERTEX
  5
722A
330
7227
100
AcDbEntity
  8
0
100
AcDbVertex
100
AcDbPolygonMeshVertex
 10
1.719210349999999
 20
-2.057499999999999
 30
2.06
 70
    64
  0
VERTEX
  5
722B
330
7227
100
AcDbEntity
  8
0
100
AcDbVertex
100
AcDbPolygonMeshVertex
 10
0.0462103499999999
 20
-2.057499999999999
 30
2.319
 70
    64
  0
VERTEX
  5
722C
330
7227
100
AcDbEntity
  8
0
100
AcDbVertex
100
AcDbPolygonMeshVertex
 10
0.0462103499999999
 20
-2.057499999999999
 30
2.06
 70
    64
  0
VERTEX
  5
722D
330
7227
100
AcDbEntity
  8
0
100
AcDbVertex
100
AcDbPolygonMeshVertex
 10
0.0462103499999999
 20
-2.057499999999999
 30
2.06
 70
    64
  0
VERTEX
  5
722E
330
7227
100
AcDbEntity
  8
0
100
AcDbVertex
100
AcDbPolygonMeshVertex
 10
0.0462103499999999
 20
-1.845499999999999
 30
2.319
 70
    64
  0
VERTEX
  5
722F
330
7227
100
AcDbEntity
  8
0
100
AcDbVertex
100
AcDbPolygonMeshVertex
 10
0.0462103499999999
 20
-1.845499999999999
 30
2.06
 70
    64
  0
VERTEX
  5
7230
330
7227
100
AcDbEntity
  8
0
100
AcDbVertex
100
AcDbPolygonMeshVertex
 10
0.0462103499999999
 20
-2.057499999999999
 30
2.06
 70
    64
  0
VERTEX
  5
7231
330
7227
100
AcDbEntity
  8
0
100
AcDbVertex
100
AcDbPolygonMeshVertex
 10
1.719210349999999
 20
-1.845499999999999
 30
2.319
 70
    64
  0
VERTEX
  5
7232
330
7227
100
AcDbEntity
  8
0
100
AcDbVertex
100
AcDbPolygonMeshVertex
 10
1.719210349999999
 20
-1.845499999999999
 30
2.06
 70
    64
  0
VERTEX
  5
7233
330
7227
100
AcDbEntity
  8
0
100
AcDbVertex
100
AcDbPolygonMeshVertex
 10
1.719210349999999
 20
-2.057499999999999
 30
2.06
 70
    64
  0
VERTEX
  5
7234
330
7227
100
AcDbEntity
  8
0
100
AcDbVertex
100
AcDbPolygonMeshVertex
 10
1.719210349999999
 20
-1.845499999999999
 30
2.319
 70
    64
  0
VERTEX
  5
7235
330
7227
100
AcDbEntity
  8
0
100
AcDbVertex
100
AcDbPolygonMeshVertex
 10
1.719210349999999
 20
-1.845499999999999
 30
2.319
 70
    64
  0
VERTEX
  5
7236
330
7227
100
AcDbEntity
  8
0
100
AcDbVertex
100
AcDbPolygonMeshVertex
 10
1.719210349999999
 20
-2.057499999999999
 30
2.319
 70
    64
  0
VERTEX
  5
7237
330
7227
100
AcDbEntity
  8
0
100
AcDbVertex
100
AcDbPolygonMeshVertex
 10
0.0462103499999999
 20
-1.845499999999999
 30
2.319
 70
    64
  0
VERTEX
  5
7238
330
7227
100
AcDbEntity
  8
0
100
AcDbVertex
100
AcDbPolygonMeshVertex
 10
0.0462103499999999
 20
-1.845499999999999
 30
2.319
 70
    64
  0
VERTEX
  5
7239
330
7227
100
AcDbEntity
  8
0
100
AcDbVertex
100
AcDbPolygonMeshVertex
 10
0.0462103499999999
 20
-2.057499999999999
 30
2.319
 70
    64
  0
SEQEND
  5
723A
330
7227
100
AcDbEntity
  8
0
  0
POLYLINE
  5
725F
330
3B3DB
100
AcDbEntity
  8
0
100
AcDbPolygonMesh
 66
     1
 10
0.0
 20
0.0
 30
0.0
 70
    16
 71
     6
 72
     3
  0
VERTEX
  5
7260
330
725F
100
AcDbEntity
  8
0
100
AcDbVertex
100
AcDbPolygonMeshVertex
 10
1.765210349999999
 20
-1.9685
 30
2.06
 70
    64
  0
VERTEX
  5
7261
330
725F
100
AcDbEntity
  8
0
100
AcDbVertex
100
AcDbPolygonMeshVertex
 10
1.765210349999999
 20
-1.9685
 30
1.318
 70
    64
  0
VERTEX
  5
7262
330
725F
100
AcDbEntity
  8
0
100
AcDbVertex
100
AcDbPolygonMeshVertex
 10
1.765210349999999
 20
-1.9685
 30
1.318
 70
    64
  0
VERTEX
  5
7263
330
725F
100
AcDbEntity
  8
0
100
AcDbVertex
100
AcDbPolygonMeshVertex
 10
0.0002103500000001
 20
-1.9685
 30
2.06
 70
    64
  0
VERTEX
  5
7264
330
725F
100
AcDbEntity
  8
0
100
AcDbVertex
100
AcDbPolygonMeshVertex
 10
0.0002103500000001
 20
-1.9685
 30
1.318
 70
    64
  0
VERTEX
  5
7265
330
725F
100
AcDbEntity
  8
0
100
AcDbVertex
100
AcDbPolygonMeshVertex
 10
0.0002103500000001
 20
-1.9685
 30
1.318
 70
    64
  0
VERTEX
  5
7266
330
725F
100
AcDbEntity
  8
0
100
AcDbVertex
100
AcDbPolygonMeshVertex
 10
0.0002103500000001
 20
0.5215000000000001
 30
2.06
 70
    64
  0
VERTEX
  5
7267
330
725F
100
AcDbEntity
  8
0
100
AcDbVertex
100
AcDbPolygonMeshVertex
 10
0.0002103500000001
 20
0.5215000000000001
 30
1.318
 70
    64
  0
VERTEX
  5
7268
330
725F
100
AcDbEntity
  8
0
100
AcDbVertex
100
AcDbPolygonMeshVertex
 10
0.0002103500000001
 20
-1.9685
 30
1.318
 70
    64
  0
VERTEX
  5
7269
330
725F
100
AcDbEntity
  8
0
100
AcDbVertex
100
AcDbPolygonMeshVertex
 10
1.765210349999999
 20
0.5215000000000001
 30
2.06
 70
    64
  0
VERTEX
  5
726A
330
725F
100
AcDbEntity
  8
0
100
AcDbVertex
100
AcDbPolygonMeshVertex
 10
1.765210349999999
 20
0.5215000000000001
 30
1.318
 70
    64
  0
VERTEX
  5
726B
330
725F
100
AcDbEntity
  8
0
100
AcDbVertex
100
AcDbPolygonMeshVertex
 10
1.765210349999999
 20
-1.9685
 30
1.318
 70
    64
  0
VERTEX
  5
726C
330
725F
100
AcDbEntity
  8
0
100
AcDbVertex
100
AcDbPolygonMeshVertex
 10
1.765210349999999
 20
0.5215000000000001
 30
2.06
 70
    64
  0
VERTEX
  5
726D
330
725F
100
AcDbEntity
  8
0
100
AcDbVertex
100
AcDbPolygonMeshVertex
 10
1.765210349999999
 20
0.5215000000000001
 30
2.06
 70
    64
  0
VERTEX
  5
726E
330
725F
100
AcDbEntity
  8
0
100
AcDbVertex
100
AcDbPolygonMeshVertex
 10
1.765210349999999
 20
-1.9685
 30
2.06
 70
    64
  0
VERTEX
  5
726F
330
725F
100
AcDbEntity
  8
0
100
AcDbVertex
100
AcDbPolygonMeshVertex
 10
0.0002103500000001
 20
0.5215000000000001
 30
2.06
 70
    64
  0
VERTEX
  5
7270
330
725F
100
AcDbEntity
  8
0
100
AcDbVertex
100
AcDbPolygonMeshVertex
 10
0.0002103500000001
 20
0.5215000000000001
 30
2.06
 70
    64
  0
VERTEX
  5
7271
330
725F
100
AcDbEntity
  8
0
100
AcDbVertex
100
AcDbPolygonMeshVertex
 10
0.0002103500000001
 20
-1.9685
 30
2.06
 70
    64
  0
SEQEND
  5
7272
330
725F
100
AcDbEntity
  8
0
  0
POLYLINE
  5
7280
330
3B3DB
100
AcDbEntity
  8
0
100
AcDbPolygonMesh
 66
     1
 10
0.0
 20
0.0
 30
0.0
 70
    16
 71
     6
 72
     3
  0
VERTEX
  5
7281
330
7280
100
AcDbEntity
  8
0
100
AcDbVertex
100
AcDbPolygonMeshVertex
 10
0.4299603499999999
 20
-1.985499999999999
 30
2.929
 70
    64
  0
VERTEX
  5
7282
330
7280
100
AcDbEntity
  8
0
100
AcDbVertex
100
AcDbPolygonMeshVertex
 10
0.4299603499999999
 20
-1.985499999999999
 30
2.319
 70
    64
  0
VERTEX
  5
7283
330
7280
100
AcDbEntity
  8
0
100
AcDbVertex
100
AcDbPolygonMeshVertex
 10
0.4299603499999999
 20
-1.985499999999999
 30
2.319
 70
    64
  0
VERTEX
  5
7284
330
7280
100
AcDbEntity
  8
0
100
AcDbVertex
100
AcDbPolygonMeshVertex
 10
0.4759603499999998
 20
-1.985499999999999
 30
2.929
 70
    64
  0
VERTEX
  5
7285
330
7280
100
AcDbEntity
  8
0
100
AcDbVertex
100
AcDbPolygonMeshVertex
 10
0.4759603499999998
 20
-1.985499999999999
 30
2.319
 70
    64
  0
VERTEX
  5
7286
330
7280
100
AcDbEntity
  8
0
100
AcDbVertex
100
AcDbPolygonMeshVertex
 10
0.4759603499999998
 20
-1.985499999999999
 30
2.319
 70
    64
  0
VERTEX
  5
7287
330
7280
100
AcDbEntity
  8
0
100
AcDbVertex
100
AcDbPolygonMeshVertex
 10
0.4759603499999998
 20
-1.845499999999999
 30
2.929
 70
    64
  0
VERTEX
  5
7288
330
7280
100
AcDbEntity
  8
0
100
AcDbVertex
100
AcDbPolygonMeshVertex
 10
0.4759603499999998
 20
-1.845499999999999
 30
2.319
 70
    64
  0
VERTEX
  5
7289
330
7280
100
AcDbEntity
  8
0
100
AcDbVertex
100
AcDbPolygonMeshVertex
 10
0.4759603499999998
 20
-1.985499999999999
 30
2.319
 70
    64
  0
VERTEX
  5
728A
330
7280
100
AcDbEntity
  8
0
100
AcDbVertex
100
AcDbPolygonMeshVertex
 10
0.4299603499999999
 20
-1.845499999999999
 30
2.929
 70
    64
  0
VERTEX
  5
728B
330
7280
100
AcDbEntity
  8
0
100
AcDbVertex
100
AcDbPolygonMeshVertex
 10
0.4299603499999999
 20
-1.845499999999999
 30
2.319
 70
    64
  0
VERTEX
  5
728C
330
7280
100
AcDbEntity
  8
0
100
AcDbVertex
100
AcDbPolygonMeshVertex
 10
0.4299603499999999
 20
-1.985499999999999
 30
2.319
 70
    64
  0
VERTEX
  5
728D
330
7280
100
AcDbEntity
  8
0
100
AcDbVertex
100
AcDbPolygonMeshVertex
 10
0.4299603499999999
 20
-1.845499999999999
 30
2.929
 70
    64
  0
VERTEX
  5
728E
330
7280
100
AcDbEntity
  8
0
100
AcDbVertex
100
AcDbPolygonMeshVertex
 10
0.4299603499999999
 20
-1.845499999999999
 30
2.929
 70
    64
  0
VERTEX
  5
728F
330
7280
100
AcDbEntity
  8
0
100
AcDbVertex
100
AcDbPolygonMeshVertex
 10
0.4299603499999999
 20
-1.985499999999999
 30
2.929
 70
    64
  0
VERTEX
  5
7290
330
7280
100
AcDbEntity
  8
0
100
AcDbVertex
100
AcDbPolygonMeshVertex
 10
0.4759603499999998
 20
-1.845499999999999
 30
2.929
 70
    64
  0
VERTEX
  5
7291
330
7280
100
AcDbEntity
  8
0
100
AcDbVertex
100
AcDbPolygonMeshVertex
 10
0.4759603499999998
 20
-1.845499999999999
 30
2.929
 70
    64
  0
VERTEX
  5
7292
330
7280
100
AcDbEntity
  8
0
100
AcDbVertex
100
AcDbPolygonMeshVertex
 10
0.4759603499999998
 20
-1.985499999999999
 30
2.929
 70
    64
  0
SEQEND
  5
7293
330
7280
100
AcDbEntity
  8
0
  0
LINE
  5
7294
330
3B3DB
100
AcDbEntity
  8
0
100
AcDbLine
 10
0.90571035
 20
-1.845499999999999
 30
2.646
 11
1.28946035
 21
-1.845499999999999
 31
2.646
  0
LINE
  5
7295
330
3B3DB
100
AcDbEntity
  8
0
100
AcDbLine
 10
1.335460349999999
 20
-1.845499999999999
 30
2.646
 11
1.719210349999999
 21
-1.845499999999999
 31
2.646
  0
LINE
  5
7296
330
3B3DB
100
AcDbEntity
  8
0
100
AcDbLine
 10
0.4759603499999998
 20
-1.845499999999999
 30
2.646
 11
0.8597103499999999
 21
-1.845499999999999
 31
2.646
  0
LINE
  5
7297
330
3B3DB
100
AcDbEntity
  8
0
100
AcDbLine
 10
0.0462103500000004
 20
-1.845499999999999
 30
2.646
 11
0.4299603499999999
 21
-1.845499999999999
 31
2.646
  0
POLYLINE
  5
72AD
330
3B3DB
100
AcDbEntity
  8
0
100
AcDbPolygonMesh
 66
     1
 10
0.0
 20
0.0
 30
0.0
 70
    16
 71
     6
 72
     3
  0
VERTEX
  5
72AE
330
72AD
100
AcDbEntity
  8
0
100
AcDbVertex
100
AcDbPolygonMeshVertex
 10
0.0462103499999999
 20
-1.985499999999999
 30
2.929
 70
    64
  0
VERTEX
  5
72AF
330
72AD
100
AcDbEntity
  8
0
100
AcDbVertex
100
AcDbPolygonMeshVertex
 10
0.0462103499999999
 20
-1.985499999999999
 30
2.06
 70
    64
  0
VERTEX
  5
72B0
330
72AD
100
AcDbEntity
  8
0
100
AcDbVertex
100
AcDbPolygonMeshVertex
 10
0.0462103499999999
 20
-1.985499999999999
 30
2.06
 70
    64
  0
VERTEX
  5
72B1
330
72AD
100
AcDbEntity
  8
0
100
AcDbVertex
100
AcDbPolygonMeshVertex
 10
0.0002103500000001
 20
-1.985499999999999
 30
2.929
 70
    64
  0
VERTEX
  5
72B2
330
72AD
100
AcDbEntity
  8
0
100
AcDbVertex
100
AcDbPolygonMeshVertex
 10
0.0002103500000001
 20
-1.985499999999999
 30
2.06
 70
    64
  0
VERTEX
  5
72B3
330
72AD
100
AcDbEntity
  8
0
100
AcDbVertex
100
AcDbPolygonMeshVertex
 10
0.0002103500000001
 20
-1.985499999999999
 30
2.06
 70
    64
  0
VERTEX
  5
72B4
330
72AD
100
AcDbEntity
  8
0
100
AcDbVertex
100
AcDbPolygonMeshVertex
 10
0.0002103500000001
 20
-1.845499999999999
 30
2.929
 70
    64
  0
VERTEX
  5
72B5
330
72AD
100
AcDbEntity
  8
0
100
AcDbVertex
100
AcDbPolygonMeshVertex
 10
0.0002103500000001
 20
-1.845499999999999
 30
2.06
 70
    64
  0
VERTEX
  5
72B6
330
72AD
100
AcDbEntity
  8
0
100
AcDbVertex
100
AcDbPolygonMeshVertex
 10
0.0002103500000001
 20
-1.985499999999999
 30
2.06
 70
    64
  0
VERTEX
  5
72B7
330
72AD
100
AcDbEntity
  8
0
100
AcDbVertex
100
AcDbPolygonMeshVertex
 10
0.0462103499999999
 20
-1.845499999999999
 30
2.929
 70
    64
  0
VERTEX
  5
72B8
330
72AD
100
AcDbEntity
  8
0
100
AcDbVertex
100
AcDbPolygonMeshVertex
 10
0.0462103499999999
 20
-1.845499999999999
 30
2.06
 70
    64
  0
VERTEX
  5
72B9
330
72AD
100
AcDbEntity
  8
0
100
AcDbVertex
100
AcDbPolygonMeshVertex
 10
0.0462103499999999
 20
-1.985499999999999
 30
2.06
 70
    64
  0
VERTEX
  5
72BA
330
72AD
100
AcDbEntity
  8
0
100
AcDbVertex
100
AcDbPolygonMeshVertex
 10
0.0462103499999999
 20
-1.845499999999999
 30
2.929
 70
    64
  0
VERTEX
  5
72BB
330
72AD
100
AcDbEntity
  8
0
100
AcDbVertex
100
AcDbPolygonMeshVertex
 10
0.0462103499999999
 20
-1.845499999999999
 30
2.929
 70
    64
  0
VERTEX
  5
72BC
330
72AD
100
AcDbEntity
  8
0
100
AcDbVertex
100
AcDbPolygonMeshVertex
 10
0.0462103499999999
 20
-1.985499999999999
 30
2.929
 70
    64
  0
VERTEX
  5
72BD
330
72AD
100
AcDbEntity
  8
0
100
AcDbVertex
100
AcDbPolygonMeshVertex
 10
0.0002103500000001
 20
-1.845499999999999
 30
2.929
 70
    64
  0
VERTEX
  5
72BE
330
72AD
100
AcDbEntity
  8
0
100
AcDbVertex
100
AcDbPolygonMeshVertex
 10
0.0002103500000001
 20
-1.845499999999999
 30
2.929
 70
    64
  0
VERTEX
  5
72BF
330
72AD
100
AcDbEntity
  8
0
100
AcDbVertex
100
AcDbPolygonMeshVertex
 10
0.0002103500000001
 20
-1.985499999999999
 30
2.929
 70
    64
  0
SEQEND
  5
72C0
330
72AD
100
AcDbEntity
  8
0
  0
POLYLINE
  5
72C1
330
3B3DB
100
AcDbEntity
  8
0
100
AcDbPolygonMesh
 66
     1
 10
0.0
 20
0.0
 30
0.0
 70
    16
 71
     6
 72
     3
  0
VERTEX
  5
72C2
330
72C1
100
AcDbEntity
  8
0
100
AcDbVertex
100
AcDbPolygonMeshVertex
 10
1.765210349999999
 20
-1.985499999999999
 30
2.929
 70
    64
  0
VERTEX
  5
72C3
330
72C1
100
AcDbEntity
  8
0
100
AcDbVertex
100
AcDbPolygonMeshVertex
 10
1.765210349999999
 20
-1.985499999999999
 30
2.06
 70
    64
  0
VERTEX
  5
72C4
330
72C1
100
AcDbEntity
  8
0
100
AcDbVertex
100
AcDbPolygonMeshVertex
 10
1.765210349999999
 20
-1.985499999999999
 30
2.06
 70
    64
  0
VERTEX
  5
72C5
330
72C1
100
AcDbEntity
  8
0
100
AcDbVertex
100
AcDbPolygonMeshVertex
 10
1.719210349999999
 20
-1.985499999999999
 30
2.929
 70
    64
  0
VERTEX
  5
72C6
330
72C1
100
AcDbEntity
  8
0
100
AcDbVertex
100
AcDbPolygonMeshVertex
 10
1.719210349999999
 20
-1.985499999999999
 30
2.06
 70
    64
  0
VERTEX
  5
72C7
330
72C1
100
AcDbEntity
  8
0
100
AcDbVertex
100
AcDbPolygonMeshVertex
 10
1.719210349999999
 20
-1.985499999999999
 30
2.06
 70
    64
  0
VERTEX
  5
72C8
330
72C1
100
AcDbEntity
  8
0
100
AcDbVertex
100
AcDbPolygonMeshVertex
 10
1.719210349999999
 20
-1.845499999999999
 30
2.929
 70
    64
  0
VERTEX
  5
72C9
330
72C1
100
AcDbEntity
  8
0
100
AcDbVertex
100
AcDbPolygonMeshVertex
 10
1.719210349999999
 20
-1.845499999999999
 30
2.06
 70
    64
  0
VERTEX
  5
72CA
330
72C1
100
AcDbEntity
  8
0
100
AcDbVertex
100
AcDbPolygonMeshVertex
 10
1.719210349999999
 20
-1.985499999999999
 30
2.06
 70
    64
  0
VERTEX
  5
72CB
330
72C1
100
AcDbEntity
  8
0
100
AcDbVertex
100
AcDbPolygonMeshVertex
 10
1.765210349999999
 20
-1.845499999999999
 30
2.929
 70
    64
  0
VERTEX
  5
72CC
330
72C1
100
AcDbEntity
  8
0
100
AcDbVertex
100
AcDbPolygonMeshVertex
 10
1.765210349999999
 20
-1.845499999999999
 30
2.06
 70
    64
  0
VERTEX
  5
72CD
330
72C1
100
AcDbEntity
  8
0
100
AcDbVertex
100
AcDbPolygonMeshVertex
 10
1.765210349999999
 20
-1.985499999999999
 30
2.06
 70
    64
  0
VERTEX
  5
72CE
330
72C1
100
AcDbEntity
  8
0
100
AcDbVertex
100
AcDbPolygonMeshVertex
 10
1.765210349999999
 20
-1.845499999999999
 30
2.929
 70
    64
  0
VERTEX
  5
72CF
330
72C1
100
AcDbEntity
  8
0
100
AcDbVertex
100
AcDbPolygonMeshVertex
 10
1.765210349999999
 20
-1.845499999999999
 30
2.929
 70
    64
  0
VERTEX
  5
72D0
330
72C1
100
AcDbEntity
  8
0
100
AcDbVertex
100
AcDbPolygonMeshVertex
 10
1.765210349999999
 20
-1.985499999999999
 30
2.929
 70
    64
  0
VERTEX
  5
72D1
330
72C1
100
AcDbEntity
  8
0
100
AcDbVertex
100
AcDbPolygonMeshVertex
 10
1.719210349999999
 20
-1.845499999999999
 30
2.929
 70
    64
  0
VERTEX
  5
72D2
330
72C1
100
AcDbEntity
  8
0
100
AcDbVertex
100
AcDbPolygonMeshVertex
 10
1.719210349999999
 20
-1.845499999999999
 30
2.929
 70
    64
  0
VERTEX
  5
72D3
330
72C1
100
AcDbEntity
  8
0
100
AcDbVertex
100
AcDbPolygonMeshVertex
 10
1.719210349999999
 20
-1.985499999999999
 30
2.929
 70
    64
  0
SEQEND
  5
72D4
330
72C1
100
AcDbEntity
  8
0
  0
POLYLINE
  5
72D5
330
3B3DB
100
AcDbEntity
  8
0
100
AcDbPolygonMesh
 66
     1
 10
0.0
 20
0.0
 30
0.0
 70
    16
 71
     6
 72
     3
  0
VERTEX
  5
72D6
330
72D5
100
AcDbEntity
  8
0
100
AcDbVertex
100
AcDbPolygonMeshVertex
 10
1.765210349999999
 20
0.5384999999999996
 30
2.929
 70
    64
  0
VERTEX
  5
72D7
330
72D5
100
AcDbEntity
  8
0
100
AcDbVertex
100
AcDbPolygonMeshVertex
 10
1.765210349999999
 20
0.5384999999999996
 30
2.06
 70
    64
  0
VERTEX
  5
72D8
330
72D5
100
AcDbEntity
  8
0
100
AcDbVertex
100
AcDbPolygonMeshVertex
 10
1.765210349999999
 20
0.5384999999999996
 30
2.06
 70
    64
  0
VERTEX
  5
72D9
330
72D5
100
AcDbEntity
  8
0
100
AcDbVertex
100
AcDbPolygonMeshVertex
 10
1.719210349999999
 20
0.5384999999999996
 30
2.929
 70
    64
  0
VERTEX
  5
72DA
330
72D5
100
AcDbEntity
  8
0
100
AcDbVertex
100
AcDbPolygonMeshVertex
 10
1.719210349999999
 20
0.5384999999999996
 30
2.06
 70
    64
  0
VERTEX
  5
72DB
330
72D5
100
AcDbEntity
  8
0
100
AcDbVertex
100
AcDbPolygonMeshVertex
 10
1.719210349999999
 20
0.5384999999999996
 30
2.06
 70
    64
  0
VERTEX
  5
72DC
330
72D5
100
AcDbEntity
  8
0
100
AcDbVertex
100
AcDbPolygonMeshVertex
 10
1.719210349999999
 20
0.3984999999999994
 30
2.929
 70
    64
  0
VERTEX
  5
72DD
330
72D5
100
AcDbEntity
  8
0
100
AcDbVertex
100
AcDbPolygonMeshVertex
 10
1.719210349999999
 20
0.3984999999999994
 30
2.06
 70
    64
  0
VERTEX
  5
72DE
330
72D5
100
AcDbEntity
  8
0
100
AcDbVertex
100
AcDbPolygonMeshVertex
 10
1.719210349999999
 20
0.5384999999999996
 30
2.06
 70
    64
  0
VERTEX
  5
72DF
330
72D5
100
AcDbEntity
  8
0
100
AcDbVertex
100
AcDbPolygonMeshVertex
 10
1.765210349999999
 20
0.3984999999999994
 30
2.929
 70
    64
  0
VERTEX
  5
72E0
330
72D5
100
AcDbEntity
  8
0
100
AcDbVertex
100
AcDbPolygonMeshVertex
 10
1.765210349999999
 20
0.3984999999999994
 30
2.06
 70
    64
  0
VERTEX
  5
72E1
330
72D5
100
AcDbEntity
  8
0
100
AcDbVertex
100
AcDbPolygonMeshVertex
 10
1.765210349999999
 20
0.5384999999999996
 30
2.06
 70
    64
  0
VERTEX
  5
72E2
330
72D5
100
AcDbEntity
  8
0
100
AcDbVertex
100
AcDbPolygonMeshVertex
 10
1.765210349999999
 20
0.3984999999999994
 30
2.929
 70
    64
  0
VERTEX
  5
72E3
330
72D5
100
AcDbEntity
  8
0
100
AcDbVertex
100
AcDbPolygonMeshVertex
 10
1.765210349999999
 20
0.3984999999999994
 30
2.929
 70
    64
  0
VERTEX
  5
72E4
330
72D5
100
AcDbEntity
  8
0
100
AcDbVertex
100
AcDbPolygonMeshVertex
 10
1.765210349999999
 20
0.5384999999999996
 30
2.929
 70
    64
  0
VERTEX
  5
72E5
330
72D5
100
AcDbEntity
  8
0
100
AcDbVertex
100
AcDbPolygonMeshVertex
 10
1.719210349999999
 20
0.3984999999999994
 30
2.929
 70
    64
  0
VERTEX
  5
72E6
330
72D5
100
AcDbEntity
  8
0
100
AcDbVertex
100
AcDbPolygonMeshVertex
 10
1.719210349999999
 20
0.3984999999999994
 30
2.929
 70
    64
  0
VERTEX
  5
72E7
330
72D5
100
AcDbEntity
  8
0
100
AcDbVertex
100
AcDbPolygonMeshVertex
 10
1.719210349999999
 20
0.5384999999999996
 30
2.929
 70
    64
  0
SEQEND
  5
72E8
330
72D5
100
AcDbEntity
  8
0
  0
LINE
  5
72E9
330
3B3DB
100
AcDbEntity
  8
0
100
AcDbLine
 10
1.335460349999999
 20
0.3984999999999994
 30
2.646
 11
1.719210349999999
 21
0.3984999999999994
 31
2.646
  0
POLYLINE
  5
72EA
330
3B3DB
100
AcDbEntity
  8
0
100
AcDbPolygonMesh
 66
     1
 10
0.0
 20
0.0
 30
0.0
 70
    16
 71
     6
 72
     3
  0
VERTEX
  5
72EB
330
72EA
100
AcDbEntity
  8
0
100
AcDbVertex
100
AcDbPolygonMeshVertex
 10
1.335460349999999
 20
0.5384999999999996
 30
2.929
 70
    64
  0
VERTEX
  5
72EC
330
72EA
100
AcDbEntity
  8
0
100
AcDbVertex
100
AcDbPolygonMeshVertex
 10
1.335460349999999
 20
0.5384999999999996
 30
2.319
 70
    64
  0
VERTEX
  5
72ED
330
72EA
100
AcDbEntity
  8
0
100
AcDbVertex
100
AcDbPolygonMeshVertex
 10
1.335460349999999
 20
0.5384999999999996
 30
2.319
 70
    64
  0
VERTEX
  5
72EE
330
72EA
100
AcDbEntity
  8
0
100
AcDbVertex
100
AcDbPolygonMeshVertex
 10
1.28946035
 20
0.5384999999999996
 30
2.929
 70
    64
  0
VERTEX
  5
72EF
330
72EA
100
AcDbEntity
  8
0
100
AcDbVertex
100
AcDbPolygonMeshVertex
 10
1.28946035
 20
0.5384999999999996
 30
2.319
 70
    64
  0
VERTEX
  5
72F0
330
72EA
100
AcDbEntity
  8
0
100
AcDbVertex
100
AcDbPolygonMeshVertex
 10
1.28946035
 20
0.5384999999999996
 30
2.319
 70
    64
  0
VERTEX
  5
72F1
330
72EA
100
AcDbEntity
  8
0
100
AcDbVertex
100
AcDbPolygonMeshVertex
 10
1.28946035
 20
0.3984999999999994
 30
2.929
 70
    64
  0
VERTEX
  5
72F2
330
72EA
100
AcDbEntity
  8
0
100
AcDbVertex
100
AcDbPolygonMeshVertex
 10
1.28946035
 20
0.3984999999999994
 30
2.319
 70
    64
  0
VERTEX
  5
72F3
330
72EA
100
AcDbEntity
  8
0
100
AcDbVertex
100
AcDbPolygonMeshVertex
 10
1.28946035
 20
0.5384999999999996
 30
2.319
 70
    64
  0
VERTEX
  5
72F4
330
72EA
100
AcDbEntity
  8
0
100
AcDbVertex
100
AcDbPolygonMeshVertex
 10
1.335460349999999
 20
0.3984999999999994
 30
2.929
 70
    64
  0
VERTEX
  5
72F5
330
72EA
100
AcDbEntity
  8
0
100
AcDbVertex
100
AcDbPolygonMeshVertex
 10
1.335460349999999
 20
0.3984999999999994
 30
2.319
 70
    64
  0
VERTEX
  5
72F6
330
72EA
100
AcDbEntity
  8
0
100
AcDbVertex
100
AcDbPolygonMeshVertex
 10
1.335460349999999
 20
0.5384999999999996
 30
2.319
 70
    64
  0
VERTEX
  5
72F7
330
72EA
100
AcDbEntity
  8
0
100
AcDbVertex
100
AcDbPolygonMeshVertex
 10
1.335460349999999
 20
0.3984999999999994
 30
2.929
 70
    64
  0
VERTEX
  5
72F8
330
72EA
100
AcDbEntity
  8
0
100
AcDbVertex
100
AcDbPolygonMeshVertex
 10
1.335460349999999
 20
0.3984999999999994
 30
2.929
 70
    64
  0
VERTEX
  5
72F9
330
72EA
100
AcDbEntity
  8
0
100
AcDbVertex
100
AcDbPolygonMeshVertex
 10
1.335460349999999
 20
0.5384999999999996
 30
2.929
 70
    64
  0
VERTEX
  5
72FA
330
72EA
100
AcDbEntity
  8
0
100
AcDbVertex
100
AcDbPolygonMeshVertex
 10
1.28946035
 20
0.3984999999999994
 30
2.929
 70
    64
  0
VERTEX
  5
72FB
330
72EA
100
AcDbEntity
  8
0
100
AcDbVertex
100
AcDbPolygonMeshVertex
 10
1.28946035
 20
0.3984999999999994
 30
2.929
 70
    64
  0
VERTEX
  5
72FC
330
72EA
100
AcDbEntity
  8
0
100
AcDbVertex
100
AcDbPolygonMeshVertex
 10
1.28946035
 20
0.5384999999999996
 30
2.929
 70
    64
  0
SEQEND
  5
72FD
330
72EA
100
AcDbEntity
  8
0
  0
LINE
  5
72FE
330
3B3DB
100
AcDbEntity
  8
0
100
AcDbLine
 10
0.90571035
 20
0.3984999999999994
 30
2.646
 11
1.28946035
 21
0.3984999999999994
 31
2.646
  0
POLYLINE
  5
72FF
330
3B3DB
100
AcDbEntity
  8
0
100
AcDbPolygonMesh
 66
     1
 10
0.0
 20
0.0
 30
0.0
 70
    16
 71
     6
 72
     3
  0
VERTEX
  5
7300
330
72FF
100
AcDbEntity
  8
0
100
AcDbVertex
100
AcDbPolygonMeshVertex
 10
0.90571035
 20
0.5384999999999996
 30
2.929
 70
    64
  0
VERTEX
  5
7301
330
72FF
100
AcDbEntity
  8
0
100
AcDbVertex
100
AcDbPolygonMeshVertex
 10
0.90571035
 20
0.5384999999999996
 30
2.319
 70
    64
  0
VERTEX
  5
7302
330
72FF
100
AcDbEntity
  8
0
100
AcDbVertex
100
AcDbPolygonMeshVertex
 10
0.90571035
 20
0.5384999999999996
 30
2.319
 70
    64
  0
VERTEX
  5
7303
330
72FF
100
AcDbEntity
  8
0
100
AcDbVertex
100
AcDbPolygonMeshVertex
 10
0.8597103499999999
 20
0.5384999999999996
 30
2.929
 70
    64
  0
VERTEX
  5
7304
330
72FF
100
AcDbEntity
  8
0
100
AcDbVertex
100
AcDbPolygonMeshVertex
 10
0.8597103499999999
 20
0.5384999999999996
 30
2.319
 70
    64
  0
VERTEX
  5
7305
330
72FF
100
AcDbEntity
  8
0
100
AcDbVertex
100
AcDbPolygonMeshVertex
 10
0.8597103499999999
 20
0.5384999999999996
 30
2.319
 70
    64
  0
VERTEX
  5
7306
330
72FF
100
AcDbEntity
  8
0
100
AcDbVertex
100
AcDbPolygonMeshVertex
 10
0.8597103499999999
 20
0.3984999999999994
 30
2.929
 70
    64
  0
VERTEX
  5
7307
330
72FF
100
AcDbEntity
  8
0
100
AcDbVertex
100
AcDbPolygonMeshVertex
 10
0.8597103499999999
 20
0.3984999999999994
 30
2.319
 70
    64
  0
VERTEX
  5
7308
330
72FF
100
AcDbEntity
  8
0
100
AcDbVertex
100
AcDbPolygonMeshVertex
 10
0.8597103499999999
 20
0.5384999999999996
 30
2.319
 70
    64
  0
VERTEX
  5
7309
330
72FF
100
AcDbEntity
  8
0
100
AcDbVertex
100
AcDbPolygonMeshVertex
 10
0.90571035
 20
0.3984999999999994
 30
2.929
 70
    64
  0
VERTEX
  5
730A
330
72FF
100
AcDbEntity
  8
0
100
AcDbVertex
100
AcDbPolygonMeshVertex
 10
0.90571035
 20
0.3984999999999994
 30
2.319
 70
    64
  0
VERTEX
  5
730B
330
72FF
100
AcDbEntity
  8
0
100
AcDbVertex
100
AcDbPolygonMeshVertex
 10
0.90571035
 20
0.5384999999999996
 30
2.319
 70
    64
  0
VERTEX
  5
730C
330
72FF
100
AcDbEntity
  8
0
100
AcDbVertex
100
AcDbPolygonMeshVertex
 10
0.90571035
 20
0.3984999999999994
 30
2.929
 70
    64
  0
VERTEX
  5
730D
330
72FF
100
AcDbEntity
  8
0
100
AcDbVertex
100
AcDbPolygonMeshVertex
 10
0.90571035
 20
0.3984999999999994
 30
2.929
 70
    64
  0
VERTEX
  5
730E
330
72FF
100
AcDbEntity
  8
0
100
AcDbVertex
100
AcDbPolygonMeshVertex
 10
0.90571035
 20
0.5384999999999996
 30
2.929
 70
    64
  0
VERTEX
  5
730F
330
72FF
100
AcDbEntity
  8
0
100
AcDbVertex
100
AcDbPolygonMeshVertex
 10
0.8597103499999999
 20
0.3984999999999994
 30
2.929
 70
    64
  0
VERTEX
  5
7310
330
72FF
100
AcDbEntity
  8
0
100
AcDbVertex
100
AcDbPolygonMeshVertex
 10
0.8597103499999999
 20
0.3984999999999994
 30
2.929
 70
    64
  0
VERTEX
  5
7311
330
72FF
100
AcDbEntity
  8
0
100
AcDbVertex
100
AcDbPolygonMeshVertex
 10
0.8597103499999999
 20
0.5384999999999996
 30
2.929
 70
    64
  0
SEQEND
  5
7312
330
72FF
100
AcDbEntity
  8
0
  0
POLYLINE
  5
7313
330
3B3DB
100
AcDbEntity
  8
0
100
AcDbPolygonMesh
 66
     1
 10
0.0
 20
0.0
 30
0.0
 70
    16
 71
     6
 72
     3
  0
VERTEX
  5
7314
330
7313
100
AcDbEntity
  8
0
100
AcDbVertex
100
AcDbPolygonMeshVertex
 10
0.4299603499999999
 20
0.5384999999999996
 30
2.929
 70
    64
  0
VERTEX
  5
7315
330
7313
100
AcDbEntity
  8
0
100
AcDbVertex
100
AcDbPolygonMeshVertex
 10
0.4299603499999999
 20
0.5384999999999996
 30
2.319
 70
    64
  0
VERTEX
  5
7316
330
7313
100
AcDbEntity
  8
0
100
AcDbVertex
100
AcDbPolygonMeshVertex
 10
0.4299603499999999
 20
0.5384999999999996
 30
2.319
 70
    64
  0
VERTEX
  5
7317
330
7313
100
AcDbEntity
  8
0
100
AcDbVertex
100
AcDbPolygonMeshVertex
 10
0.4759603499999998
 20
0.5384999999999996
 30
2.929
 70
    64
  0
VERTEX
  5
7318
330
7313
100
AcDbEntity
  8
0
100
AcDbVertex
100
AcDbPolygonMeshVertex
 10
0.4759603499999998
 20
0.5384999999999996
 30
2.319
 70
    64
  0
VERTEX
  5
7319
330
7313
100
AcDbEntity
  8
0
100
AcDbVertex
100
AcDbPolygonMeshVertex
 10
0.4759603499999998
 20
0.5384999999999996
 30
2.319
 70
    64
  0
VERTEX
  5
731A
330
7313
100
AcDbEntity
  8
0
100
AcDbVertex
100
AcDbPolygonMeshVertex
 10
0.4759603499999998
 20
0.3984999999999994
 30
2.929
 70
    64
  0
VERTEX
  5
731B
330
7313
100
AcDbEntity
  8
0
100
AcDbVertex
100
AcDbPolygonMeshVertex
 10
0.4759603499999998
 20
0.3984999999999994
 30
2.319
 70
    64
  0
VERTEX
  5
731C
330
7313
100
AcDbEntity
  8
0
100
AcDbVertex
100
AcDbPolygonMeshVertex
 10
0.4759603499999998
 20
0.5384999999999996
 30
2.319
 70
    64
  0
VERTEX
  5
731D
330
7313
100
AcDbEntity
  8
0
100
AcDbVertex
100
AcDbPolygonMeshVertex
 10
0.4299603499999999
 20
0.3984999999999994
 30
2.929
 70
    64
  0
VERTEX
  5
731E
330
7313
100
AcDbEntity
  8
0
100
AcDbVertex
100
AcDbPolygonMeshVertex
 10
0.4299603499999999
 20
0.3984999999999994
 30
2.319
 70
    64
  0
VERTEX
  5
731F
330
7313
100
AcDbEntity
  8
0
100
AcDbVertex
100
AcDbPolygonMeshVertex
 10
0.4299603499999999
 20
0.5384999999999996
 30
2.319
 70
    64
  0
VERTEX
  5
7320
330
7313
100
AcDbEntity
  8
0
100
AcDbVertex
100
AcDbPolygonMeshVertex
 10
0.4299603499999999
 20
0.3984999999999994
 30
2.929
 70
    64
  0
VERTEX
  5
7321
330
7313
100
AcDbEntity
  8
0
100
AcDbVertex
100
AcDbPolygonMeshVertex
 10
0.4299603499999999
 20
0.3984999999999994
 30
2.929
 70
    64
  0
VERTEX
  5
7322
330
7313
100
AcDbEntity
  8
0
100
AcDbVertex
100
AcDbPolygonMeshVertex
 10
0.4299603499999999
 20
0.5384999999999996
 30
2.929
 70
    64
  0
VERTEX
  5
7323
330
7313
100
AcDbEntity
  8
0
100
AcDbVertex
100
AcDbPolygonMeshVertex
 10
0.4759603499999998
 20
0.3984999999999994
 30
2.929
 70
    64
  0
VERTEX
  5
7324
330
7313
100
AcDbEntity
  8
0
100
AcDbVertex
100
AcDbPolygonMeshVertex
 10
0.4759603499999998
 20
0.3984999999999994
 30
2.929
 70
    64
  0
VERTEX
  5
7325
330
7313
100
AcDbEntity
  8
0
100
AcDbVertex
100
AcDbPolygonMeshVertex
 10
0.4759603499999998
 20
0.5384999999999996
 30
2.929
 70
    64
  0
SEQEND
  5
7326
330
7313
100
AcDbEntity
  8
0
  0
LINE
  5
7327
330
3B3DB
100
AcDbEntity
  8
0
100
AcDbLine
 10
0.0462103500000004
 20
0.3984999999999994
 30
2.646
 11
0.4299603499999999
 21
0.3984999999999994
 31
2.646
  0
LINE
  5
7328
330
3B3DB
100
AcDbEntity
  8
0
100
AcDbLine
 10
0.4759603499999998
 20
0.3984999999999994
 30
2.646
 11
0.8597103499999999
 21
0.3984999999999994
 31
2.646
  0
POLYLINE
  5
7329
330
3B3DB
100
AcDbEntity
  8
0
100
AcDbPolygonMesh
 66
     1
 10
0.0
 20
0.0
 30
0.0
 70
    16
 71
     6
 72
     3
  0
VERTEX
  5
732A
330
7329
100
AcDbEntity
  8
0
100
AcDbVertex
100
AcDbPolygonMeshVertex
 10
0.0462103499999999
 20
0.5384999999999996
 30
2.929
 70
    64
  0
VERTEX
  5
732B
330
7329
100
AcDbEntity
  8
0
100
AcDbVertex
100
AcDbPolygonMeshVertex
 10
0.0462103499999999
 20
0.5384999999999996
 30
2.06
 70
    64
  0
VERTEX
  5
732C
330
7329
100
AcDbEntity
  8
0
100
AcDbVertex
100
AcDbPolygonMeshVertex
 10
0.0462103499999999
 20
0.5384999999999996
 30
2.06
 70
    64
  0
VERTEX
  5
732D
330
7329
100
AcDbEntity
  8
0
100
AcDbVertex
100
AcDbPolygonMeshVertex
 10
0.0002103500000001
 20
0.5384999999999996
 30
2.929
 70
    64
  0
VERTEX
  5
732E
330
7329
100
AcDbEntity
  8
0
100
AcDbVertex
100
AcDbPolygonMeshVertex
 10
0.0002103500000001
 20
0.5384999999999996
 30
2.06
 70
    64
  0
VERTEX
  5
732F
330
7329
100
AcDbEntity
  8
0
100
AcDbVertex
100
AcDbPolygonMeshVertex
 10
0.0002103500000001
 20
0.5384999999999996
 30
2.06
 70
    64
  0
VERTEX
  5
7330
330
7329
100
AcDbEntity
  8
0
100
AcDbVertex
100
AcDbPolygonMeshVertex
 10
0.0002103500000001
 20
0.3984999999999994
 30
2.929
 70
    64
  0
VERTEX
  5
7331
330
7329
100
AcDbEntity
  8
0
100
AcDbVertex
100
AcDbPolygonMeshVertex
 10
0.0002103500000001
 20
0.3984999999999994
 30
2.06
 70
    64
  0
VERTEX
  5
7332
330
7329
100
AcDbEntity
  8
0
100
AcDbVertex
100
AcDbPolygonMeshVertex
 10
0.0002103500000001
 20
0.5384999999999996
 30
2.06
 70
    64
  0
VERTEX
  5
7333
330
7329
100
AcDbEntity
  8
0
100
AcDbVertex
100
AcDbPolygonMeshVertex
 10
0.0462103499999999
 20
0.3984999999999994
 30
2.929
 70
    64
  0
VERTEX
  5
7334
330
7329
100
AcDbEntity
  8
0
100
AcDbVertex
100
AcDbPolygonMeshVertex
 10
0.0462103499999999
 20
0.3984999999999994
 30
2.06
 70
    64
  0
VERTEX
  5
7335
330
7329
100
AcDbEntity
  8
0
100
AcDbVertex
100
AcDbPolygonMeshVertex
 10
0.0462103499999999
 20
0.5384999999999996
 30
2.06
 70
    64
  0
VERTEX
  5
7336
330
7329
100
AcDbEntity
  8
0
100
AcDbVertex
100
AcDbPolygonMeshVertex
 10
0.0462103499999999
 20
0.3984999999999994
 30
2.929
 70
    64
  0
VERTEX
  5
7337
330
7329
100
AcDbEntity
  8
0
100
AcDbVertex
100
AcDbPolygonMeshVertex
 10
0.0462103499999999
 20
0.3984999999999994
 30
2.929
 70
    64
  0
VERTEX
  5
7338
330
7329
100
AcDbEntity
  8
0
100
AcDbVertex
100
AcDbPolygonMeshVertex
 10
0.0462103499999999
 20
0.5384999999999996
 30
2.929
 70
    64
  0
VERTEX
  5
7339
330
7329
100
AcDbEntity
  8
0
100
AcDbVertex
100
AcDbPolygonMeshVertex
 10
0.0002103500000001
 20
0.3984999999999994
 30
2.929
 70
    64
  0
VERTEX
  5
733A
330
7329
100
AcDbEntity
  8
0
100
AcDbVertex
100
AcDbPolygonMeshVertex
 10
0.0002103500000001
 20
0.3984999999999994
 30
2.929
 70
    64
  0
VERTEX
  5
733B
330
7329
100
AcDbEntity
  8
0
100
AcDbVertex
100
AcDbPolygonMeshVertex
 10
0.0002103500000001
 20
0.5384999999999996
 30
2.929
 70
    64
  0
SEQEND
  5
733C
330
7329
100
AcDbEntity
  8
0
  0
POLYLINE
  5
733D
330
3B3DB
100
AcDbEntity
  8
0
100
AcDbPolygonMesh
 66
     1
 10
0.0
 20
0.0
 30
0.0
 70
    16
 71
     6
 72
     3
  0
VERTEX
  5
733E
330
733D
100
AcDbEntity
  8
0
100
AcDbVertex
100
AcDbPolygonMeshVertex
 10
1.719210349999999
 20
0.6104999999999992
 30
2.319
 70
    64
  0
VERTEX
  5
733F
330
733D
100
AcDbEntity
  8
0
100
AcDbVertex
100
AcDbPolygonMeshVertex
 10
1.719210349999999
 20
0.6104999999999992
 30
2.06
 70
    64
  0
VERTEX
  5
7340
330
733D
100
AcDbEntity
  8
0
100
AcDbVertex
100
AcDbPolygonMeshVertex
 10
1.719210349999999
 20
0.6104999999999992
 30
2.06
 70
    64
  0
VERTEX
  5
7341
330
733D
100
AcDbEntity
  8
0
100
AcDbVertex
100
AcDbPolygonMeshVertex
 10
0.0462103499999999
 20
0.6104999999999992
 30
2.319
 70
    64
  0
VERTEX
  5
7342
330
733D
100
AcDbEntity
  8
0
100
AcDbVertex
100
AcDbPolygonMeshVertex
 10
0.0462103499999999
 20
0.6104999999999992
 30
2.06
 70
    64
  0
VERTEX
  5
7343
330
733D
100
AcDbEntity
  8
0
100
AcDbVertex
100
AcDbPolygonMeshVertex
 10
0.0462103499999999
 20
0.6104999999999992
 30
2.06
 70
    64
  0
VERTEX
  5
7344
330
733D
100
AcDbEntity
  8
0
100
AcDbVertex
100
AcDbPolygonMeshVertex
 10
0.0462103499999999
 20
0.3984999999999994
 30
2.319
 70
    64
  0
VERTEX
  5
7345
330
733D
100
AcDbEntity
  8
0
100
AcDbVertex
100
AcDbPolygonMeshVertex
 10
0.0462103499999999
 20
0.3984999999999994
 30
2.06
 70
    64
  0
VERTEX
  5
7346
330
733D
100
AcDbEntity
  8
0
100
AcDbVertex
100
AcDbPolygonMeshVertex
 10
0.0462103499999999
 20
0.6104999999999992
 30
2.06
 70
    64
  0
VERTEX
  5
7347
330
733D
100
AcDbEntity
  8
0
100
AcDbVertex
100
AcDbPolygonMeshVertex
 10
1.719210349999999
 20
0.3984999999999994
 30
2.319
 70
    64
  0
VERTEX
  5
7348
330
733D
100
AcDbEntity
  8
0
100
AcDbVertex
100
AcDbPolygonMeshVertex
 10
1.719210349999999
 20
0.3984999999999994
 30
2.06
 70
    64
  0
VERTEX
  5
7349
330
733D
100
AcDbEntity
  8
0
100
AcDbVertex
100
AcDbPolygonMeshVertex
 10
1.719210349999999
 20
0.6104999999999992
 30
2.06
 70
    64
  0
VERTEX
  5
734A
330
733D
100
AcDbEntity
  8
0
100
AcDbVertex
100
AcDbPolygonMeshVertex
 10
1.719210349999999
 20
0.3984999999999994
 30
2.319
 70
    64
  0
VERTEX
  5
734B
330
733D
100
AcDbEntity
  8
0
100
AcDbVertex
100
AcDbPolygonMeshVertex
 10
1.719210349999999
 20
0.3984999999999994
 30
2.319
 70
    64
  0
VERTEX
  5
734C
330
733D
100
AcDbEntity
  8
0
100
AcDbVertex
100
AcDbPolygonMeshVertex
 10
1.719210349999999
 20
0.6104999999999992
 30
2.319
 70
    64
  0
VERTEX
  5
734D
330
733D
100
AcDbEntity
  8
0
100
AcDbVertex
100
AcDbPolygonMeshVertex
 10
0.0462103499999999
 20
0.3984999999999994
 30
2.319
 70
    64
  0
VERTEX
  5
734E
330
733D
100
AcDbEntity
  8
0
100
AcDbVertex
100
AcDbPolygonMeshVertex
 10
0.0462103499999999
 20
0.3984999999999994
 30
2.319
 70
    64
  0
VERTEX
  5
734F
330
733D
100
AcDbEntity
  8
0
100
AcDbVertex
100
AcDbPolygonMeshVertex
 10
0.0462103499999999
 20
0.6104999999999992
 30
2.319
 70
    64
  0
SEQEND
  5
7350
330
733D
100
AcDbEntity
  8
0
  0
TEXT
  5
7375
330
3B3DB
100
AcDbEntity
  8
0
100
AcDbText
 39
0.0000001
 10
0.3648474264473056
 20
0.8545823768176784
 30
2.06
 40
0.0834654981097751
  1
A1
100
AcDbText
  0
TEXT
  5
7376
330
3B3DB
100
AcDbEntity
  8
0
100
AcDbText
 39
0.0000001
 10
1.285827712457554
 20
0.8537405107118321
 30
2.06
 40
0.0834654981097751
  1
A2
100
AcDbText
  0
LINE
  5
1D367
330
3B3DB
100
AcDbEntity
  8
0
100
AcDbLine
 10
0.652933741696637
 20
-1.9685
 30
-0.0000000000000003
 11
0.8636004083633036
 21
-1.9685
 31
-0.0000000000000003
  0
POLYLINE
  5
1D368
330
3B3DB
100
AcDbEntity
  8
0
100
AcDb3dPolyline
 66
     1
 10
0.0
 20
0.0
 30
0.0
 70
     8
  0
VERTEX
  5
1D369
330
1D368
100
AcDbEntity
  8
0
100
AcDbVertex
100
AcDb3dPolylineVertex
 10
0.652933741696637
 20
-1.9685
 30
-0.0000000000000003
 70
    32
  0
VERTEX
  5
1D36A
330
1D368
100
AcDbEntity
  8
0
100
AcDbVertex
100
AcDb3dPolylineVertex
 10
0.652933741696637
 20
-2.103499999999999
 30
-0.0000000000000002
 70
    32
  0
VERTEX
  5
1D36B
330
1D368
100
AcDbEntity
  8
0
100
AcDbVertex
100
AcDb3dPolylineVertex
 10
0.8636004083633036
 20
-2.103499999999999
 30
-0.0000000000000002
 70
    32
  0
VERTEX
  5
1D36C
330
1D368
100
AcDbEntity
  8
0
100
AcDbVertex
100
AcDb3dPolylineVertex
 10
0.8636004083633036
 20
-1.9685
 30
-0.0000000000000003
 70
    32
  0
SEQEND
  5
1D36D
330
1D368
100
AcDbEntity
  8
0
  0
POLYLINE
  5
1D36E
330
3B3DB
100
AcDbEntity
  8
0
100
AcDb3dPolyline
 66
     1
 10
0.0
 20
0.0
 30
0.0
 70
     8
  0
VERTEX
  5
1D36F
330
1D36E
100
AcDbEntity
  8
0
100
AcDbVertex
100
AcDb3dPolylineVertex
 10
0.5811430580663411
 20
-1.9685
 30
0.1869999999999998
 70
    32
  0
VERTEX
  5
1D370
330
1D36E
100
AcDbEntity
  8
0
100
AcDbVertex
100
AcDb3dPolylineVertex
 10
0.5811430580663411
 20
-2.103499999999999
 30
0.1869999999999998
 70
    32
  0
VERTEX
  5
1D371
330
1D36E
100
AcDbEntity
  8
0
100
AcDbVertex
100
AcDb3dPolylineVertex
 10
0.7918097247330076
 20
-2.103499999999999
 30
0.1869999999999998
 70
    32
  0
VERTEX
  5
1D372
330
1D36E
100
AcDbEntity
  8
0
100
AcDbVertex
100
AcDb3dPolylineVertex
 10
0.7918097247330076
 20
-1.9685
 30
0.1869999999999998
 70
    32
  0
SEQEND
  5
1D373
330
1D36E
100
AcDbEntity
  8
0
  0
POLYLINE
  5
1D374
330
3B3DB
100
AcDbEntity
  8
0
100
AcDbPolygonMesh
 66
     1
 10
0.0
 20
0.0
 30
0.0
 70
    16
 71
     6
 72
     3
  0
VERTEX
  5
1D375
330
1D374
100
AcDbEntity
  8
0
100
AcDbVertex
100
AcDbPolygonMeshVertex
 10
0.8538097247330069
 20
-2.1655
 30
0.1869999999999998
 70
    64
  0
VERTEX
  5
1D376
330
1D374
100
AcDbEntity
  8
0
100
AcDbVertex
100
AcDbPolygonMeshVertex
 10
0.8538097247330069
 20
-2.1655
 30
0.0
 70
    64
  0
VERTEX
  5
1D377
330
1D374
100
AcDbEntity
  8
0
100
AcDbVertex
100
AcDbPolygonMeshVertex
 10
0.8538097247330069
 20
-2.1655
 30
0.0
 70
    64
  0
VERTEX
  5
1D378
330
1D374
100
AcDbEntity
  8
0
100
AcDbVertex
100
AcDbPolygonMeshVertex
 10
0.2464763913996739
 20
-2.1655
 30
0.1869999999999998
 70
    64
  0
VERTEX
  5
1D379
330
1D374
100
AcDbEntity
  8
0
100
AcDbVertex
100
AcDbPolygonMeshVertex
 10
0.2464763913996739
 20
-2.1655
 30
0.0
 70
    64
  0
VERTEX
  5
1D37A
330
1D374
100
AcDbEntity
  8
0
100
AcDbVertex
100
AcDbPolygonMeshVertex
 10
0.2464763913996739
 20
-2.1655
 30
0.0
 70
    64
  0
VERTEX
  5
1D37B
330
1D374
100
AcDbEntity
  8
0
100
AcDbVertex
100
AcDbPolygonMeshVertex
 10
0.2464763913996739
 20
-2.103499999999999
 30
0.1869999999999998
 70
    64
  0
VERTEX
  5
1D37C
330
1D374
100
AcDbEntity
  8
0
100
AcDbVertex
100
AcDbPolygonMeshVertex
 10
0.2464763913996739
 20
-2.103499999999999
 30
0.0
 70
    64
  0
VERTEX
  5
1D37D
330
1D374
100
AcDbEntity
  8
0
100
AcDbVertex
100
AcDbPolygonMeshVertex
 10
0.2464763913996739
 20
-2.1655
 30
0.0
 70
    64
  0
VERTEX
  5
1D37E
330
1D374
100
AcDbEntity
  8
0
100
AcDbVertex
100
AcDbPolygonMeshVertex
 10
0.8538097247330069
 20
-2.103499999999999
 30
0.1869999999999998
 70
    64
  0
VERTEX
  5
1D37F
330
1D374
100
AcDbEntity
  8
0
100
AcDbVertex
100
AcDbPolygonMeshVertex
 10
0.8538097247330069
 20
-2.103499999999999
 30
0.0
 70
    64
  0
VERTEX
  5
1D380
330
1D374
100
AcDbEntity
  8
0
100
AcDbVertex
100
AcDbPolygonMeshVertex
 10
0.8538097247330069
 20
-2.1655
 30
0.0
 70
    64
  0
VERTEX
  5
1D381
330
1D374
100
AcDbEntity
  8
0
100
AcDbVertex
100
AcDbPolygonMeshVertex
 10
0.8538097247330069
 20
-2.103499999999999
 30
0.1869999999999998
 70
    64
  0
VERTEX
  5
1D382
330
1D374
100
AcDbEntity
  8
0
100
AcDbVertex
100
AcDbPolygonMeshVertex
 10
0.8538097247330069
 20
-2.103499999999999
 30
0.1869999999999998
 70
    64
  0
VERTEX
  5
1D383
330
1D374
100
AcDbEntity
  8
0
100
AcDbVertex
100
AcDbPolygonMeshVertex
 10
0.8538097247330069
 20
-2.1655
 30
0.1869999999999998
 70
    64
  0
VERTEX
  5
1D384
330
1D374
100
AcDbEntity
  8
0
100
AcDbVertex
100
AcDbPolygonMeshVertex
 10
0.2464763913996739
 20
-2.103499999999999
 30
0.1869999999999998
 70
    64
  0
VERTEX
  5
1D385
330
1D374
100
AcDbEntity
  8
0
100
AcDbVertex
100
AcDbPolygonMeshVertex
 10
0.2464763913996739
 20
-2.103499999999999
 30
0.1869999999999998
 70
    64
  0
VERTEX
  5
1D386
330
1D374
100
AcDbEntity
  8
0
100
AcDbVertex
100
AcDbPolygonMeshVertex
 10
0.2464763913996739
 20
-2.1655
 30
0.1869999999999998
 70
    64
  0
SEQEND
  5
1D387
330
1D374
100
AcDbEntity
  8
0
  0
POLYLINE
  5
1D389
330
3B3DB
100
AcDbEntity
  8
0
100
AcDbPolygonMesh
 66
     1
 10
0.0
 20
0.0
 30
0.0
 70
    16
 71
     6
 72
     3
  0
VERTEX
  5
1D38A
330
1D389
100
AcDbEntity
  8
0
100
AcDbVertex
100
AcDbPolygonMeshVertex
 10
0.8538097247330069
 20
-2.103499999999999
 30
0.1869999999999998
 70
    64
  0
VERTEX
  5
1D38B
330
1D389
100
AcDbEntity
  8
0
100
AcDbVertex
100
AcDbPolygonMeshVertex
 10
0.8538097247330069
 20
-2.103499999999999
 30
0.0
 70
    64
  0
VERTEX
  5
1D38C
330
1D389
100
AcDbEntity
  8
0
100
AcDbVertex
100
AcDbPolygonMeshVertex
 10
0.8538097247330069
 20
-2.103499999999999
 30
0.0
 70
    64
  0
VERTEX
  5
1D38D
330
1D389
100
AcDbEntity
  8
0
100
AcDbVertex
100
AcDbPolygonMeshVertex
 10
0.5191430580663417
 20
-2.103499999999999
 30
0.1869999999999998
 70
    64
  0
VERTEX
  5
1D38E
330
1D389
100
AcDbEntity
  8
0
100
AcDbVertex
100
AcDbPolygonMeshVertex
 10
0.5191430580663417
 20
-2.103499999999999
 30
0.0
 70
    64
  0
VERTEX
  5
1D38F
330
1D389
100
AcDbEntity
  8
0
100
AcDbVertex
100
AcDbPolygonMeshVertex
 10
0.5191430580663417
 20
-2.103499999999999
 30
0.0
 70
    64
  0
VERTEX
  5
1D390
330
1D389
100
AcDbEntity
  8
0
100
AcDbVertex
100
AcDbPolygonMeshVertex
 10
0.5191430580663417
 20
-1.9065
 30
0.1869999999999998
 70
    64
  0
VERTEX
  5
1D391
330
1D389
100
AcDbEntity
  8
0
100
AcDbVertex
100
AcDbPolygonMeshVertex
 10
0.5191430580663417
 20
-1.9065
 30
0.0
 70
    64
  0
VERTEX
  5
1D392
330
1D389
100
AcDbEntity
  8
0
100
AcDbVertex
100
AcDbPolygonMeshVertex
 10
0.5191430580663417
 20
-2.103499999999999
 30
0.0
 70
    64
  0
VERTEX
  5
1D393
330
1D389
100
AcDbEntity
  8
0
100
AcDbVertex
100
AcDbPolygonMeshVertex
 10
0.8538097247330069
 20
-1.9065
 30
0.1869999999999998
 70
    64
  0
VERTEX
  5
1D394
330
1D389
100
AcDbEntity
  8
0
100
AcDbVertex
100
AcDbPolygonMeshVertex
 10
0.8538097247330069
 20
-1.9065
 30
0.0
 70
    64
  0
VERTEX
  5
1D395
330
1D389
100
AcDbEntity
  8
0
100
AcDbVertex
100
AcDbPolygonMeshVertex
 10
0.8538097247330069
 20
-2.103499999999999
 30
0.0
 70
    64
  0
VERTEX
  5
1D396
330
1D389
100
AcDbEntity
  8
0
100
AcDbVertex
100
AcDbPolygonMeshVertex
 10
0.8538097247330069
 20
-1.9065
 30
0.1869999999999998
 70
    64
  0
VERTEX
  5
1D397
330
1D389
100
AcDbEntity
  8
0
100
AcDbVertex
100
AcDbPolygonMeshVertex
 10
0.8538097247330069
 20
-1.9065
 30
0.1869999999999998
 70
    64
  0
VERTEX
  5
1D398
330
1D389
100
AcDbEntity
  8
0
100
AcDbVertex
100
AcDbPolygonMeshVertex
 10
0.8538097247330069
 20
-2.103499999999999
 30
0.1869999999999998
 70
    64
  0
VERTEX
  5
1D399
330
1D389
100
AcDbEntity
  8
0
100
AcDbVertex
100
AcDbPolygonMeshVertex
 10
0.5191430580663417
 20
-1.9065
 30
0.1869999999999998
 70
    64
  0
VERTEX
  5
1D39A
330
1D389
100
AcDbEntity
  8
0
100
AcDbVertex
100
AcDbPolygonMeshVertex
 10
0.5191430580663417
 20
-1.9065
 30
0.1869999999999998
 70
    64
  0
VERTEX
  5
1D39B
330
1D389
100
AcDbEntity
  8
0
100
AcDbVertex
100
AcDbPolygonMeshVertex
 10
0.5191430580663417
 20
-2.103499999999999
 30
0.1869999999999998
 70
    64
  0
SEQEND
  5
1D39C
330
1D389
100
AcDbEntity
  8
0
  0
LINE
  5
1D39D
330
3B3DB
100
AcDbEntity
  8
0
100
AcDbLine
 10
0.652933741696637
 20
-1.9685
 30
0.1869999999999998
 11
0.8636004083633036
 21
-1.9685
 31
0.1869999999999998
  0
POLYLINE
  5
1D3DC
330
3B3DB
100
AcDbEntity
  8
0
100
AcDbPolygonMesh
 66
     1
 10
0.0
 20
0.0
 30
0.0
 70
    16
 71
     6
 72
     3
  0
VERTEX
  5
1D3DD
330
1D3DC
100
AcDbEntity
  8
0
100
AcDbVertex
100
AcDbPolygonMeshVertex
 10
1.765210349999999
 20
-1.685499999999999
 30
0.187
 70
    64
  0
VERTEX
  5
1D3DE
330
1D3DC
100
AcDbEntity
  8
0
100
AcDbVertex
100
AcDbPolygonMeshVertex
 10
1.765210349999999
 20
-1.685499999999999
 30
0.0
 70
    64
  0
VERTEX
  5
1D3DF
330
1D3DC
100
AcDbEntity
  8
0
100
AcDbVertex
100
AcDbPolygonMeshVertex
 10
1.765210349999999
 20
-1.685499999999999
 30
0.0
 70
    64
  0
VERTEX
  5
1D3E0
330
1D3DC
100
AcDbEntity
  8
0
100
AcDbVertex
100
AcDbPolygonMeshVertex
 10
0.00521035
 20
-1.685499999999999
 30
0.187
 70
    64
  0
VERTEX
  5
1D3E1
330
1D3DC
100
AcDbEntity
  8
0
100
AcDbVertex
100
AcDbPolygonMeshVertex
 10
0.00521035
 20
-1.685499999999999
 30
0.0
 70
    64
  0
VERTEX
  5
1D3E2
330
1D3DC
100
AcDbEntity
  8
0
100
AcDbVertex
100
AcDbPolygonMeshVertex
 10
0.00521035
 20
-1.685499999999999
 30
0.0
 70
    64
  0
VERTEX
  5
1D3E3
330
1D3DC
100
AcDbEntity
  8
0
100
AcDbVertex
100
AcDbPolygonMeshVertex
 10
0.00521035
 20
-1.480999999999999
 30
0.187
 70
    64
  0
VERTEX
  5
1D3E4
330
1D3DC
100
AcDbEntity
  8
0
100
AcDbVertex
100
AcDbPolygonMeshVertex
 10
0.00521035
 20
-1.480999999999999
 30
0.0
 70
    64
  0
VERTEX
  5
1D3E5
330
1D3DC
100
AcDbEntity
  8
0
100
AcDbVertex
100
AcDbPolygonMeshVertex
 10
0.00521035
 20
-1.685499999999999
 30
0.0
 70
    64
  0
VERTEX
  5
1D3E6
330
1D3DC
100
AcDbEntity
  8
0
100
AcDbVertex
100
AcDbPolygonMeshVertex
 10
1.765210349999999
 20
-1.480999999999999
 30
0.187
 70
    64
  0
VERTEX
  5
1D3E7
330
1D3DC
100
AcDbEntity
  8
0
100
AcDbVertex
100
AcDbPolygonMeshVertex
 10
1.765210349999999
 20
-1.480999999999999
 30
0.0
 70
    64
  0
VERTEX
  5
1D3E8
330
1D3DC
100
AcDbEntity
  8
0
100
AcDbVertex
100
AcDbPolygonMeshVertex
 10
1.765210349999999
 20
-1.685499999999999
 30
0.0
 70
    64
  0
VERTEX
  5
1D3E9
330
1D3DC
100
AcDbEntity
  8
0
100
AcDbVertex
100
AcDbPolygonMeshVertex
 10
1.765210349999999
 20
-1.480999999999999
 30
0.187
 70
    64
  0
VERTEX
  5
1D3EA
330
1D3DC
100
AcDbEntity
  8
0
100
AcDbVertex
100
AcDbPolygonMeshVertex
 10
1.765210349999999
 20
-1.480999999999999
 30
0.187
 70
    64
  0
VERTEX
  5
1D3EB
330
1D3DC
100
AcDbEntity
  8
0
100
AcDbVertex
100
AcDbPolygonMeshVertex
 10
1.765210349999999
 20
-1.685499999999999
 30
0.187
 70
    64
  0
VERTEX
  5
1D3EC
330
1D3DC
100
AcDbEntity
  8
0
100
AcDbVertex
100
AcDbPolygonMeshVertex
 10
0.00521035
 20
-1.480999999999999
 30
0.187
 70
    64
  0
VERTEX
  5
1D3ED
330
1D3DC
100
AcDbEntity
  8
0
100
AcDbVertex
100
AcDbPolygonMeshVertex
 10
0.00521035
 20
-1.480999999999999
 30
0.187
 70
    64
  0
VERTEX
  5
1D3EE
330
1D3DC
100
AcDbEntity
  8
0
100
AcDbVertex
100
AcDbPolygonMeshVertex
 10
0.00521035
 20
-1.685499999999999
 30
0.187
 70
    64
  0
SEQEND
  5
1D3EF
330
1D3DC
100
AcDbEntity
  8
0
  0
POLYLINE
  5
1D3F0
330
3B3DB
100
AcDbEntity
  8
0
100
AcDbPolygonMesh
 66
     1
 10
0.0
 20
0.0
 30
0.0
 70
    16
 71
     6
 72
     3
  0
VERTEX
  5
1D3F1
330
1D3F0
100
AcDbEntity
  8
0
100
AcDbVertex
100
AcDbPolygonMeshVertex
 10
1.765210349999999
 20
0.2044999999999999
 30
0.187
 70
    64
  0
VERTEX
  5
1D3F2
330
1D3F0
100
AcDbEntity
  8
0
100
AcDbVertex
100
AcDbPolygonMeshVertex
 10
1.765210349999999
 20
0.2044999999999999
 30
0.0
 70
    64
  0
VERTEX
  5
1D3F3
330
1D3F0
100
AcDbEntity
  8
0
100
AcDbVertex
100
AcDbPolygonMeshVertex
 10
1.765210349999999
 20
0.2044999999999999
 30
0.0
 70
    64
  0
VERTEX
  5
1D3F4
330
1D3F0
100
AcDbEntity
  8
0
100
AcDbVertex
100
AcDbPolygonMeshVertex
 10
0.00521035
 20
0.2044999999999999
 30
0.187
 70
    64
  0
VERTEX
  5
1D3F5
330
1D3F0
100
AcDbEntity
  8
0
100
AcDbVertex
100
AcDbPolygonMeshVertex
 10
0.00521035
 20
0.2044999999999999
 30
0.0
 70
    64
  0
VERTEX
  5
1D3F6
330
1D3F0
100
AcDbEntity
  8
0
100
AcDbVertex
100
AcDbPolygonMeshVertex
 10
0.00521035
 20
0.2044999999999999
 30
0.0
 70
    64
  0
VERTEX
  5
1D3F7
330
1D3F0
100
AcDbEntity
  8
0
100
AcDbVertex
100
AcDbPolygonMeshVertex
 10
0.00521035
 20
0.0
 30
0.187
 70
    64
  0
VERTEX
  5
1D3F8
330
1D3F0
100
AcDbEntity
  8
0
100
AcDbVertex
100
AcDbPolygonMeshVertex
 10
0.00521035
 20
0.0
 30
0.0
 70
    64
  0
VERTEX
  5
1D3F9
330
1D3F0
100
AcDbEntity
  8
0
100
AcDbVertex
100
AcDbPolygonMeshVertex
 10
0.00521035
 20
0.2044999999999999
 30
0.0
 70
    64
  0
VERTEX
  5
1D3FA
330
1D3F0
100
AcDbEntity
  8
0
100
AcDbVertex
100
AcDbPolygonMeshVertex
 10
1.765210349999999
 20
0.0
 30
0.187
 70
    64
  0
VERTEX
  5
1D3FB
330
1D3F0
100
AcDbEntity
  8
0
100
AcDbVertex
100
AcDbPolygonMeshVertex
 10
1.765210349999999
 20
0.0
 30
0.0
 70
    64
  0
VERTEX
  5
1D3FC
330
1D3F0
100
AcDbEntity
  8
0
100
AcDbVertex
100
AcDbPolygonMeshVertex
 10
1.765210349999999
 20
0.2044999999999999
 30
0.0
 70
    64
  0
VERTEX
  5
1D3FD
330
1D3F0
100
AcDbEntity
  8
0
100
AcDbVertex
100
AcDbPolygonMeshVertex
 10
1.765210349999999
 20
0.0
 30
0.187
 70
    64
  0
VERTEX
  5
1D3FE
330
1D3F0
100
AcDbEntity
  8
0
100
AcDbVertex
100
AcDbPolygonMeshVertex
 10
1.765210349999999
 20
0.0
 30
0.187
 70
    64
  0
VERTEX
  5
1D3FF
330
1D3F0
100
AcDbEntity
  8
0
100
AcDbVertex
100
AcDbPolygonMeshVertex
 10
1.765210349999999
 20
0.2044999999999999
 30
0.187
 70
    64
  0
VERTEX
  5
1D400
330
1D3F0
100
AcDbEntity
  8
0
100
AcDbVertex
100
AcDbPolygonMeshVertex
 10
0.00521035
 20
0.0
 30
0.187
 70
    64
  0
VERTEX
  5
1D401
330
1D3F0
100
AcDbEntity
  8
0
100
AcDbVertex
100
AcDbPolygonMeshVertex
 10
0.00521035
 20
0.0
 30
0.187
 70
    64
  0
VERTEX
  5
1D402
330
1D3F0
100
AcDbEntity
  8
0
100
AcDbVertex
100
AcDbPolygonMeshVertex
 10
0.00521035
 20
0.2044999999999999
 30
0.187
 70
    64
  0
SEQEND
  5
1D403
330
1D3F0
100
AcDbEntity
  8
0
  0
POLYLINE
  5
1D43D
330
3B3DB
100
AcDbEntity
  8
0
100
AcDbPolygonMesh
 66
     1
 10
0.0
 20
0.0
 30
0.0
 70
    16
 71
     6
 72
     3
  0
VERTEX
  5
1D43E
330
1D43D
100
AcDbEntity
  8
0
100
AcDbVertex
100
AcDbPolygonMeshVertex
 10
0.39621035
 20
-2.081499999999999
 30
0.316
 70
    64
  0
VERTEX
  5
1D43F
330
1D43D
100
AcDbEntity
  8
0
100
AcDbVertex
100
AcDbPolygonMeshVertex
 10
0.39621035
 20
-2.081499999999999
 30
0.0
 70
    64
  0
VERTEX
  5
1D440
330
1D43D
100
AcDbEntity
  8
0
100
AcDbVertex
100
AcDbPolygonMeshVertex
 10
0.39621035
 20
-2.081499999999999
 30
0.0
 70
    64
  0
VERTEX
  5
1D441
330
1D43D
100
AcDbEntity
  8
0
100
AcDbVertex
100
AcDbPolygonMeshVertex
 10
0.00521035
 20
-2.081499999999999
 30
0.316
 70
    64
  0
VERTEX
  5
1D442
330
1D43D
100
AcDbEntity
  8
0
100
AcDbVertex
100
AcDbPolygonMeshVertex
 10
0.00521035
 20
-2.081499999999999
 30
0.0
 70
    64
  0
VERTEX
  5
1D443
330
1D43D
100
AcDbEntity
  8
0
100
AcDbVertex
100
AcDbPolygonMeshVertex
 10
0.00521035
 20
-2.081499999999999
 30
0.0
 70
    64
  0
VERTEX
  5
1D444
330
1D43D
100
AcDbEntity
  8
0
100
AcDbVertex
100
AcDbPolygonMeshVertex
 10
0.00521035
 20
-1.685499999999999
 30
0.316
 70
    64
  0
VERTEX
  5
1D445
330
1D43D
100
AcDbEntity
  8
0
100
AcDbVertex
100
AcDbPolygonMeshVertex
 10
0.00521035
 20
-1.685499999999999
 30
0.0
 70
    64
  0
VERTEX
  5
1D446
330
1D43D
100
AcDbEntity
  8
0
100
AcDbVertex
100
AcDbPolygonMeshVertex
 10
0.00521035
 20
-2.081499999999999
 30
0.0
 70
    64
  0
VERTEX
  5
1D447
330
1D43D
100
AcDbEntity
  8
0
100
AcDbVertex
100
AcDbPolygonMeshVertex
 10
0.39621035
 20
-1.685499999999999
 30
0.316
 70
    64
  0
VERTEX
  5
1D448
330
1D43D
100
AcDbEntity
  8
0
100
AcDbVertex
100
AcDbPolygonMeshVertex
 10
0.39621035
 20
-1.685499999999999
 30
0.0
 70
    64
  0
VERTEX
  5
1D449
330
1D43D
100
AcDbEntity
  8
0
100
AcDbVertex
100
AcDbPolygonMeshVertex
 10
0.39621035
 20
-2.081499999999999
 30
0.0
 70
    64
  0
VERTEX
  5
1D44A
330
1D43D
100
AcDbEntity
  8
0
100
AcDbVertex
100
AcDbPolygonMeshVertex
 10
0.39621035
 20
-1.685499999999999
 30
0.316
 70
    64
  0
VERTEX
  5
1D44B
330
1D43D
100
AcDbEntity
  8
0
100
AcDbVertex
100
AcDbPolygonMeshVertex
 10
0.39621035
 20
-1.685499999999999
 30
0.316
 70
    64
  0
VERTEX
  5
1D44C
330
1D43D
100
AcDbEntity
  8
0
100
AcDbVertex
100
AcDbPolygonMeshVertex
 10
0.39621035
 20
-2.081499999999999
 30
0.316
 70
    64
  0
VERTEX
  5
1D44D
330
1D43D
100
AcDbEntity
  8
0
100
AcDbVertex
100
AcDbPolygonMeshVertex
 10
0.00521035
 20
-1.685499999999999
 30
0.316
 70
    64
  0
VERTEX
  5
1D44E
330
1D43D
100
AcDbEntity
  8
0
100
AcDbVertex
100
AcDbPolygonMeshVertex
 10
0.00521035
 20
-1.685499999999999
 30
0.316
 70
    64
  0
VERTEX
  5
1D44F
330
1D43D
100
AcDbEntity
  8
0
100
AcDbVertex
100
AcDbPolygonMeshVertex
 10
0.00521035
 20
-2.081499999999999
 30
0.316
 70
    64
  0
SEQEND
  5
1D450
330
1D43D
100
AcDbEntity
  8
0
  0
POINT
  5
1D47F
330
3B3DB
100
AcDbEntity
  8
SNAP_POINTS
100
AcDbPoint
 10
0.0
 20
0.0
 30
0.0
  0
3DFACE
  5
1D590
330
3B3DB
100
AcDbEntity
  8
0
100
AcDbFace
 10
1.765210349999999
 20
-1.845499999999999
 30
2.06
 11
1.765210349999999
 21
-1.845499999999999
 31
2.06
 12
0.0002103500000001
 22
-1.845499999999999
 32
2.06
 13
0.0002103500000001
 23
-1.845499999999999
 33
2.06
  0
3DFACE
  5
1D592
330
3B3DB
100
AcDbEntity
  8
0
100
AcDbFace
 10
0.0002103500000001
 20
-1.845499999999999
 30
2.06
 11
0.0002103500000001
 21
-1.845499999999999
 31
2.06
 12
0.0002103500000001
 22
-1.845499999999999
 32
2.06
 13
0.0002103500000001
 23
0.3984999999999994
 33
2.06
  0
3DFACE
  5
1D594
330
3B3DB
100
AcDbEntity
  8
0
100
AcDbFace
 10
0.0002103500000001
 20
0.3984999999999994
 30
2.06
 11
0.0002103500000001
 21
-1.845499999999999
 31
2.06
 12
1.765210349999999
 22
-1.845499999999999
 32
2.06
 13
1.765210349999999
 23
0.3984999999999994
 33
2.06
  0
POLYLINE
  5
1D59B
330
3B3DB
100
AcDbEntity
  8
0
  6
Continuous
100
AcDb3dPolyline
 66
     1
 10
0.0
 20
0.0
 30
0.0
 70
     8
  0
VERTEX
  5
1D664
330
1D59B
100
AcDbEntity
  8
0
  6
Continuous
100
AcDbVertex
100
AcDb3dPolylineVertex
 10
1.765210349999999
 20
0.3984999999999994
 30
2.06
 70
    32
1001
ACAD
1000
R13OBJECT
1002
{
1005
1D59B
1002
}
  0
VERTEX
  5
1D665
330
1D59B
100
AcDbEntity
  8
0
  6
Continuous
100
AcDbVertex
100
AcDb3dPolylineVertex
 10
1.765210349999999
 20
-1.845500000000001
 30
2.06
 70
    32
1001
ACAD
1000
R13OBJECT
1002
{
1005
1D59B
1002
}
  0
SEQEND
  5
1D666
330
1D59B
100
AcDbEntity
  8
0
  6
Continuous
  0
POLYLINE
  5
1D667
330
3B3DB
100
AcDbEntity
  8
0
  6
Continuous
100
AcDb3dPolyline
 66
     1
 10
0.0
 20
0.0
 30
0.0
 70
     8
1001
ACAD
1000
R13OBJECT
1002
{
1005
1D59B
1002
}
  0
VERTEX
  5
1D668
330
1D667
100
AcDbEntity
  8
0
  6
Continuous
100
AcDbVertex
100
AcDb3dPolylineVertex
 10
1.765210349999999
 20
-1.845500000000001
 30
2.06
 70
    32
1001
ACAD
1000
R13OBJECT
1002
{
1005
1D59B
1002
}
  0
VERTEX
  5
1D669
330
1D667
100
AcDbEntity
  8
0
  6
Continuous
100
AcDbVertex
100
AcDb3dPolylineVertex
 10
0.0002103500000001
 20
-1.845500000000001
 30
2.06
 70
    32
1001
ACAD
1000
R13OBJECT
1002
{
1005
1D59B
1002
}
  0
SEQEND
  5
1D66A
330
1D667
100
AcDbEntity
  8
0
  6
Continuous
  0
POLYLINE
  5
1D66B
330
3B3DB
100
AcDbEntity
  8
0
  6
Continuous
100
AcDb3dPolyline
 66
     1
 10
0.0
 20
0.0
 30
0.0
 70
     8
1001
ACAD
1000
R13OBJECT
1002
{
1005
1D59B
1002
}
  0
VERTEX
  5
1D66C
330
1D66B
100
AcDbEntity
  8
0
  6
Continuous
100
AcDbVertex
100
AcDb3dPolylineVertex
 10
0.0002103500000001
 20
-1.845500000000001
 30
2.06
 70
    32
1001
ACAD
1000
R13OBJECT
1002
{
1005
1D59B
1002
}
  0
VERTEX
  5
1D66D
330
1D66B
100
AcDbEntity
  8
0
  6
Continuous
100
AcDbVertex
100
AcDb3dPolylineVertex
 10
0.0002103500000001
 20
0.3984999999999994
 30
2.06
 70
    32
1001
ACAD
1000
R13OBJECT
1002
{
1005
1D59B
1002
}
  0
SEQEND
  5
1D66E
330
1D66B
100
AcDbEntity
  8
0
  6
Continuous
  0
POLYLINE
  5
1D66F
330
3B3DB
100
AcDbEntity
  8
0
  6
Continuous
100
AcDb3dPolyline
 66
     1
 10
0.0
 20
0.0
 30
0.0
 70
     8
1001
ACAD
1000
R13OBJECT
1002
{
1005
1D59B
1002
}
  0
VERTEX
  5
1D670
330
1D66F
100
AcDbEntity
  8
0
  6
Continuous
100
AcDbVertex
100
AcDb3dPolylineVertex
 10
0.0002103500000001
 20
0.3984999999999994
 30
2.06
 70
    32
1001
ACAD
1000
R13OBJECT
1002
{
1005
1D59B
1002
}
  0
VERTEX
  5
1D671
330
1D66F
100
AcDbEntity
  8
0
  6
Continuous
100
AcDbVertex
100
AcDb3dPolylineVertex
 10
1.765210349999999
 20
0.3984999999999994
 30
2.06
 70
    32
1001
ACAD
1000
R13OBJECT
1002
{
1005
1D59B
1002
}
  0
SEQEND
  5
1D672
330
1D66F
100
AcDbEntity
  8
0
  6
Continuous
  0
POLYLINE
  5
1D59C
330
3B3DB
100
AcDbEntity
  8
0
  6
Continuous
100
AcDb3dPolyline
 66
     1
 10
0.0
 20
0.0
 30
0.0
 70
     8
  0
VERTEX
  5
1D673
330
1D59C
100
AcDbEntity
  8
0
  6
Continuous
100
AcDbVertex
100
AcDb3dPolylineVertex
 10
0.0002103500000001
 20
-1.845500000000001
 30
3.082
 70
    32
1001
ACAD
1000
R13OBJECT
1002
{
1005
1D59C
1002
}
  0
VERTEX
  5
1D674
330
1D59C
100
AcDbEntity
  8
0
  6
Continuous
100
AcDbVertex
100
AcDb3dPolylineVertex
 10
0.0002103500000001
 20
-1.845500000000001
 30
2.06
 70
    32
1001
ACAD
1000
R13OBJECT
1002
{
1005
1D59C
1002
}
  0
SEQEND
  5
1D675
330
1D59C
100
AcDbEntity
  8
0
  6
Continuous
  0
POLYLINE
  5
1D676
330
3B3DB
100
AcDbEntity
  8
0
  6
Continuous
100
AcDb3dPolyline
 66
     1
 10
0.0
 20
0.0
 30
0.0
 70
     8
1001
ACAD
1000
R13OBJECT
1002
{
1005
1D59C
1002
}
  0
VERTEX
  5
1D677
330
1D676
100
AcDbEntity
  8
0
  6
Continuous
100
AcDbVertex
100
AcDb3dPolylineVertex
 10
1.765210349999999
 20
-1.845500000000001
 30
2.06
 70
    32
1001
ACAD
1000
R13OBJECT
1002
{
1005
1D59C
1002
}
  0
VERTEX
  5
1D678
330
1D676
100
AcDbEntity
  8
0
  6
Continuous
100
AcDbVertex
100
AcDb3dPolylineVertex
 10
0.0002103500000001
 20
-1.845500000000001
 30
2.06
 70
    32
1001
ACAD
1000
R13OBJECT
1002
{
1005
1D59C
1002
}
  0
SEQEND
  5
1D679
330
1D676
100
AcDbEntity
  8
0
  6
Continuous
  0
POLYLINE
  5
1D67A
330
3B3DB
100
AcDbEntity
  8
0
  6
Continuous
100
AcDb3dPolyline
 66
     1
 10
0.0
 20
0.0
 30
0.0
 70
     8
1001
ACAD
1000
R13OBJECT
1002
{
1005
1D59C
1002
}
  0
VERTEX
  5
1D67B
330
1D67A
100
AcDbEntity
  8
0
  6
Continuous
100
AcDbVertex
100
AcDb3dPolylineVertex
 10
1.765210349999999
 20
-1.845500000000001
 30
3.082
 70
    32
1001
ACAD
1000
R13OBJECT
1002
{
1005
1D59C
1002
}
  0
VERTEX
  5
1D67C
330
1D67A
100
AcDbEntity
  8
0
  6
Continuous
100
AcDbVertex
100
AcDb3dPolylineVertex
 10
1.765210349999999
 20
-1.845500000000001
 30
2.06
 70
    32
1001
ACAD
1000
R13OBJECT
1002
{
1005
1D59C
1002
}
  0
SEQEND
  5
1D67D
330
1D67A
100
AcDbEntity
  8
0
  6
Continuous
  0
POLYLINE
  5
1D67E
330
3B3DB
100
AcDbEntity
  8
0
  6
Continuous
100
AcDb3dPolyline
 66
     1
 10
0.0
 20
0.0
 30
0.0
 70
     8
1001
ACAD
1000
R13OBJECT
1002
{
1005
1D59C
1002
}
  0
VERTEX
  5
1D67F
330
1D67E
100
AcDbEntity
  8
0
  6
Continuous
100
AcDbVertex
100
AcDb3dPolylineVertex
 10
0.0002103500000001
 20
-1.845500000000001
 30
3.082
 70
    32
1001
ACAD
1000
R13OBJECT
1002
{
1005
1D59C
1002
}
  0
VERTEX
  5
1D680
330
1D67E
100
AcDbEntity
  8
0
  6
Continuous
100
AcDbVertex
100
AcDb3dPolylineVertex
 10
1.765210349999999
 20
-1.845500000000001
 30
3.082
 70
    32
1001
ACAD
1000
R13OBJECT
1002
{
1005
1D59C
1002
}
  0
SEQEND
  5
1D681
330
1D67E
100
AcDbEntity
  8
0
  6
Continuous
  0
POLYLINE
  5
1D59E
330
3B3DB
100
AcDbEntity
  8
0
  6
Continuous
100
AcDb3dPolyline
 66
     1
 10
0.0
 20
0.0
 30
0.0
 70
     8
  0
VERTEX
  5
1D682
330
1D59E
100
AcDbEntity
  8
0
  6
Continuous
100
AcDbVertex
100
AcDb3dPolylineVertex
 10
1.765210349999999
 20
0.3984999999999994
 30
3.082
 70
    32
1001
ACAD
1000
R13OBJECT
1002
{
1005
1D59E
1002
}
  0
VERTEX
  5
1D683
330
1D59E
100
AcDbEntity
  8
0
  6
Continuous
100
AcDbVertex
100
AcDb3dPolylineVertex
 10
1.765210349999999
 20
0.3984999999999994
 30
2.06
 70
    32
1001
ACAD
1000
R13OBJECT
1002
{
1005
1D59E
1002
}
  0
SEQEND
  5
1D684
330
1D59E
100
AcDbEntity
  8
0
  6
Continuous
  0
POLYLINE
  5
1D685
330
3B3DB
100
AcDbEntity
  8
0
  6
Continuous
100
AcDb3dPolyline
 66
     1
 10
0.0
 20
0.0
 30
0.0
 70
     8
1001
ACAD
1000
R13OBJECT
1002
{
1005
1D59E
1002
}
  0
VERTEX
  5
1D686
330
1D685
100
AcDbEntity
  8
0
  6
Continuous
100
AcDbVertex
100
AcDb3dPolylineVertex
 10
0.0002103500000001
 20
0.3984999999999994
 30
2.06
 70
    32
1001
ACAD
1000
R13OBJECT
1002
{
1005
1D59E
1002
}
  0
VERTEX
  5
1D687
330
1D685
100
AcDbEntity
  8
0
  6
Continuous
100
AcDbVertex
100
AcDb3dPolylineVertex
 10
1.765210349999999
 20
0.3984999999999994
 30
2.06
 70
    32
1001
ACAD
1000
R13OBJECT
1002
{
1005
1D59E
1002
}
  0
SEQEND
  5
1D688
330
1D685
100
AcDbEntity
  8
0
  6
Continuous
  0
POLYLINE
  5
1D689
330
3B3DB
100
AcDbEntity
  8
0
  6
Continuous
100
AcDb3dPolyline
 66
     1
 10
0.0
 20
0.0
 30
0.0
 70
     8
1001
ACAD
1000
R13OBJECT
1002
{
1005
1D59E
1002
}
  0
VERTEX
  5
1D68A
330
1D689
100
AcDbEntity
  8
0
  6
Continuous
100
AcDbVertex
100
AcDb3dPolylineVertex
 10
0.0002103500000001
 20
0.3984999999999994
 30
3.082
 70
    32
1001
ACAD
1000
R13OBJECT
1002
{
1005
1D59E
1002
}
  0
VERTEX
  5
1D68B
330
1D689
100
AcDbEntity
  8
0
  6
Continuous
100
AcDbVertex
100
AcDb3dPolylineVertex
 10
0.0002103500000001
 20
0.3984999999999994
 30
2.06
 70
    32
1001
ACAD
1000
R13OBJECT
1002
{
1005
1D59E
1002
}
  0
SEQEND
  5
1D68C
330
1D689
100
AcDbEntity
  8
0
  6
Continuous
  0
POLYLINE
  5
1D68D
330
3B3DB
100
AcDbEntity
  8
0
  6
Continuous
100
AcDb3dPolyline
 66
     1
 10
0.0
 20
0.0
 30
0.0
 70
     8
1001
ACAD
1000
R13OBJECT
1002
{
1005
1D59E
1002
}
  0
VERTEX
  5
1D68E
330
1D68D
100
AcDbEntity
  8
0
  6
Continuous
100
AcDbVertex
100
AcDb3dPolylineVertex
 10
1.765210349999999
 20
0.3984999999999994
 30
3.082
 70
    32
1001
ACAD
1000
R13OBJECT
1002
{
1005
1D59E
1002
}
  0
VERTEX
  5
1D68F
330
1D68D
100
AcDbEntity
  8
0
  6
Continuous
100
AcDbVertex
100
AcDb3dPolylineVertex
 10
0.0002103500000001
 20
0.3984999999999994
 30
3.082
 70
    32
1001
ACAD
1000
R13OBJECT
1002
{
1005
1D59E
1002
}
  0
SEQEND
  5
1D690
330
1D68D
100
AcDbEntity
  8
0
  6
Continuous
  0
POLYLINE
  5
1D59F
330
3B3DB
100
AcDbEntity
  8
0
  6
Continuous
100
AcDb3dPolyline
 66
     1
 10
0.0
 20
0.0
 30
0.0
 70
     8
  0
VERTEX
  5
1D691
330
1D59F
100
AcDbEntity
  8
0
  6
Continuous
100
AcDbVertex
100
AcDb3dPolylineVertex
 10
1.765210349999999
 20
-1.845500000000001
 30
3.082
 70
    32
1001
ACAD
1000
R13OBJECT
1002
{
1005
1D59F
1002
}
  0
VERTEX
  5
1D692
330
1D59F
100
AcDbEntity
  8
0
  6
Continuous
100
AcDbVertex
100
AcDb3dPolylineVertex
 10
1.765210349999999
 20
-1.845500000000001
 30
2.06
 70
    32
1001
ACAD
1000
R13OBJECT
1002
{
1005
1D59F
1002
}
  0
SEQEND
  5
1D693
330
1D59F
100
AcDbEntity
  8
0
  6
Continuous
  0
POLYLINE
  5
1D694
330
3B3DB
100
AcDbEntity
  8
0
  6
Continuous
100
AcDb3dPolyline
 66
     1
 10
0.0
 20
0.0
 30
0.0
 70
     8
1001
ACAD
1000
R13OBJECT
1002
{
1005
1D59F
1002
}
  0
VERTEX
  5
1D695
330
1D694
100
AcDbEntity
  8
0
  6
Continuous
100
AcDbVertex
100
AcDb3dPolylineVertex
 10
1.765210349999999
 20
0.3984999999999994
 30
2.06
 70
    32
1001
ACAD
1000
R13OBJECT
1002
{
1005
1D59F
1002
}
  0
VERTEX
  5
1D696
330
1D694
100
AcDbEntity
  8
0
  6
Continuous
100
AcDbVertex
100
AcDb3dPolylineVertex
 10
1.765210349999999
 20
-1.845500000000001
 30
2.06
 70
    32
1001
ACAD
1000
R13OBJECT
1002
{
1005
1D59F
1002
}
  0
SEQEND
  5
1D697
330
1D694
100
AcDbEntity
  8
0
  6
Continuous
  0
POLYLINE
  5
1D698
330
3B3DB
100
AcDbEntity
  8
0
  6
Continuous
100
AcDb3dPolyline
 66
     1
 10
0.0
 20
0.0
 30
0.0
 70
     8
1001
ACAD
1000
R13OBJECT
1002
{
1005
1D59F
1002
}
  0
VERTEX
  5
1D699
330
1D698
100
AcDbEntity
  8
0
  6
Continuous
100
AcDbVertex
100
AcDb3dPolylineVertex
 10
1.765210349999999
 20
0.3984999999999994
 30
3.082
 70
    32
1001
ACAD
1000
R13OBJECT
1002
{
1005
1D59F
1002
}
  0
VERTEX
  5
1D69A
330
1D698
100
AcDbEntity
  8
0
  6
Continuous
100
AcDbVertex
100
AcDb3dPolylineVertex
 10
1.765210349999999
 20
0.3984999999999994
 30
2.06
 70
    32
1001
ACAD
1000
R13OBJECT
1002
{
1005
1D59F
1002
}
  0
SEQEND
  5
1D69B
330
1D698
100
AcDbEntity
  8
0
  6
Continuous
  0
POLYLINE
  5
1D69C
330
3B3DB
100
AcDbEntity
  8
0
  6
Continuous
100
AcDb3dPolyline
 66
     1
 10
0.0
 20
0.0
 30
0.0
 70
     8
1001
ACAD
1000
R13OBJECT
1002
{
1005
1D59F
1002
}
  0
VERTEX
  5
1D69D
330
1D69C
100
AcDbEntity
  8
0
  6
Continuous
100
AcDbVertex
100
AcDb3dPolylineVertex
 10
1.765210349999999
 20
-1.845500000000001
 30
3.082
 70
    32
1001
ACAD
1000
R13OBJECT
1002
{
1005
1D59F
1002
}
  0
VERTEX
  5
1D69E
330
1D69C
100
AcDbEntity
  8
0
  6
Continuous
100
AcDbVertex
100
AcDb3dPolylineVertex
 10
1.765210349999999
 20
0.3984999999999994
 30
3.082
 70
    32
1001
ACAD
1000
R13OBJECT
1002
{
1005
1D59F
1002
}
  0
SEQEND
  5
1D69F
330
1D69C
100
AcDbEntity
  8
0
  6
Continuous
  0
LINE
  5
1D5A0
330
3B3DB
100
AcDbEntity
  8
0
100
AcDbLine
 10
0.0002103500000001
 20
0.3984999999999994
 30
3.082
 11
0.0002103500000001
 21
0.3984999999999994
 31
2.06
210
-1.0
220
0.0
230
0.0
  0
LINE
  5
1D5A2
330
3B3DB
100
AcDbEntity
  8
0
100
AcDbLine
 10
0.0002103500000001
 20
0.3984999999999994
 30
3.082
 11
0.0002103500000001
 21
-1.845500000000001
 31
3.082
210
-1.0
220
0.0
230
0.0
  0
LINE
  5
1D5A3
330
3B3DB
100
AcDbEntity
  8
0
100
AcDbLine
 10
0.0002103500000001
 20
-1.845500000000001
 30
3.082
 11
0.0002103500000001
 21
-1.845500000000001
 31
2.06
210
-1.0
220
0.0
230
0.0
  0
3DFACE
  5
1D5A8
330
3B3DB
100
AcDbEntity
  8
0
100
AcDbFace
 10
1.765210349999999
 20
0.3984999999999981
 30
3.082
 11
1.765210349999999
 21
-1.845500000000001
 31
3.082
 12
0.0002103500000001
 22
-1.845500000000001
 32
3.082
 13
0.0002103500000001
 23
0.3984999999999981
 33
3.082
  0
POLYLINE
  5
1D5A9
330
3B3DB
100
AcDbEntity
  8
0
100
AcDbPolygonMesh
 66
     1
 10
0.0
 20
0.0
 30
0.0
 70
    16
 71
     6
 72
     3
  0
VERTEX
  5
1D5AA
330
1D5A9
100
AcDbEntity
  8
0
100
AcDbVertex
100
AcDbPolygonMeshVertex
 10
1.250710349999998
 20
-0.4394862069696881
 30
3.293
 70
    64
  0
VERTEX
  5
1D5AB
330
1D5A9
100
AcDbEntity
  8
0
100
AcDbVertex
100
AcDbPolygonMeshVertex
 10
1.250710349999998
 20
-0.4394862069696881
 30
3.116
 70
    64
  0
VERTEX
  5
1D5AC
330
1D5A9
100
AcDbEntity
  8
0
100
AcDbVertex
100
AcDbPolygonMeshVertex
 10
1.250710349999998
 20
-0.4394862069696881
 30
3.116
 70
    64
  0
VERTEX
  5
1D5AD
330
1D5A9
100
AcDbEntity
  8
0
100
AcDbVertex
100
AcDbPolygonMeshVertex
 10
1.081210349999998
 20
-0.4394862069696881
 30
3.293
 70
    64
  0
VERTEX
  5
1D5AE
330
1D5A9
100
AcDbEntity
  8
0
100
AcDbVertex
100
AcDbPolygonMeshVertex
 10
1.081210349999998
 20
-0.4394862069696881
 30
3.116
 70
    64
  0
VERTEX
  5
1D5AF
330
1D5A9
100
AcDbEntity
  8
0
100
AcDbVertex
100
AcDbPolygonMeshVertex
 10
1.081210349999998
 20
-0.4394862069696881
 30
3.116
 70
    64
  0
VERTEX
  5
1D5B0
330
1D5A9
100
AcDbEntity
  8
0
100
AcDbVertex
100
AcDbPolygonMeshVertex
 10
1.081210349999998
 20
-0.0864862069696884
 30
3.293
 70
    64
  0
VERTEX
  5
1D5B1
330
1D5A9
100
AcDbEntity
  8
0
100
AcDbVertex
100
AcDbPolygonMeshVertex
 10
1.081210349999998
 20
-0.0864862069696884
 30
3.116
 70
    64
  0
VERTEX
  5
1D5B2
330
1D5A9
100
AcDbEntity
  8
0
100
AcDbVertex
100
AcDbPolygonMeshVertex
 10
1.081210349999998
 20
-0.4394862069696881
 30
3.116
 70
    64
  0
VERTEX
  5
1D5B3
330
1D5A9
100
AcDbEntity
  8
0
100
AcDbVertex
100
AcDbPolygonMeshVertex
 10
1.250710349999998
 20
-0.0864862069696884
 30
3.293
 70
    64
  0
VERTEX
  5
1D5B4
330
1D5A9
100
AcDbEntity
  8
0
100
AcDbVertex
100
AcDbPolygonMeshVertex
 10
1.250710349999998
 20
-0.0864862069696884
 30
3.116
 70
    64
  0
VERTEX
  5
1D5B5
330
1D5A9
100
AcDbEntity
  8
0
100
AcDbVertex
100
AcDbPolygonMeshVertex
 10
1.250710349999998
 20
-0.4394862069696881
 30
3.116
 70
    64
  0
VERTEX
  5
1D5B6
330
1D5A9
100
AcDbEntity
  8
0
100
AcDbVertex
100
AcDbPolygonMeshVertex
 10
1.250710349999998
 20
-0.0864862069696884
 30
3.293
 70
    64
  0
VERTEX
  5
1D5B7
330
1D5A9
100
AcDbEntity
  8
0
100
AcDbVertex
100
AcDbPolygonMeshVertex
 10
1.250710349999998
 20
-0.0864862069696884
 30
3.293
 70
    64
  0
VERTEX
  5
1D5B8
330
1D5A9
100
AcDbEntity
  8
0
100
AcDbVertex
100
AcDbPolygonMeshVertex
 10
1.250710349999998
 20
-0.4394862069696881
 30
3.293
 70
    64
  0
VERTEX
  5
1D5B9
330
1D5A9
100
AcDbEntity
  8
0
100
AcDbVertex
100
AcDbPolygonMeshVertex
 10
1.081210349999998
 20
-0.0864862069696884
 30
3.293
 70
    64
  0
VERTEX
  5
1D5BA
330
1D5A9
100
AcDbEntity
  8
0
100
AcDbVertex
100
AcDbPolygonMeshVertex
 10
1.081210349999998
 20
-0.0864862069696884
 30
3.293
 70
    64
  0
VERTEX
  5
1D5BB
330
1D5A9
100
AcDbEntity
  8
0
100
AcDbVertex
100
AcDbPolygonMeshVertex
 10
1.081210349999998
 20
-0.4394862069696881
 30
3.293
 70
    64
  0
SEQEND
  5
1D5BC
330
1D5A9
100
AcDbEntity
  8
0
  0
POLYLINE
  5
1D5BD
330
3B3DB
100
AcDbEntity
  8
0
100
AcDbPolygonMesh
 66
     1
 10
0.0
 20
0.0
 30
0.0
 70
    16
 71
     6
 72
     3
  0
VERTEX
  5
1D5BE
330
1D5BD
100
AcDbEntity
  8
0
100
AcDbVertex
100
AcDbPolygonMeshVertex
 10
1.122710349999998
 20
-0.8944862069696878
 30
3.332000000000001
 70
    64
  0
VERTEX
  5
1D5BF
330
1D5BD
100
AcDbEntity
  8
0
100
AcDbVertex
100
AcDbPolygonMeshVertex
 10
1.122710349999998
 20
-0.8944862069696878
 30
3.116
 70
    64
  0
VERTEX
  5
1D5C0
330
1D5BD
100
AcDbEntity
  8
0
100
AcDbVertex
100
AcDbPolygonMeshVertex
 10
1.122710349999998
 20
-0.8944862069696878
 30
3.116
 70
    64
  0
VERTEX
  5
1D5C1
330
1D5BD
100
AcDbEntity
  8
0
100
AcDbVertex
100
AcDbPolygonMeshVertex
 10
0.9877103499999989
 20
-0.8944862069696878
 30
3.332000000000001
 70
    64
  0
VERTEX
  5
1D5C2
330
1D5BD
100
AcDbEntity
  8
0
100
AcDbVertex
100
AcDbPolygonMeshVertex
 10
0.9877103499999989
 20
-0.8944862069696878
 30
3.116
 70
    64
  0
VERTEX
  5
1D5C3
330
1D5BD
100
AcDbEntity
  8
0
100
AcDbVertex
100
AcDbPolygonMeshVertex
 10
0.9877103499999989
 20
-0.8944862069696878
 30
3.116
 70
    64
  0
VERTEX
  5
1D5C4
330
1D5BD
100
AcDbEntity
  8
0
100
AcDbVertex
100
AcDbPolygonMeshVertex
 10
0.9877103499999989
 20
-0.5494862069696876
 30
3.332000000000001
 70
    64
  0
VERTEX
  5
1D5C5
330
1D5BD
100
AcDbEntity
  8
0
100
AcDbVertex
100
AcDbPolygonMeshVertex
 10
0.9877103499999989
 20
-0.5494862069696876
 30
3.116
 70
    64
  0
VERTEX
  5
1D5C6
330
1D5BD
100
AcDbEntity
  8
0
100
AcDbVertex
100
AcDbPolygonMeshVertex
 10
0.9877103499999989
 20
-0.8944862069696878
 30
3.116
 70
    64
  0
VERTEX
  5
1D5C7
330
1D5BD
100
AcDbEntity
  8
0
100
AcDbVertex
100
AcDbPolygonMeshVertex
 10
1.122710349999998
 20
-0.5494862069696876
 30
3.332000000000001
 70
    64
  0
VERTEX
  5
1D5C8
330
1D5BD
100
AcDbEntity
  8
0
100
AcDbVertex
100
AcDbPolygonMeshVertex
 10
1.122710349999998
 20
-0.5494862069696876
 30
3.116
 70
    64
  0
VERTEX
  5
1D5C9
330
1D5BD
100
AcDbEntity
  8
0
100
AcDbVertex
100
AcDbPolygonMeshVertex
 10
1.122710349999998
 20
-0.8944862069696878
 30
3.116
 70
    64
  0
VERTEX
  5
1D5CA
330
1D5BD
100
AcDbEntity
  8
0
100
AcDbVertex
100
AcDbPolygonMeshVertex
 10
1.122710349999998
 20
-0.5494862069696876
 30
3.332000000000001
 70
    64
  0
VERTEX
  5
1D5CB
330
1D5BD
100
AcDbEntity
  8
0
100
AcDbVertex
100
AcDbPolygonMeshVertex
 10
1.122710349999998
 20
-0.5494862069696876
 30
3.332000000000001
 70
    64
  0
VERTEX
  5
1D5CC
330
1D5BD
100
AcDbEntity
  8
0
100
AcDbVertex
100
AcDbPolygonMeshVertex
 10
1.122710349999998
 20
-0.8944862069696878
 30
3.332000000000001
 70
    64
  0
VERTEX
  5
1D5CD
330
1D5BD
100
AcDbEntity
  8
0
100
AcDbVertex
100
AcDbPolygonMeshVertex
 10
0.9877103499999989
 20
-0.5494862069696876
 30
3.332000000000001
 70
    64
  0
VERTEX
  5
1D5CE
330
1D5BD
100
AcDbEntity
  8
0
100
AcDbVertex
100
AcDbPolygonMeshVertex
 10
0.9877103499999989
 20
-0.5494862069696876
 30
3.332000000000001
 70
    64
  0
VERTEX
  5
1D5CF
330
1D5BD
100
AcDbEntity
  8
0
100
AcDbVertex
100
AcDbPolygonMeshVertex
 10
0.9877103499999989
 20
-0.8944862069696878
 30
3.332000000000001
 70
    64
  0
SEQEND
  5
1D5D0
330
1D5BD
100
AcDbEntity
  8
0
  0
3DFACE
  5
1D5D1
330
3B3DB
100
AcDbEntity
  8
0
100
AcDbFace
 10
1.765210349999999
 20
0.3984999999999981
 30
3.082
 11
1.765210349999999
 21
0.3984999999999981
 31
3.082
 12
0.0002103500000001
 22
0.3984999999999981
 32
3.082
 13
0.0002103500000001
 23
0.3984999999999981
 33
3.082
  0
TEXT
  5
1D5D3
330
3B3DB
100
AcDbEntity
  8
0
100
AcDbText
 10
0.0726275393171534
 20
0.301596169847989
 30
3.082
 40
0.0834654981097751
  1
1
100
AcDbText
  0
TEXT
  5
1D5D6
330
3B3DB
100
AcDbEntity
  8
0
100
AcDbText
 10
1.169576520998377
 20
0.304735651778393
 30
3.082
 40
0.0834654981097751
  1
L3
100
AcDbText
  0
TEXT
  5
1D5D8
330
3B3DB
100
AcDbEntity
  8
0
100
AcDbText
 10
0.7630294693613373
 20
0.3013239366769129
 30
3.082
 40
0.0834654981097751
  1
L2
100
AcDbText
  0
TEXT
  5
1D5D9
330
3B3DB
100
AcDbEntity
  8
0
100
AcDbText
 10
0.3364056597455404
 20
0.3007543037421425
 30
3.082
 40
0.0834654981097751
  1
L1
100
AcDbText
  0
TEXT
  5
1D5DA
330
3B3DB
100
AcDbEntity
  8
0
100
AcDbText
 10
0.5233787887662298
 20
0.299912437636296
 30
3.082
 40
0.0834654981097751
  1
3
100
AcDbText
  0
TEXT
  5
1D5DD
330
3B3DB
100
AcDbEntity
  8
0
100
AcDbText
 10
0.9649127043462657
 20
0.3027354357175302
 30
3.082
 40
0.0834654981097751
  1
5
100
AcDbText
  0
TEXT
  5
1D5E1
330
3B3DB
100
AcDbEntity
  8
0
100
AcDbText
 10
1.599326520998376
 20
0.304735651778393
 30
3.082
 40
0.0834654981097751
  1
L4
100
AcDbText
  0
TEXT
  5
1D5E2
330
3B3DB
100
AcDbEntity
  8
0
100
AcDbText
 10
1.370118397435937
 20
0.3027354357175302
 30
3.082
 40
0.0834654981097751
  1
7
100
AcDbText
  0
POLYLINE
  5
1D5E6
330
3B3DB
100
AcDbEntity
  8
0
100
AcDbPolygonMesh
 66
     1
 10
0.0
 20
0.0
 30
0.0
 70
    16
 71
     6
 72
     3
  0
VERTEX
  5
1D5E7
330
1D5E6
100
AcDbEntity
  8
0
100
AcDbVertex
100
AcDbPolygonMeshVertex
 10
1.27071035
 20
-1.376486206969687
 30
3.282
 70
    64
  0
VERTEX
  5
1D5E8
330
1D5E6
100
AcDbEntity
  8
0
100
AcDbVertex
100
AcDbPolygonMeshVertex
 10
1.27071035
 20
-1.376486206969687
 30
3.082
 70
    64
  0
VERTEX
  5
1D5E9
330
1D5E6
100
AcDbEntity
  8
0
100
AcDbVertex
100
AcDbPolygonMeshVertex
 10
1.27071035
 20
-1.376486206969687
 30
3.082
 70
    64
  0
VERTEX
  5
1D5EA
330
1D5E6
100
AcDbEntity
  8
0
100
AcDbVertex
100
AcDbPolygonMeshVertex
 10
0.4997103499999995
 20
-1.376486206969687
 30
3.282
 70
    64
  0
VERTEX
  5
1D5EB
330
1D5E6
100
AcDbEntity
  8
0
100
AcDbVertex
100
AcDbPolygonMeshVertex
 10
0.4997103499999995
 20
-1.376486206969687
 30
3.082
 70
    64
  0
VERTEX
  5
1D5EC
330
1D5E6
100
AcDbEntity
  8
0
100
AcDbVertex
100
AcDbPolygonMeshVertex
 10
0.4997103499999995
 20
-1.376486206969687
 30
3.082
 70
    64
  0
VERTEX
  5
1D5ED
330
1D5E6
100
AcDbEntity
  8
0
100
AcDbVertex
100
AcDbPolygonMeshVertex
 10
0.4997103499999995
 20
-1.094486206969687
 30
3.282
 70
    64
  0
VERTEX
  5
1D5EE
330
1D5E6
100
AcDbEntity
  8
0
100
AcDbVertex
100
AcDbPolygonMeshVertex
 10
0.4997103499999995
 20
-1.094486206969687
 30
3.082
 70
    64
  0
VERTEX
  5
1D5EF
330
1D5E6
100
AcDbEntity
  8
0
100
AcDbVertex
100
AcDbPolygonMeshVertex
 10
0.4997103499999995
 20
-1.376486206969687
 30
3.082
 70
    64
  0
VERTEX
  5
1D5F0
330
1D5E6
100
AcDbEntity
  8
0
100
AcDbVertex
100
AcDbPolygonMeshVertex
 10
1.27071035
 20
-1.094486206969687
 30
3.282
 70
    64
  0
VERTEX
  5
1D5F1
330
1D5E6
100
AcDbEntity
  8
0
100
AcDbVertex
100
AcDbPolygonMeshVertex
 10
1.27071035
 20
-1.094486206969687
 30
3.082
 70
    64
  0
VERTEX
  5
1D5F2
330
1D5E6
100
AcDbEntity
  8
0
100
AcDbVertex
100
AcDbPolygonMeshVertex
 10
1.27071035
 20
-1.376486206969687
 30
3.082
 70
    64
  0
VERTEX
  5
1D5F3
330
1D5E6
100
AcDbEntity
  8
0
100
AcDbVertex
100
AcDbPolygonMeshVertex
 10
1.27071035
 20
-1.094486206969687
 30
3.282
 70
    64
  0
VERTEX
  5
1D5F4
330
1D5E6
100
AcDbEntity
  8
0
100
AcDbVertex
100
AcDbPolygonMeshVertex
 10
1.27071035
 20
-1.094486206969687
 30
3.282
 70
    64
  0
VERTEX
  5
1D5F5
330
1D5E6
100
AcDbEntity
  8
0
100
AcDbVertex
100
AcDbPolygonMeshVertex
 10
1.27071035
 20
-1.376486206969687
 30
3.282
 70
    64
  0
VERTEX
  5
1D5F6
330
1D5E6
100
AcDbEntity
  8
0
100
AcDbVertex
100
AcDbPolygonMeshVertex
 10
0.4997103499999995
 20
-1.094486206969687
 30
3.282
 70
    64
  0
VERTEX
  5
1D5F7
330
1D5E6
100
AcDbEntity
  8
0
100
AcDbVertex
100
AcDbPolygonMeshVertex
 10
0.4997103499999995
 20
-1.094486206969687
 30
3.282
 70
    64
  0
VERTEX
  5
1D5F8
330
1D5E6
100
AcDbEntity
  8
0
100
AcDbVertex
100
AcDbPolygonMeshVertex
 10
0.4997103499999995
 20
-1.376486206969687
 30
3.282
 70
    64
  0
SEQEND
  5
1D5F9
330
1D5E6
100
AcDbEntity
  8
0
  0
POLYLINE
  5
1D5FA
330
3B3DB
100
AcDbEntity
  8
0
100
AcDbPolygonMesh
 66
     1
 10
0.0
 20
0.0
 30
0.0
 70
    16
 71
     6
 72
     3
  0
VERTEX
  5
1D5FB
330
1D5FA
100
AcDbEntity
  8
0
100
AcDbVertex
100
AcDbPolygonMeshVertex
 10
1.250710349999998
 20
-0.4394862069696881
 30
3.116
 70
    64
  0
VERTEX
  5
1D5FC
330
1D5FA
100
AcDbEntity
  8
0
100
AcDbVertex
100
AcDbPolygonMeshVertex
 10
1.250710349999998
 20
-0.4394862069696881
 30
3.082
 70
    64
  0
VERTEX
  5
1D5FD
330
1D5FA
100
AcDbEntity
  8
0
100
AcDbVertex
100
AcDbPolygonMeshVertex
 10
1.250710349999998
 20
-0.4394862069696881
 30
3.082
 70
    64
  0
VERTEX
  5
1D5FE
330
1D5FA
100
AcDbEntity
  8
0
100
AcDbVertex
100
AcDbPolygonMeshVertex
 10
0.5197103499999991
 20
-0.4394862069696881
 30
3.116
 70
    64
  0
VERTEX
  5
1D5FF
330
1D5FA
100
AcDbEntity
  8
0
100
AcDbVertex
100
AcDbPolygonMeshVertex
 10
0.5197103499999991
 20
-0.4394862069696881
 30
3.082
 70
    64
  0
VERTEX
  5
1D600
330
1D5FA
100
AcDbEntity
  8
0
100
AcDbVertex
100
AcDbPolygonMeshVertex
 10
0.5197103499999991
 20
-0.4394862069696881
 30
3.082
 70
    64
  0
VERTEX
  5
1D601
330
1D5FA
100
AcDbEntity
  8
0
100
AcDbVertex
100
AcDbPolygonMeshVertex
 10
0.5197103499999991
 20
-0.0864862069696884
 30
3.116
 70
    64
  0
VERTEX
  5
1D602
330
1D5FA
100
AcDbEntity
  8
0
100
AcDbVertex
100
AcDbPolygonMeshVertex
 10
0.5197103499999991
 20
-0.0864862069696884
 30
3.082
 70
    64
  0
VERTEX
  5
1D603
330
1D5FA
100
AcDbEntity
  8
0
100
AcDbVertex
100
AcDbPolygonMeshVertex
 10
0.5197103499999991
 20
-0.4394862069696881
 30
3.082
 70
    64
  0
VERTEX
  5
1D604
330
1D5FA
100
AcDbEntity
  8
0
100
AcDbVertex
100
AcDbPolygonMeshVertex
 10
1.250710349999998
 20
-0.0864862069696884
 30
3.116
 70
    64
  0
VERTEX
  5
1D605
330
1D5FA
100
AcDbEntity
  8
0
100
AcDbVertex
100
AcDbPolygonMeshVertex
 10
1.250710349999998
 20
-0.0864862069696884
 30
3.082
 70
    64
  0
VERTEX
  5
1D606
330
1D5FA
100
AcDbEntity
  8
0
100
AcDbVertex
100
AcDbPolygonMeshVertex
 10
1.250710349999998
 20
-0.4394862069696881
 30
3.082
 70
    64
  0
VERTEX
  5
1D607
330
1D5FA
100
AcDbEntity
  8
0
100
AcDbVertex
100
AcDbPolygonMeshVertex
 10
1.250710349999998
 20
-0.0864862069696884
 30
3.116
 70
    64
  0
VERTEX
  5
1D608
330
1D5FA
100
AcDbEntity
  8
0
100
AcDbVertex
100
AcDbPolygonMeshVertex
 10
1.250710349999998
 20
-0.0864862069696884
 30
3.116
 70
    64
  0
VERTEX
  5
1D609
330
1D5FA
100
AcDbEntity
  8
0
100
AcDbVertex
100
AcDbPolygonMeshVertex
 10
1.250710349999998
 20
-0.4394862069696881
 30
3.116
 70
    64
  0
VERTEX
  5
1D60A
330
1D5FA
100
AcDbEntity
  8
0
100
AcDbVertex
100
AcDbPolygonMeshVertex
 10
0.5197103499999991
 20
-0.0864862069696884
 30
3.116
 70
    64
  0
VERTEX
  5
1D60B
330
1D5FA
100
AcDbEntity
  8
0
100
AcDbVertex
100
AcDbPolygonMeshVertex
 10
0.5197103499999991
 20
-0.0864862069696884
 30
3.116
 70
    64
  0
VERTEX
  5
1D60C
330
1D5FA
100
AcDbEntity
  8
0
100
AcDbVertex
100
AcDbPolygonMeshVertex
 10
0.5197103499999991
 20
-0.4394862069696881
 30
3.116
 70
    64
  0
SEQEND
  5
1D60D
330
1D5FA
100
AcDbEntity
  8
0
  0
POLYLINE
  5
1D60E
330
3B3DB
100
AcDbEntity
  8
0
100
AcDbPolygonMesh
 66
     1
 10
0.0
 20
0.0
 30
0.0
 70
    16
 71
     6
 72
     3
  0
VERTEX
  5
1D60F
330
1D60E
100
AcDbEntity
  8
0
100
AcDbVertex
100
AcDbPolygonMeshVertex
 10
0.6892103499999993
 20
-0.4394862069696881
 30
3.293
 70
    64
  0
VERTEX
  5
1D610
330
1D60E
100
AcDbEntity
  8
0
100
AcDbVertex
100
AcDbPolygonMeshVertex
 10
0.6892103499999993
 20
-0.4394862069696881
 30
3.116
 70
    64
  0
VERTEX
  5
1D611
330
1D60E
100
AcDbEntity
  8
0
100
AcDbVertex
100
AcDbPolygonMeshVertex
 10
0.6892103499999993
 20
-0.4394862069696881
 30
3.116
 70
    64
  0
VERTEX
  5
1D612
330
1D60E
100
AcDbEntity
  8
0
100
AcDbVertex
100
AcDbPolygonMeshVertex
 10
0.5197103499999991
 20
-0.4394862069696881
 30
3.293
 70
    64
  0
VERTEX
  5
1D613
330
1D60E
100
AcDbEntity
  8
0
100
AcDbVertex
100
AcDbPolygonMeshVertex
 10
0.5197103499999991
 20
-0.4394862069696881
 30
3.116
 70
    64
  0
VERTEX
  5
1D614
330
1D60E
100
AcDbEntity
  8
0
100
AcDbVertex
100
AcDbPolygonMeshVertex
 10
0.5197103499999991
 20
-0.4394862069696881
 30
3.116
 70
    64
  0
VERTEX
  5
1D615
330
1D60E
100
AcDbEntity
  8
0
100
AcDbVertex
100
AcDbPolygonMeshVertex
 10
0.5197103499999991
 20
-0.0864862069696884
 30
3.293
 70
    64
  0
VERTEX
  5
1D616
330
1D60E
100
AcDbEntity
  8
0
100
AcDbVertex
100
AcDbPolygonMeshVertex
 10
0.5197103499999991
 20
-0.0864862069696884
 30
3.116
 70
    64
  0
VERTEX
  5
1D617
330
1D60E
100
AcDbEntity
  8
0
100
AcDbVertex
100
AcDbPolygonMeshVertex
 10
0.5197103499999991
 20
-0.4394862069696881
 30
3.116
 70
    64
  0
VERTEX
  5
1D618
330
1D60E
100
AcDbEntity
  8
0
100
AcDbVertex
100
AcDbPolygonMeshVertex
 10
0.6892103499999993
 20
-0.0864862069696884
 30
3.293
 70
    64
  0
VERTEX
  5
1D619
330
1D60E
100
AcDbEntity
  8
0
100
AcDbVertex
100
AcDbPolygonMeshVertex
 10
0.6892103499999993
 20
-0.0864862069696884
 30
3.116
 70
    64
  0
VERTEX
  5
1D61A
330
1D60E
100
AcDbEntity
  8
0
100
AcDbVertex
100
AcDbPolygonMeshVertex
 10
0.6892103499999993
 20
-0.4394862069696881
 30
3.116
 70
    64
  0
VERTEX
  5
1D61B
330
1D60E
100
AcDbEntity
  8
0
100
AcDbVertex
100
AcDbPolygonMeshVertex
 10
0.6892103499999993
 20
-0.0864862069696884
 30
3.293
 70
    64
  0
VERTEX
  5
1D61C
330
1D60E
100
AcDbEntity
  8
0
100
AcDbVertex
100
AcDbPolygonMeshVertex
 10
0.6892103499999993
 20
-0.0864862069696884
 30
3.293
 70
    64
  0
VERTEX
  5
1D61D
330
1D60E
100
AcDbEntity
  8
0
100
AcDbVertex
100
AcDbPolygonMeshVertex
 10
0.6892103499999993
 20
-0.4394862069696881
 30
3.293
 70
    64
  0
VERTEX
  5
1D61E
330
1D60E
100
AcDbEntity
  8
0
100
AcDbVertex
100
AcDbPolygonMeshVertex
 10
0.5197103499999991
 20
-0.0864862069696884
 30
3.293
 70
    64
  0
VERTEX
  5
1D61F
330
1D60E
100
AcDbEntity
  8
0
100
AcDbVertex
100
AcDbPolygonMeshVertex
 10
0.5197103499999991
 20
-0.0864862069696884
 30
3.293
 70
    64
  0
VERTEX
  5
1D620
330
1D60E
100
AcDbEntity
  8
0
100
AcDbVertex
100
AcDbPolygonMeshVertex
 10
0.5197103499999991
 20
-0.4394862069696881
 30
3.293
 70
    64
  0
SEQEND
  5
1D621
330
1D60E
100
AcDbEntity
  8
0
  0
POLYLINE
  5
1D622
330
3B3DB
100
AcDbEntity
  8
0
100
AcDbPolygonMesh
 66
     1
 10
0.0
 20
0.0
 30
0.0
 70
    16
 71
     6
 72
     3
  0
VERTEX
  5
1D623
330
1D622
100
AcDbEntity
  8
0
100
AcDbVertex
100
AcDbPolygonMeshVertex
 10
0.782710349999999
 20
-0.8944862069696878
 30
3.332000000000001
 70
    64
  0
VERTEX
  5
1D624
330
1D622
100
AcDbEntity
  8
0
100
AcDbVertex
100
AcDbPolygonMeshVertex
 10
0.782710349999999
 20
-0.8944862069696878
 30
3.116
 70
    64
  0
VERTEX
  5
1D625
330
1D622
100
AcDbEntity
  8
0
100
AcDbVertex
100
AcDbPolygonMeshVertex
 10
0.782710349999999
 20
-0.8944862069696878
 30
3.116
 70
    64
  0
VERTEX
  5
1D626
330
1D622
100
AcDbEntity
  8
0
100
AcDbVertex
100
AcDbPolygonMeshVertex
 10
0.6477103499999993
 20
-0.8944862069696878
 30
3.332000000000001
 70
    64
  0
VERTEX
  5
1D627
330
1D622
100
AcDbEntity
  8
0
100
AcDbVertex
100
AcDbPolygonMeshVertex
 10
0.6477103499999993
 20
-0.8944862069696878
 30
3.116
 70
    64
  0
VERTEX
  5
1D628
330
1D622
100
AcDbEntity
  8
0
100
AcDbVertex
100
AcDbPolygonMeshVertex
 10
0.6477103499999993
 20
-0.8944862069696878
 30
3.116
 70
    64
  0
VERTEX
  5
1D629
330
1D622
100
AcDbEntity
  8
0
100
AcDbVertex
100
AcDbPolygonMeshVertex
 10
0.6477103499999993
 20
-0.5494862069696876
 30
3.332000000000001
 70
    64
  0
VERTEX
  5
1D62A
330
1D622
100
AcDbEntity
  8
0
100
AcDbVertex
100
AcDbPolygonMeshVertex
 10
0.6477103499999993
 20
-0.5494862069696876
 30
3.116
 70
    64
  0
VERTEX
  5
1D62B
330
1D622
100
AcDbEntity
  8
0
100
AcDbVertex
100
AcDbPolygonMeshVertex
 10
0.6477103499999993
 20
-0.8944862069696878
 30
3.116
 70
    64
  0
VERTEX
  5
1D62C
330
1D622
100
AcDbEntity
  8
0
100
AcDbVertex
100
AcDbPolygonMeshVertex
 10
0.782710349999999
 20
-0.5494862069696876
 30
3.332000000000001
 70
    64
  0
VERTEX
  5
1D62D
330
1D622
100
AcDbEntity
  8
0
100
AcDbVertex
100
AcDbPolygonMeshVertex
 10
0.782710349999999
 20
-0.5494862069696876
 30
3.116
 70
    64
  0
VERTEX
  5
1D62E
330
1D622
100
AcDbEntity
  8
0
100
AcDbVertex
100
AcDbPolygonMeshVertex
 10
0.782710349999999
 20
-0.8944862069696878
 30
3.116
 70
    64
  0
VERTEX
  5
1D62F
330
1D622
100
AcDbEntity
  8
0
100
AcDbVertex
100
AcDbPolygonMeshVertex
 10
0.782710349999999
 20
-0.5494862069696876
 30
3.332000000000001
 70
    64
  0
VERTEX
  5
1D630
330
1D622
100
AcDbEntity
  8
0
100
AcDbVertex
100
AcDbPolygonMeshVertex
 10
0.782710349999999
 20
-0.5494862069696876
 30
3.332000000000001
 70
    64
  0
VERTEX
  5
1D631
330
1D622
100
AcDbEntity
  8
0
100
AcDbVertex
100
AcDbPolygonMeshVertex
 10
0.782710349999999
 20
-0.8944862069696878
 30
3.332000000000001
 70
    64
  0
VERTEX
  5
1D632
330
1D622
100
AcDbEntity
  8
0
100
AcDbVertex
100
AcDbPolygonMeshVertex
 10
0.6477103499999993
 20
-0.5494862069696876
 30
3.332000000000001
 70
    64
  0
VERTEX
  5
1D633
330
1D622
100
AcDbEntity
  8
0
100
AcDbVertex
100
AcDbPolygonMeshVertex
 10
0.6477103499999993
 20
-0.5494862069696876
 30
3.332000000000001
 70
    64
  0
VERTEX
  5
1D634
330
1D622
100
AcDbEntity
  8
0
100
AcDbVertex
100
AcDbPolygonMeshVertex
 10
0.6477103499999993
 20
-0.8944862069696878
 30
3.332000000000001
 70
    64
  0
SEQEND
  5
1D635
330
1D622
100
AcDbEntity
  8
0
  0
CIRCLE
  5
1D636
330
3B3DB
100
AcDbEntity
  8
0
100
AcDbCircle
 10
0.6678353499999999
 20
-1.587879991879503
 30
3.082
 40
0.138
  0
TEXT
  5
1D637
330
3B3DB
100
AcDbEntity
  8
0
100
AcDbText
 10
0.7497317561352759
 20
-1.81957131621648
 30
3.082
 40
0.0834654981097751
  1
T2
100
AcDbText
  0
TEXT
  5
1D63A
330
3B3DB
100
AcDbEntity
  8
0
100
AcDbText
 10
0.9687825070885658
 20
-1.820413182322326
 30
3.082
 40
0.0834654981097751
  1
6
100
AcDbText
  0
CIRCLE
  5
1D63B
330
3B3DB
100
AcDbEntity
  8
0
100
AcDbCircle
 10
1.097585349999999
 20
-1.587879991879503
 30
3.082
 40
0.138
  0
POLYLINE
  5
1D63E
330
3B3DB
100
AcDbEntity
  8
0
100
AcDbPolygonMesh
 66
     1
 10
0.0
 20
0.0
 30
0.0
 70
    16
 71
     6
 72
     3
  0
VERTEX
  5
1D63F
330
1D63E
100
AcDbEntity
  8
0
100
AcDbVertex
100
AcDbPolygonMeshVertex
 10
1.122710349999998
 20
-0.8944862069696878
 30
3.116
 70
    64
  0
VERTEX
  5
1D640
330
1D63E
100
AcDbEntity
  8
0
100
AcDbVertex
100
AcDbPolygonMeshVertex
 10
1.122710349999998
 20
-0.8944862069696878
 30
3.082
 70
    64
  0
VERTEX
  5
1D641
330
1D63E
100
AcDbEntity
  8
0
100
AcDbVertex
100
AcDbPolygonMeshVertex
 10
1.122710349999998
 20
-0.8944862069696878
 30
3.082
 70
    64
  0
VERTEX
  5
1D642
330
1D63E
100
AcDbEntity
  8
0
100
AcDbVertex
100
AcDbPolygonMeshVertex
 10
0.6477103499999993
 20
-0.8944862069696878
 30
3.116
 70
    64
  0
VERTEX
  5
1D643
330
1D63E
100
AcDbEntity
  8
0
100
AcDbVertex
100
AcDbPolygonMeshVertex
 10
0.6477103499999993
 20
-0.8944862069696878
 30
3.082
 70
    64
  0
VERTEX
  5
1D644
330
1D63E
100
AcDbEntity
  8
0
100
AcDbVertex
100
AcDbPolygonMeshVertex
 10
0.6477103499999993
 20
-0.8944862069696878
 30
3.082
 70
    64
  0
VERTEX
  5
1D645
330
1D63E
100
AcDbEntity
  8
0
100
AcDbVertex
100
AcDbPolygonMeshVertex
 10
0.6477103499999993
 20
-0.5494862069696876
 30
3.116
 70
    64
  0
VERTEX
  5
1D646
330
1D63E
100
AcDbEntity
  8
0
100
AcDbVertex
100
AcDbPolygonMeshVertex
 10
0.6477103499999993
 20
-0.5494862069696876
 30
3.082
 70
    64
  0
VERTEX
  5
1D647
330
1D63E
100
AcDbEntity
  8
0
100
AcDbVertex
100
AcDbPolygonMeshVertex
 10
0.6477103499999993
 20
-0.8944862069696878
 30
3.082
 70
    64
  0
VERTEX
  5
1D648
330
1D63E
100
AcDbEntity
  8
0
100
AcDbVertex
100
AcDbPolygonMeshVertex
 10
1.122710349999998
 20
-0.5494862069696876
 30
3.116
 70
    64
  0
VERTEX
  5
1D649
330
1D63E
100
AcDbEntity
  8
0
100
AcDbVertex
100
AcDbPolygonMeshVertex
 10
1.122710349999998
 20
-0.5494862069696876
 30
3.082
 70
    64
  0
VERTEX
  5
1D64A
330
1D63E
100
AcDbEntity
  8
0
100
AcDbVertex
100
AcDbPolygonMeshVertex
 10
1.122710349999998
 20
-0.8944862069696878
 30
3.082
 70
    64
  0
VERTEX
  5
1D64B
330
1D63E
100
AcDbEntity
  8
0
100
AcDbVertex
100
AcDbPolygonMeshVertex
 10
1.122710349999998
 20
-0.5494862069696876
 30
3.116
 70
    64
  0
VERTEX
  5
1D64C
330
1D63E
100
AcDbEntity
  8
0
100
AcDbVertex
100
AcDbPolygonMeshVertex
 10
1.122710349999998
 20
-0.5494862069696876
 30
3.116
 70
    64
  0
VERTEX
  5
1D64D
330
1D63E
100
AcDbEntity
  8
0
100
AcDbVertex
100
AcDbPolygonMeshVertex
 10
1.122710349999998
 20
-0.8944862069696878
 30
3.116
 70
    64
  0
VERTEX
  5
1D64E
330
1D63E
100
AcDbEntity
  8
0
100
AcDbVertex
100
AcDbPolygonMeshVertex
 10
0.6477103499999993
 20
-0.5494862069696876
 30
3.116
 70
    64
  0
VERTEX
  5
1D64F
330
1D63E
100
AcDbEntity
  8
0
100
AcDbVertex
100
AcDbPolygonMeshVertex
 10
0.6477103499999993
 20
-0.5494862069696876
 30
3.116
 70
    64
  0
VERTEX
  5
1D650
330
1D63E
100
AcDbEntity
  8
0
100
AcDbVertex
100
AcDbPolygonMeshVertex
 10
0.6477103499999993
 20
-0.8944862069696878
 30
3.116
 70
    64
  0
SEQEND
  5
1D651
330
1D63E
100
AcDbEntity
  8
0
  0
TEXT
  5
1D652
330
3B3DB
100
AcDbEntity
  8
0
100
AcDbText
 10
1.168754526302742
 20
-1.81900168328171
 30
3.082
 40
0.0834654981097751
  1
T3
100
AcDbText
  0
TEXT
  5
1D653
330
3B3DB
100
AcDbEntity
  8
0
100
AcDbText
 10
0.3250220558396814
 20
-1.817524560975508
 30
3.082
 40
0.0834654981097751
  1
T1
100
AcDbText
  0
CIRCLE
  5
1D654
330
3B3DB
100
AcDbEntity
  8
0
100
AcDbCircle
 10
0.2380853499999995
 20
-1.587879991879503
 30
3.082
 40
0.138
  0
TEXT
  5
1D657
330
3B3DB
100
AcDbEntity
  8
0
100
AcDbText
 10
0.080568931031785
 20
-1.821552448191868
 30
3.082
 40
0.0834654981097751
  1
2
100
AcDbText
  0
TEXT
  5
1D658
330
3B3DB
100
AcDbEntity
  8
0
100
AcDbText
 10
1.598504526302742
 20
-1.81900168328171
 30
3.082
 40
0.0834654981097751
  1
T4
100
AcDbText
  0
TEXT
  5
1D659
330
3B3DB
100
AcDbEntity
  8
0
100
AcDbText
 10
1.398532507088566
 20
-1.820413182322326
 30
3.082
 40
0.0834654981097751
  1
8
100
AcDbText
  0
CIRCLE
  5
1D65A
330
3B3DB
100
AcDbEntity
  8
0
100
AcDbCircle
 10
1.527335349999999
 20
-1.587879991879503
 30
3.082
 40
0.138
  0
LWPOLYLINE
  5
1D65D
330
3B3DB
100
AcDbEntity
  8
0
100
AcDbPolyline
 90
        2
 70
     0
 43
0.0
 38
2.06
 10
0.0002103500000001
 20
-1.845500000000001
 10
0.0002103500000001
 20
0.3984999999999994
  0
POLYLINE
  5
1D6B4
330
3B3DB
100
AcDbEntity
  8
0
100
AcDbPolygonMesh
 66
     1
 10
0.0
 20
0.0
 30
0.0
 70
    16
 71
     6
 72
     3
  0
VERTEX
  5
1D6B5
330
1D6B4
100
AcDbEntity
  8
0
100
AcDbVertex
100
AcDbPolygonMeshVertex
 10
1.765210349999999
 20
-1.845499999999999
 30
3.082
 70
    64
  0
VERTEX
  5
1D6B6
330
1D6B4
100
AcDbEntity
  8
0
100
AcDbVertex
100
AcDbPolygonMeshVertex
 10
1.765210349999999
 20
-1.845499999999999
 30
2.06
 70
    64
  0
VERTEX
  5
1D6B7
330
1D6B4
100
AcDbEntity
  8
0
100
AcDbVertex
100
AcDbPolygonMeshVertex
 10
1.765210349999999
 20
-1.845499999999999
 30
2.06
 70
    64
  0
VERTEX
  5
1D6B8
330
1D6B4
100
AcDbEntity
  8
0
100
AcDbVertex
100
AcDbPolygonMeshVertex
 10
0.0002103500000001
 20
-1.845500000000001
 30
3.082
 70
    64
  0
VERTEX
  5
1D6B9
330
1D6B4
100
AcDbEntity
  8
0
100
AcDbVertex
100
AcDbPolygonMeshVertex
 10
0.0002103500000001
 20
-1.845500000000001
 30
2.06
 70
    64
  0
VERTEX
  5
1D6BA
330
1D6B4
100
AcDbEntity
  8
0
100
AcDbVertex
100
AcDbPolygonMeshVertex
 10
0.0002103500000001
 20
-1.845500000000001
 30
2.06
 70
    64
  0
VERTEX
  5
1D6BB
330
1D6B4
100
AcDbEntity
  8
0
100
AcDbVertex
100
AcDbPolygonMeshVertex
 10
0.0002103499999984
 20
0.3984999999999994
 30
3.082
 70
    64
  0
VERTEX
  5
1D6BC
330
1D6B4
100
AcDbEntity
  8
0
100
AcDbVertex
100
AcDbPolygonMeshVertex
 10
0.0002103499999984
 20
0.3984999999999994
 30
2.06
 70
    64
  0
VERTEX
  5
1D6BD
330
1D6B4
100
AcDbEntity
  8
0
100
AcDbVertex
100
AcDbPolygonMeshVertex
 10
0.0002103500000001
 20
-1.845500000000001
 30
2.06
 70
    64
  0
VERTEX
  5
1D6BE
330
1D6B4
100
AcDbEntity
  8
0
100
AcDbVertex
100
AcDbPolygonMeshVertex
 10
1.765210349999998
 20
0.3985000000000007
 30
3.082
 70
    64
  0
VERTEX
  5
1D6BF
330
1D6B4
100
AcDbEntity
  8
0
100
AcDbVertex
100
AcDbPolygonMeshVertex
 10
1.765210349999998
 20
0.3985000000000007
 30
2.06
 70
    64
  0
VERTEX
  5
1D6C0
330
1D6B4
100
AcDbEntity
  8
0
100
AcDbVertex
100
AcDbPolygonMeshVertex
 10
1.765210349999999
 20
-1.845499999999999
 30
2.06
 70
    64
  0
VERTEX
  5
1D6C1
330
1D6B4
100
AcDbEntity
  8
0
100
AcDbVertex
100
AcDbPolygonMeshVertex
 10
1.765210349999998
 20
0.3985000000000007
 30
3.082
 70
    64
  0
VERTEX
  5
1D6C2
330
1D6B4
100
AcDbEntity
  8
0
100
AcDbVertex
100
AcDbPolygonMeshVertex
 10
1.765210349999998
 20
0.3985000000000007
 30
3.082
 70
    64
  0
VERTEX
  5
1D6C3
330
1D6B4
100
AcDbEntity
  8
0
100
AcDbVertex
100
AcDbPolygonMeshVertex
 10
1.765210349999999
 20
-1.845499999999999
 30
3.082
 70
    64
  0
VERTEX
  5
1D6C4
330
1D6B4
100
AcDbEntity
  8
0
100
AcDbVertex
100
AcDbPolygonMeshVertex
 10
0.0002103499999984
 20
0.3984999999999994
 30
3.082
 70
    64
  0
VERTEX
  5
1D6C5
330
1D6B4
100
AcDbEntity
  8
0
100
AcDbVertex
100
AcDbPolygonMeshVertex
 10
0.0002103499999984
 20
0.3984999999999994
 30
3.082
 70
    64
  0
VERTEX
  5
1D6C6
330
1D6B4
100
AcDbEntity
  8
0
100
AcDbVertex
100
AcDbPolygonMeshVertex
 10
0.0002103500000001
 20
-1.845500000000001
 30
3.082
 70
    64
  0
SEQEND
  5
1D6C7
330
1D6B4
100
AcDbEntity
  8
0
  0
POLYLINE
  5
1D6F1
330
3B3DB
100
AcDbEntity
  8
0
100
AcDb3dPolyline
 66
     1
 10
0.0
 20
0.0
 30
0.0
 70
     8
  0
VERTEX
  5
1D6F2
330
1D6F1
100
AcDbEntity
  8
0
100
AcDbVertex
100
AcDb3dPolylineVertex
 10
1.765420699403541
 20
-0.6404999999999999
 30
1.592
 70
    32
  0
VERTEX
  5
1D6F3
330
1D6F1
100
AcDbEntity
  8
0
100
AcDbVertex
100
AcDb3dPolylineVertex
 10
1.765420699403541
 20
-0.6404999999999999
 30
2.165
 70
    32
  0
VERTEX
  5
1D6F4
330
1D6F1
100
AcDbEntity
  8
0
100
AcDbVertex
100
AcDb3dPolylineVertex
 10
1.765420699403541
 20
-0.8064999999999997
 30
2.165
 70
    32
  0
VERTEX
  5
1D6F5
330
1D6F1
100
AcDbEntity
  8
0
100
AcDbVertex
100
AcDb3dPolylineVertex
 10
1.765420699403541
 20
-0.8065000000000001
 30
1.592
 70
    32
  0
VERTEX
  5
1D6F6
330
1D6F1
100
AcDbEntity
  8
0
100
AcDbVertex
100
AcDb3dPolylineVertex
 10
1.765420699403541
 20
-0.6404999999999999
 30
1.592
 70
    32
  0
SEQEND
  5
1D6F7
330
1D6F1
100
AcDbEntity
  8
0
  0
LINE
  5
1D6F8
330
3B3DB
100
AcDbEntity
  8
0
100
AcDbLine
 10
1.765420699403541
 20
-0.8065000000000001
 30
1.8785
 11
1.765420699403541
 21
-0.6404999999999999
 31
1.8785
  0
LINE
  5
1D6FA
330
3B3DB
100
AcDbEntity
  8
0
100
AcDbLine
 10
1.765420699403541
 20
-0.8065000000000001
 30
2.0685
 11
1.765420699403541
 21
-0.6404999999999999
 31
2.0685
  0
POINT
  5
1D6FC
330
3B3DB
100
AcDbEntity
  8
SNAP_POINTS
100
AcDbPoint
 10
0.8852103499999991
 20
-0.7219862069696877
 30
3.116
  0
POINT
  5
1D723
330
3B3DB
100
AcDbEntity
  8
SNAP_POINTS
100
AcDbPoint
 10
0.0000000005964589
 20
-0.7735000000000002
 30
2.0685
  0
POINT
  5
1D724
330
3B3DB
100
AcDbEntity
  8
SNAP_POINTS
100
AcDbPoint
 10
1.765420699403541
 20
-0.6734999999999996
 30
2.0685
  0
LINE
  5
3B2CB
330
3B3DB
100
AcDbEntity
  8
0
100
AcDbLine
 10
0.3877103499999985
 20
0.9585000000000004
 30
1.839
 11
0.3877103499999985
 21
0.9585000000000004
 31
1.639
  0
LINE
  5
3B2CC
330
3B3DB
100
AcDbEntity
  8
0
100
AcDbLine
 10
0.7047103499999987
 20
0.9585000000000004
 30
1.639
 11
0.3877103499999985
 21
0.9585000000000004
 31
1.639
  0
POINT
  5
3B2CD
330
3B3DB
100
AcDbEntity
  8
SNAP_POINTS
100
AcDbPoint
 10
0.7047103499999987
 20
0.9585000000000004
 30
1.639
  0
LINE
  5
3B2CE
330
3B3DB
100
AcDbEntity
  8
0
100
AcDbLine
 10
0.7047103499999987
 20
0.9585000000000004
 30
1.839
 11
0.7047103499999987
 21
0.9585000000000004
 31
1.639
  0
LINE
  5
3B2CF
330
3B3DB
100
AcDbEntity
  8
0
100
AcDbLine
 10
1.065710349999999
 20
0.9585000000000004
 30
1.639
 11
1.382710349999999
 21
0.9585000000000004
 31
1.639
  0
LINE
  5
3B2D0
330
3B3DB
100
AcDbEntity
  8
0
100
AcDbLine
 10
1.382710349999999
 20
0.9585000000000004
 30
1.839
 11
1.382710349999999
 21
0.9585000000000004
 31
1.639
  0
LINE
  5
3B2D1
330
3B3DB
100
AcDbEntity
  8
0
100
AcDbLine
 10
1.065710349999999
 20
0.9585000000000004
 30
1.839
 11
1.382710349999999
 21
0.9585000000000004
 31
1.839
  0
LINE
  5
3B2D2
330
3B3DB
100
AcDbEntity
  8
0
100
AcDbLine
 10
1.065710349999999
 20
0.9585000000000004
 30
1.839
 11
1.065710349999999
 21
0.9585000000000004
 31
1.639
  0
LINE
  5
3B2D4
330
3B3DB
100
AcDbEntity
  8
0
100
AcDbLine
 10
0.7047103499999987
 20
0.9585000000000004
 30
1.839
 11
0.3877103499999985
 21
0.9585000000000004
 31
1.839
  0
POINT
  5
3B2D5
330
3B3DB
100
AcDbEntity
  8
DIMS-MTG-HOLES
100
AcDbPoint
 10
0.1912103499999991
 20
-1.934499999999999
 30
0.0
  0
POINT
  5
3B2D6
330
3B3DB
100
AcDbEntity
  8
DIMS-MTG-HOLES
100
AcDbPoint
 10
1.571210349999998
 20
0.4255
 30
0.0
  0
LWPOLYLINE
  5
3B30C
330
3B3DB
100
AcDbEntity
  8
0
100
AcDbPolyline
 90
        6
 70
     0
 43
0.0
 38
3.082
 10
0.2580853499999995
 20
-1.451336958369916
 10
0.2580853499999995
 20
-1.567879991879503
 10
0.3180853499999995
 20
-1.567879991879504
 10
0.3180853499999994
 20
-1.607879991879503
 10
0.2580853499999995
 20
-1.607879991879503
 10
0.2580853499999995
 20
-1.724423025389089
  0
LWPOLYLINE
  5
3B30D
330
3B3DB
100
AcDbEntity
  8
0
100
AcDbPolyline
 90
        6
 70
     0
 43
0.0
 38
3.082
 10
0.2180853499999995
 20
-1.451336958369916
 10
0.2180853499999995
 20
-1.567879991879503
 10
0.1580853499999995
 20
-1.567879991879504
 10
0.1580853499999996
 20
-1.607879991879503
 10
0.2180853499999995
 20
-1.607879991879503
 10
0.2180853499999995
 20
-1.724423025389089
  0
LWPOLYLINE
  5
3B30E
330
3B3DB
100
AcDbEntity
  8
0
100
AcDbPolyline
 90
        6
 70
     0
 43
0.0
 38
3.082
 10
0.6878353499999999
 20
-1.451336958369916
 10
0.6878353499999999
 20
-1.567879991879503
 10
0.7478353499999998
 20
-1.567879991879504
 10
0.7478353499999998
 20
-1.607879991879503
 10
0.6878353499999999
 20
-1.607879991879503
 10
0.6878353499999999
 20
-1.724423025389089
  0
LWPOLYLINE
  5
3B30F
330
3B3DB
100
AcDbEntity
  8
0
100
AcDbPolyline
 90
        6
 70
     0
 43
0.0
 38
3.082
 10
0.6478353499999998
 20
-1.451336958369916
 10
0.6478353499999998
 20
-1.567879991879503
 10
0.5878353499999998
 20
-1.567879991879504
 10
0.5878353499999999
 20
-1.607879991879503
 10
0.6478353499999998
 20
-1.607879991879503
 10
0.6478353499999998
 20
-1.724423025389089
  0
LWPOLYLINE
  5
3B310
330
3B3DB
100
AcDbEntity
  8
0
100
AcDbPolyline
 90
        6
 70
     0
 43
0.0
 38
3.082
 10
1.117585349999999
 20
-1.451336958369916
 10
1.117585349999999
 20
-1.567879991879503
 10
1.177585349999999
 20
-1.567879991879504
 10
1.177585349999999
 20
-1.607879991879503
 10
1.117585349999999
 20
-1.607879991879503
 10
1.117585349999999
 20
-1.724423025389089
  0
LWPOLYLINE
  5
3B311
330
3B3DB
100
AcDbEntity
  8
0
100
AcDbPolyline
 90
        6
 70
     0
 43
0.0
 38
3.082
 10
1.077585349999999
 20
-1.451336958369916
 10
1.077585349999999
 20
-1.567879991879503
 10
1.017585349999999
 20
-1.567879991879504
 10
1.017585349999999
 20
-1.607879991879503
 10
1.077585349999999
 20
-1.607879991879503
 10
1.077585349999999
 20
-1.724423025389089
  0
LWPOLYLINE
  5
3B312
330
3B3DB
100
AcDbEntity
  8
0
100
AcDbPolyline
 90
        6
 70
     0
 43
0.0
 38
3.082
 10
1.547335349999999
 20
-1.451336958369916
 10
1.547335349999999
 20
-1.567879991879503
 10
1.60733535
 20
-1.567879991879504
 10
1.607335349999999
 20
-1.607879991879503
 10
1.547335349999999
 20
-1.607879991879503
 10
1.547335349999999
 20
-1.724423025389089
  0
LWPOLYLINE
  5
3B313
330
3B3DB
100
AcDbEntity
  8
0
100
AcDbPolyline
 90
        6
 70
     0
 43
0.0
 38
3.082
 10
1.507335349999999
 20
-1.451336958369916
 10
1.507335349999999
 20
-1.567879991879503
 10
1.447335349999999
 20
-1.567879991879504
 10
1.447335349999999
 20
-1.607879991879503
 10
1.507335349999999
 20
-1.607879991879503
 10
1.507335349999999
 20
-1.724423025389089
  0
CIRCLE
  5
3B314
330
3B3DB
100
AcDbEntity
  8
0
100
AcDbCircle
 10
1.527335349999999
 20
0.1549075779401257
 30
3.082
 40
0.138
  0
CIRCLE
  5
3B315
330
3B3DB
100
AcDbEntity
  8
0
100
AcDbCircle
 10
0.6678353499999999
 20
0.1549075779401257
 30
3.082
 40
0.138
  0
LWPOLYLINE
  5
3B316
330
3B3DB
100
AcDbEntity
  8
0
100
AcDbPolyline
 90
        6
 70
     0
 43
0.0
 38
3.082
 10
0.6478353499999998
 20
0.2914506114497133
 10
0.6478353499999998
 20
0.1749075779401257
 10
0.5878353499999998
 20
0.1749075779401255
 10
0.5878353499999999
 20
0.1349075779401259
 10
0.6478353499999998
 20
0.1349075779401259
 10
0.6478353499999998
 20
0.0183645444305398
  0
LWPOLYLINE
  5
3B317
330
3B3DB
100
AcDbEntity
  8
0
100
AcDbPolyline
 90
        6
 70
     0
 43
0.0
 38
3.082
 10
0.6878353499999999
 20
0.2914506114497133
 10
0.6878353499999999
 20
0.1749075779401257
 10
0.7478353499999998
 20
0.1749075779401255
 10
0.7478353499999998
 20
0.1349075779401259
 10
0.6878353499999999
 20
0.1349075779401259
 10
0.6878353499999999
 20
0.0183645444305398
  0
LWPOLYLINE
  5
3B318
330
3B3DB
100
AcDbEntity
  8
0
100
AcDbPolyline
 90
        6
 70
     0
 43
0.0
 38
3.082
 10
1.077585349999999
 20
0.2914506114497133
 10
1.077585349999999
 20
0.1749075779401257
 10
1.017585349999999
 20
0.1749075779401255
 10
1.017585349999999
 20
0.1349075779401259
 10
1.077585349999999
 20
0.1349075779401259
 10
1.077585349999999
 20
0.0183645444305398
  0
CIRCLE
  5
3B319
330
3B3DB
100
AcDbEntity
  8
0
100
AcDbCircle
 10
1.097585349999999
 20
0.1549075779401257
 30
3.082
 40
0.138
  0
LWPOLYLINE
  5
3B31A
330
3B3DB
100
AcDbEntity
  8
0
100
AcDbPolyline
 90
        6
 70
     0
 43
0.0
 38
3.082
 10
1.117585349999999
 20
0.2914506114497133
 10
1.117585349999999
 20
0.1749075779401257
 10
1.177585349999999
 20
0.1749075779401255
 10
1.177585349999999
 20
0.1349075779401259
 10
1.117585349999999
 20
0.1349075779401259
 10
1.117585349999999
 20
0.0183645444305398
  0
LWPOLYLINE
  5
3B31B
330
3B3DB
100
AcDbEntity
  8
0
100
AcDbPolyline
 90
        6
 70
     0
 43
0.0
 38
3.082
 10
1.507335349999999
 20
0.2914506114497133
 10
1.507335349999999
 20
0.1749075779401257
 10
1.447335349999999
 20
0.1749075779401255
 10
1.447335349999999
 20
0.1349075779401259
 10
1.507335349999999
 20
0.1349075779401259
 10
1.507335349999999
 20
0.0183645444305398
  0
LWPOLYLINE
  5
3B31C
330
3B3DB
100
AcDbEntity
  8
0
100
AcDbPolyline
 90
        6
 70
     0
 43
0.0
 38
3.082
 10
1.547335349999999
 20
0.2914506114497133
 10
1.547335349999999
 20
0.1749075779401257
 10
1.60733535
 20
0.1749075779401255
 10
1.607335349999999
 20
0.1349075779401259
 10
1.547335349999999
 20
0.1349075779401259
 10
1.547335349999999
 20
0.0183645444305398
  0
LWPOLYLINE
  5
3B31D
330
3B3DB
100
AcDbEntity
  8
0
100
AcDbPolyline
 90
        6
 70
     0
 43
0.0
 38
3.082
 10
0.2580853499999995
 20
0.2914506114497133
 10
0.2580853499999995
 20
0.1749075779401257
 10
0.3180853499999995
 20
0.1749075779401255
 10
0.3180853499999994
 20
0.1349075779401259
 10
0.2580853499999995
 20
0.1349075779401259
 10
0.2580853499999995
 20
0.0183645444305398
  0
CIRCLE
  5
3B31E
330
3B3DB
100
AcDbEntity
  8
0
100
AcDbCircle
 10
0.2380853499999995
 20
0.1549075779401257
 30
3.082
 40
0.138
  0
LWPOLYLINE
  5
3B31F
330
3B3DB
100
AcDbEntity
  8
0
100
AcDbPolyline
 90
        6
 70
     0
 43
0.0
 38
3.082
 10
0.2180853499999995
 20
0.2914506114497133
 10
0.2180853499999995
 20
0.1749075779401257
 10
0.1580853499999995
 20
0.1749075779401255
 10
0.1580853499999996
 20
0.1349075779401259
 10
0.2180853499999995
 20
0.1349075779401259
 10
0.2180853499999995
 20
0.0183645444305398
  0
LWPOLYLINE
  5
3B320
330
3B3DB
100
AcDbEntity
  8
0
100
AcDbPolyline
 90
        6
 70
     0
 43
0.0
 38
2.06
 10
0.5662103499999969
 20
0.8583215956619961
 10
0.5662103499999969
 20
0.7599999999999998
 10
0.6262103499999969
 20
0.7599999999999996
 10
0.6262103499999967
 20
0.72
 10
0.5662103499999969
 20
0.72
 10
0.5662103499999969
 20
0.6216784043380116
  0
LWPOLYLINE
  5
3B321
330
3B3DB
100
AcDbEntity
  8
0
100
AcDbPolyline
 90
        6
 70
     0
 43
0.0
 38
2.06
 10
0.5262103499999969
 20
0.8583215956619879
 10
0.5262103499999969
 20
0.7599999999999998
 10
0.4662103499999968
 20
0.7599999999999996
 10
0.4662103499999969
 20
0.72
 10
0.5262103499999969
 20
0.72
 10
0.5262103499999969
 20
0.6216784043380034
  0
LWPOLYLINE
  5
3B322
330
3B3DB
100
AcDbEntity
  8
0
100
AcDbPolyline
 90
        6
 70
     0
 43
0.0
 38
2.06
 10
1.204210350000001
 20
0.8583215956619879
 10
1.204210350000001
 20
0.7599999999999998
 10
1.144210350000001
 20
0.7599999999999996
 10
1.144210350000001
 20
0.72
 10
1.204210350000001
 20
0.72
 10
1.204210350000001
 20
0.6216784043380034
  0
LWPOLYLINE
  5
3B323
330
3B3DB
100
AcDbEntity
  8
0
100
AcDbPolyline
 90
        6
 70
     0
 43
0.0
 38
2.06
 10
1.244210350000001
 20
0.8583215956619961
 10
1.244210350000001
 20
0.7599999999999998
 10
1.304210350000001
 20
0.7599999999999996
 10
1.304210350000001
 20
0.72
 10
1.244210350000001
 20
0.72
 10
1.244210350000001
 20
0.6216784043380116
  0
TEXT
  5
3B3BD
330
3B3DB
100
AcDbEntity
  8
0
100
AcDbText
 10
0.510268144010049
 20
-1.820413182322326
 30
3.082
 40
0.0834654981097751
  1
4
100
AcDbText
  0
INSERT
  5
3B702
330
3B3DB
100
AcDbEntity
  8
SCALE
100
AcDbBlockReference
  2
scale
 10
2.672422177888837
 20
-1.32560847357454
 30
0.0
  0
DIMENSION
  5
3B924
330
3B3DB
100
AcDbEntity
  8
AREA1
100
AcDbDimension
  2
*D2
 10
1.765210349999999
 20
1.188225080014767
 30
0.0
 11
0.9131873261793614
 21
1.542356720660437
 31
0.0
 70
   160
 71
     5
 42
-1.0
 73
     0
 74
     0
 75
     0
  3
ABECAD
100
AcDbAlignedDimension
 13
0.00521035
 23
0.7185000000000002
 33
0.0
 14
1.765210349999999
 24
0.5745
 34
0.0
100
AcDbRotatedDimension
  0
DIMENSION
  5
3B96A
330
3B3DB
100
AcDbEntity
  8
AREA1
100
AcDbDimension
  2
*D3
 10
2.167220820315669
 20
-2.165499999999999
 30
0.0
 11
2.167220820315669
 21
-0.5461119190144057
 31
0.0
 70
   160
 71
     5
 42
-1.0
 73
     0
 74
     0
 75
     0
  3
ABECAD
100
AcDbAlignedDimension
 13
1.437710349999999
 23
0.9585000000000004
 33
1.386
 14
1.765210349999999
 24
-2.165499999999999
 34
0.0
 50
90.0
100
AcDbRotatedDimension
  0
ENDSEC
  0
SECTION
  2
OBJECTS
  0
DICTIONARY
  5
3B3C9
330
0
100
AcDbDictionary
281
     1
  3
ACAD_COLOR
350
3BA05
  3
ACAD_GROUP
350
3B3CA
  3
ACAD_LAYOUT
350
3B3D6
  3
ACAD_MATERIAL
350
3B9F0
  3
ACAD_MLINESTYLE
350
3B3D3
  3
ACAD_PLOTSETTINGS
350
3B3D5
  3
ACAD_PLOTSTYLENAME
350
3B3CB
  3
ACAD_TABLESTYLE
350
3BA06
  3
ACAD_VISUALSTYLE
350
3B9F4
  3
ACADE_WIRETYPE
350
3BA19
  3
AcDbVariableDictionary
350
3BA13
  3
ASE_INDEX_DICTIONARY
350
3BA10
  0
DICTIONARY
  5
3BA1B
330
3B3C5
100
AcDbDictionary
280
     1
281
     1
  0
DICTIONARY
  5
3BA0D
330
3BA0C
100
AcDbDictionary
280
     1
281
     1
  3
ACADE_WIRETYPE
360
3BA0E
  0
DICTIONARY
  5
3B454
330
3B3DB
100
AcDbDictionary
280
     1
281
     1
  3
ACAD_LAYOUTSELFREF
360
3B9E8
  0
DICTIONARY
  5
3B456
330
3B3D7
100
AcDbDictionary
280
     1
281
     1
  3
ACAD_LAYOUTSELFREF
360
3B9E7
  0
DICTIONARY
  5
3BA05
102
{ACAD_REACTORS
330
3B3C9
102
}
330
3B3C9
100
AcDbDictionary
281
     1
  0
DICTIONARY
  5
3B3CA
102
{ACAD_REACTORS
330
3B3C9
102
}
330
3B3C9
100
AcDbDictionary
281
     1
  0
DICTIONARY
  5
3B3D6
102
{ACAD_REACTORS
330
3B3C9
102
}
330
3B3C9
100
AcDbDictionary
281
     1
  3
Layout1
350
3B3DA
  3
Model
350
3B3DE
  0
DICTIONARY
  5
3B9F0
102
{ACAD_REACTORS
330
3B3C9
102
}
330
3B3C9
100
AcDbDictionary
281
     1
  3
ByBlock
350
3B9F2
  3
ByLayer
350
3B9F1
  3
Global
350
3B9F3
  0
DICTIONARY
  5
3B3D3
102
{ACAD_REACTORS
330
3B3C9
102
}
330
3B3C9
100
AcDbDictionary
281
     1
  3
Standard
350
3B3D4
  0
DICTIONARY
  5
3B3D5
102
{ACAD_REACTORS
330
3B3C9
102
}
330
3B3C9
100
AcDbDictionary
281
     1
  0
ACDBDICTIONARYWDFLT
  5
3B3CB
102
{ACAD_REACTORS
330
3B3C9
102
}
330
3B3C9
100
AcDbDictionary
281
     1
  3
Normal
350
3B3CC
100
AcDbDictionaryWithDefault
340
3B3CC
  0
DICTIONARY
  5
3BA06
102
{ACAD_REACTORS
330
3B3C9
102
}
330
3B3C9
100
AcDbDictionary
281
     1
  3
Standard
350
3BA07
  0
DICTIONARY
  5
3B9F4
102
{ACAD_REACTORS
330
3B3C9
102
}
330
3B3C9
100
AcDbDictionary
281
     1
  3
2dWireframe
350
3B9FA
  3
3D Hidden
350
3B9FC
  3
3dWireframe
350
3B9FB
  3
Basic
350
3B9F9
  3
Brighten
350
3BA00
  3
ColorChange
350
3BA04
  3
Conceptual
350
3B9FD
  3
Dim
350
3B9FF
  3
Facepattern
350
3BA03
  3
Flat
350
3B9F5
  3
FlatWithEdges
350
3B9F6
  3
Gouraud
350
3B9F7
  3
GouraudWithEdges
350
3B9F8
  3
Linepattern
350
3BA02
  3
Realistic
350
3B9FE
  3
Thicken
350
3BA01
  0
DICTIONARY
  5
3BA19
102
{ACAD_REACTORS
330
3B3C9
102
}
330
3B3C9
100
AcDbDictionary
281
     1
  3
CURRENT_WIRELAY
350
3BA1A
  0
DICTIONARY
  5
3BA13
102
{ACAD_REACTORS
330
3B3C9
102
}
330
3B3C9
100
AcDbDictionary
281
     1
  3
CTABLESTYLE
350
3BA14
  0
DICTIONARY
  5
3BA10
102
{ACAD_REACTORS
330
3B3C9
102
}
330
3B3C9
100
AcDbDictionary
281
     1
  3
ASEBlockHierarchyIndexRecord
350
3BA12
1001
DCO15
1040
1582953301.274
  0
XRECORD
  5
3BA0E
102
{ACAD_REACTORS
330
3BA0D
102
}
330
3BA0D
100
AcDbXrecord
280
     1
  1

  2

  3
WIRE
 90
        0
  0
XRECORD
  5
3B9E8
102
{ACAD_REACTORS
330
3B454
102
}
330
3B454
100
AcDbXrecord
280
     1
340
3B3DB
  0
XRECORD
  5
3B9E7
102
{ACAD_REACTORS
330
3B456
102
}
330
3B456
100
AcDbXrecord
280
     1
340
3B3D7
  0
LAYOUT
  5
3B3DA
102
{ACAD_REACTORS
330
3B3D6
102
}
330
3B3D6
100
AcDbPlotSettings
  1

  2
HP LaserJet 4000 Series PCL 6
  4

  6

 40
0.0
 41
0.0
 42
0.0
 43
0.0
 44
0.0
 45
0.0
 46
0.0
 47
0.0
 48
0.0
 49
0.0
140
0.0
141
0.0
142
1.0
143
1.0
 70
   688
 72
     0
 73
     0
 74
     5
  7

 75
    16
147
1.0
 76
     0
 77
     2
 78
   300
148
0.0
149
0.0
100
AcDbLayout
  1
Layout1
 70
     1
 71
     1
 10
0.0
 20
0.0
 11
12.0
 21
9.0
 12
0.0
 22
0.0
 32
0.0
 14
1.000000000000000E+20
 24
1.000000000000000E+20
 34
1.000000000000000E+20
 15
-1.000000000000000E+20
 25
-1.000000000000000E+20
 35
-1.000000000000000E+20
146
0.0
 13
0.0
 23
0.0
 33
0.0
 16
1.0
 26
0.0
 36
0.0
 17
0.0
 27
1.0
 37
0.0
 76
     0
330
3B3D7
  0
LAYOUT
  5
3B3DE
102
{ACAD_REACTORS
330
3B3D6
102
}
330
3B3D6
100
AcDbPlotSettings
  1

  2
HP LaserJet 4000 Series PCL 6
  4

  6

 40
0.0
 41
0.0
 42
0.0
 43
0.0
 44
0.0
 45
0.0
 46
0.0
 47
0.0
 48
0.0
 49
0.0
140
0.0
141
0.0
142
1.0
143
1.0
 70
  1712
 72
     0
 73
     0
 74
     0
  7

 75
     0
147
1.0
 76
     0
 77
     2
 78
   300
148
0.0
149
0.0
100
AcDbLayout
  1
Model
 70
     1
 71
     0
 10
0.0
 20
0.0
 11
12.0
 21
9.0
 12
0.0
 22
0.0
 32
0.0
 14
0.0
 24
0.0
 34
0.0
 15
0.0
 25
0.0
 35
0.0
146
0.0
 13
0.0
 23
0.0
 33
0.0
 16
1.0
 26
0.0
 36
0.0
 17
0.0
 27
1.0
 37
0.0
 76
     0
330
3B3DB
331
3B9B5
  0
MATERIAL
  5
3B9F2
102
{ACAD_REACTORS
330
3B9F0
102
}
330
3B9F0
100
AcDbMaterial
  1
ByBlock
  0
MATERIAL
  5
3B9F1
102
{ACAD_REACTORS
330
3B9F0
102
}
330
3B9F0
100
AcDbMaterial
  1
ByLayer
  0
MATERIAL
  5
3B9F3
102
{ACAD_REACTORS
330
3B9F0
102
}
330
3B9F0
100
AcDbMaterial
  1
Global
  0
MLINESTYLE
  5
3B3D4
102
{ACAD_REACTORS
330
3B3D3
102
}
330
3B3D3
100
AcDbMlineStyle
  2
STANDARD
 70
     0
  3

 62
   256
 51
90.0
 52
90.0
 71
     2
 49
0.5
 62
   256
  6
BYLAYER
 49
-0.5
 62
   256
  6
BYLAYER
  0
ACDBPLACEHOLDER
  5
3B3CC
102
{ACAD_REACTORS
330
3B3CB
102
}
330
3B3CB
  0
TABLESTYLE
  5
3BA07
102
{ACAD_REACTORS
330
3BA06
102
}
330
3BA06
100
AcDbTableStyle
  3
Standard
 70
     0
 71
     0
 40
0.06
 41
0.06
280
     0
281
     0
  7
STANDARD
140
0.18
170
     2
 62
     0
 63
     7
283
     0
 90
      512
 91
        0
  1

274
    -2
284
     1
 64
     0
275
    -2
285
     1
 65
     0
276
    -2
286
     1
 66
     0
277
    -2
287
     1
 67
     0
278
    -2
288
     1
 68
     0
279
    -2
289
     1
 69
     0
  7
STANDARD
140
0.25
170
     5
 62
     0
 63
     7
283
     0
 90
      512
 91
        0
  1

274
    -2
284
     1
 64
     0
275
    -2
285
     1
 65
     0
276
    -2
286
     1
 66
     0
277
    -2
287
     1
 67
     0
278
    -2
288
     1
 68
     0
279
    -2
289
     1
 69
     0
  7
STANDARD
140
0.18
170
     5
 62
     0
 63
     7
283
     0
 90
      512
 91
        0
  1

274
    -2
284
     1
 64
     0
275
    -2
285
     1
 65
     0
276
    -2
286
     1
 66
     0
277
    -2
287
     1
 67
     0
278
    -2
288
     1
 68
     0
279
    -2
289
     1
 69
     0
  0
VISUALSTYLE
  5
3B9FA
102
{ACAD_REACTORS
330
3B9F4
102
}
330
3B9F4
100
AcDbVisualStyle
  2
2dWireframe
 70
     4
 71
     0
 72
     2
 73
     0
 90
        0
 40
-0.6
 41
-30.0
 62
     5
 63
     7
421
 16777215
 74
     1
 91
        4
 64
     7
 65
   257
 75
     1
175
     1
 42
1.0
 92
        0
 66
   257
 43
1.0
 76
     1
 77
     6
 78
     2
 67
     7
 79
     5
170
     0
171
     0
290
     0
174
     0
 93
        1
 44
0.0
173
     0
291
     0
 45
0.0
  0
VISUALSTYLE
  5
3B9FC
102
{ACAD_REACTORS
330
3B9F4
102
}
330
3B9F4
100
AcDbVisualStyle
  2
3D Hidden
 70
     6
 71
     1
 72
     2
 73
     2
 90
        0
 40
-0.6
 41
-30.0
 62
     5
 63
     7
421
 16777215
 74
     2
 91
        2
 64
     7
 65
   257
 75
     2
175
     1
 42
40.0
 92
        0
 66
   257
 43
1.0
 76
     1
 77
     6
 78
     2
 67
     7
 79
     3
170
     0
171
     0
290
     0
174
     0
 93
        1
 44
0.0
173
     0
291
     0
 45
0.0
  0
VISUALSTYLE
  5
3B9FB
102
{ACAD_REACTORS
330
3B9F4
102
}
330
3B9F4
100
AcDbVisualStyle
  2
3dWireframe
 70
     5
 71
     0
 72
     2
 73
     0
 90
        0
 40
-0.6
 41
-30.0
 62
     5
 63
     7
421
 16777215
 74
     1
 91
        4
 64
     7
 65
   257
 75
     1
175
     1
 42
1.0
 92
        0
 66
   257
 43
1.0
 76
     1
 77
     6
 78
     2
 67
     7
 79
     5
170
     0
171
     0
290
     0
174
     0
 93
        1
 44
0.0
173
     0
291
     0
 45
0.0
  0
VISUALSTYLE
  5
3B9F9
102
{ACAD_REACTORS
330
3B9F4
102
}
330
3B9F4
100
AcDbVisualStyle
  2
Basic
 70
     7
 71
     1
 72
     0
 73
     1
 90
        0
 40
-0.6
 41
-30.0
 62
     5
 63
     7
421
 16777215
 74
     0
 91
        4
 64
     7
 65
   257
 75
     1
175
     1
 42
1.0
 92
        8
 66
     7
 43
1.0
 76
     1
 77
     6
 78
     2
 67
     7
 79
     5
170
     0
171
     0
290
     0
174
     0
 93
        1
 44
0.0
173
     0
291
     1
 45
0.0
  0
VISUALSTYLE
  5
3BA00
102
{ACAD_REACTORS
330
3B9F4
102
}
330
3B9F4
100
AcDbVisualStyle
  2
Brighten
 70
    12
 71
     2
 72
     2
 73
     0
 90
        0
 40
-0.6
 41
-30.0
 62
     5
 63
     7
421
 16777215
 74
     1
 91
        4
 64
     7
 65
   257
 75
     1
175
     1
 42
1.0
 92
        8
 66
     7
 43
1.0
 76
     1
 77
     6
 78
     2
 67
     7
 79
     5
170
     0
171
     0
290
     0
174
     0
 93
        1
 44
50.0
173
     0
291
     1
 45
0.0
  0
VISUALSTYLE
  5
3BA04
102
{ACAD_REACTORS
330
3B9F4
102
}
330
3B9F4
100
AcDbVisualStyle
  2
ColorChange
 70
    16
 71
     2
 72
     2
 73
     3
 90
        0
 40
-0.6
 41
-30.0
 62
     5
 63
     8
421
  8421504
 74
     1
 91
        4
 64
     7
 65
   257
 75
     1
175
     1
 42
1.0
 92
        8
 66
     8
424
  8421504
 43
1.0
 76
     1
 77
     6
 78
     2
 67
     7
 79
     5
170
     0
171
     0
290
     0
174
     0
 93
        1
 44
0.0
173
     0
291
     1
 45
0.0
  0
VISUALSTYLE
  5
3B9FD
102
{ACAD_REACTORS
330
3B9F4
102
}
330
3B9F4
100
AcDbVisualStyle
  2
Conceptual
 70
     9
 71
     3
 72
     2
 73
     0
 90
        0
 40
-0.6
 41
-30.0
 62
     5
 63
     7
421
 16777215
 74
     2
 91
        2
 64
     7
 65
   257
 75
     1
175
     1
 42
40.0
 92
        8
 66
     7
 43
1.0
 76
     1
 77
     6
 78
     2
 67
     7
 79
     3
170
     0
171
     0
290
     0
174
     0
 93
        1
 44
0.0
173
     0
291
     0
 45
0.0
  0
VISUALSTYLE
  5
3B9FF
102
{ACAD_REACTORS
330
3B9F4
102
}
330
3B9F4
100
AcDbVisualStyle
  2
Dim
 70
    11
 71
     2
 72
     2
 73
     0
 90
        0
 40
-0.6
 41
-30.0
 62
     5
 63
     7
421
 16777215
 74
     1
 91
        4
 64
     7
 65
   257
 75
     1
175
     1
 42
1.0
 92
        8
 66
     7
 43
1.0
 76
     1
 77
     6
 78
     2
 67
     7
 79
     5
170
     0
171
     0
290
     0
174
     0
 93
        1
 44
-50.0
173
     0
291
     1
 45
0.0
  0
VISUALSTYLE
  5
3BA03
102
{ACAD_REACTORS
330
3B9F4
102
}
330
3B9F4
100
AcDbVisualStyle
  2
Facepattern
 70
    15
 71
     2
 72
     2
 73
     0
 90
        0
 40
-0.6
 41
-30.0
 62
     5
 63
     7
421
 16777215
 74
     1
 91
        4
 64
     7
 65
   257
 75
     1
175
     1
 42
1.0
 92
        8
 66
     7
 43
1.0
 76
     1
 77
     6
 78
     2
 67
     7
 79
     5
170
     0
171
     0
290
     0
174
     0
 93
        1
 44
0.0
173
     0
291
     1
 45
0.0
  0
VISUALSTYLE
  5
3B9F5
102
{ACAD_REACTORS
330
3B9F4
102
}
330
3B9F4
100
AcDbVisualStyle
  2
Flat
 70
     0
 71
     2
 72
     1
 73
     1
 90
        2
 40
-0.6
 41
30.0
 62
     5
 63
     7
421
 16777215
 74
     0
 91
        4
 64
     7
 65
   257
 75
     1
175
     1
 42
1.0
 92
        8
 66
     7
 43
1.0
 76
     1
 77
     6
 78
     2
 67
     7
 79
     5
170
     0
171
     0
290
     0
174
     0
 93
       13
 44
0.0
173
     0
291
     1
 45
0.0
  0
VISUALSTYLE
  5
3B9F6
102
{ACAD_REACTORS
330
3B9F4
102
}
330
3B9F4
100
AcDbVisualStyle
  2
FlatWithEdges
 70
     1
 71
     2
 72
     1
 73
     1
 90
        2
 40
-0.6
 41
30.0
 62
     5
 63
     7
421
 16777215
 74
     1
 91
        4
 64
     7
 65
   257
 75
     1
175
     1
 42
1.0
 92
        0
 66
   257
 43
1.0
 76
     1
 77
     6
 78
     2
 67
     7
 79
     5
170
     0
171
     0
290
     0
174
     0
 93
       13
 44
0.0
173
     0
291
     1
 45
0.0
  0
VISUALSTYLE
  5
3B9F7
102
{ACAD_REACTORS
330
3B9F4
102
}
330
3B9F4
100
AcDbVisualStyle
  2
Gouraud
 70
     2
 71
     2
 72
     2
 73
     1
 90
        2
 40
-0.6
 41
30.0
 62
     5
 63
     7
421
 16777215
 74
     0
 91
        4
 64
     7
 65
   257
 75
     1
175
     1
 42
1.0
 92
        0
 66
     7
 43
1.0
 76
     1
 77
     6
 78
     2
 67
     7
 79
     5
170
     0
171
     0
290
     0
174
     0
 93
       13
 44
0.0
173
     0
291
     1
 45
0.0
  0
VISUALSTYLE
  5
3B9F8
102
{ACAD_REACTORS
330
3B9F4
102
}
330
3B9F4
100
AcDbVisualStyle
  2
GouraudWithEdges
 70
     3
 71
     2
 72
     2
 73
     1
 90
        2
 40
-0.6
 41
30.0
 62
     5
 63
     7
421
 16777215
 74
     1
 91
        4
 64
     7
 65
   257
 75
     1
175
     1
 42
1.0
 92
        0
 66
   257
 43
1.0
 76
     1
 77
     6
 78
     2
 67
     7
 79
     5
170
     0
171
     0
290
     0
174
     0
 93
       13
 44
0.0
173
     0
291
     1
 45
0.0
  0
VISUALSTYLE
  5
3BA02
102
{ACAD_REACTORS
330
3B9F4
102
}
330
3B9F4
100
AcDbVisualStyle
  2
Linepattern
 70
    14
 71
     2
 72
     2
 73
     0
 90
        0
 40
-0.6
 41
-30.0
 62
     5
 63
     7
421
 16777215
 74
     1
 91
        4
 64
     7
 65
   257
 75
     7
175
     7
 42
1.0
 92
        8
 66
     7
 43
1.0
 76
     1
 77
     6
 78
     2
 67
     7
 79
     5
170
     0
171
     0
290
     0
174
     0
 93
        1
 44
0.0
173
     0
291
     1
 45
0.0
  0
VISUALSTYLE
  5
3B9FE
102
{ACAD_REACTORS
330
3B9F4
102
}
330
3B9F4
100
AcDbVisualStyle
  2
Realistic
 70
     8
 71
     2
 72
     2
 73
     0
 90
        0
 40
-0.6
 41
-30.0
 62
     5
 63
     7
421
 16777215
 74
     1
 91
        0
 64
     7
 65
   257
 75
     1
175
     1
 42
1.0
 92
        8
 66
     8
424
  7895160
 43
1.0
 76
     1
 77
     6
 78
     2
 67
     7
 79
     5
170
     0
171
     0
290
     0
174
     0
 93
       13
 44
0.0
173
     0
291
     0
 45
0.0
  0
VISUALSTYLE
  5
3BA01
102
{ACAD_REACTORS
330
3B9F4
102
}
330
3B9F4
100
AcDbVisualStyle
  2
Thicken
 70
    13
 71
     2
 72
     2
 73
     0
 90
        0
 40
-0.6
 41
-30.0
 62
     5
 63
     7
421
 16777215
 74
     1
 91
        4
 64
     7
 65
   257
 75
     1
175
     1
 42
1.0
 92
       12
 66
     7
 43
1.0
 76
     1
 77
     6
 78
     2
 67
     7
 79
     5
170
     0
171
     0
290
     0
174
     0
 93
        1
 44
0.0
173
     0
291
     1
 45
0.0
  0
XRECORD
  5
3BA1A
102
{ACAD_REACTORS
330
3BA19
102
}
330
3BA19
100
AcDbXrecord
280
     1
  1
WIRES
  1
WIRES
  1

290
     0
  0
DICTIONARYVAR
  5
3BA14
102
{ACAD_REACTORS
330
3BA13
102
}
330
3BA13
100
DictionaryVariables
280
     0
  1
STANDARD
  0
XRECORD
  5
3BA12
102
{ACAD_REACTORS
330
3BA10
102
}
330
3BA10
100
AcDbXrecord
280
     1
330
70E4
330
70E5
330
70E6
330
3B702
  0
ENDSEC
  0
EOF
