  0
SECTION
  2
HEADER
  9
$ACADVER
  1
AC1021
  9
$ACADMAINTVER
 70
     1
  9
$DWGCODEPAGE
  3
ANSI_1252
  9
$LASTSAVEDBY
  1
gdseiver
  9
$INSBASE
 10
0.0
 20
0.0
 30
0.0
  9
$EXTMIN
 10
-0.0000000000000036
 20
-2.342
 30
-0.0000000000000001
  9
$EXTMAX
 10
2.12
 20
0.838
 30
5.687499999999999
  9
$LIMMIN
 10
0.0
 20
0.0
  9
$LIMMAX
 10
12.0
 20
9.0
  9
$ORTHOMODE
 70
     0
  9
$REGENMODE
 70
     1
  9
$FILLMODE
 70
     1
  9
$QTEXTMODE
 70
     0
  9
$MIRRTEXT
 70
     1
  9
$LTSCALE
 40
1.0
  9
$ATTMODE
 70
     1
  9
$TEXTSIZE
 40
0.12
  9
$TRACEWID
 40
0.05
  9
$TEXTSTYLE
  7
STANDARD
  9
$CLAYER
  8
0
  9
$CELTYPE
  6
BYLAYER
  9
$CECOLOR
 62
   256
  9
$CELTSCALE
 40
1.0
  9
$DISPSILH
 70
     0
  9
$DIMSCALE
 40
1.0
  9
$DIMASZ
 40
0.125
  9
$DIMEXO
 40
0.0625
  9
$DIMDLI
 40
0.375
  9
$DIMRND
 40
0.0
  9
$DIMDLE
 40
0.0
  9
$DIMEXE
 40
0.1
  9
$DIMTP
 40
0.0
  9
$DIMTM
 40
0.0
  9
$DIMTXT
 40
0.125
  9
$DIMCEN
 40
0.09
  9
$DIMTSZ
 40
0.0
  9
$DIMTOL
 70
     0
  9
$DIMLIM
 70
     0
  9
$DIMTIH
 70
     0
  9
$DIMTOH
 70
     1
  9
$DIMSE1
 70
     0
  9
$DIMSE2
 70
     0
  9
$DIMTAD
 70
     0
  9
$DIMZIN
 70
     4
  9
$DIMBLK
  1

  9
$DIMASO
 70
     1
  9
$DIMSHO
 70
     1
  9
$DIMPOST
  1

  9
$DIMAPOST
  1

  9
$DIMALT
 70
     1
  9
$DIMALTD
 70
     2
  9
$DIMALTF
 40
25.4
  9
$DIMLFAC
 40
1.0
  9
$DIMTOFL
 70
     0
  9
$DIMTVP
 40
0.0
  9
$DIMTIX
 70
     0
  9
$DIMSOXD
 70
     0
  9
$DIMSAH
 70
     0
  9
$DIMBLK1
  1

  9
$DIMBLK2
  1

  9
$DIMSTYLE
  2
ABECAD_3D
  9
$DIMCLRD
 70
     0
  9
$DIMCLRE
 70
     0
  9
$DIMCLRT
 70
     0
  9
$DIMTFAC
 40
1.5
  9
$DIMGAP
 40
0.09
  9
$DIMJUST
 70
     0
  9
$DIMSD1
 70
     0
  9
$DIMSD2
 70
     0
  9
$DIMTOLJ
 70
     1
  9
$DIMTZIN
 70
     4
  9
$DIMALTZ
 70
     4
  9
$DIMALTTZ
 70
     4
  9
$DIMUPT
 70
     1
  9
$DIMDEC
 70
     6
  9
$DIMTDEC
 70
     6
  9
$DIMALTU
 70
     2
  9
$DIMALTTD
 70
     2
  9
$DIMTXSTY
  7
STANDARD
  9
$DIMAUNIT
 70
     0
  9
$DIMADEC
 70
     0
  9
$DIMALTRND
 40
0.0
  9
$DIMAZIN
 70
     0
  9
$DIMDSEP
 70
    46
  9
$DIMATFIT
 70
     2
  9
$DIMFRAC
 70
     2
  9
$DIMLDRBLK
  1

  9
$DIMLUNIT
 70
     5
  9
$DIMLWD
 70
    -2
  9
$DIMLWE
 70
    -2
  9
$DIMTMOVE
 70
     2
  9
$DIMFXL
 40
1.0
  9
$DIMFXLON
 70
     0
  9
$DIMJOGANG
 40
0.7853981633974483
  9
$DIMTFILL
 70
     0
  9
$DIMTFILLCLR
 70
     0
  9
$DIMARCSYM
 70
     0
  9
$DIMLTYPE
  6

  9
$DIMLTEX1
  6

  9
$DIMLTEX2
  6

  9
$LUNITS
 70
     2
  9
$LUPREC
 70
     4
  9
$SKETCHINC
 40
0.1
  9
$FILLETRAD
 40
0.0
  9
$AUNITS
 70
     0
  9
$AUPREC
 70
     0
  9
$MENU
  1
ACAD
  9
$ELEVATION
 40
0.0
  9
$PELEVATION
 40
0.0
  9
$THICKNESS
 40
0.0
  9
$LIMCHECK
 70
     0
  9
$CHAMFERA
 40
0.0
  9
$CHAMFERB
 40
0.0
  9
$CHAMFERC
 40
0.0
  9
$CHAMFERD
 40
0.0
  9
$SKPOLY
 70
     0
  9
$TDCREATE
 40
2451726.480055787
  9
$TDUCREATE
 40
2451726.688389120
  9
$TDUPDATE
 40
2454229.399442546
  9
$TDUUPDATE
 40
2454229.607775880
  9
$TDINDWG
 40
0.9038296181
  9
$TDUSRTIMER
 40
0.9038296181
  9
$USRTIMER
 70
     1
  9
$ANGBASE
 50
0.0
  9
$ANGDIR
 70
     0
  9
$PDMODE
 70
     3
  9
$PDSIZE
 40
0.09
  9
$PLINEWID
 40
0.0
  9
$SPLFRAME
 70
     1
  9
$SPLINETYPE
 70
     6
  9
$SPLINESEGS
 70
     8
  9
$HANDSEED
  5
70FDB
  9
$SURFTAB1
 70
     6
  9
$SURFTAB2
 70
     6
  9
$SURFTYPE
 70
     6
  9
$SURFU
 70
     6
  9
$SURFV
 70
     6
  9
$UCSBASE
  2

  9
$UCSNAME
  2

  9
$UCSORG
 10
0.0
 20
0.0
 30
0.0
  9
$UCSXDIR
 10
1.0
 20
0.0
 30
0.0
  9
$UCSYDIR
 10
0.0
 20
1.0
 30
0.0
  9
$UCSORTHOREF
  2

  9
$UCSORTHOVIEW
 70
     1
  9
$UCSORGTOP
 10
0.0
 20
0.0
 30
0.0
  9
$UCSORGBOTTOM
 10
0.0
 20
0.0
 30
0.0
  9
$UCSORGLEFT
 10
0.0
 20
0.0
 30
0.0
  9
$UCSORGRIGHT
 10
0.0
 20
0.0
 30
0.0
  9
$UCSORGFRONT
 10
0.0
 20
0.0
 30
0.0
  9
$UCSORGBACK
 10
0.0
 20
0.0
 30
0.0
  9
$PUCSBASE
  2

  9
$PUCSNAME
  2

  9
$PUCSORG
 10
0.0
 20
0.0
 30
0.0
  9
$PUCSXDIR
 10
1.0
 20
0.0
 30
0.0
  9
$PUCSYDIR
 10
0.0
 20
1.0
 30
0.0
  9
$PUCSORTHOREF
  2

  9
$PUCSORTHOVIEW
 70
     0
  9
$PUCSORGTOP
 10
0.0
 20
0.0
 30
0.0
  9
$PUCSORGBOTTOM
 10
0.0
 20
0.0
 30
0.0
  9
$PUCSORGLEFT
 10
0.0
 20
0.0
 30
0.0
  9
$PUCSORGRIGHT
 10
0.0
 20
0.0
 30
0.0
  9
$PUCSORGFRONT
 10
0.0
 20
0.0
 30
0.0
  9
$PUCSORGBACK
 10
0.0
 20
0.0
 30
0.0
  9
$USERI1
 70
     0
  9
$USERI2
 70
     0
  9
$USERI3
 70
     0
  9
$USERI4
 70
     0
  9
$USERI5
 70
     0
  9
$USERR1
 40
0.0
  9
$USERR2
 40
0.0
  9
$USERR3
 40
0.0
  9
$USERR4
 40
0.0
  9
$USERR5
 40
0.0
  9
$WORLDVIEW
 70
     1
  9
$SHADEDGE
 70
     3
  9
$SHADEDIF
 70
    70
  9
$TILEMODE
 70
     1
  9
$MAXACTVP
 70
    16
  9
$PINSBASE
 10
0.0
 20
0.0
 30
0.0
  9
$PLIMCHECK
 70
     0
  9
$PEXTMIN
 10
1.049999952316284
 20
0.7999999523162842
 30
0.0
  9
$PEXTMAX
 10
9.449999570846555
 20
7.199999570846556
 30
0.0
  9
$PLIMMIN
 10
-0.2500002402958907
 20
-0.2499999962453767
  9
$PLIMMAX
 10
10.74999951940821
 20
8.249999763458731
  9
$UNITMODE
 70
     0
  9
$VISRETAIN
 70
     0
  9
$PLINEGEN
 70
     0
  9
$PSLTSCALE
 70
     1
  9
$TREEDEPTH
 70
  3020
  9
$CMLSTYLE
  2
STANDARD
  9
$CMLJUST
 70
     0
  9
$CMLSCALE
 40
1.0
  9
$PROXYGRAPHICS
 70
     1
  9
$MEASUREMENT
 70
     0
  9
$CELWEIGHT
370
    -1
  9
$ENDCAPS
280
     0
  9
$JOINSTYLE
280
     0
  9
$LWDISPLAY
290
     0
  9
$INSUNITS
 70
     0
  9
$HYPERLINKBASE
  1

  9
$STYLESHEET
  1

  9
$XEDIT
290
     1
  9
$CEPSNTYPE
380
     0
  9
$PSTYLEMODE
290
     1
  9
$FINGERPRINTGUID
  2
{6E0CF4B8-225E-11D4-A150-00A0CC3303EC}
  9
$VERSIONGUID
  2
{087CCFAA-1239-444F-803F-5ED084CC21FE}
  9
$EXTNAMES
290
     1
  9
$PSVPSCALE
 40
0.0
  9
$OLESTARTUP
290
     0
  9
$SORTENTS
280
   127
  9
$INDEXCTL
280
     0
  9
$HIDETEXT
280
     0
  9
$XCLIPFRAME
290
     0
  9
$HALOGAP
280
     0
  9
$OBSCOLOR
 70
   257
  9
$OBSLTYPE
280
     0
  9
$INTERSECTIONDISPLAY
280
     0
  9
$INTERSECTIONCOLOR
 70
   257
  9
$DIMASSOC
280
     1
  9
$PROJECTNAME
  1

  9
$CAMERADISPLAY
290
     0
  9
$LENSLENGTH
 40
50.0
  9
$CAMERAHEIGHT
 40
0.0
  9
$STEPSPERSEC
 40
2.0
  9
$STEPSIZE
 40
6.0
  9
$3DDWFPREC
 40
2.0
  9
$PSOLWIDTH
 40
0.25
  9
$PSOLHEIGHT
 40
4.0
  9
$LOFTANG1
 40
1.570796326794896
  9
$LOFTANG2
 40
1.570796326794896
  9
$LOFTMAG1
 40
0.0
  9
$LOFTMAG2
 40
0.0
  9
$LOFTPARAM
 70
     7
  9
$LOFTNORMALS
280
     1
  9
$LATITUDE
 40
37.795
  9
$LONGITUDE
 40
-122.394
  9
$NORTHDIRECTION
 40
0.0
  9
$TIMEZONE
 70
 -8000
  9
$LIGHTGLYPHDISPLAY
280
     1
  9
$TILEMODELIGHTSYNCH
280
     1
  9
$CMATERIAL
347
70F8E
  9
$SOLIDHIST
280
     1
  9
$SHOWHIST
280
     1
  9
$DWFFRAME
280
     2
  9
$DGNFRAME
280
     0
  9
$REALWORLDSCALE
290
     1
  9
$INTERFERECOLOR
 62
     1
  9
$INTERFEREOBJVS
345
70F9B
  9
$INTERFEREVPVS
346
70F98
  9
$CSHADOW
280
     0
  9
$SHADOWPLANELOCATION
 40
0.0
  0
ENDSEC
  0
SECTION
  2
CLASSES
  0
CLASS
  1
DICTIONARYVAR
  2
AcDbDictionaryVar
  3
ObjectDBX Classes
 90
        0
 91
        2
280
     0
281
     0
  0
CLASS
  1
ACDBDICTIONARYWDFLT
  2
AcDbDictionaryWithDefault
  3
ObjectDBX Classes
 90
        0
 91
        1
280
     0
281
     0
  0
CLASS
  1
MATERIAL
  2
AcDbMaterial
  3
ObjectDBX Classes
 90
     1024
 91
        3
280
     0
281
     0
  0
CLASS
  1
VISUALSTYLE
  2
AcDbVisualStyle
  3
ObjectDBX Classes
 90
     4095
 91
       16
280
     0
281
     0
  0
CLASS
  1
TABLESTYLE
  2
AcDbTableStyle
  3
ObjectDBX Classes
 90
     4095
 91
        1
280
     0
281
     0
  0
CLASS
  1
SOLID_BACKGROUND
  2
AcDbSolidBackground
  3
SCENEOE
 90
     4095
 91
        1
280
     0
281
     0
  0
CLASS
  1
NPOCOLLECTION
  2
AcDbImpNonPersistentObjectsCollection
  3
ObjectDBX Classes
 90
     1153
 91
        1
280
     0
281
     0
  0
CLASS
  1
EXACXREFPANELOBJECT
  2
ExAcXREFPanelObject
  3
EXAC_ESW
 90
     1025
 91
        0
280
     0
281
     0
  0
ENDSEC
  0
SECTION
  2
TABLES
  0
TABLE
  2
VPORT
  5
458C7
330
0
100
AcDbSymbolTable
 70
     1
  0
VPORT
  5
70F5A
330
458C7
100
AcDbSymbolTableRecord
100
AcDbViewportTableRecord
  2
*Active
 70
     0
 10
0.0
 20
0.0
 11
1.0
 21
1.0
 12
0.4965561050617878
 22
0.1281371703728529
 13
0.0
 23
0.0
 14
0.25
 24
0.25
 15
0.25
 25
0.25
 16
0.0
 26
0.0
 36
1.0
 17
0.5634438949382106
 27
-0.8801371703728531
 37
1.68649307151727
 40
3.203099273607748
 41
1.421818181818181
 42
50.0
 43
0.0
 44
0.0
 50
0.0
 51
0.0
 71
     0
 72
 20000
 73
     1
 74
     1
 75
     0
 76
     0
 77
     0
 78
     0
281
     1
 65
     1
110
0.0
120
0.0
130
0.0
111
1.0
121
0.0
131
0.0
112
0.0
122
1.0
132
0.0
 79
     0
146
0.0
348
70F98
 60
     3
 61
     5
292
     1
282
     1
141
0.0
142
0.0
 63
   250
421
  3355443
  0
ENDTAB
  0
TABLE
  2
LTYPE
  5
458C4
330
0
100
AcDbSymbolTable
 70
     1
  0
LTYPE
  5
458D0
330
458C4
100
AcDbSymbolTableRecord
100
AcDbLinetypeTableRecord
  2
BYBLOCK
 70
     0
  3

 72
    65
 73
     0
 40
0.0
  0
LTYPE
  5
458D1
330
458C4
100
AcDbSymbolTableRecord
100
AcDbLinetypeTableRecord
  2
BYLAYER
 70
     0
  3

 72
    65
 73
     0
 40
0.0
  0
LTYPE
  5
458D2
330
458C4
100
AcDbSymbolTableRecord
100
AcDbLinetypeTableRecord
  2
CONTINUOUS
 70
     0
  3
Solid line
 72
    65
 73
     0
 40
0.0
  0
ENDTAB
  0
TABLE
  2
LAYER
  5
458C1
330
0
100
AcDbSymbolTable
 70
     8
  0
LAYER
  5
458CD
330
458C1
100
AcDbSymbolTableRecord
100
AcDbLayerTableRecord
  2
0
 70
     0
 62
     7
  6
CONTINUOUS
370
    -3
390
458FA
347
70F90
  0
LAYER
  5
458EA
330
458C1
100
AcDbSymbolTableRecord
100
AcDbLayerTableRecord
  2
DIMS-MTG-HOLES
 70
     0
 62
     1
  6
CONTINUOUS
370
    -3
390
458FA
347
70F90
  0
LAYER
  5
458EB
330
458C1
100
AcDbSymbolTableRecord
100
AcDbLayerTableRecord
  2
ATTRIBUTES
 70
     0
 62
     7
  6
CONTINUOUS
370
    -3
390
458FA
347
70F90
  0
LAYER
  5
4593B
330
458C1
100
AcDbSymbolTableRecord
100
AcDbLayerTableRecord
  2
AREA1
 70
     1
 62
     7
  6
CONTINUOUS
290
     0
370
    -3
390
458FA
347
70F90
  0
LAYER
  5
45940
330
458C1
100
AcDbSymbolTableRecord
100
AcDbLayerTableRecord
  2
Defpoints
 70
     1
 62
     7
  6
CONTINUOUS
290
     0
370
    -3
390
458FA
347
70F90
  0
LAYER
  5
45954
330
458C1
100
AcDbSymbolTableRecord
100
AcDbLayerTableRecord
  2
SCALE
 70
     1
 62
     7
  6
CONTINUOUS
370
    -3
390
458FA
347
70F90
  0
LAYER
  5
4D59A
330
458C1
100
AcDbSymbolTableRecord
100
AcDbLayerTableRecord
  2
SNAP_POINTS
 70
     1
 62
     1
  6
CONTINUOUS
370
    -3
390
458FA
347
70F90
  0
LAYER
  5
70FAB
102
{ACAD_XDICTIONARY
360
70FAC
102
}
330
458C1
100
AcDbSymbolTableRecord
100
AcDbLayerTableRecord
  2
WIRES
 70
     0
 62
     7
  6
CONTINUOUS
370
    -3
390
458FA
347
70F90
  0
ENDTAB
  0
TABLE
  2
STYLE
  5
458C2
330
0
100
AcDbSymbolTable
 70
     1
  0
STYLE
  5
458CE
330
458C2
100
AcDbSymbolTableRecord
100
AcDbTextStyleTableRecord
  2
STANDARD
 70
     0
 40
0.0
 41
1.0
 50
0.0
 71
     0
 42
0.12
  3
txt
  4

  0
ENDTAB
  0
TABLE
  2
VIEW
  5
458C5
330
0
100
AcDbSymbolTable
 70
     0
  0
ENDTAB
  0
TABLE
  2
UCS
  5
458C6
330
0
100
AcDbSymbolTable
 70
     0
  0
ENDTAB
  0
TABLE
  2
APPID
  5
458C8
330
0
100
AcDbSymbolTable
 70
     3
  0
APPID
  5
458CF
330
458C8
100
AcDbSymbolTableRecord
100
AcDbRegAppTableRecord
  2
ACAD
 70
     0
  0
APPID
  5
5FD5B
330
458C8
100
AcDbSymbolTableRecord
100
AcDbRegAppTableRecord
  2
AVE_RENDER
 70
     0
  0
APPID
  5
70FB0
330
458C8
100
AcDbSymbolTableRecord
100
AcDbRegAppTableRecord
  2
DCO15
 70
     0
  0
ENDTAB
  0
TABLE
  2
DIMSTYLE
  5
458C9
330
0
100
AcDbSymbolTable
 70
     1
100
AcDbDimStyleTable
 71
     0
  0
DIMSTYLE
105
458F6
102
{ACAD_REACTORS
330
70EBA
330
70EC8
102
}
330
458C9
100
AcDbSymbolTableRecord
100
AcDbDimStyleTableRecord
  2
ABECAD_3D
 70
     0
 41
0.125
 43
0.375
 44
0.1
 73
     0
 78
     4
140
0.125
146
1.5
170
     1
271
     6
272
     6
276
     2
277
     5
279
     2
284
     4
285
     4
286
     4
288
     1
289
     2
340
458CE
  0
ENDTAB
  0
TABLE
  2
BLOCK_RECORD
  5
458C0
330
0
100
AcDbSymbolTable
 70
     2
  0
BLOCK_RECORD
  5
458D6
102
{ACAD_XDICTIONARY
360
4592C
102
}
330
458C0
100
AcDbSymbolTableRecord
100
AcDbBlockTableRecord
  2
*MODEL_SPACE
340
458FD
 70
     0
280
     1
281
     0
  0
BLOCK_RECORD
  5
458D3
102
{ACAD_XDICTIONARY
360
4592A
102
}
330
458C0
100
AcDbSymbolTableRecord
100
AcDbBlockTableRecord
  2
*PAPER_SPACE
340
458FE
 70
     0
280
     1
281
     0
  0
BLOCK_RECORD
  5
70EBB
330
458C0
100
AcDbSymbolTableRecord
100
AcDbBlockTableRecord
  2
*D0
340
0
 70
     0
280
     1
281
     0
  0
BLOCK_RECORD
  5
70EC9
330
458C0
100
AcDbSymbolTableRecord
100
AcDbBlockTableRecord
  2
*D1
340
0
 70
     0
280
     1
281
     0
  0
ENDTAB
  0
ENDSEC
  0
SECTION
  2
BLOCKS
  0
BLOCK
  5
458DF
330
458D6
100
AcDbEntity
  8
0
100
AcDbBlockBegin
  2
*MODEL_SPACE
 70
     0
 10
0.0
 20
0.0
 30
0.0
  3
*MODEL_SPACE
  1

  0
ENDBLK
  5
458E0
330
458D6
100
AcDbEntity
  8
0
100
AcDbBlockEnd
  0
BLOCK
  5
458DD
330
458D3
100
AcDbEntity
 67
     1
  8
0
100
AcDbBlockBegin
  2
*PAPER_SPACE
 70
     0
 10
0.0
 20
0.0
 30
0.0
  3
*PAPER_SPACE
  1

  0
ENDBLK
  5
458DE
330
458D3
100
AcDbEntity
 67
     1
  8
0
100
AcDbBlockEnd
  0
BLOCK
  5
70EC6
330
70EBB
100
AcDbEntity
  8
0
100
AcDbBlockBegin
  2
*D0
 70
     1
 10
0.0
 20
0.0
 30
0.0
  3
*D0
  1

  0
LINE
  5
70EBC
330
70EBB
100
AcDbEntity
  8
AREA1
 62
     0
370
    -2
100
AcDbLine
 10
0.4449999999999993
 20
0.838
 30
0.0
 11
-0.5362370437753561
 21
0.8380000000000004
 31
0.0
  0
LINE
  5
70EBD
330
70EBB
100
AcDbEntity
  8
AREA1
 62
     0
370
    -2
100
AcDbLine
 10
0.811999999999999
 20
-2.342
 30
0.0
 11
-0.536237043775357
 21
-2.342
 31
0.0
  0
LINE
  5
70EBE
330
70EBB
100
AcDbEntity
  8
AREA1
 62
     0
370
    -2
100
AcDbLine
 10
-0.4362370437753561
 20
0.7130000000000005
 30
0.0
 11
-0.4362370437753563
 21
-0.0042615006996099
 31
0.0
  0
LINE
  5
70EBF
330
70EBB
100
AcDbEntity
  8
AREA1
 62
     0
370
    -2
100
AcDbLine
 10
-0.4362370437753568
 20
-2.217
 30
0.0
 11
-0.4362370437753567
 21
-1.663428167366276
 31
0.0
  0
MTEXT
  5
70EC0
330
70EBB
100
AcDbEntity
  8
AREA1
 62
     0
100
AcDbMText
 10
-0.4362370437753565
 20
-0.8338448340329431
 30
0.0
 40
0.125
 41
0.0
 46
0.0
 71
     5
 72
     1
  1
\A1;3 3/16 [80.77]
 11
0.0000000000000001
 21
1.0
 31
0.0
 73
     1
 44
1.0
  0
SOLID
  5
70EC1
330
70EBB
100
AcDbEntity
  8
AREA1
 62
     0
100
AcDbTrace
 10
-0.4570703771086894
 20
0.7130000000000005
 30
0.0
 11
-0.4154037104420228
 21
0.7130000000000005
 31
0.0
 12
-0.4362370437753561
 22
0.8380000000000004
 32
0.0
 13
-0.4362370437753561
 23
0.8380000000000004
 33
0.0
  0
SOLID
  5
70EC2
330
70EBB
100
AcDbEntity
  8
AREA1
 62
     0
100
AcDbTrace
 10
-0.4570703771086901
 20
-2.217
 30
0.0
 11
-0.4154037104420235
 21
-2.217
 31
0.0
 12
-0.4362370437753568
 22
-2.342
 32
0.0
 13
-0.4362370437753568
 23
-2.342
 33
0.0
  0
POINT
  5
70EC3
330
70EBB
100
AcDbEntity
  8
Defpoints
 62
     0
100
AcDbPoint
 10
0.5074999999999994
 20
0.838
 30
2.9655
  0
POINT
  5
70EC4
330
70EBB
100
AcDbEntity
  8
Defpoints
 62
     0
100
AcDbPoint
 10
0.874499999999999
 20
-2.342
 30
2.9655
  0
POINT
  5
70EC5
330
70EBB
100
AcDbEntity
  8
Defpoints
 62
     0
100
AcDbPoint
 10
-0.4362370437753568
 20
-2.342
 30
0.0
  0
ENDBLK
  5
70EC7
330
70EBB
100
AcDbEntity
  8
0
100
AcDbBlockEnd
  0
BLOCK
  5
70ED4
330
70EC9
100
AcDbEntity
  8
0
100
AcDbBlockBegin
  2
*D1
 70
     1
 10
0.0
 20
0.0
 30
0.0
  3
*D1
  1

  0
LINE
  5
70ECA
330
70EC9
100
AcDbEntity
  8
AREA1
 62
     0
370
    -2
100
AcDbLine
 10
-0.0000000000000009
 20
0.5774999999999997
 30
0.0
 11
-0.0000000000000008
 21
1.263531272698225
 31
0.0
  0
LINE
  5
70ECB
330
70EC9
100
AcDbEntity
  8
AREA1
 62
     0
370
    -2
100
AcDbLine
 10
2.119999999999999
 20
0.5774999999999997
 30
0.0
 11
2.119999999999999
 21
1.263531272698225
 31
0.0
  0
LINE
  5
70ECC
330
70EC9
100
AcDbEntity
  8
AREA1
 62
     0
370
    -2
100
AcDbLine
 10
0.1249999999999992
 20
1.163531272698225
 30
0.0
 11
0.2516647276517792
 21
1.163531272698225
 31
0.0
  0
LINE
  5
70ECD
330
70EC9
100
AcDbEntity
  8
AREA1
 62
     0
370
    -2
100
AcDbLine
 10
1.994999999999999
 20
1.163531272698225
 30
0.0
 11
1.806664727651778
 21
1.163531272698225
 31
0.0
  0
MTEXT
  5
70ECE
330
70EC9
100
AcDbEntity
  8
AREA1
 62
     0
100
AcDbMText
 10
1.029164727651779
 20
1.163531272698225
 30
0.0
 40
0.125
 41
0.0
 46
0.0
 71
     5
 72
     1
  1
\A1;2 1/8 [53.85]
 73
     1
 44
1.0
  0
SOLID
  5
70ECF
330
70EC9
100
AcDbEntity
  8
AREA1
 62
     0
100
AcDbTrace
 10
0.1249999999999992
 20
1.184364606031558
 30
0.0
 11
0.1249999999999992
 21
1.142697939364892
 31
0.0
 12
-0.0000000000000008
 22
1.163531272698225
 32
0.0
 13
-0.0000000000000008
 23
1.163531272698225
 33
0.0
  0
SOLID
  5
70ED0
330
70EC9
100
AcDbEntity
  8
AREA1
 62
     0
100
AcDbTrace
 10
1.994999999999999
 20
1.184364606031558
 30
0.0
 11
1.994999999999999
 21
1.142697939364892
 31
0.0
 12
2.119999999999999
 22
1.163531272698225
 32
0.0
 13
2.119999999999999
 23
1.163531272698225
 33
0.0
  0
POINT
  5
70ED1
330
70EC9
100
AcDbEntity
  8
Defpoints
 62
     0
100
AcDbPoint
 10
-0.0000000000000009
 20
0.5149999999999997
 30
3.218499999999999
  0
POINT
  5
70ED2
330
70EC9
100
AcDbEntity
  8
Defpoints
 62
     0
100
AcDbPoint
 10
2.119999999999999
 20
0.5149999999999997
 30
3.218499999999999
  0
POINT
  5
70ED3
330
70EC9
100
AcDbEntity
  8
Defpoints
 62
     0
100
AcDbPoint
 10
2.119999999999999
 20
1.163531272698225
 30
0.0
  0
ENDBLK
  5
70ED5
330
70EC9
100
AcDbEntity
  8
0
100
AcDbBlockEnd
  0
ENDSEC
  0
SECTION
  2
ENTITIES
  0
ATTDEF
  5
70B5E
330
458D6
100
AcDbEntity
  8
ATTRIBUTES
100
AcDbText
 10
0.0784846182650734
 20
-0.2461715662756023
 30
0.0000000000000002
 40
0.0805203758744914
  1
SPRECHER+SCHUH
100
AcDbAttributeDefinition
  3
MANUFACTURER NAME?
  2
AC_VND_LABEL
 70
     1
280
     0
  0
ATTDEF
  5
70B5F
330
458D6
100
AcDbEntity
  8
ATTRIBUTES
100
AcDbText
 10
0.0784846182650734
 20
-0.4139223493474602
 30
0.0000000000000002
 40
0.0805203758744914
  1
CA7-43D
100
AcDbAttributeDefinition
  3
CATALOG NUMBER?
  2
AC_PART_NO
 70
     1
280
     0
  0
ATTDEF
  5
70B60
330
458D6
100
AcDbEntity
  8
ATTRIBUTES
100
AcDbText
 10
0.0784846182650734
 20
-0.5816731324193163
 30
0.0000000000000002
 40
0.0805203758744914
  1
IEC DC CONTACTOR, 43A
100
AcDbAttributeDefinition
  3
PART DESCRIPTION?
  2
AC_DESCRIPTION
 70
     1
280
     0
  0
ATTDEF
  5
70B61
330
458D6
100
AcDbEntity
  8
ATTRIBUTES
100
AcDbText
 10
0.0784846182650734
 20
-0.7494239154911742
 30
0.0000000000000002
 40
0.0805203758744914
  1

100
AcDbAttributeDefinition
  3
DEVICE ID?
  2
DEVICE_ID
 70
     1
280
     0
  0
ATTDEF
  5
70B62
330
458D6
100
AcDbEntity
  8
ATTRIBUTES
100
AcDbText
 10
0.0784846182650734
 20
-0.9171746985630303
 30
0.0000000000000002
 40
0.0805203758744914
  1

100
AcDbAttributeDefinition
  3
CUSTOMER PART NUMBER?
  2
AC_CPART_NO
 70
     1
280
     0
  0
ATTDEF
  5
70B63
330
458D6
100
AcDbEntity
  8
ATTRIBUTES
100
AcDbText
 10
0.0784846182650734
 20
-1.084925481634888
 30
0.0000000000000002
 40
0.0805203758744914
  1

100
AcDbAttributeDefinition
  3
CUSTOMER NOTE?
  2
AC_NOTE
 70
     1
280
     0
  0
ATTDEF
  5
70B64
330
458D6
100
AcDbEntity
  8
ATTRIBUTES
100
AcDbText
 10
0.0784846182650734
 20
-1.252676264706745
 30
0.0000000000000002
 40
0.0805203758744914
  1

100
AcDbAttributeDefinition
  3
FASTENER DATA?
  2
FASTENER
 70
     1
280
     0
  0
ATTDEF
  5
70B65
330
458D6
100
AcDbEntity
  8
ATTRIBUTES
100
AcDbText
 10
0.0784846182650734
 20
-1.420427047778603
 30
0.0000000000000002
 40
0.0805203758744914
  1
INCH
100
AcDbAttributeDefinition
  3
UNIT OF SCALE?
  2
AC_SCALE_UNIT
 70
     1
280
     0
  0
ATTDEF
  5
70B66
330
458D6
100
AcDbEntity
  8
ATTRIBUTES
100
AcDbText
 10
0.0784846182650734
 20
-1.58817783085046
 30
0.0000000000000002
 40
0.0805203758744914
  1
0
100
AcDbAttributeDefinition
  3
VIEW CODE?
  2
AC_VIEW_CODE
 70
     1
280
     0
  0
CIRCLE
  5
70B67
330
458D6
100
AcDbEntity
  8
0
100
AcDbCircle
 10
0.3713499999999978
 20
0.1807980402316449
 30
5.4375
 40
0.138
  0
POLYLINE
  5
70B68
330
458D6
100
AcDbEntity
  8
0
100
AcDbPolygonMesh
 66
     1
 10
0.0
 20
0.0
 30
0.0
 70
    16
 71
     6
 72
     3
  0
VERTEX
  5
70B69
330
70B68
100
AcDbEntity
  8
0
100
AcDbVertex
100
AcDbPolygonMeshVertex
 10
1.4455
 20
-1.5045
 30
5.637499999999998
 70
    64
  0
VERTEX
  5
70B6A
330
70B68
100
AcDbEntity
  8
0
100
AcDbVertex
100
AcDbPolygonMeshVertex
 10
1.4455
 20
-1.5045
 30
5.4375
 70
    64
  0
VERTEX
  5
70B6B
330
70B68
100
AcDbEntity
  8
0
100
AcDbVertex
100
AcDbPolygonMeshVertex
 10
1.4455
 20
-1.5045
 30
5.4375
 70
    64
  0
VERTEX
  5
70B6C
330
70B68
100
AcDbEntity
  8
0
100
AcDbVertex
100
AcDbPolygonMeshVertex
 10
0.6744999999999993
 20
-1.5045
 30
5.637499999999998
 70
    64
  0
VERTEX
  5
70B6D
330
70B68
100
AcDbEntity
  8
0
100
AcDbVertex
100
AcDbPolygonMeshVertex
 10
0.6744999999999993
 20
-1.5045
 30
5.4375
 70
    64
  0
VERTEX
  5
70B6E
330
70B68
100
AcDbEntity
  8
0
100
AcDbVertex
100
AcDbPolygonMeshVertex
 10
0.6744999999999993
 20
-1.5045
 30
5.4375
 70
    64
  0
VERTEX
  5
70B6F
330
70B68
100
AcDbEntity
  8
0
100
AcDbVertex
100
AcDbPolygonMeshVertex
 10
0.6744999999999993
 20
-1.2225
 30
5.637499999999998
 70
    64
  0
VERTEX
  5
70B70
330
70B68
100
AcDbEntity
  8
0
100
AcDbVertex
100
AcDbPolygonMeshVertex
 10
0.6744999999999993
 20
-1.2225
 30
5.4375
 70
    64
  0
VERTEX
  5
70B71
330
70B68
100
AcDbEntity
  8
0
100
AcDbVertex
100
AcDbPolygonMeshVertex
 10
0.6744999999999993
 20
-1.5045
 30
5.4375
 70
    64
  0
VERTEX
  5
70B72
330
70B68
100
AcDbEntity
  8
0
100
AcDbVertex
100
AcDbPolygonMeshVertex
 10
1.4455
 20
-1.2225
 30
5.637499999999998
 70
    64
  0
VERTEX
  5
70B73
330
70B68
100
AcDbEntity
  8
0
100
AcDbVertex
100
AcDbPolygonMeshVertex
 10
1.4455
 20
-1.2225
 30
5.4375
 70
    64
  0
VERTEX
  5
70B74
330
70B68
100
AcDbEntity
  8
0
100
AcDbVertex
100
AcDbPolygonMeshVertex
 10
1.4455
 20
-1.5045
 30
5.4375
 70
    64
  0
VERTEX
  5
70B75
330
70B68
100
AcDbEntity
  8
0
100
AcDbVertex
100
AcDbPolygonMeshVertex
 10
1.4455
 20
-1.2225
 30
5.637499999999998
 70
    64
  0
VERTEX
  5
70B76
330
70B68
100
AcDbEntity
  8
0
100
AcDbVertex
100
AcDbPolygonMeshVertex
 10
1.4455
 20
-1.2225
 30
5.637499999999998
 70
    64
  0
VERTEX
  5
70B77
330
70B68
100
AcDbEntity
  8
0
100
AcDbVertex
100
AcDbPolygonMeshVertex
 10
1.4455
 20
-1.5045
 30
5.637499999999998
 70
    64
  0
VERTEX
  5
70B78
330
70B68
100
AcDbEntity
  8
0
100
AcDbVertex
100
AcDbPolygonMeshVertex
 10
0.6744999999999993
 20
-1.2225
 30
5.637499999999998
 70
    64
  0
VERTEX
  5
70B79
330
70B68
100
AcDbEntity
  8
0
100
AcDbVertex
100
AcDbPolygonMeshVertex
 10
0.6744999999999993
 20
-1.2225
 30
5.637499999999998
 70
    64
  0
VERTEX
  5
70B7A
330
70B68
100
AcDbEntity
  8
0
100
AcDbVertex
100
AcDbPolygonMeshVertex
 10
0.6744999999999993
 20
-1.5045
 30
5.637499999999998
 70
    64
  0
SEQEND
  5
70B7B
330
70B68
100
AcDbEntity
  8
0
  0
POLYLINE
  5
70B7C
330
458D6
100
AcDbEntity
  8
0
100
AcDbPolygonMesh
 66
     1
 10
0.0
 20
0.0
 30
0.0
 70
    16
 71
     6
 72
     3
  0
VERTEX
  5
70B7D
330
70B7C
100
AcDbEntity
  8
0
100
AcDbVertex
100
AcDbPolygonMeshVertex
 10
1.245499999999998
 20
-2.342
 30
3.6395
 70
    64
  0
VERTEX
  5
70B7E
330
70B7C
100
AcDbEntity
  8
0
100
AcDbVertex
100
AcDbPolygonMeshVertex
 10
1.245499999999998
 20
-2.342
 30
2.9655
 70
    64
  0
VERTEX
  5
70B7F
330
70B7C
100
AcDbEntity
  8
0
100
AcDbVertex
100
AcDbPolygonMeshVertex
 10
1.245499999999998
 20
-2.342
 30
2.9655
 70
    64
  0
VERTEX
  5
70B80
330
70B7C
100
AcDbEntity
  8
0
100
AcDbVertex
100
AcDbPolygonMeshVertex
 10
0.874499999999999
 20
-2.342
 30
3.6395
 70
    64
  0
VERTEX
  5
70B81
330
70B7C
100
AcDbEntity
  8
0
100
AcDbVertex
100
AcDbPolygonMeshVertex
 10
0.874499999999999
 20
-2.342
 30
2.9655
 70
    64
  0
VERTEX
  5
70B82
330
70B7C
100
AcDbEntity
  8
0
100
AcDbVertex
100
AcDbPolygonMeshVertex
 10
0.874499999999999
 20
-2.342
 30
2.9655
 70
    64
  0
VERTEX
  5
70B83
330
70B7C
100
AcDbEntity
  8
0
100
AcDbVertex
100
AcDbPolygonMeshVertex
 10
0.874499999999999
 20
-2.089
 30
3.6395
 70
    64
  0
VERTEX
  5
70B84
330
70B7C
100
AcDbEntity
  8
0
100
AcDbVertex
100
AcDbPolygonMeshVertex
 10
0.874499999999999
 20
-2.089
 30
2.9655
 70
    64
  0
VERTEX
  5
70B85
330
70B7C
100
AcDbEntity
  8
0
100
AcDbVertex
100
AcDbPolygonMeshVertex
 10
0.874499999999999
 20
-2.342
 30
2.9655
 70
    64
  0
VERTEX
  5
70B86
330
70B7C
100
AcDbEntity
  8
0
100
AcDbVertex
100
AcDbPolygonMeshVertex
 10
1.245499999999998
 20
-2.089
 30
3.6395
 70
    64
  0
VERTEX
  5
70B87
330
70B7C
100
AcDbEntity
  8
0
100
AcDbVertex
100
AcDbPolygonMeshVertex
 10
1.245499999999998
 20
-2.089
 30
2.9655
 70
    64
  0
VERTEX
  5
70B88
330
70B7C
100
AcDbEntity
  8
0
100
AcDbVertex
100
AcDbPolygonMeshVertex
 10
1.245499999999998
 20
-2.342
 30
2.9655
 70
    64
  0
VERTEX
  5
70B89
330
70B7C
100
AcDbEntity
  8
0
100
AcDbVertex
100
AcDbPolygonMeshVertex
 10
1.245499999999998
 20
-2.089
 30
3.6395
 70
    64
  0
VERTEX
  5
70B8A
330
70B7C
100
AcDbEntity
  8
0
100
AcDbVertex
100
AcDbPolygonMeshVertex
 10
1.245499999999998
 20
-2.089
 30
3.6395
 70
    64
  0
VERTEX
  5
70B8B
330
70B7C
100
AcDbEntity
  8
0
100
AcDbVertex
100
AcDbPolygonMeshVertex
 10
1.245499999999998
 20
-2.342
 30
3.6395
 70
    64
  0
VERTEX
  5
70B8C
330
70B7C
100
AcDbEntity
  8
0
100
AcDbVertex
100
AcDbPolygonMeshVertex
 10
0.874499999999999
 20
-2.089
 30
3.6395
 70
    64
  0
VERTEX
  5
70B8D
330
70B7C
100
AcDbEntity
  8
0
100
AcDbVertex
100
AcDbPolygonMeshVertex
 10
0.874499999999999
 20
-2.089
 30
3.6395
 70
    64
  0
VERTEX
  5
70B8E
330
70B7C
100
AcDbEntity
  8
0
100
AcDbVertex
100
AcDbPolygonMeshVertex
 10
0.874499999999999
 20
-2.342
 30
3.6395
 70
    64
  0
SEQEND
  5
70B8F
330
70B7C
100
AcDbEntity
  8
0
  0
LWPOLYLINE
  5
70B90
330
458D6
100
AcDbEntity
  8
0
100
AcDbPolyline
 90
        4
 70
     1
 43
0.0
 38
3.6395
 10
0.9265000000000004
 20
-2.141
 10
1.1935
 20
-2.141
 10
1.1935
 20
-2.29
 10
0.9265000000000004
 20
-2.29
  0
POLYLINE
  5
70B91
330
458D6
100
AcDbEntity
  8
0
100
AcDbPolygonMesh
 66
     1
 10
0.0
 20
0.0
 30
0.0
 70
    16
 71
     6
 72
     3
  0
VERTEX
  5
70B92
330
70B91
100
AcDbEntity
  8
0
100
AcDbVertex
100
AcDbPolygonMeshVertex
 10
0.5074999999999994
 20
0.838
 30
3.6395
 70
    64
  0
VERTEX
  5
70B93
330
70B91
100
AcDbEntity
  8
0
100
AcDbVertex
100
AcDbPolygonMeshVertex
 10
0.5074999999999994
 20
0.838
 30
2.9655
 70
    64
  0
VERTEX
  5
70B94
330
70B91
100
AcDbEntity
  8
0
100
AcDbVertex
100
AcDbPolygonMeshVertex
 10
0.5074999999999994
 20
0.838
 30
2.9655
 70
    64
  0
VERTEX
  5
70B95
330
70B91
100
AcDbEntity
  8
0
100
AcDbVertex
100
AcDbPolygonMeshVertex
 10
1.612499999999999
 20
0.838
 30
3.6395
 70
    64
  0
VERTEX
  5
70B96
330
70B91
100
AcDbEntity
  8
0
100
AcDbVertex
100
AcDbPolygonMeshVertex
 10
1.612499999999999
 20
0.838
 30
2.9655
 70
    64
  0
VERTEX
  5
70B97
330
70B91
100
AcDbEntity
  8
0
100
AcDbVertex
100
AcDbPolygonMeshVertex
 10
1.612499999999999
 20
0.838
 30
2.9655
 70
    64
  0
VERTEX
  5
70B98
330
70B91
100
AcDbEntity
  8
0
100
AcDbVertex
100
AcDbPolygonMeshVertex
 10
1.612499999999999
 20
0.4009999999999998
 30
3.6395
 70
    64
  0
VERTEX
  5
70B99
330
70B91
100
AcDbEntity
  8
0
100
AcDbVertex
100
AcDbPolygonMeshVertex
 10
1.612499999999999
 20
0.4009999999999998
 30
2.9655
 70
    64
  0
VERTEX
  5
70B9A
330
70B91
100
AcDbEntity
  8
0
100
AcDbVertex
100
AcDbPolygonMeshVertex
 10
1.612499999999999
 20
0.838
 30
2.9655
 70
    64
  0
VERTEX
  5
70B9B
330
70B91
100
AcDbEntity
  8
0
100
AcDbVertex
100
AcDbPolygonMeshVertex
 10
0.5074999999999994
 20
0.4009999999999998
 30
3.6395
 70
    64
  0
VERTEX
  5
70B9C
330
70B91
100
AcDbEntity
  8
0
100
AcDbVertex
100
AcDbPolygonMeshVertex
 10
0.5074999999999994
 20
0.4009999999999998
 30
2.9655
 70
    64
  0
VERTEX
  5
70B9D
330
70B91
100
AcDbEntity
  8
0
100
AcDbVertex
100
AcDbPolygonMeshVertex
 10
0.5074999999999994
 20
0.838
 30
2.9655
 70
    64
  0
VERTEX
  5
70B9E
330
70B91
100
AcDbEntity
  8
0
100
AcDbVertex
100
AcDbPolygonMeshVertex
 10
0.5074999999999994
 20
0.4009999999999998
 30
3.6395
 70
    64
  0
VERTEX
  5
70B9F
330
70B91
100
AcDbEntity
  8
0
100
AcDbVertex
100
AcDbPolygonMeshVertex
 10
0.5074999999999994
 20
0.4009999999999998
 30
3.6395
 70
    64
  0
VERTEX
  5
70BA0
330
70B91
100
AcDbEntity
  8
0
100
AcDbVertex
100
AcDbPolygonMeshVertex
 10
0.5074999999999994
 20
0.838
 30
3.6395
 70
    64
  0
VERTEX
  5
70BA1
330
70B91
100
AcDbEntity
  8
0
100
AcDbVertex
100
AcDbPolygonMeshVertex
 10
1.612499999999999
 20
0.4009999999999998
 30
3.6395
 70
    64
  0
VERTEX
  5
70BA2
330
70B91
100
AcDbEntity
  8
0
100
AcDbVertex
100
AcDbPolygonMeshVertex
 10
1.612499999999999
 20
0.4009999999999998
 30
3.6395
 70
    64
  0
VERTEX
  5
70BA3
330
70B91
100
AcDbEntity
  8
0
100
AcDbVertex
100
AcDbPolygonMeshVertex
 10
1.612499999999999
 20
0.838
 30
3.6395
 70
    64
  0
SEQEND
  5
70BA4
330
70B91
100
AcDbEntity
  8
0
  0
LINE
  5
70BA5
330
458D6
100
AcDbEntity
  8
0
100
AcDbLine
 10
0.9199999999999999
 20
0.4009999999999998
 30
3.6395
 11
0.9199999999999999
 21
0.6359999999999997
 31
3.6395
  0
LINE
  5
70BA6
330
458D6
100
AcDbEntity
  8
0
100
AcDbLine
 10
1.199999999999999
 20
0.6359999999999997
 30
3.6395
 11
0.9199999999999999
 21
0.6359999999999997
 31
3.6395
  0
LINE
  5
70BA7
330
458D6
100
AcDbEntity
  8
0
100
AcDbLine
 10
0.8794999999999992
 20
0.838
 30
3.4185
 11
0.5624999999999992
 21
0.838
 31
3.4185
  0
LINE
  5
70BA8
330
458D6
100
AcDbEntity
  8
0
100
AcDbLine
 10
0.8794999999999992
 20
0.838
 30
3.2185
 11
0.5624999999999992
 21
0.838
 31
3.2185
  0
LINE
  5
70BA9
330
458D6
100
AcDbEntity
  8
0
100
AcDbLine
 10
0.8794999999999992
 20
0.838
 30
3.4185
 11
0.8794999999999992
 21
0.838
 31
3.2185
  0
CIRCLE
  5
70BAA
330
458D6
100
AcDbEntity
  8
0
100
AcDbCircle
 10
0.7209999999999975
 20
0.6194999999999995
 30
3.6395
 40
0.12
  0
CIRCLE
  5
70BAB
330
458D6
100
AcDbEntity
  8
0
100
AcDbCircle
 10
1.399000000000001
 20
0.6194999999999995
 30
3.6395
 40
0.12
  0
LINE
  5
70BAC
330
458D6
100
AcDbEntity
  8
0
100
AcDbLine
 10
1.240499999999999
 20
0.838
 30
3.2185
 11
1.557499999999999
 21
0.838
 31
3.2185
  0
LINE
  5
70BAD
330
458D6
100
AcDbEntity
  8
0
100
AcDbLine
 10
1.240499999999999
 20
0.838
 30
3.4185
 11
1.557499999999999
 21
0.838
 31
3.4185
  0
LINE
  5
70BAE
330
458D6
100
AcDbEntity
  8
0
100
AcDbLine
 10
1.557499999999999
 20
0.838
 30
3.4185
 11
1.557499999999999
 21
0.838
 31
3.2185
  0
LINE
  5
70BAF
330
458D6
100
AcDbEntity
  8
0
100
AcDbLine
 10
1.240499999999999
 20
0.838
 30
3.4185
 11
1.240499999999999
 21
0.838
 31
3.2185
  0
POLYLINE
  5
70BB0
330
458D6
100
AcDbEntity
  8
0
100
AcDb3dPolyline
 66
     1
 10
0.0
 20
0.0
 30
0.0
 70
     8
  0
VERTEX
  5
70BB1
330
70BB0
100
AcDbEntity
  8
0
100
AcDbVertex
100
AcDb3dPolylineVertex
 10
2.12
 20
-1.472999999999999
 30
0.187
 70
    32
  0
VERTEX
  5
70BB2
330
70BB0
100
AcDbEntity
  8
0
100
AcDbVertex
100
AcDb3dPolylineVertex
 10
2.12
 20
-1.472999999999999
 30
1.056999999999999
 70
    32
  0
VERTEX
  5
70BB3
330
70BB0
100
AcDbEntity
  8
0
100
AcDbVertex
100
AcDb3dPolylineVertex
 10
2.12
 20
-1.628
 30
1.056999999999999
 70
    32
  0
VERTEX
  5
70BB4
330
70BB0
100
AcDbEntity
  8
0
100
AcDbVertex
100
AcDb3dPolylineVertex
 10
2.12
 20
-1.628
 30
0.187
 70
    32
  0
SEQEND
  5
70BB5
330
70BB0
100
AcDbEntity
  8
0
  0
POLYLINE
  5
70BB6
330
458D6
100
AcDbEntity
  8
0
100
AcDb3dPolyline
 66
     1
 10
0.0
 20
0.0
 30
0.0
 70
     8
  0
VERTEX
  5
70BB7
330
70BB6
100
AcDbEntity
  8
0
100
AcDbVertex
100
AcDb3dPolylineVertex
 10
2.12
 20
-0.0940000000000003
 30
0.187
 70
    32
  0
VERTEX
  5
70BB8
330
70BB6
100
AcDbEntity
  8
0
100
AcDbVertex
100
AcDb3dPolylineVertex
 10
2.12
 20
-0.0940000000000003
 30
1.056999999999999
 70
    32
  0
VERTEX
  5
70BB9
330
70BB6
100
AcDbEntity
  8
0
100
AcDbVertex
100
AcDb3dPolylineVertex
 10
2.12
 20
-0.2490000000000005
 30
1.056999999999999
 70
    32
  0
VERTEX
  5
70BBA
330
70BB6
100
AcDbEntity
  8
0
100
AcDbVertex
100
AcDb3dPolylineVertex
 10
2.12
 20
-0.2490000000000005
 30
0.187
 70
    32
  0
SEQEND
  5
70BBB
330
70BB6
100
AcDbEntity
  8
0
  0
POLYLINE
  5
70BBC
330
458D6
100
AcDbEntity
  8
0
100
AcDb3dPolyline
 66
     1
 10
0.0
 20
0.0
 30
0.0
 70
     8
  0
VERTEX
  5
70BBD
330
70BBC
100
AcDbEntity
  8
0
100
AcDbVertex
100
AcDb3dPolylineVertex
 10
0.0
 20
-0.0940000000000003
 30
0.1870000000000001
 70
    32
  0
VERTEX
  5
70BBE
330
70BBC
100
AcDbEntity
  8
0
100
AcDbVertex
100
AcDb3dPolylineVertex
 10
0.0
 20
-0.0940000000000003
 30
1.056999999999999
 70
    32
  0
VERTEX
  5
70BBF
330
70BBC
100
AcDbEntity
  8
0
100
AcDbVertex
100
AcDb3dPolylineVertex
 10
0.0
 20
-0.2490000000000005
 30
1.056999999999999
 70
    32
  0
VERTEX
  5
70BC0
330
70BBC
100
AcDbEntity
  8
0
100
AcDbVertex
100
AcDb3dPolylineVertex
 10
0.0
 20
-0.2490000000000005
 30
0.1870000000000001
 70
    32
  0
SEQEND
  5
70BC1
330
70BBC
100
AcDbEntity
  8
0
  0
POLYLINE
  5
70BC2
330
458D6
100
AcDbEntity
  8
0
100
AcDb3dPolyline
 66
     1
 10
0.0
 20
0.0
 30
0.0
 70
     8
  0
VERTEX
  5
70BC3
330
70BC2
100
AcDbEntity
  8
0
100
AcDbVertex
100
AcDb3dPolylineVertex
 10
0.0
 20
-1.472999999999999
 30
0.1870000000000001
 70
    32
  0
VERTEX
  5
70BC4
330
70BC2
100
AcDbEntity
  8
0
100
AcDbVertex
100
AcDb3dPolylineVertex
 10
0.0
 20
-1.472999999999999
 30
1.056999999999999
 70
    32
  0
VERTEX
  5
70BC5
330
70BC2
100
AcDbEntity
  8
0
100
AcDbVertex
100
AcDb3dPolylineVertex
 10
0.0
 20
-1.628
 30
1.056999999999999
 70
    32
  0
VERTEX
  5
70BC6
330
70BC2
100
AcDbEntity
  8
0
100
AcDbVertex
100
AcDb3dPolylineVertex
 10
0.0
 20
-1.628
 30
0.1870000000000001
 70
    32
  0
SEQEND
  5
70BC7
330
70BC2
100
AcDbEntity
  8
0
  0
CIRCLE
  5
70BC8
330
458D6
100
AcDbEntity
  8
0
100
AcDbCircle
 10
1.944999999999999
 20
0.3369999999999995
 30
0.3160000000000003
 40
0.086
  0
POLYLINE
  5
70BC9
330
458D6
100
AcDbEntity
  8
0
100
AcDb3dPolyline
 66
     1
 10
0.0
 20
0.0
 30
0.0
 70
     8
  0
VERTEX
  5
70BCA
330
70BC9
100
AcDbEntity
  8
0
100
AcDbVertex
100
AcDb3dPolylineVertex
 10
0.7063333333333325
 20
0.4009999999999998
 30
1.764499999999999
 70
    32
  0
VERTEX
  5
70BCB
330
70BC9
100
AcDbEntity
  8
0
100
AcDbVertex
100
AcDb3dPolylineVertex
 10
0.7063333333333325
 20
0.5359999999999995
 30
1.764499999999999
 70
    32
  0
VERTEX
  5
70BCC
330
70BC9
100
AcDbEntity
  8
0
100
AcDbVertex
100
AcDb3dPolylineVertex
 10
0.4956666666666659
 20
0.5359999999999995
 30
1.764499999999999
 70
    32
  0
VERTEX
  5
70BCD
330
70BC9
100
AcDbEntity
  8
0
100
AcDbVertex
100
AcDb3dPolylineVertex
 10
0.4956666666666659
 20
0.4009999999999998
 30
1.764499999999999
 70
    32
  0
SEQEND
  5
70BCE
330
70BC9
100
AcDbEntity
  8
0
  0
POLYLINE
  5
70BCF
330
458D6
100
AcDbEntity
  8
0
100
AcDb3dPolyline
 66
     1
 10
0.0
 20
0.0
 30
0.0
 70
     8
  0
VERTEX
  5
70BD0
330
70BCF
100
AcDbEntity
  8
0
100
AcDbVertex
100
AcDb3dPolylineVertex
 10
0.4336666666666666
 20
0.4009999999999998
 30
1.764499999999999
 70
    32
  0
VERTEX
  5
70BD1
330
70BCF
100
AcDbEntity
  8
0
100
AcDbVertex
100
AcDb3dPolylineVertex
 10
0.4336666666666666
 20
0.5359999999999995
 30
1.764499999999999
 70
    32
  0
VERTEX
  5
70BD2
330
70BCF
100
AcDbEntity
  8
0
100
AcDbVertex
100
AcDb3dPolylineVertex
 10
0.2230000000000004
 20
0.5359999999999995
 30
1.764499999999999
 70
    32
  0
VERTEX
  5
70BD3
330
70BCF
100
AcDbEntity
  8
0
100
AcDbVertex
100
AcDb3dPolylineVertex
 10
0.2230000000000004
 20
0.4009999999999998
 30
1.764499999999999
 70
    32
  0
SEQEND
  5
70BD4
330
70BCF
100
AcDbEntity
  8
0
  0
POLYLINE
  5
70BD5
330
458D6
100
AcDbEntity
  8
0
100
AcDb3dPolyline
 66
     1
 10
0.0
 20
0.0
 30
0.0
 70
     8
  0
VERTEX
  5
70BD6
330
70BD5
100
AcDbEntity
  8
0
100
AcDbVertex
100
AcDb3dPolylineVertex
 10
0.9789999999999984
 20
0.4009999999999998
 30
1.764499999999999
 70
    32
  0
VERTEX
  5
70BD7
330
70BD5
100
AcDbEntity
  8
0
100
AcDbVertex
100
AcDb3dPolylineVertex
 10
0.9789999999999984
 20
0.5359999999999995
 30
1.764499999999999
 70
    32
  0
VERTEX
  5
70BD8
330
70BD5
100
AcDbEntity
  8
0
100
AcDbVertex
100
AcDb3dPolylineVertex
 10
0.7683333333333319
 20
0.5359999999999995
 30
1.764499999999999
 70
    32
  0
VERTEX
  5
70BD9
330
70BD5
100
AcDbEntity
  8
0
100
AcDbVertex
100
AcDb3dPolylineVertex
 10
0.7683333333333319
 20
0.4009999999999998
 30
1.764499999999999
 70
    32
  0
SEQEND
  5
70BDA
330
70BD5
100
AcDbEntity
  8
0
  0
POLYLINE
  5
70BDB
330
458D6
100
AcDbEntity
  8
0
100
AcDbPolygonMesh
 66
     1
 10
0.0
 20
0.0
 30
0.0
 70
    16
 71
     6
 72
     3
  0
VERTEX
  5
70BDC
330
70BDB
100
AcDbEntity
  8
0
100
AcDbVertex
100
AcDbPolygonMeshVertex
 10
0.8639999999999989
 20
-0.5675000000000004
 30
5.648499999999999
 70
    64
  0
VERTEX
  5
70BDD
330
70BDB
100
AcDbEntity
  8
0
100
AcDbVertex
100
AcDbPolygonMeshVertex
 10
0.8639999999999989
 20
-0.5675000000000004
 30
5.471499999999998
 70
    64
  0
VERTEX
  5
70BDE
330
70BDB
100
AcDbEntity
  8
0
100
AcDbVertex
100
AcDbPolygonMeshVertex
 10
0.8639999999999989
 20
-0.5675000000000004
 30
5.471499999999998
 70
    64
  0
VERTEX
  5
70BDF
330
70BDB
100
AcDbEntity
  8
0
100
AcDbVertex
100
AcDbPolygonMeshVertex
 10
0.6944999999999988
 20
-0.5675000000000004
 30
5.648499999999999
 70
    64
  0
VERTEX
  5
70BE0
330
70BDB
100
AcDbEntity
  8
0
100
AcDbVertex
100
AcDbPolygonMeshVertex
 10
0.6944999999999988
 20
-0.5675000000000004
 30
5.471499999999998
 70
    64
  0
VERTEX
  5
70BE1
330
70BDB
100
AcDbEntity
  8
0
100
AcDbVertex
100
AcDbPolygonMeshVertex
 10
0.6944999999999988
 20
-0.5675000000000004
 30
5.471499999999998
 70
    64
  0
VERTEX
  5
70BE2
330
70BDB
100
AcDbEntity
  8
0
100
AcDbVertex
100
AcDbPolygonMeshVertex
 10
0.6944999999999988
 20
-0.2145000000000006
 30
5.648499999999999
 70
    64
  0
VERTEX
  5
70BE3
330
70BDB
100
AcDbEntity
  8
0
100
AcDbVertex
100
AcDbPolygonMeshVertex
 10
0.6944999999999988
 20
-0.2145000000000006
 30
5.471499999999998
 70
    64
  0
VERTEX
  5
70BE4
330
70BDB
100
AcDbEntity
  8
0
100
AcDbVertex
100
AcDbPolygonMeshVertex
 10
0.6944999999999988
 20
-0.5675000000000004
 30
5.471499999999998
 70
    64
  0
VERTEX
  5
70BE5
330
70BDB
100
AcDbEntity
  8
0
100
AcDbVertex
100
AcDbPolygonMeshVertex
 10
0.8639999999999989
 20
-0.2145000000000006
 30
5.648499999999999
 70
    64
  0
VERTEX
  5
70BE6
330
70BDB
100
AcDbEntity
  8
0
100
AcDbVertex
100
AcDbPolygonMeshVertex
 10
0.8639999999999989
 20
-0.2145000000000006
 30
5.471499999999998
 70
    64
  0
VERTEX
  5
70BE7
330
70BDB
100
AcDbEntity
  8
0
100
AcDbVertex
100
AcDbPolygonMeshVertex
 10
0.8639999999999989
 20
-0.5675000000000004
 30
5.471499999999998
 70
    64
  0
VERTEX
  5
70BE8
330
70BDB
100
AcDbEntity
  8
0
100
AcDbVertex
100
AcDbPolygonMeshVertex
 10
0.8639999999999989
 20
-0.2145000000000006
 30
5.648499999999999
 70
    64
  0
VERTEX
  5
70BE9
330
70BDB
100
AcDbEntity
  8
0
100
AcDbVertex
100
AcDbPolygonMeshVertex
 10
0.8639999999999989
 20
-0.2145000000000006
 30
5.648499999999999
 70
    64
  0
VERTEX
  5
70BEA
330
70BDB
100
AcDbEntity
  8
0
100
AcDbVertex
100
AcDbPolygonMeshVertex
 10
0.8639999999999989
 20
-0.5675000000000004
 30
5.648499999999999
 70
    64
  0
VERTEX
  5
70BEB
330
70BDB
100
AcDbEntity
  8
0
100
AcDbVertex
100
AcDbPolygonMeshVertex
 10
0.6944999999999988
 20
-0.2145000000000006
 30
5.648499999999999
 70
    64
  0
VERTEX
  5
70BEC
330
70BDB
100
AcDbEntity
  8
0
100
AcDbVertex
100
AcDbPolygonMeshVertex
 10
0.6944999999999988
 20
-0.2145000000000006
 30
5.648499999999999
 70
    64
  0
VERTEX
  5
70BED
330
70BDB
100
AcDbEntity
  8
0
100
AcDbVertex
100
AcDbPolygonMeshVertex
 10
0.6944999999999988
 20
-0.5675000000000004
 30
5.648499999999999
 70
    64
  0
SEQEND
  5
70BEE
330
70BDB
100
AcDbEntity
  8
0
  0
POLYLINE
  5
70BEF
330
458D6
100
AcDbEntity
  8
0
100
AcDbPolygonMesh
 66
     1
 10
0.0
 20
0.0
 30
0.0
 70
    16
 71
     6
 72
     3
  0
VERTEX
  5
70BF0
330
70BEF
100
AcDbEntity
  8
0
100
AcDbVertex
100
AcDbPolygonMeshVertex
 10
1.425499999999998
 20
-0.5675000000000004
 30
5.471499999999998
 70
    64
  0
VERTEX
  5
70BF1
330
70BEF
100
AcDbEntity
  8
0
100
AcDbVertex
100
AcDbPolygonMeshVertex
 10
1.425499999999998
 20
-0.5675000000000004
 30
5.4375
 70
    64
  0
VERTEX
  5
70BF2
330
70BEF
100
AcDbEntity
  8
0
100
AcDbVertex
100
AcDbPolygonMeshVertex
 10
1.425499999999998
 20
-0.5675000000000004
 30
5.4375
 70
    64
  0
VERTEX
  5
70BF3
330
70BEF
100
AcDbEntity
  8
0
100
AcDbVertex
100
AcDbPolygonMeshVertex
 10
0.6944999999999988
 20
-0.5675000000000004
 30
5.471499999999998
 70
    64
  0
VERTEX
  5
70BF4
330
70BEF
100
AcDbEntity
  8
0
100
AcDbVertex
100
AcDbPolygonMeshVertex
 10
0.6944999999999988
 20
-0.5675000000000004
 30
5.4375
 70
    64
  0
VERTEX
  5
70BF5
330
70BEF
100
AcDbEntity
  8
0
100
AcDbVertex
100
AcDbPolygonMeshVertex
 10
0.6944999999999988
 20
-0.5675000000000004
 30
5.4375
 70
    64
  0
VERTEX
  5
70BF6
330
70BEF
100
AcDbEntity
  8
0
100
AcDbVertex
100
AcDbPolygonMeshVertex
 10
0.6944999999999988
 20
-0.2145000000000006
 30
5.471499999999998
 70
    64
  0
VERTEX
  5
70BF7
330
70BEF
100
AcDbEntity
  8
0
100
AcDbVertex
100
AcDbPolygonMeshVertex
 10
0.6944999999999988
 20
-0.2145000000000006
 30
5.4375
 70
    64
  0
VERTEX
  5
70BF8
330
70BEF
100
AcDbEntity
  8
0
100
AcDbVertex
100
AcDbPolygonMeshVertex
 10
0.6944999999999988
 20
-0.5675000000000004
 30
5.4375
 70
    64
  0
VERTEX
  5
70BF9
330
70BEF
100
AcDbEntity
  8
0
100
AcDbVertex
100
AcDbPolygonMeshVertex
 10
1.425499999999998
 20
-0.2145000000000006
 30
5.471499999999998
 70
    64
  0
VERTEX
  5
70BFA
330
70BEF
100
AcDbEntity
  8
0
100
AcDbVertex
100
AcDbPolygonMeshVertex
 10
1.425499999999998
 20
-0.2145000000000006
 30
5.4375
 70
    64
  0
VERTEX
  5
70BFB
330
70BEF
100
AcDbEntity
  8
0
100
AcDbVertex
100
AcDbPolygonMeshVertex
 10
1.425499999999998
 20
-0.5675000000000004
 30
5.4375
 70
    64
  0
VERTEX
  5
70BFC
330
70BEF
100
AcDbEntity
  8
0
100
AcDbVertex
100
AcDbPolygonMeshVertex
 10
1.425499999999998
 20
-0.2145000000000006
 30
5.471499999999998
 70
    64
  0
VERTEX
  5
70BFD
330
70BEF
100
AcDbEntity
  8
0
100
AcDbVertex
100
AcDbPolygonMeshVertex
 10
1.425499999999998
 20
-0.2145000000000006
 30
5.471499999999998
 70
    64
  0
VERTEX
  5
70BFE
330
70BEF
100
AcDbEntity
  8
0
100
AcDbVertex
100
AcDbPolygonMeshVertex
 10
1.425499999999998
 20
-0.5675000000000004
 30
5.471499999999998
 70
    64
  0
VERTEX
  5
70BFF
330
70BEF
100
AcDbEntity
  8
0
100
AcDbVertex
100
AcDbPolygonMeshVertex
 10
0.6944999999999988
 20
-0.2145000000000006
 30
5.471499999999998
 70
    64
  0
VERTEX
  5
70C00
330
70BEF
100
AcDbEntity
  8
0
100
AcDbVertex
100
AcDbPolygonMeshVertex
 10
0.6944999999999988
 20
-0.2145000000000006
 30
5.471499999999998
 70
    64
  0
VERTEX
  5
70C01
330
70BEF
100
AcDbEntity
  8
0
100
AcDbVertex
100
AcDbPolygonMeshVertex
 10
0.6944999999999988
 20
-0.5675000000000004
 30
5.471499999999998
 70
    64
  0
SEQEND
  5
70C02
330
70BEF
100
AcDbEntity
  8
0
  0
POLYLINE
  5
70C03
330
458D6
100
AcDbEntity
  8
0
100
AcDbPolygonMesh
 66
     1
 10
0.0
 20
0.0
 30
0.0
 70
    16
 71
     6
 72
     3
  0
VERTEX
  5
70C04
330
70C03
100
AcDbEntity
  8
0
100
AcDbVertex
100
AcDbPolygonMeshVertex
 10
1.425499999999998
 20
-0.5675000000000004
 30
5.648499999999999
 70
    64
  0
VERTEX
  5
70C05
330
70C03
100
AcDbEntity
  8
0
100
AcDbVertex
100
AcDbPolygonMeshVertex
 10
1.425499999999998
 20
-0.5675000000000004
 30
5.471499999999998
 70
    64
  0
VERTEX
  5
70C06
330
70C03
100
AcDbEntity
  8
0
100
AcDbVertex
100
AcDbPolygonMeshVertex
 10
1.425499999999998
 20
-0.5675000000000004
 30
5.471499999999998
 70
    64
  0
VERTEX
  5
70C07
330
70C03
100
AcDbEntity
  8
0
100
AcDbVertex
100
AcDbPolygonMeshVertex
 10
1.255999999999998
 20
-0.5675000000000004
 30
5.648499999999999
 70
    64
  0
VERTEX
  5
70C08
330
70C03
100
AcDbEntity
  8
0
100
AcDbVertex
100
AcDbPolygonMeshVertex
 10
1.255999999999998
 20
-0.5675000000000004
 30
5.471499999999998
 70
    64
  0
VERTEX
  5
70C09
330
70C03
100
AcDbEntity
  8
0
100
AcDbVertex
100
AcDbPolygonMeshVertex
 10
1.255999999999998
 20
-0.5675000000000004
 30
5.471499999999998
 70
    64
  0
VERTEX
  5
70C0A
330
70C03
100
AcDbEntity
  8
0
100
AcDbVertex
100
AcDbPolygonMeshVertex
 10
1.255999999999998
 20
-0.2145000000000006
 30
5.648499999999999
 70
    64
  0
VERTEX
  5
70C0B
330
70C03
100
AcDbEntity
  8
0
100
AcDbVertex
100
AcDbPolygonMeshVertex
 10
1.255999999999998
 20
-0.2145000000000006
 30
5.471499999999998
 70
    64
  0
VERTEX
  5
70C0C
330
70C03
100
AcDbEntity
  8
0
100
AcDbVertex
100
AcDbPolygonMeshVertex
 10
1.255999999999998
 20
-0.5675000000000004
 30
5.471499999999998
 70
    64
  0
VERTEX
  5
70C0D
330
70C03
100
AcDbEntity
  8
0
100
AcDbVertex
100
AcDbPolygonMeshVertex
 10
1.425499999999998
 20
-0.2145000000000006
 30
5.648499999999999
 70
    64
  0
VERTEX
  5
70C0E
330
70C03
100
AcDbEntity
  8
0
100
AcDbVertex
100
AcDbPolygonMeshVertex
 10
1.425499999999998
 20
-0.2145000000000006
 30
5.471499999999998
 70
    64
  0
VERTEX
  5
70C0F
330
70C03
100
AcDbEntity
  8
0
100
AcDbVertex
100
AcDbPolygonMeshVertex
 10
1.425499999999998
 20
-0.5675000000000004
 30
5.471499999999998
 70
    64
  0
VERTEX
  5
70C10
330
70C03
100
AcDbEntity
  8
0
100
AcDbVertex
100
AcDbPolygonMeshVertex
 10
1.425499999999998
 20
-0.2145000000000006
 30
5.648499999999999
 70
    64
  0
VERTEX
  5
70C11
330
70C03
100
AcDbEntity
  8
0
100
AcDbVertex
100
AcDbPolygonMeshVertex
 10
1.425499999999998
 20
-0.2145000000000006
 30
5.648499999999999
 70
    64
  0
VERTEX
  5
70C12
330
70C03
100
AcDbEntity
  8
0
100
AcDbVertex
100
AcDbPolygonMeshVertex
 10
1.425499999999998
 20
-0.5675000000000004
 30
5.648499999999999
 70
    64
  0
VERTEX
  5
70C13
330
70C03
100
AcDbEntity
  8
0
100
AcDbVertex
100
AcDbPolygonMeshVertex
 10
1.255999999999998
 20
-0.2145000000000006
 30
5.648499999999999
 70
    64
  0
VERTEX
  5
70C14
330
70C03
100
AcDbEntity
  8
0
100
AcDbVertex
100
AcDbPolygonMeshVertex
 10
1.255999999999998
 20
-0.2145000000000006
 30
5.648499999999999
 70
    64
  0
VERTEX
  5
70C15
330
70C03
100
AcDbEntity
  8
0
100
AcDbVertex
100
AcDbPolygonMeshVertex
 10
1.255999999999998
 20
-0.5675000000000004
 30
5.648499999999999
 70
    64
  0
SEQEND
  5
70C16
330
70C03
100
AcDbEntity
  8
0
  0
POLYLINE
  5
70C17
330
458D6
100
AcDbEntity
  8
0
100
AcDbPolygonMesh
 66
     1
 10
0.0
 20
0.0
 30
0.0
 70
    16
 71
     6
 72
     3
  0
VERTEX
  5
70C18
330
70C17
100
AcDbEntity
  8
0
100
AcDbVertex
100
AcDbPolygonMeshVertex
 10
0.9574999999999986
 20
-1.022499999999999
 30
5.687499999999999
 70
    64
  0
VERTEX
  5
70C19
330
70C17
100
AcDbEntity
  8
0
100
AcDbVertex
100
AcDbPolygonMeshVertex
 10
0.9574999999999986
 20
-1.022499999999999
 30
5.4715
 70
    64
  0
VERTEX
  5
70C1A
330
70C17
100
AcDbEntity
  8
0
100
AcDbVertex
100
AcDbPolygonMeshVertex
 10
0.9574999999999986
 20
-1.022499999999999
 30
5.4715
 70
    64
  0
VERTEX
  5
70C1B
330
70C17
100
AcDbEntity
  8
0
100
AcDbVertex
100
AcDbPolygonMeshVertex
 10
0.8224999999999988
 20
-1.022499999999999
 30
5.687499999999999
 70
    64
  0
VERTEX
  5
70C1C
330
70C17
100
AcDbEntity
  8
0
100
AcDbVertex
100
AcDbPolygonMeshVertex
 10
0.8224999999999988
 20
-1.022499999999999
 30
5.4715
 70
    64
  0
VERTEX
  5
70C1D
330
70C17
100
AcDbEntity
  8
0
100
AcDbVertex
100
AcDbPolygonMeshVertex
 10
0.8224999999999988
 20
-1.022499999999999
 30
5.4715
 70
    64
  0
VERTEX
  5
70C1E
330
70C17
100
AcDbEntity
  8
0
100
AcDbVertex
100
AcDbPolygonMeshVertex
 10
0.8224999999999988
 20
-0.6774999999999998
 30
5.687499999999999
 70
    64
  0
VERTEX
  5
70C1F
330
70C17
100
AcDbEntity
  8
0
100
AcDbVertex
100
AcDbPolygonMeshVertex
 10
0.8224999999999988
 20
-0.6774999999999998
 30
5.4715
 70
    64
  0
VERTEX
  5
70C20
330
70C17
100
AcDbEntity
  8
0
100
AcDbVertex
100
AcDbPolygonMeshVertex
 10
0.8224999999999988
 20
-1.022499999999999
 30
5.4715
 70
    64
  0
VERTEX
  5
70C21
330
70C17
100
AcDbEntity
  8
0
100
AcDbVertex
100
AcDbPolygonMeshVertex
 10
0.9574999999999986
 20
-0.6774999999999998
 30
5.687499999999999
 70
    64
  0
VERTEX
  5
70C22
330
70C17
100
AcDbEntity
  8
0
100
AcDbVertex
100
AcDbPolygonMeshVertex
 10
0.9574999999999986
 20
-0.6774999999999998
 30
5.4715
 70
    64
  0
VERTEX
  5
70C23
330
70C17
100
AcDbEntity
  8
0
100
AcDbVertex
100
AcDbPolygonMeshVertex
 10
0.9574999999999986
 20
-1.022499999999999
 30
5.4715
 70
    64
  0
VERTEX
  5
70C24
330
70C17
100
AcDbEntity
  8
0
100
AcDbVertex
100
AcDbPolygonMeshVertex
 10
0.9574999999999986
 20
-0.6774999999999998
 30
5.687499999999999
 70
    64
  0
VERTEX
  5
70C25
330
70C17
100
AcDbEntity
  8
0
100
AcDbVertex
100
AcDbPolygonMeshVertex
 10
0.9574999999999986
 20
-0.6774999999999998
 30
5.687499999999999
 70
    64
  0
VERTEX
  5
70C26
330
70C17
100
AcDbEntity
  8
0
100
AcDbVertex
100
AcDbPolygonMeshVertex
 10
0.9574999999999986
 20
-1.022499999999999
 30
5.687499999999999
 70
    64
  0
VERTEX
  5
70C27
330
70C17
100
AcDbEntity
  8
0
100
AcDbVertex
100
AcDbPolygonMeshVertex
 10
0.8224999999999988
 20
-0.6774999999999998
 30
5.687499999999999
 70
    64
  0
VERTEX
  5
70C28
330
70C17
100
AcDbEntity
  8
0
100
AcDbVertex
100
AcDbPolygonMeshVertex
 10
0.8224999999999988
 20
-0.6774999999999998
 30
5.687499999999999
 70
    64
  0
VERTEX
  5
70C29
330
70C17
100
AcDbEntity
  8
0
100
AcDbVertex
100
AcDbPolygonMeshVertex
 10
0.8224999999999988
 20
-1.022499999999999
 30
5.687499999999999
 70
    64
  0
SEQEND
  5
70C2A
330
70C17
100
AcDbEntity
  8
0
  0
POLYLINE
  5
70C2B
330
458D6
100
AcDbEntity
  8
0
100
AcDbPolygonMesh
 66
     1
 10
0.0
 20
0.0
 30
0.0
 70
    16
 71
     6
 72
     3
  0
VERTEX
  5
70C2C
330
70C2B
100
AcDbEntity
  8
0
100
AcDbVertex
100
AcDbPolygonMeshVertex
 10
1.297499999999998
 20
-1.022499999999999
 30
5.4715
 70
    64
  0
VERTEX
  5
70C2D
330
70C2B
100
AcDbEntity
  8
0
100
AcDbVertex
100
AcDbPolygonMeshVertex
 10
1.297499999999998
 20
-1.022499999999999
 30
5.4375
 70
    64
  0
VERTEX
  5
70C2E
330
70C2B
100
AcDbEntity
  8
0
100
AcDbVertex
100
AcDbPolygonMeshVertex
 10
1.297499999999998
 20
-1.022499999999999
 30
5.4375
 70
    64
  0
VERTEX
  5
70C2F
330
70C2B
100
AcDbEntity
  8
0
100
AcDbVertex
100
AcDbPolygonMeshVertex
 10
0.8224999999999988
 20
-1.022499999999999
 30
5.4715
 70
    64
  0
VERTEX
  5
70C30
330
70C2B
100
AcDbEntity
  8
0
100
AcDbVertex
100
AcDbPolygonMeshVertex
 10
0.8224999999999988
 20
-1.022499999999999
 30
5.4375
 70
    64
  0
VERTEX
  5
70C31
330
70C2B
100
AcDbEntity
  8
0
100
AcDbVertex
100
AcDbPolygonMeshVertex
 10
0.8224999999999988
 20
-1.022499999999999
 30
5.4375
 70
    64
  0
VERTEX
  5
70C32
330
70C2B
100
AcDbEntity
  8
0
100
AcDbVertex
100
AcDbPolygonMeshVertex
 10
0.8224999999999988
 20
-0.6774999999999998
 30
5.4715
 70
    64
  0
VERTEX
  5
70C33
330
70C2B
100
AcDbEntity
  8
0
100
AcDbVertex
100
AcDbPolygonMeshVertex
 10
0.8224999999999988
 20
-0.6774999999999998
 30
5.4375
 70
    64
  0
VERTEX
  5
70C34
330
70C2B
100
AcDbEntity
  8
0
100
AcDbVertex
100
AcDbPolygonMeshVertex
 10
0.8224999999999988
 20
-1.022499999999999
 30
5.4375
 70
    64
  0
VERTEX
  5
70C35
330
70C2B
100
AcDbEntity
  8
0
100
AcDbVertex
100
AcDbPolygonMeshVertex
 10
1.297499999999998
 20
-0.6774999999999998
 30
5.4715
 70
    64
  0
VERTEX
  5
70C36
330
70C2B
100
AcDbEntity
  8
0
100
AcDbVertex
100
AcDbPolygonMeshVertex
 10
1.297499999999998
 20
-0.6774999999999998
 30
5.4375
 70
    64
  0
VERTEX
  5
70C37
330
70C2B
100
AcDbEntity
  8
0
100
AcDbVertex
100
AcDbPolygonMeshVertex
 10
1.297499999999998
 20
-1.022499999999999
 30
5.4375
 70
    64
  0
VERTEX
  5
70C38
330
70C2B
100
AcDbEntity
  8
0
100
AcDbVertex
100
AcDbPolygonMeshVertex
 10
1.297499999999998
 20
-0.6774999999999998
 30
5.4715
 70
    64
  0
VERTEX
  5
70C39
330
70C2B
100
AcDbEntity
  8
0
100
AcDbVertex
100
AcDbPolygonMeshVertex
 10
1.297499999999998
 20
-0.6774999999999998
 30
5.4715
 70
    64
  0
VERTEX
  5
70C3A
330
70C2B
100
AcDbEntity
  8
0
100
AcDbVertex
100
AcDbPolygonMeshVertex
 10
1.297499999999998
 20
-1.022499999999999
 30
5.4715
 70
    64
  0
VERTEX
  5
70C3B
330
70C2B
100
AcDbEntity
  8
0
100
AcDbVertex
100
AcDbPolygonMeshVertex
 10
0.8224999999999988
 20
-0.6774999999999998
 30
5.4715
 70
    64
  0
VERTEX
  5
70C3C
330
70C2B
100
AcDbEntity
  8
0
100
AcDbVertex
100
AcDbPolygonMeshVertex
 10
0.8224999999999988
 20
-0.6774999999999998
 30
5.4715
 70
    64
  0
VERTEX
  5
70C3D
330
70C2B
100
AcDbEntity
  8
0
100
AcDbVertex
100
AcDbPolygonMeshVertex
 10
0.8224999999999988
 20
-1.022499999999999
 30
5.4715
 70
    64
  0
SEQEND
  5
70C3E
330
70C2B
100
AcDbEntity
  8
0
  0
POLYLINE
  5
70C3F
330
458D6
100
AcDbEntity
  8
0
100
AcDbPolygonMesh
 66
     1
 10
0.0
 20
0.0
 30
0.0
 70
    16
 71
     6
 72
     3
  0
VERTEX
  5
70C40
330
70C3F
100
AcDbEntity
  8
0
100
AcDbVertex
100
AcDbPolygonMeshVertex
 10
1.297499999999998
 20
-1.022499999999999
 30
5.687499999999999
 70
    64
  0
VERTEX
  5
70C41
330
70C3F
100
AcDbEntity
  8
0
100
AcDbVertex
100
AcDbPolygonMeshVertex
 10
1.297499999999998
 20
-1.022499999999999
 30
5.4715
 70
    64
  0
VERTEX
  5
70C42
330
70C3F
100
AcDbEntity
  8
0
100
AcDbVertex
100
AcDbPolygonMeshVertex
 10
1.297499999999998
 20
-1.022499999999999
 30
5.4715
 70
    64
  0
VERTEX
  5
70C43
330
70C3F
100
AcDbEntity
  8
0
100
AcDbVertex
100
AcDbPolygonMeshVertex
 10
1.162499999999998
 20
-1.022499999999999
 30
5.687499999999999
 70
    64
  0
VERTEX
  5
70C44
330
70C3F
100
AcDbEntity
  8
0
100
AcDbVertex
100
AcDbPolygonMeshVertex
 10
1.162499999999998
 20
-1.022499999999999
 30
5.4715
 70
    64
  0
VERTEX
  5
70C45
330
70C3F
100
AcDbEntity
  8
0
100
AcDbVertex
100
AcDbPolygonMeshVertex
 10
1.162499999999998
 20
-1.022499999999999
 30
5.4715
 70
    64
  0
VERTEX
  5
70C46
330
70C3F
100
AcDbEntity
  8
0
100
AcDbVertex
100
AcDbPolygonMeshVertex
 10
1.162499999999998
 20
-0.6774999999999998
 30
5.687499999999999
 70
    64
  0
VERTEX
  5
70C47
330
70C3F
100
AcDbEntity
  8
0
100
AcDbVertex
100
AcDbPolygonMeshVertex
 10
1.162499999999998
 20
-0.6774999999999998
 30
5.4715
 70
    64
  0
VERTEX
  5
70C48
330
70C3F
100
AcDbEntity
  8
0
100
AcDbVertex
100
AcDbPolygonMeshVertex
 10
1.162499999999998
 20
-1.022499999999999
 30
5.4715
 70
    64
  0
VERTEX
  5
70C49
330
70C3F
100
AcDbEntity
  8
0
100
AcDbVertex
100
AcDbPolygonMeshVertex
 10
1.297499999999998
 20
-0.6774999999999998
 30
5.687499999999999
 70
    64
  0
VERTEX
  5
70C4A
330
70C3F
100
AcDbEntity
  8
0
100
AcDbVertex
100
AcDbPolygonMeshVertex
 10
1.297499999999998
 20
-0.6774999999999998
 30
5.4715
 70
    64
  0
VERTEX
  5
70C4B
330
70C3F
100
AcDbEntity
  8
0
100
AcDbVertex
100
AcDbPolygonMeshVertex
 10
1.297499999999998
 20
-1.022499999999999
 30
5.4715
 70
    64
  0
VERTEX
  5
70C4C
330
70C3F
100
AcDbEntity
  8
0
100
AcDbVertex
100
AcDbPolygonMeshVertex
 10
1.297499999999998
 20
-0.6774999999999998
 30
5.687499999999999
 70
    64
  0
VERTEX
  5
70C4D
330
70C3F
100
AcDbEntity
  8
0
100
AcDbVertex
100
AcDbPolygonMeshVertex
 10
1.297499999999998
 20
-0.6774999999999998
 30
5.687499999999999
 70
    64
  0
VERTEX
  5
70C4E
330
70C3F
100
AcDbEntity
  8
0
100
AcDbVertex
100
AcDbPolygonMeshVertex
 10
1.297499999999998
 20
-1.022499999999999
 30
5.687499999999999
 70
    64
  0
VERTEX
  5
70C4F
330
70C3F
100
AcDbEntity
  8
0
100
AcDbVertex
100
AcDbPolygonMeshVertex
 10
1.162499999999998
 20
-0.6774999999999998
 30
5.687499999999999
 70
    64
  0
VERTEX
  5
70C50
330
70C3F
100
AcDbEntity
  8
0
100
AcDbVertex
100
AcDbPolygonMeshVertex
 10
1.162499999999998
 20
-0.6774999999999998
 30
5.687499999999999
 70
    64
  0
VERTEX
  5
70C51
330
70C3F
100
AcDbEntity
  8
0
100
AcDbVertex
100
AcDbPolygonMeshVertex
 10
1.162499999999998
 20
-1.022499999999999
 30
5.687499999999999
 70
    64
  0
SEQEND
  5
70C52
330
70C3F
100
AcDbEntity
  8
0
  0
TEXT
  5
70C53
330
458D6
100
AcDbEntity
  8
0
100
AcDbText
 10
0.1132297932738142
 20
0.2811155340969122
 30
5.4375
 40
0.0834654981097751
  1
1
100
AcDbText
  0
TEXT
  5
70C54
330
458D6
100
AcDbEntity
  8
0
100
AcDbText
 10
0.5691308389222805
 20
0.2802736679910658
 30
5.4375
 40
0.0834654981097751
  1
L1
100
AcDbText
  0
TEXT
  5
70C55
330
458D6
100
AcDbEntity
  8
0
100
AcDbText
 10
0.8427030777100581
 20
0.2794318018852193
 30
5.4375
 40
0.0834654981097751
  1
3
100
AcDbText
  0
TEXT
  5
70C56
330
458D6
100
AcDbEntity
  8
0
100
AcDbText
 10
1.226609268925797
 20
0.2808433009258362
 30
5.4375
 40
0.0834654981097751
  1
L2
100
AcDbText
  0
TEXT
  5
70C57
330
458D6
100
AcDbEntity
  8
0
100
AcDbText
 10
1.534201536158613
 20
0.2822547999664535
 30
5.4375
 40
0.0834654981097751
  1
5
100
AcDbText
  0
TEXT
  5
70C58
330
458D6
100
AcDbEntity
  8
0
100
AcDbText
 10
1.917518723896797
 20
0.2842550160273163
 30
5.4375
 40
0.0834654981097751
  1
L3
100
AcDbText
  0
TEXT
  5
70C59
330
458D6
100
AcDbEntity
  8
0
100
AcDbText
 10
0.106209880414954
 20
-2.064187320954868
 30
5.4375
 40
0.0834654981097751
  1
2
100
AcDbText
  0
TEXT
  5
70C5A
330
458D6
100
AcDbEntity
  8
0
100
AcDbText
 10
0.5673196778400627
 20
-2.062775821914252
 30
5.4375
 40
0.0834654981097751
  1
T1
100
AcDbText
  0
TEXT
  5
70C5B
330
458D6
100
AcDbEntity
  8
0
100
AcDbText
 10
0.8432572033404213
 20
-2.060775605853388
 30
5.4375
 40
0.0834654981097751
  1
4
100
AcDbText
  0
TEXT
  5
70C5C
330
458D6
100
AcDbEntity
  8
0
100
AcDbText
 10
1.227641572907644
 20
-2.062206188979481
 30
5.4375
 40
0.0834654981097751
  1
T2
100
AcDbText
  0
TEXT
  5
70C5D
330
458D6
100
AcDbEntity
  8
0
100
AcDbText
 10
1.539077812557039
 20
-2.063048055085327
 30
5.4375
 40
0.0834654981097751
  1
6
100
AcDbText
  0
TEXT
  5
70C5E
330
458D6
100
AcDbEntity
  8
0
100
AcDbText
 10
1.917186248518578
 20
-2.06163655604471
 30
5.4375
 40
0.0834654981097751
  1
T3
100
AcDbText
  0
CIRCLE
  5
70C5F
330
458D6
100
AcDbEntity
  8
0
100
AcDbCircle
 10
1.944999999999999
 20
0.3369999999999995
 30
0.0000000000000002
 40
0.086
  0
POLYLINE
  5
70C60
330
458D6
100
AcDbEntity
  8
0
100
AcDb3dPolyline
 66
     1
 10
0.0
 20
0.0
 30
0.0
 70
     8
  0
VERTEX
  5
70C61
330
70C60
100
AcDbEntity
  8
0
100
AcDbVertex
100
AcDb3dPolylineVertex
 10
0.9789999999999984
 20
0.4009999999999998
 30
1.577499999999999
 70
    32
  0
VERTEX
  5
70C62
330
70C60
100
AcDbEntity
  8
0
100
AcDbVertex
100
AcDb3dPolylineVertex
 10
0.9789999999999984
 20
0.5359999999999995
 30
1.577499999999999
 70
    32
  0
VERTEX
  5
70C63
330
70C60
100
AcDbEntity
  8
0
100
AcDbVertex
100
AcDb3dPolylineVertex
 10
0.7683333333333319
 20
0.5359999999999995
 30
1.577499999999999
 70
    32
  0
VERTEX
  5
70C64
330
70C60
100
AcDbEntity
  8
0
100
AcDbVertex
100
AcDb3dPolylineVertex
 10
0.7683333333333319
 20
0.4009999999999998
 30
1.577499999999999
 70
    32
  0
SEQEND
  5
70C65
330
70C60
100
AcDbEntity
  8
0
  0
POLYLINE
  5
70C66
330
458D6
100
AcDbEntity
  8
0
100
AcDb3dPolyline
 66
     1
 10
0.0
 20
0.0
 30
0.0
 70
     8
  0
VERTEX
  5
70C67
330
70C66
100
AcDbEntity
  8
0
100
AcDbVertex
100
AcDb3dPolylineVertex
 10
0.7063333333333325
 20
0.4009999999999998
 30
1.577499999999999
 70
    32
  0
VERTEX
  5
70C68
330
70C66
100
AcDbEntity
  8
0
100
AcDbVertex
100
AcDb3dPolylineVertex
 10
0.7063333333333325
 20
0.5359999999999995
 30
1.577499999999999
 70
    32
  0
VERTEX
  5
70C69
330
70C66
100
AcDbEntity
  8
0
100
AcDbVertex
100
AcDb3dPolylineVertex
 10
0.4956666666666659
 20
0.5359999999999995
 30
1.577499999999999
 70
    32
  0
VERTEX
  5
70C6A
330
70C66
100
AcDbEntity
  8
0
100
AcDbVertex
100
AcDb3dPolylineVertex
 10
0.4956666666666659
 20
0.4009999999999998
 30
1.577499999999999
 70
    32
  0
SEQEND
  5
70C6B
330
70C66
100
AcDbEntity
  8
0
  0
POLYLINE
  5
70C6C
330
458D6
100
AcDbEntity
  8
0
100
AcDb3dPolyline
 66
     1
 10
0.0
 20
0.0
 30
0.0
 70
     8
  0
VERTEX
  5
70C6D
330
70C6C
100
AcDbEntity
  8
0
100
AcDbVertex
100
AcDb3dPolylineVertex
 10
0.4336666666666666
 20
0.4009999999999998
 30
1.577499999999999
 70
    32
  0
VERTEX
  5
70C6E
330
70C6C
100
AcDbEntity
  8
0
100
AcDbVertex
100
AcDb3dPolylineVertex
 10
0.4336666666666666
 20
0.5359999999999995
 30
1.577499999999999
 70
    32
  0
VERTEX
  5
70C6F
330
70C6C
100
AcDbEntity
  8
0
100
AcDbVertex
100
AcDb3dPolylineVertex
 10
0.2230000000000004
 20
0.5359999999999995
 30
1.577499999999999
 70
    32
  0
VERTEX
  5
70C70
330
70C6C
100
AcDbEntity
  8
0
100
AcDbVertex
100
AcDb3dPolylineVertex
 10
0.2230000000000004
 20
0.4009999999999998
 30
1.577499999999999
 70
    32
  0
SEQEND
  5
70C71
330
70C6C
100
AcDbEntity
  8
0
  0
LINE
  5
70C72
330
458D6
100
AcDbEntity
  8
0
100
AcDbLine
 10
0.9789999999999984
 20
0.4009999999999998
 30
1.577499999999999
 11
0.7683333333333328
 21
0.4009999999999998
 31
1.577499999999999
  0
LINE
  5
70C73
330
458D6
100
AcDbEntity
  8
0
100
AcDbLine
 10
0.7063333333333325
 20
0.4009999999999998
 30
1.577499999999999
 11
0.4956666666666668
 21
0.4009999999999998
 31
1.577499999999999
  0
LINE
  5
70C74
330
458D6
100
AcDbEntity
  8
0
100
AcDbLine
 10
0.4336666666666666
 20
0.4009999999999998
 30
1.577499999999999
 11
0.2230000000000008
 21
0.4009999999999998
 31
1.577499999999999
  0
POLYLINE
  5
70C75
330
458D6
100
AcDbEntity
  8
0
100
AcDbPolygonMesh
 66
     1
 10
0.0
 20
0.0
 30
0.0
 70
    16
 71
     6
 72
     3
  0
VERTEX
  5
70C76
330
70C75
100
AcDbEntity
  8
0
100
AcDbVertex
100
AcDbPolygonMeshVertex
 10
0.391
 20
-1.806
 30
1.318
 70
    64
  0
VERTEX
  5
70C77
330
70C75
100
AcDbEntity
  8
0
100
AcDbVertex
100
AcDbPolygonMeshVertex
 10
0.391
 20
-1.806
 30
0.187
 70
    64
  0
VERTEX
  5
70C78
330
70C75
100
AcDbEntity
  8
0
100
AcDbVertex
100
AcDbPolygonMeshVertex
 10
0.391
 20
-1.806
 30
0.187
 70
    64
  0
VERTEX
  5
70C79
330
70C75
100
AcDbEntity
  8
0
100
AcDbVertex
100
AcDbPolygonMeshVertex
 10
0.0
 20
-1.806
 30
1.318
 70
    64
  0
VERTEX
  5
70C7A
330
70C75
100
AcDbEntity
  8
0
100
AcDbVertex
100
AcDbPolygonMeshVertex
 10
0.0
 20
-1.806
 30
0.187
 70
    64
  0
VERTEX
  5
70C7B
330
70C75
100
AcDbEntity
  8
0
100
AcDbVertex
100
AcDbPolygonMeshVertex
 10
0.0
 20
-1.806
 30
0.187
 70
    64
  0
VERTEX
  5
70C7C
330
70C75
100
AcDbEntity
  8
0
100
AcDbVertex
100
AcDbPolygonMeshVertex
 10
0.0
 20
0.4009999999999998
 30
1.318
 70
    64
  0
VERTEX
  5
70C7D
330
70C75
100
AcDbEntity
  8
0
100
AcDbVertex
100
AcDbPolygonMeshVertex
 10
0.0
 20
0.4009999999999998
 30
0.187
 70
    64
  0
VERTEX
  5
70C7E
330
70C75
100
AcDbEntity
  8
0
100
AcDbVertex
100
AcDbPolygonMeshVertex
 10
0.0
 20
-1.806
 30
0.187
 70
    64
  0
VERTEX
  5
70C7F
330
70C75
100
AcDbEntity
  8
0
100
AcDbVertex
100
AcDbPolygonMeshVertex
 10
0.391
 20
0.4009999999999998
 30
1.318
 70
    64
  0
VERTEX
  5
70C80
330
70C75
100
AcDbEntity
  8
0
100
AcDbVertex
100
AcDbPolygonMeshVertex
 10
0.391
 20
0.4009999999999998
 30
0.187
 70
    64
  0
VERTEX
  5
70C81
330
70C75
100
AcDbEntity
  8
0
100
AcDbVertex
100
AcDbPolygonMeshVertex
 10
0.391
 20
-1.806
 30
0.187
 70
    64
  0
VERTEX
  5
70C82
330
70C75
100
AcDbEntity
  8
0
100
AcDbVertex
100
AcDbPolygonMeshVertex
 10
0.391
 20
0.4009999999999998
 30
1.318
 70
    64
  0
VERTEX
  5
70C83
330
70C75
100
AcDbEntity
  8
0
100
AcDbVertex
100
AcDbPolygonMeshVertex
 10
0.391
 20
0.4009999999999998
 30
1.318
 70
    64
  0
VERTEX
  5
70C84
330
70C75
100
AcDbEntity
  8
0
100
AcDbVertex
100
AcDbPolygonMeshVertex
 10
0.391
 20
-1.806
 30
1.318
 70
    64
  0
VERTEX
  5
70C85
330
70C75
100
AcDbEntity
  8
0
100
AcDbVertex
100
AcDbPolygonMeshVertex
 10
0.0
 20
0.4009999999999998
 30
1.318
 70
    64
  0
VERTEX
  5
70C86
330
70C75
100
AcDbEntity
  8
0
100
AcDbVertex
100
AcDbPolygonMeshVertex
 10
0.0
 20
0.4009999999999998
 30
1.318
 70
    64
  0
VERTEX
  5
70C87
330
70C75
100
AcDbEntity
  8
0
100
AcDbVertex
100
AcDbPolygonMeshVertex
 10
0.0
 20
-1.806
 30
1.318
 70
    64
  0
SEQEND
  5
70C88
330
70C75
100
AcDbEntity
  8
0
  0
POLYLINE
  5
70C89
330
458D6
100
AcDbEntity
  8
0
100
AcDbPolygonMesh
 66
     1
 10
0.0
 20
0.0
 30
0.0
 70
    16
 71
     6
 72
     3
  0
VERTEX
  5
70C8A
330
70C89
100
AcDbEntity
  8
0
100
AcDbVertex
100
AcDbPolygonMeshVertex
 10
2.12
 20
-2.089
 30
1.318
 70
    64
  0
VERTEX
  5
70C8B
330
70C89
100
AcDbEntity
  8
0
100
AcDbVertex
100
AcDbPolygonMeshVertex
 10
2.12
 20
-2.089
 30
0.187
 70
    64
  0
VERTEX
  5
70C8C
330
70C89
100
AcDbEntity
  8
0
100
AcDbVertex
100
AcDbPolygonMeshVertex
 10
2.12
 20
-2.089
 30
0.187
 70
    64
  0
VERTEX
  5
70C8D
330
70C89
100
AcDbEntity
  8
0
100
AcDbVertex
100
AcDbPolygonMeshVertex
 10
1.729
 20
-2.089
 30
1.318
 70
    64
  0
VERTEX
  5
70C8E
330
70C89
100
AcDbEntity
  8
0
100
AcDbVertex
100
AcDbPolygonMeshVertex
 10
1.729
 20
-2.089
 30
0.187
 70
    64
  0
VERTEX
  5
70C8F
330
70C89
100
AcDbEntity
  8
0
100
AcDbVertex
100
AcDbPolygonMeshVertex
 10
1.729
 20
-2.089
 30
0.187
 70
    64
  0
VERTEX
  5
70C90
330
70C89
100
AcDbEntity
  8
0
100
AcDbVertex
100
AcDbPolygonMeshVertex
 10
1.729
 20
0.1179999999999994
 30
1.318
 70
    64
  0
VERTEX
  5
70C91
330
70C89
100
AcDbEntity
  8
0
100
AcDbVertex
100
AcDbPolygonMeshVertex
 10
1.729
 20
0.1179999999999994
 30
0.187
 70
    64
  0
VERTEX
  5
70C92
330
70C89
100
AcDbEntity
  8
0
100
AcDbVertex
100
AcDbPolygonMeshVertex
 10
1.729
 20
-2.089
 30
0.187
 70
    64
  0
VERTEX
  5
70C93
330
70C89
100
AcDbEntity
  8
0
100
AcDbVertex
100
AcDbPolygonMeshVertex
 10
2.12
 20
0.1179999999999994
 30
1.318
 70
    64
  0
VERTEX
  5
70C94
330
70C89
100
AcDbEntity
  8
0
100
AcDbVertex
100
AcDbPolygonMeshVertex
 10
2.12
 20
0.1179999999999994
 30
0.187
 70
    64
  0
VERTEX
  5
70C95
330
70C89
100
AcDbEntity
  8
0
100
AcDbVertex
100
AcDbPolygonMeshVertex
 10
2.12
 20
-2.089
 30
0.187
 70
    64
  0
VERTEX
  5
70C96
330
70C89
100
AcDbEntity
  8
0
100
AcDbVertex
100
AcDbPolygonMeshVertex
 10
2.12
 20
0.1179999999999994
 30
1.318
 70
    64
  0
VERTEX
  5
70C97
330
70C89
100
AcDbEntity
  8
0
100
AcDbVertex
100
AcDbPolygonMeshVertex
 10
2.12
 20
0.1179999999999994
 30
1.318
 70
    64
  0
VERTEX
  5
70C98
330
70C89
100
AcDbEntity
  8
0
100
AcDbVertex
100
AcDbPolygonMeshVertex
 10
2.12
 20
-2.089
 30
1.318
 70
    64
  0
VERTEX
  5
70C99
330
70C89
100
AcDbEntity
  8
0
100
AcDbVertex
100
AcDbPolygonMeshVertex
 10
1.729
 20
0.1179999999999994
 30
1.318
 70
    64
  0
VERTEX
  5
70C9A
330
70C89
100
AcDbEntity
  8
0
100
AcDbVertex
100
AcDbPolygonMeshVertex
 10
1.729
 20
0.1179999999999994
 30
1.318
 70
    64
  0
VERTEX
  5
70C9B
330
70C89
100
AcDbEntity
  8
0
100
AcDbVertex
100
AcDbPolygonMeshVertex
 10
1.729
 20
-2.089
 30
1.318
 70
    64
  0
SEQEND
  5
70C9C
330
70C89
100
AcDbEntity
  8
0
  0
POLYLINE
  5
70C9D
330
458D6
100
AcDbEntity
  8
0
100
AcDbPolygonMesh
 66
     1
 10
0.0
 20
0.0
 30
0.0
 70
    16
 71
     6
 72
     3
  0
VERTEX
  5
70C9E
330
70C9D
100
AcDbEntity
  8
0
100
AcDbVertex
100
AcDbPolygonMeshVertex
 10
1.729
 20
-2.089
 30
1.318
 70
    64
  0
VERTEX
  5
70C9F
330
70C9D
100
AcDbEntity
  8
0
100
AcDbVertex
100
AcDbPolygonMeshVertex
 10
1.729
 20
-2.089
 30
0.187
 70
    64
  0
VERTEX
  5
70CA0
330
70C9D
100
AcDbEntity
  8
0
100
AcDbVertex
100
AcDbPolygonMeshVertex
 10
1.729
 20
-2.089
 30
0.187
 70
    64
  0
VERTEX
  5
70CA1
330
70C9D
100
AcDbEntity
  8
0
100
AcDbVertex
100
AcDbPolygonMeshVertex
 10
0.391
 20
-2.089
 30
1.318
 70
    64
  0
VERTEX
  5
70CA2
330
70C9D
100
AcDbEntity
  8
0
100
AcDbVertex
100
AcDbPolygonMeshVertex
 10
0.391
 20
-2.089
 30
0.187
 70
    64
  0
VERTEX
  5
70CA3
330
70C9D
100
AcDbEntity
  8
0
100
AcDbVertex
100
AcDbPolygonMeshVertex
 10
0.391
 20
-2.089
 30
0.187
 70
    64
  0
VERTEX
  5
70CA4
330
70C9D
100
AcDbEntity
  8
0
100
AcDbVertex
100
AcDbPolygonMeshVertex
 10
0.391
 20
0.4009999999999998
 30
1.318
 70
    64
  0
VERTEX
  5
70CA5
330
70C9D
100
AcDbEntity
  8
0
100
AcDbVertex
100
AcDbPolygonMeshVertex
 10
0.391
 20
0.4009999999999998
 30
0.187
 70
    64
  0
VERTEX
  5
70CA6
330
70C9D
100
AcDbEntity
  8
0
100
AcDbVertex
100
AcDbPolygonMeshVertex
 10
0.391
 20
-2.089
 30
0.187
 70
    64
  0
VERTEX
  5
70CA7
330
70C9D
100
AcDbEntity
  8
0
100
AcDbVertex
100
AcDbPolygonMeshVertex
 10
1.729
 20
0.4009999999999998
 30
1.318
 70
    64
  0
VERTEX
  5
70CA8
330
70C9D
100
AcDbEntity
  8
0
100
AcDbVertex
100
AcDbPolygonMeshVertex
 10
1.729
 20
0.4009999999999998
 30
0.187
 70
    64
  0
VERTEX
  5
70CA9
330
70C9D
100
AcDbEntity
  8
0
100
AcDbVertex
100
AcDbPolygonMeshVertex
 10
1.729
 20
-2.089
 30
0.187
 70
    64
  0
VERTEX
  5
70CAA
330
70C9D
100
AcDbEntity
  8
0
100
AcDbVertex
100
AcDbPolygonMeshVertex
 10
1.729
 20
0.4009999999999998
 30
1.318
 70
    64
  0
VERTEX
  5
70CAB
330
70C9D
100
AcDbEntity
  8
0
100
AcDbVertex
100
AcDbPolygonMeshVertex
 10
1.729
 20
0.4009999999999998
 30
1.318
 70
    64
  0
VERTEX
  5
70CAC
330
70C9D
100
AcDbEntity
  8
0
100
AcDbVertex
100
AcDbPolygonMeshVertex
 10
1.729
 20
-2.089
 30
1.318
 70
    64
  0
VERTEX
  5
70CAD
330
70C9D
100
AcDbEntity
  8
0
100
AcDbVertex
100
AcDbPolygonMeshVertex
 10
0.391
 20
0.4009999999999998
 30
1.318
 70
    64
  0
VERTEX
  5
70CAE
330
70C9D
100
AcDbEntity
  8
0
100
AcDbVertex
100
AcDbPolygonMeshVertex
 10
0.391
 20
0.4009999999999998
 30
1.318
 70
    64
  0
VERTEX
  5
70CAF
330
70C9D
100
AcDbEntity
  8
0
100
AcDbVertex
100
AcDbPolygonMeshVertex
 10
0.391
 20
-2.089
 30
1.318
 70
    64
  0
SEQEND
  5
70CB0
330
70C9D
100
AcDbEntity
  8
0
  0
LWPOLYLINE
  5
70CB1
330
458D6
100
AcDbEntity
  8
0
100
AcDbPolyline
 90
        4
 70
     1
 43
0.0
 38
2.9655
 10
0.9265000000000004
 20
-2.141
 10
1.1935
 20
-2.141
 10
1.1935
 20
-2.29
 10
0.9265000000000004
 20
-2.29
  0
LINE
  5
70CB2
330
458D6
100
AcDbEntity
  8
0
100
AcDbLine
 10
1.199999999999999
 20
0.4009999999999998
 30
3.6395
 11
1.199999999999999
 21
0.6359999999999997
 31
3.6395
  0
LINE
  5
70CB3
330
458D6
100
AcDbEntity
  8
0
100
AcDbLine
 10
0.5624999999999992
 20
0.838
 30
3.4185
 11
0.5624999999999992
 21
0.838
 31
3.2185
  0
LINE
  5
70CB4
330
458D6
100
AcDbEntity
  8
0
100
AcDbLine
 10
0.3600000000000004
 20
0.5979999999999998
 30
1.764499999999999
 11
0.161
 21
0.5979999999999998
 31
1.764499999999999
  0
POLYLINE
  5
70CB5
330
458D6
100
AcDbEntity
  8
0
100
AcDb3dPolyline
 66
     1
 10
0.0
 20
0.0
 30
0.0
 70
     8
  0
VERTEX
  5
70CB6
330
70CB5
100
AcDbEntity
  8
0
100
AcDbVertex
100
AcDb3dPolylineVertex
 10
1.686333333333333
 20
-2.089
 30
1.577499999999999
 70
    32
  0
VERTEX
  5
70CB7
330
70CB5
100
AcDbEntity
  8
0
100
AcDbVertex
100
AcDb3dPolylineVertex
 10
1.686333333333333
 20
-2.224
 30
1.577499999999999
 70
    32
  0
VERTEX
  5
70CB8
330
70CB5
100
AcDbEntity
  8
0
100
AcDbVertex
100
AcDb3dPolylineVertex
 10
1.896999999999999
 20
-2.224
 30
1.577499999999999
 70
    32
  0
VERTEX
  5
70CB9
330
70CB5
100
AcDbEntity
  8
0
100
AcDbVertex
100
AcDb3dPolylineVertex
 10
1.896999999999999
 20
-2.089
 30
1.577499999999999
 70
    32
  0
SEQEND
  5
70CBA
330
70CB5
100
AcDbEntity
  8
0
  0
POLYLINE
  5
70CBB
330
458D6
100
AcDbEntity
  8
0
100
AcDb3dPolyline
 66
     1
 10
0.0
 20
0.0
 30
0.0
 70
     8
  0
VERTEX
  5
70CBC
330
70CBB
100
AcDbEntity
  8
0
100
AcDbVertex
100
AcDb3dPolylineVertex
 10
1.686333333333333
 20
-2.089
 30
1.764499999999999
 70
    32
  0
VERTEX
  5
70CBD
330
70CBB
100
AcDbEntity
  8
0
100
AcDbVertex
100
AcDb3dPolylineVertex
 10
1.686333333333333
 20
-2.224
 30
1.764499999999999
 70
    32
  0
VERTEX
  5
70CBE
330
70CBB
100
AcDbEntity
  8
0
100
AcDbVertex
100
AcDb3dPolylineVertex
 10
1.896999999999999
 20
-2.224
 30
1.764499999999999
 70
    32
  0
VERTEX
  5
70CBF
330
70CBB
100
AcDbEntity
  8
0
100
AcDbVertex
100
AcDb3dPolylineVertex
 10
1.896999999999999
 20
-2.089
 30
1.764499999999999
 70
    32
  0
SEQEND
  5
70CC0
330
70CBB
100
AcDbEntity
  8
0
  0
POLYLINE
  5
70CC1
330
458D6
100
AcDbEntity
  8
0
100
AcDb3dPolyline
 66
     1
 10
0.0
 20
0.0
 30
0.0
 70
     8
  0
VERTEX
  5
70CC2
330
70CC1
100
AcDbEntity
  8
0
100
AcDbVertex
100
AcDb3dPolylineVertex
 10
1.413666666666667
 20
-2.089
 30
1.577499999999999
 70
    32
  0
VERTEX
  5
70CC3
330
70CC1
100
AcDbEntity
  8
0
100
AcDbVertex
100
AcDb3dPolylineVertex
 10
1.413666666666667
 20
-2.224
 30
1.577499999999999
 70
    32
  0
VERTEX
  5
70CC4
330
70CC1
100
AcDbEntity
  8
0
100
AcDbVertex
100
AcDb3dPolylineVertex
 10
1.624333333333334
 20
-2.224
 30
1.577499999999999
 70
    32
  0
VERTEX
  5
70CC5
330
70CC1
100
AcDbEntity
  8
0
100
AcDbVertex
100
AcDb3dPolylineVertex
 10
1.624333333333334
 20
-2.089
 30
1.577499999999999
 70
    32
  0
SEQEND
  5
70CC6
330
70CC1
100
AcDbEntity
  8
0
  0
POLYLINE
  5
70CC7
330
458D6
100
AcDbEntity
  8
0
100
AcDb3dPolyline
 66
     1
 10
0.0
 20
0.0
 30
0.0
 70
     8
  0
VERTEX
  5
70CC8
330
70CC7
100
AcDbEntity
  8
0
100
AcDbVertex
100
AcDb3dPolylineVertex
 10
1.413666666666667
 20
-2.089
 30
1.764499999999999
 70
    32
  0
VERTEX
  5
70CC9
330
70CC7
100
AcDbEntity
  8
0
100
AcDbVertex
100
AcDb3dPolylineVertex
 10
1.413666666666667
 20
-2.224
 30
1.764499999999999
 70
    32
  0
VERTEX
  5
70CCA
330
70CC7
100
AcDbEntity
  8
0
100
AcDbVertex
100
AcDb3dPolylineVertex
 10
1.624333333333334
 20
-2.224
 30
1.764499999999999
 70
    32
  0
VERTEX
  5
70CCB
330
70CC7
100
AcDbEntity
  8
0
100
AcDbVertex
100
AcDb3dPolylineVertex
 10
1.624333333333334
 20
-2.089
 30
1.764499999999999
 70
    32
  0
SEQEND
  5
70CCC
330
70CC7
100
AcDbEntity
  8
0
  0
POLYLINE
  5
70CCD
330
458D6
100
AcDbEntity
  8
0
100
AcDb3dPolyline
 66
     1
 10
0.0
 20
0.0
 30
0.0
 70
     8
  0
VERTEX
  5
70CCE
330
70CCD
100
AcDbEntity
  8
0
100
AcDbVertex
100
AcDb3dPolylineVertex
 10
1.141000000000001
 20
-2.089
 30
1.577499999999999
 70
    32
  0
VERTEX
  5
70CCF
330
70CCD
100
AcDbEntity
  8
0
100
AcDbVertex
100
AcDb3dPolylineVertex
 10
1.141000000000001
 20
-2.224
 30
1.577499999999999
 70
    32
  0
VERTEX
  5
70CD0
330
70CCD
100
AcDbEntity
  8
0
100
AcDbVertex
100
AcDb3dPolylineVertex
 10
1.351666666666668
 20
-2.224
 30
1.577499999999999
 70
    32
  0
VERTEX
  5
70CD1
330
70CCD
100
AcDbEntity
  8
0
100
AcDbVertex
100
AcDb3dPolylineVertex
 10
1.351666666666668
 20
-2.089
 30
1.577499999999999
 70
    32
  0
SEQEND
  5
70CD2
330
70CCD
100
AcDbEntity
  8
0
  0
POLYLINE
  5
70CD3
330
458D6
100
AcDbEntity
  8
0
100
AcDb3dPolyline
 66
     1
 10
0.0
 20
0.0
 30
0.0
 70
     8
  0
VERTEX
  5
70CD4
330
70CD3
100
AcDbEntity
  8
0
100
AcDbVertex
100
AcDb3dPolylineVertex
 10
1.141000000000001
 20
-2.089
 30
1.764499999999999
 70
    32
  0
VERTEX
  5
70CD5
330
70CD3
100
AcDbEntity
  8
0
100
AcDbVertex
100
AcDb3dPolylineVertex
 10
1.141000000000001
 20
-2.224
 30
1.764499999999999
 70
    32
  0
VERTEX
  5
70CD6
330
70CD3
100
AcDbEntity
  8
0
100
AcDbVertex
100
AcDb3dPolylineVertex
 10
1.351666666666668
 20
-2.224
 30
1.764499999999999
 70
    32
  0
VERTEX
  5
70CD7
330
70CD3
100
AcDbEntity
  8
0
100
AcDbVertex
100
AcDb3dPolylineVertex
 10
1.351666666666668
 20
-2.089
 30
1.764499999999999
 70
    32
  0
SEQEND
  5
70CD8
330
70CD3
100
AcDbEntity
  8
0
  0
CIRCLE
  5
70CD9
330
458D6
100
AcDbEntity
  8
0
100
AcDbCircle
 10
0.1730000000000008
 20
-2.024999999999999
 30
0.0000000000000002
 40
0.086
  0
CIRCLE
  5
70CDA
330
458D6
100
AcDbEntity
  8
0
100
AcDbCircle
 10
0.1730000000000008
 20
-2.024999999999999
 30
0.3160000000000003
 40
0.086
  0
POLYLINE
  5
70CDB
330
458D6
100
AcDbEntity
  8
0
100
AcDbPolygonMesh
 66
     1
 10
0.0
 20
0.0
 30
0.0
 70
    16
 71
     6
 72
     3
  0
VERTEX
  5
70CDC
330
70CDB
100
AcDbEntity
  8
0
100
AcDbVertex
100
AcDbPolygonMeshVertex
 10
0.6886999999999999
 20
0.5149999999999997
 30
4.636499999999999
 70
    64
  0
VERTEX
  5
70CDD
330
70CDB
100
AcDbEntity
  8
0
100
AcDbVertex
100
AcDbPolygonMeshVertex
 10
0.6886999999999999
 20
0.5149999999999997
 30
4.024499999999999
 70
    64
  0
VERTEX
  5
70CDE
330
70CDB
100
AcDbEntity
  8
0
100
AcDbVertex
100
AcDbPolygonMeshVertex
 10
0.6886999999999999
 20
0.5149999999999997
 30
4.024499999999999
 70
    64
  0
VERTEX
  5
70CDF
330
70CDB
100
AcDbEntity
  8
0
100
AcDbVertex
100
AcDbPolygonMeshVertex
 10
0.7427000000000002
 20
0.5149999999999997
 30
4.636499999999999
 70
    64
  0
VERTEX
  5
70CE0
330
70CDB
100
AcDbEntity
  8
0
100
AcDbVertex
100
AcDbPolygonMeshVertex
 10
0.7427000000000002
 20
0.5149999999999997
 30
4.024499999999999
 70
    64
  0
VERTEX
  5
70CE1
330
70CDB
100
AcDbEntity
  8
0
100
AcDbVertex
100
AcDbPolygonMeshVertex
 10
0.7427000000000002
 20
0.5149999999999997
 30
4.024499999999999
 70
    64
  0
VERTEX
  5
70CE2
330
70CDB
100
AcDbEntity
  8
0
100
AcDbVertex
100
AcDbPolygonMeshVertex
 10
0.7427000000000002
 20
0.4009999999999998
 30
4.636499999999999
 70
    64
  0
VERTEX
  5
70CE3
330
70CDB
100
AcDbEntity
  8
0
100
AcDbVertex
100
AcDbPolygonMeshVertex
 10
0.7427000000000002
 20
0.4009999999999998
 30
4.024499999999999
 70
    64
  0
VERTEX
  5
70CE4
330
70CDB
100
AcDbEntity
  8
0
100
AcDbVertex
100
AcDbPolygonMeshVertex
 10
0.7427000000000002
 20
0.5149999999999997
 30
4.024499999999999
 70
    64
  0
VERTEX
  5
70CE5
330
70CDB
100
AcDbEntity
  8
0
100
AcDbVertex
100
AcDbPolygonMeshVertex
 10
0.6886999999999999
 20
0.4009999999999998
 30
4.636499999999999
 70
    64
  0
VERTEX
  5
70CE6
330
70CDB
100
AcDbEntity
  8
0
100
AcDbVertex
100
AcDbPolygonMeshVertex
 10
0.6886999999999999
 20
0.4009999999999998
 30
4.024499999999999
 70
    64
  0
VERTEX
  5
70CE7
330
70CDB
100
AcDbEntity
  8
0
100
AcDbVertex
100
AcDbPolygonMeshVertex
 10
0.6886999999999999
 20
0.5149999999999997
 30
4.024499999999999
 70
    64
  0
VERTEX
  5
70CE8
330
70CDB
100
AcDbEntity
  8
0
100
AcDbVertex
100
AcDbPolygonMeshVertex
 10
0.6886999999999999
 20
0.4009999999999998
 30
4.636499999999999
 70
    64
  0
VERTEX
  5
70CE9
330
70CDB
100
AcDbEntity
  8
0
100
AcDbVertex
100
AcDbPolygonMeshVertex
 10
0.6886999999999999
 20
0.4009999999999998
 30
4.636499999999999
 70
    64
  0
VERTEX
  5
70CEA
330
70CDB
100
AcDbEntity
  8
0
100
AcDbVertex
100
AcDbPolygonMeshVertex
 10
0.6886999999999999
 20
0.5149999999999997
 30
4.636499999999999
 70
    64
  0
VERTEX
  5
70CEB
330
70CDB
100
AcDbEntity
  8
0
100
AcDbVertex
100
AcDbPolygonMeshVertex
 10
0.7427000000000002
 20
0.4009999999999998
 30
4.636499999999999
 70
    64
  0
VERTEX
  5
70CEC
330
70CDB
100
AcDbEntity
  8
0
100
AcDbVertex
100
AcDbPolygonMeshVertex
 10
0.7427000000000002
 20
0.4009999999999998
 30
4.636499999999999
 70
    64
  0
VERTEX
  5
70CED
330
70CDB
100
AcDbEntity
  8
0
100
AcDbVertex
100
AcDbPolygonMeshVertex
 10
0.7427000000000002
 20
0.5149999999999997
 30
4.636499999999999
 70
    64
  0
SEQEND
  5
70CEE
330
70CDB
100
AcDbEntity
  8
0
  0
POLYLINE
  5
70CEF
330
458D6
100
AcDbEntity
  8
0
100
AcDbPolygonMesh
 66
     1
 10
0.0
 20
0.0
 30
0.0
 70
    16
 71
     6
 72
     3
  0
VERTEX
  5
70CF0
330
70CEF
100
AcDbEntity
  8
0
100
AcDbVertex
100
AcDbPolygonMeshVertex
 10
1.431299999999998
 20
0.5149999999999997
 30
4.636499999999999
 70
    64
  0
VERTEX
  5
70CF1
330
70CEF
100
AcDbEntity
  8
0
100
AcDbVertex
100
AcDbPolygonMeshVertex
 10
1.431299999999998
 20
0.5149999999999997
 30
4.024499999999999
 70
    64
  0
VERTEX
  5
70CF2
330
70CEF
100
AcDbEntity
  8
0
100
AcDbVertex
100
AcDbPolygonMeshVertex
 10
1.431299999999998
 20
0.5149999999999997
 30
4.024499999999999
 70
    64
  0
VERTEX
  5
70CF3
330
70CEF
100
AcDbEntity
  8
0
100
AcDbVertex
100
AcDbPolygonMeshVertex
 10
1.377299999999999
 20
0.5149999999999997
 30
4.636499999999999
 70
    64
  0
VERTEX
  5
70CF4
330
70CEF
100
AcDbEntity
  8
0
100
AcDbVertex
100
AcDbPolygonMeshVertex
 10
1.377299999999999
 20
0.5149999999999997
 30
4.024499999999999
 70
    64
  0
VERTEX
  5
70CF5
330
70CEF
100
AcDbEntity
  8
0
100
AcDbVertex
100
AcDbPolygonMeshVertex
 10
1.377299999999999
 20
0.5149999999999997
 30
4.024499999999999
 70
    64
  0
VERTEX
  5
70CF6
330
70CEF
100
AcDbEntity
  8
0
100
AcDbVertex
100
AcDbPolygonMeshVertex
 10
1.377299999999999
 20
0.4009999999999998
 30
4.636499999999999
 70
    64
  0
VERTEX
  5
70CF7
330
70CEF
100
AcDbEntity
  8
0
100
AcDbVertex
100
AcDbPolygonMeshVertex
 10
1.377299999999999
 20
0.4009999999999998
 30
4.024499999999999
 70
    64
  0
VERTEX
  5
70CF8
330
70CEF
100
AcDbEntity
  8
0
100
AcDbVertex
100
AcDbPolygonMeshVertex
 10
1.377299999999999
 20
0.5149999999999997
 30
4.024499999999999
 70
    64
  0
VERTEX
  5
70CF9
330
70CEF
100
AcDbEntity
  8
0
100
AcDbVertex
100
AcDbPolygonMeshVertex
 10
1.431299999999998
 20
0.4009999999999998
 30
4.636499999999999
 70
    64
  0
VERTEX
  5
70CFA
330
70CEF
100
AcDbEntity
  8
0
100
AcDbVertex
100
AcDbPolygonMeshVertex
 10
1.431299999999998
 20
0.4009999999999998
 30
4.024499999999999
 70
    64
  0
VERTEX
  5
70CFB
330
70CEF
100
AcDbEntity
  8
0
100
AcDbVertex
100
AcDbPolygonMeshVertex
 10
1.431299999999998
 20
0.5149999999999997
 30
4.024499999999999
 70
    64
  0
VERTEX
  5
70CFC
330
70CEF
100
AcDbEntity
  8
0
100
AcDbVertex
100
AcDbPolygonMeshVertex
 10
1.431299999999998
 20
0.4009999999999998
 30
4.636499999999999
 70
    64
  0
VERTEX
  5
70CFD
330
70CEF
100
AcDbEntity
  8
0
100
AcDbVertex
100
AcDbPolygonMeshVertex
 10
1.431299999999998
 20
0.4009999999999998
 30
4.636499999999999
 70
    64
  0
VERTEX
  5
70CFE
330
70CEF
100
AcDbEntity
  8
0
100
AcDbVertex
100
AcDbPolygonMeshVertex
 10
1.431299999999998
 20
0.5149999999999997
 30
4.636499999999999
 70
    64
  0
VERTEX
  5
70CFF
330
70CEF
100
AcDbEntity
  8
0
100
AcDbVertex
100
AcDbPolygonMeshVertex
 10
1.377299999999999
 20
0.4009999999999998
 30
4.636499999999999
 70
    64
  0
VERTEX
  5
70D00
330
70CEF
100
AcDbEntity
  8
0
100
AcDbVertex
100
AcDbPolygonMeshVertex
 10
1.377299999999999
 20
0.4009999999999998
 30
4.636499999999999
 70
    64
  0
VERTEX
  5
70D01
330
70CEF
100
AcDbEntity
  8
0
100
AcDbVertex
100
AcDbPolygonMeshVertex
 10
1.377299999999999
 20
0.5149999999999997
 30
4.636499999999999
 70
    64
  0
SEQEND
  5
70D02
330
70CEF
100
AcDbEntity
  8
0
  0
LINE
  5
70D03
330
458D6
100
AcDbEntity
  8
0
100
AcDbLine
 10
0.2363499999999998
 20
0.4009999999999998
 30
4.575499999999999
 11
0.5063499999999995
 21
0.4009999999999998
 31
4.575499999999999
  0
LINE
  5
70D04
330
458D6
100
AcDbEntity
  8
0
100
AcDbLine
 10
0.2363499999999998
 20
0.4009999999999998
 30
3.905499999999999
 11
0.5063499999999995
 21
0.4009999999999998
 31
3.905499999999999
  0
LINE
  5
70D05
330
458D6
100
AcDbEntity
  8
0
100
AcDbLine
 10
0.2363499999999998
 20
0.4009999999999998
 30
4.303499999999999
 11
0.5063499999999995
 21
0.4009999999999998
 31
4.303499999999999
  0
LINE
  5
70D06
330
458D6
100
AcDbEntity
  8
0
100
AcDbLine
 10
0.2363499999999998
 20
0.4009999999999998
 30
4.199499999999999
 11
0.5063499999999995
 21
0.4009999999999998
 31
4.199499999999999
  0
LINE
  5
70D07
330
458D6
100
AcDbEntity
  8
0
100
AcDbLine
 10
0.5683499999999997
 20
0.4010000000000003
 30
3.94596065259117
 11
0.568349999999998
 21
0.4009999999999998
 31
4.636499999999999
  0
LINE
  5
70D08
330
458D6
100
AcDbEntity
  8
0
100
AcDbLine
 10
0.1743499999999996
 20
0.4009999999999993
 30
3.964999999999999
 11
0.1743499999999982
 21
0.4009999999999989
 31
4.636499999999999
  0
LINE
  5
70D09
330
458D6
100
AcDbEntity
  8
0
100
AcDbLine
 10
0.2363499999999998
 20
0.4009999999999998
 30
4.575499999999999
 11
0.2363499999999998
 21
0.4009999999999998
 31
4.303499999999999
  0
LINE
  5
70D0A
330
458D6
100
AcDbEntity
  8
0
100
AcDbLine
 10
0.5063499999999995
 20
0.4009999999999998
 30
4.575499999999999
 11
0.5063499999999995
 21
0.4009999999999998
 31
4.303499999999999
  0
LINE
  5
70D0B
330
458D6
100
AcDbEntity
  8
0
100
AcDbLine
 10
0.2363500000000003
 20
0.4009999999999998
 30
4.199499999999999
 11
0.2363499999999998
 21
0.4009999999999998
 31
4.024499999999999
  0
LINE
  5
70D0C
330
458D6
100
AcDbEntity
  8
0
100
AcDbLine
 10
0.1743499999999991
 20
0.4009999999999998
 30
4.024499999999999
 11
0.2363499999999998
 21
0.4009999999999998
 31
4.024499999999999
  0
LINE
  5
70D0D
330
458D6
100
AcDbEntity
  8
0
100
AcDbLine
 10
0.5063499999999995
 20
0.4009999999999998
 30
3.905499999999999
 11
0.5683499999999997
 21
0.4009999999999998
 31
3.94596065259117
  0
LINE
  5
70D0E
330
458D6
100
AcDbEntity
  8
0
100
AcDbLine
 10
0.5683499999999997
 20
0.4009999999999998
 30
4.0245
 11
0.5063499999999995
 21
0.4009999999999998
 31
4.024499999999999
  0
LINE
  5
70D0F
330
458D6
100
AcDbEntity
  8
0
100
AcDbLine
 10
0.5063499999999995
 20
0.4009999999999998
 30
4.199499999999999
 11
0.5063499999999995
 21
0.4009999999999998
 31
4.024499999999999
  0
LINE
  5
70D10
330
458D6
100
AcDbEntity
  8
0
100
AcDbLine
 10
0.2363499999999998
 20
0.4009999999999998
 30
3.905499999999999
 11
0.17435
 21
0.4009999999999994
 31
3.964999999999999
  0
LINE
  5
70D11
330
458D6
100
AcDbEntity
  8
0
100
AcDbLine
 10
0.1743499999999982
 20
0.4009999999999989
 30
4.636499999999999
 11
0.568349999999998
 21
0.4009999999999998
 31
4.636499999999999
210
0.0
220
-1.0
230
0.0
  0
LINE
  5
70D12
330
458D6
100
AcDbEntity
  8
0
100
AcDbLine
 10
0.8630500000000003
 20
0.4009999999999993
 30
3.964999999999999
 11
0.8630499999999985
 21
0.4009999999999989
 31
4.636499999999999
  0
LINE
  5
70D13
330
458D6
100
AcDbEntity
  8
0
100
AcDbLine
 10
1.25705
 20
0.4010000000000002
 30
3.94596065259117
 11
1.257049999999998
 21
0.4009999999999998
 31
4.636499999999999
  0
LINE
  5
70D14
330
458D6
100
AcDbEntity
  8
0
100
AcDbLine
 10
0.9250500000000005
 20
0.4009999999999998
 30
3.905499999999999
 11
1.19505
 21
0.4009999999999998
 31
3.905499999999999
  0
LINE
  5
70D15
330
458D6
100
AcDbEntity
  8
0
100
AcDbLine
 10
0.9250500000000005
 20
0.4009999999999998
 30
4.199499999999999
 11
1.19505
 21
0.4009999999999998
 31
4.199499999999999
  0
LINE
  5
70D16
330
458D6
100
AcDbEntity
  8
0
100
AcDbLine
 10
0.9250500000000005
 20
0.4009999999999998
 30
3.905499999999999
 11
0.8630500000000003
 21
0.4009999999999993
 31
3.964999999999999
  0
LINE
  5
70D17
330
458D6
100
AcDbEntity
  8
0
100
AcDbLine
 10
0.9250500000000014
 20
0.4009999999999998
 30
4.199499999999999
 11
0.9250500000000005
 21
0.4009999999999998
 31
4.024499999999999
  0
LINE
  5
70D18
330
458D6
100
AcDbEntity
  8
0
100
AcDbLine
 10
0.8630500000000003
 20
0.4009999999999998
 30
4.024499999999999
 11
0.9250500000000005
 21
0.4009999999999998
 31
4.024499999999999
  0
LINE
  5
70D19
330
458D6
100
AcDbEntity
  8
0
100
AcDbLine
 10
1.19505
 20
0.4009999999999998
 30
3.905499999999999
 11
1.25705
 21
0.4009999999999998
 31
3.94596065259117
  0
LINE
  5
70D1A
330
458D6
100
AcDbEntity
  8
0
100
AcDbLine
 10
1.19505
 20
0.4009999999999998
 30
4.199499999999999
 11
1.19505
 21
0.4009999999999998
 31
4.024499999999999
  0
LINE
  5
70D1B
330
458D6
100
AcDbEntity
  8
0
100
AcDbLine
 10
1.25705
 20
0.4009999999999998
 30
4.0245
 11
1.19505
 21
0.4009999999999998
 31
4.024499999999999
  0
LINE
  5
70D1C
330
458D6
100
AcDbEntity
  8
0
100
AcDbLine
 10
0.8630499999999985
 20
0.4009999999999989
 30
4.636499999999999
 11
1.257049999999998
 21
0.4009999999999998
 31
4.636499999999999
210
0.0
220
-1.0
230
0.0
  0
LINE
  5
70D1D
330
458D6
100
AcDbEntity
  8
0
100
AcDbLine
 10
0.9250500000000005
 20
0.4009999999999998
 30
4.575499999999999
 11
1.19505
 21
0.4009999999999998
 31
4.575499999999999
  0
LINE
  5
70D1E
330
458D6
100
AcDbEntity
  8
0
100
AcDbLine
 10
0.9250500000000005
 20
0.4009999999999998
 30
4.303499999999999
 11
1.19505
 21
0.4009999999999998
 31
4.303499999999999
  0
LINE
  5
70D1F
330
458D6
100
AcDbEntity
  8
0
100
AcDbLine
 10
0.9250500000000005
 20
0.4009999999999998
 30
4.575499999999999
 11
0.9250500000000005
 21
0.4009999999999998
 31
4.303499999999999
  0
LINE
  5
70D20
330
458D6
100
AcDbEntity
  8
0
100
AcDbLine
 10
1.19505
 20
0.4009999999999998
 30
4.575499999999999
 11
1.19505
 21
0.4009999999999998
 31
4.303499999999999
  0
LINE
  5
70D21
330
458D6
100
AcDbEntity
  8
0
100
AcDbLine
 10
1.945649999999999
 20
0.4010000000000002
 30
3.94596065259117
 11
1.945649999999997
 21
0.4009999999999998
 31
4.636499999999999
  0
LINE
  5
70D22
330
458D6
100
AcDbEntity
  8
0
100
AcDbLine
 10
1.551649999999999
 20
0.4009999999999993
 30
3.964999999999999
 11
1.551649999999997
 21
0.4009999999999989
 31
4.636499999999999
  0
LINE
  5
70D23
330
458D6
100
AcDbEntity
  8
0
100
AcDbLine
 10
1.61365
 20
0.4009999999999998
 30
4.199499999999999
 11
1.883649999999999
 21
0.4009999999999998
 31
4.199499999999999
  0
LINE
  5
70D24
330
458D6
100
AcDbEntity
  8
0
100
AcDbLine
 10
1.61365
 20
0.4009999999999998
 30
3.905499999999999
 11
1.883649999999999
 21
0.4009999999999998
 31
3.905499999999999
  0
LINE
  5
70D25
330
458D6
100
AcDbEntity
  8
0
100
AcDbLine
 10
1.61365
 20
0.4009999999999998
 30
3.905499999999999
 11
1.551649999999999
 21
0.4009999999999993
 31
3.964999999999999
  0
LINE
  5
70D26
330
458D6
100
AcDbEntity
  8
0
100
AcDbLine
 10
1.61365
 20
0.4009999999999998
 30
4.199499999999999
 11
1.61365
 21
0.4009999999999998
 31
4.024499999999999
  0
LINE
  5
70D27
330
458D6
100
AcDbEntity
  8
0
100
AcDbLine
 10
1.551649999999999
 20
0.4009999999999998
 30
4.024499999999999
 11
1.61365
 21
0.4009999999999998
 31
4.024499999999999
  0
LINE
  5
70D28
330
458D6
100
AcDbEntity
  8
0
100
AcDbLine
 10
1.883649999999999
 20
0.4009999999999998
 30
3.905499999999999
 11
1.945649999999999
 21
0.4009999999999998
 31
3.94596065259117
  0
LINE
  5
70D29
330
458D6
100
AcDbEntity
  8
0
100
AcDbLine
 10
1.883649999999999
 20
0.4009999999999998
 30
4.199499999999999
 11
1.883649999999999
 21
0.4009999999999998
 31
4.024499999999999
  0
LINE
  5
70D2A
330
458D6
100
AcDbEntity
  8
0
100
AcDbLine
 10
1.945649999999999
 20
0.4009999999999998
 30
4.0245
 11
1.883649999999999
 21
0.4009999999999998
 31
4.024499999999999
  0
LINE
  5
70D2B
330
458D6
100
AcDbEntity
  8
0
100
AcDbLine
 10
1.61365
 20
0.4009999999999998
 30
4.303499999999999
 11
1.883649999999999
 21
0.4009999999999998
 31
4.303499999999999
  0
LINE
  5
70D2C
330
458D6
100
AcDbEntity
  8
0
100
AcDbLine
 10
1.61365
 20
0.4009999999999998
 30
4.575499999999999
 11
1.883649999999999
 21
0.4009999999999998
 31
4.575499999999999
  0
LINE
  5
70D2D
330
458D6
100
AcDbEntity
  8
0
100
AcDbLine
 10
1.61365
 20
0.4009999999999998
 30
4.575499999999999
 11
1.61365
 21
0.4009999999999998
 31
4.303499999999999
  0
LINE
  5
70D2E
330
458D6
100
AcDbEntity
  8
0
100
AcDbLine
 10
1.883649999999999
 20
0.4009999999999998
 30
4.575499999999999
 11
1.883649999999999
 21
0.4009999999999998
 31
4.303499999999999
  0
LINE
  5
70D2F
330
458D6
100
AcDbEntity
  8
0
100
AcDbLine
 10
1.551649999999997
 20
0.4009999999999989
 30
4.636499999999999
 11
1.945649999999997
 21
0.4009999999999998
 31
4.636499999999999
210
0.0
220
-1.0
230
0.0
  0
POLYLINE
  5
70D30
330
458D6
100
AcDbEntity
  8
0
100
AcDbPolygonMesh
 66
     1
 10
0.0
 20
0.0
 30
0.0
 70
    16
 71
     6
 72
     3
  0
VERTEX
  5
70D31
330
70D30
100
AcDbEntity
  8
0
100
AcDbVertex
100
AcDbPolygonMeshVertex
 10
2.065999999999999
 20
0.5149999999999997
 30
4.636499999999999
 70
    64
  0
VERTEX
  5
70D32
330
70D30
100
AcDbEntity
  8
0
100
AcDbVertex
100
AcDbPolygonMeshVertex
 10
2.065999999999999
 20
0.5149999999999997
 30
3.218499999999999
 70
    64
  0
VERTEX
  5
70D33
330
70D30
100
AcDbEntity
  8
0
100
AcDbVertex
100
AcDbPolygonMeshVertex
 10
2.065999999999999
 20
0.5149999999999997
 30
3.218499999999999
 70
    64
  0
VERTEX
  5
70D34
330
70D30
100
AcDbEntity
  8
0
100
AcDbVertex
100
AcDbPolygonMeshVertex
 10
2.119999999999999
 20
0.5149999999999997
 30
4.636499999999999
 70
    64
  0
VERTEX
  5
70D35
330
70D30
100
AcDbEntity
  8
0
100
AcDbVertex
100
AcDbPolygonMeshVertex
 10
2.119999999999999
 20
0.5149999999999997
 30
3.218499999999999
 70
    64
  0
VERTEX
  5
70D36
330
70D30
100
AcDbEntity
  8
0
100
AcDbVertex
100
AcDbPolygonMeshVertex
 10
2.119999999999999
 20
0.5149999999999997
 30
3.218499999999999
 70
    64
  0
VERTEX
  5
70D37
330
70D30
100
AcDbEntity
  8
0
100
AcDbVertex
100
AcDbPolygonMeshVertex
 10
2.119999999999999
 20
0.4009999999999998
 30
4.636499999999999
 70
    64
  0
VERTEX
  5
70D38
330
70D30
100
AcDbEntity
  8
0
100
AcDbVertex
100
AcDbPolygonMeshVertex
 10
2.119999999999999
 20
0.4009999999999998
 30
3.218499999999999
 70
    64
  0
VERTEX
  5
70D39
330
70D30
100
AcDbEntity
  8
0
100
AcDbVertex
100
AcDbPolygonMeshVertex
 10
2.119999999999999
 20
0.5149999999999997
 30
3.218499999999999
 70
    64
  0
VERTEX
  5
70D3A
330
70D30
100
AcDbEntity
  8
0
100
AcDbVertex
100
AcDbPolygonMeshVertex
 10
2.065999999999999
 20
0.4009999999999998
 30
4.636499999999999
 70
    64
  0
VERTEX
  5
70D3B
330
70D30
100
AcDbEntity
  8
0
100
AcDbVertex
100
AcDbPolygonMeshVertex
 10
2.065999999999999
 20
0.4009999999999998
 30
3.218499999999999
 70
    64
  0
VERTEX
  5
70D3C
330
70D30
100
AcDbEntity
  8
0
100
AcDbVertex
100
AcDbPolygonMeshVertex
 10
2.065999999999999
 20
0.5149999999999997
 30
3.218499999999999
 70
    64
  0
VERTEX
  5
70D3D
330
70D30
100
AcDbEntity
  8
0
100
AcDbVertex
100
AcDbPolygonMeshVertex
 10
2.065999999999999
 20
0.4009999999999998
 30
4.636499999999999
 70
    64
  0
VERTEX
  5
70D3E
330
70D30
100
AcDbEntity
  8
0
100
AcDbVertex
100
AcDbPolygonMeshVertex
 10
2.065999999999999
 20
0.4009999999999998
 30
4.636499999999999
 70
    64
  0
VERTEX
  5
70D3F
330
70D30
100
AcDbEntity
  8
0
100
AcDbVertex
100
AcDbPolygonMeshVertex
 10
2.065999999999999
 20
0.5149999999999997
 30
4.636499999999999
 70
    64
  0
VERTEX
  5
70D40
330
70D30
100
AcDbEntity
  8
0
100
AcDbVertex
100
AcDbPolygonMeshVertex
 10
2.119999999999999
 20
0.4009999999999998
 30
4.636499999999999
 70
    64
  0
VERTEX
  5
70D41
330
70D30
100
AcDbEntity
  8
0
100
AcDbVertex
100
AcDbPolygonMeshVertex
 10
2.119999999999999
 20
0.4009999999999998
 30
4.636499999999999
 70
    64
  0
VERTEX
  5
70D42
330
70D30
100
AcDbEntity
  8
0
100
AcDbVertex
100
AcDbPolygonMeshVertex
 10
2.119999999999999
 20
0.5149999999999997
 30
4.636499999999999
 70
    64
  0
SEQEND
  5
70D43
330
70D30
100
AcDbEntity
  8
0
  0
POLYLINE
  5
70D44
330
458D6
100
AcDbEntity
  8
0
100
AcDbPolygonMesh
 66
     1
 10
0.0
 20
0.0
 30
0.0
 70
    16
 71
     6
 72
     3
  0
VERTEX
  5
70D45
330
70D44
100
AcDbEntity
  8
0
100
AcDbVertex
100
AcDbPolygonMeshVertex
 10
-0.0000000000000009
 20
0.5149999999999997
 30
4.636499999999999
 70
    64
  0
VERTEX
  5
70D46
330
70D44
100
AcDbEntity
  8
0
100
AcDbVertex
100
AcDbPolygonMeshVertex
 10
-0.0000000000000009
 20
0.5149999999999997
 30
3.218499999999999
 70
    64
  0
VERTEX
  5
70D47
330
70D44
100
AcDbEntity
  8
0
100
AcDbVertex
100
AcDbPolygonMeshVertex
 10
-0.0000000000000009
 20
0.5149999999999997
 30
3.218499999999999
 70
    64
  0
VERTEX
  5
70D48
330
70D44
100
AcDbEntity
  8
0
100
AcDbVertex
100
AcDbPolygonMeshVertex
 10
0.0539999999999994
 20
0.5149999999999997
 30
4.636499999999999
 70
    64
  0
VERTEX
  5
70D49
330
70D44
100
AcDbEntity
  8
0
100
AcDbVertex
100
AcDbPolygonMeshVertex
 10
0.0539999999999994
 20
0.5149999999999997
 30
3.218499999999999
 70
    64
  0
VERTEX
  5
70D4A
330
70D44
100
AcDbEntity
  8
0
100
AcDbVertex
100
AcDbPolygonMeshVertex
 10
0.0539999999999994
 20
0.5149999999999997
 30
3.218499999999999
 70
    64
  0
VERTEX
  5
70D4B
330
70D44
100
AcDbEntity
  8
0
100
AcDbVertex
100
AcDbPolygonMeshVertex
 10
0.0539999999999994
 20
0.4009999999999998
 30
4.636499999999999
 70
    64
  0
VERTEX
  5
70D4C
330
70D44
100
AcDbEntity
  8
0
100
AcDbVertex
100
AcDbPolygonMeshVertex
 10
0.0539999999999994
 20
0.4009999999999998
 30
3.218499999999999
 70
    64
  0
VERTEX
  5
70D4D
330
70D44
100
AcDbEntity
  8
0
100
AcDbVertex
100
AcDbPolygonMeshVertex
 10
0.0539999999999994
 20
0.5149999999999997
 30
3.218499999999999
 70
    64
  0
VERTEX
  5
70D4E
330
70D44
100
AcDbEntity
  8
0
100
AcDbVertex
100
AcDbPolygonMeshVertex
 10
-0.0000000000000009
 20
0.4009999999999998
 30
4.636499999999999
 70
    64
  0
VERTEX
  5
70D4F
330
70D44
100
AcDbEntity
  8
0
100
AcDbVertex
100
AcDbPolygonMeshVertex
 10
-0.0000000000000009
 20
0.4009999999999998
 30
3.218499999999999
 70
    64
  0
VERTEX
  5
70D50
330
70D44
100
AcDbEntity
  8
0
100
AcDbVertex
100
AcDbPolygonMeshVertex
 10
-0.0000000000000009
 20
0.5149999999999997
 30
3.218499999999999
 70
    64
  0
VERTEX
  5
70D51
330
70D44
100
AcDbEntity
  8
0
100
AcDbVertex
100
AcDbPolygonMeshVertex
 10
-0.0000000000000009
 20
0.4009999999999998
 30
4.636499999999999
 70
    64
  0
VERTEX
  5
70D52
330
70D44
100
AcDbEntity
  8
0
100
AcDbVertex
100
AcDbPolygonMeshVertex
 10
-0.0000000000000009
 20
0.4009999999999998
 30
4.636499999999999
 70
    64
  0
VERTEX
  5
70D53
330
70D44
100
AcDbEntity
  8
0
100
AcDbVertex
100
AcDbPolygonMeshVertex
 10
-0.0000000000000009
 20
0.5149999999999997
 30
4.636499999999999
 70
    64
  0
VERTEX
  5
70D54
330
70D44
100
AcDbEntity
  8
0
100
AcDbVertex
100
AcDbPolygonMeshVertex
 10
0.0539999999999994
 20
0.4009999999999998
 30
4.636499999999999
 70
    64
  0
VERTEX
  5
70D55
330
70D44
100
AcDbEntity
  8
0
100
AcDbVertex
100
AcDbPolygonMeshVertex
 10
0.0539999999999994
 20
0.4009999999999998
 30
4.636499999999999
 70
    64
  0
VERTEX
  5
70D56
330
70D44
100
AcDbEntity
  8
0
100
AcDbVertex
100
AcDbPolygonMeshVertex
 10
0.0539999999999994
 20
0.5149999999999997
 30
4.636499999999999
 70
    64
  0
SEQEND
  5
70D57
330
70D44
100
AcDbEntity
  8
0
  0
LINE
  5
70D58
330
458D6
100
AcDbEntity
  8
0
100
AcDbLine
 10
1.551649999999997
 20
-2.088999999999999
 30
4.636499999999999
 11
1.945649999999997
 21
-2.089
 31
4.636499999999999
210
0.0
220
1.0
230
0.0
  0
LINE
  5
70D59
330
458D6
100
AcDbEntity
  8
0
100
AcDbLine
 10
1.551649999999999
 20
-2.089
 30
4.024499999999999
 11
1.613649999999999
 21
-2.089
 31
4.024499999999999
  0
LINE
  5
70D5A
330
458D6
100
AcDbEntity
  8
0
100
AcDbLine
 10
1.551649999999999
 20
-2.088999999999999
 30
3.964999999999999
 11
1.551649999999997
 21
-2.088999999999999
 31
4.636499999999999
  0
LINE
  5
70D5B
330
458D6
100
AcDbEntity
  8
0
100
AcDbLine
 10
1.25705
 20
-2.089
 30
3.94596065259117
 11
1.257049999999998
 21
-2.089
 31
4.636499999999999
  0
LINE
  5
70D5C
330
458D6
100
AcDbEntity
  8
0
100
AcDbLine
 10
0.8630500000000008
 20
-2.088999999999999
 30
3.964999999999999
 11
0.863049999999999
 21
-2.088999999999999
 31
4.636499999999999
  0
LINE
  5
70D5D
330
458D6
100
AcDbEntity
  8
0
100
AcDbLine
 10
0.17435
 20
-2.088999999999999
 30
3.964999999999999
 11
0.1743499999999982
 21
-2.088999999999999
 31
4.636499999999999
  0
LINE
  5
70D5E
330
458D6
100
AcDbEntity
  8
0
100
AcDbLine
 10
0.5683500000000002
 20
-2.089
 30
3.94596065259117
 11
0.5683499999999984
 21
-2.089
 31
4.636499999999999
  0
POLYLINE
  5
70D5F
330
458D6
100
AcDbEntity
  8
0
100
AcDbPolygonMesh
 66
     1
 10
0.0
 20
0.0
 30
0.0
 70
    16
 71
     6
 72
     3
  0
VERTEX
  5
70D60
330
70D5F
100
AcDbEntity
  8
0
100
AcDbVertex
100
AcDbPolygonMeshVertex
 10
1.431299999999999
 20
-2.203
 30
4.636499999999999
 70
    64
  0
VERTEX
  5
70D61
330
70D5F
100
AcDbEntity
  8
0
100
AcDbVertex
100
AcDbPolygonMeshVertex
 10
1.431299999999999
 20
-2.203
 30
4.024499999999999
 70
    64
  0
VERTEX
  5
70D62
330
70D5F
100
AcDbEntity
  8
0
100
AcDbVertex
100
AcDbPolygonMeshVertex
 10
1.431299999999999
 20
-2.203
 30
4.024499999999999
 70
    64
  0
VERTEX
  5
70D63
330
70D5F
100
AcDbEntity
  8
0
100
AcDbVertex
100
AcDbPolygonMeshVertex
 10
1.377299999999999
 20
-2.203
 30
4.636499999999999
 70
    64
  0
VERTEX
  5
70D64
330
70D5F
100
AcDbEntity
  8
0
100
AcDbVertex
100
AcDbPolygonMeshVertex
 10
1.377299999999999
 20
-2.203
 30
4.024499999999999
 70
    64
  0
VERTEX
  5
70D65
330
70D5F
100
AcDbEntity
  8
0
100
AcDbVertex
100
AcDbPolygonMeshVertex
 10
1.377299999999999
 20
-2.203
 30
4.024499999999999
 70
    64
  0
VERTEX
  5
70D66
330
70D5F
100
AcDbEntity
  8
0
100
AcDbVertex
100
AcDbPolygonMeshVertex
 10
1.377299999999999
 20
-2.089
 30
4.636499999999999
 70
    64
  0
VERTEX
  5
70D67
330
70D5F
100
AcDbEntity
  8
0
100
AcDbVertex
100
AcDbPolygonMeshVertex
 10
1.377299999999999
 20
-2.089
 30
4.024499999999999
 70
    64
  0
VERTEX
  5
70D68
330
70D5F
100
AcDbEntity
  8
0
100
AcDbVertex
100
AcDbPolygonMeshVertex
 10
1.377299999999999
 20
-2.203
 30
4.024499999999999
 70
    64
  0
VERTEX
  5
70D69
330
70D5F
100
AcDbEntity
  8
0
100
AcDbVertex
100
AcDbPolygonMeshVertex
 10
1.431299999999999
 20
-2.089
 30
4.636499999999999
 70
    64
  0
VERTEX
  5
70D6A
330
70D5F
100
AcDbEntity
  8
0
100
AcDbVertex
100
AcDbPolygonMeshVertex
 10
1.431299999999999
 20
-2.089
 30
4.024499999999999
 70
    64
  0
VERTEX
  5
70D6B
330
70D5F
100
AcDbEntity
  8
0
100
AcDbVertex
100
AcDbPolygonMeshVertex
 10
1.431299999999999
 20
-2.203
 30
4.024499999999999
 70
    64
  0
VERTEX
  5
70D6C
330
70D5F
100
AcDbEntity
  8
0
100
AcDbVertex
100
AcDbPolygonMeshVertex
 10
1.431299999999999
 20
-2.089
 30
4.636499999999999
 70
    64
  0
VERTEX
  5
70D6D
330
70D5F
100
AcDbEntity
  8
0
100
AcDbVertex
100
AcDbPolygonMeshVertex
 10
1.431299999999999
 20
-2.089
 30
4.636499999999999
 70
    64
  0
VERTEX
  5
70D6E
330
70D5F
100
AcDbEntity
  8
0
100
AcDbVertex
100
AcDbPolygonMeshVertex
 10
1.431299999999999
 20
-2.203
 30
4.636499999999999
 70
    64
  0
VERTEX
  5
70D6F
330
70D5F
100
AcDbEntity
  8
0
100
AcDbVertex
100
AcDbPolygonMeshVertex
 10
1.377299999999999
 20
-2.089
 30
4.636499999999999
 70
    64
  0
VERTEX
  5
70D70
330
70D5F
100
AcDbEntity
  8
0
100
AcDbVertex
100
AcDbPolygonMeshVertex
 10
1.377299999999999
 20
-2.089
 30
4.636499999999999
 70
    64
  0
VERTEX
  5
70D71
330
70D5F
100
AcDbEntity
  8
0
100
AcDbVertex
100
AcDbPolygonMeshVertex
 10
1.377299999999999
 20
-2.203
 30
4.636499999999999
 70
    64
  0
SEQEND
  5
70D72
330
70D5F
100
AcDbEntity
  8
0
  0
POLYLINE
  5
70D73
330
458D6
100
AcDbEntity
  8
0
100
AcDbPolygonMesh
 66
     1
 10
0.0
 20
0.0
 30
0.0
 70
    16
 71
     6
 72
     3
  0
VERTEX
  5
70D74
330
70D73
100
AcDbEntity
  8
0
100
AcDbVertex
100
AcDbPolygonMeshVertex
 10
0.6887000000000004
 20
-2.203
 30
4.636499999999999
 70
    64
  0
VERTEX
  5
70D75
330
70D73
100
AcDbEntity
  8
0
100
AcDbVertex
100
AcDbPolygonMeshVertex
 10
0.6887000000000004
 20
-2.203
 30
4.024499999999999
 70
    64
  0
VERTEX
  5
70D76
330
70D73
100
AcDbEntity
  8
0
100
AcDbVertex
100
AcDbPolygonMeshVertex
 10
0.6887000000000004
 20
-2.203
 30
4.024499999999999
 70
    64
  0
VERTEX
  5
70D77
330
70D73
100
AcDbEntity
  8
0
100
AcDbVertex
100
AcDbPolygonMeshVertex
 10
0.7427000000000006
 20
-2.203
 30
4.636499999999999
 70
    64
  0
VERTEX
  5
70D78
330
70D73
100
AcDbEntity
  8
0
100
AcDbVertex
100
AcDbPolygonMeshVertex
 10
0.7427000000000006
 20
-2.203
 30
4.024499999999999
 70
    64
  0
VERTEX
  5
70D79
330
70D73
100
AcDbEntity
  8
0
100
AcDbVertex
100
AcDbPolygonMeshVertex
 10
0.7427000000000006
 20
-2.203
 30
4.024499999999999
 70
    64
  0
VERTEX
  5
70D7A
330
70D73
100
AcDbEntity
  8
0
100
AcDbVertex
100
AcDbPolygonMeshVertex
 10
0.7427000000000006
 20
-2.089
 30
4.636499999999999
 70
    64
  0
VERTEX
  5
70D7B
330
70D73
100
AcDbEntity
  8
0
100
AcDbVertex
100
AcDbPolygonMeshVertex
 10
0.7427000000000006
 20
-2.089
 30
4.024499999999999
 70
    64
  0
VERTEX
  5
70D7C
330
70D73
100
AcDbEntity
  8
0
100
AcDbVertex
100
AcDbPolygonMeshVertex
 10
0.7427000000000006
 20
-2.203
 30
4.024499999999999
 70
    64
  0
VERTEX
  5
70D7D
330
70D73
100
AcDbEntity
  8
0
100
AcDbVertex
100
AcDbPolygonMeshVertex
 10
0.6887000000000004
 20
-2.089
 30
4.636499999999999
 70
    64
  0
VERTEX
  5
70D7E
330
70D73
100
AcDbEntity
  8
0
100
AcDbVertex
100
AcDbPolygonMeshVertex
 10
0.6887000000000004
 20
-2.089
 30
4.024499999999999
 70
    64
  0
VERTEX
  5
70D7F
330
70D73
100
AcDbEntity
  8
0
100
AcDbVertex
100
AcDbPolygonMeshVertex
 10
0.6887000000000004
 20
-2.203
 30
4.024499999999999
 70
    64
  0
VERTEX
  5
70D80
330
70D73
100
AcDbEntity
  8
0
100
AcDbVertex
100
AcDbPolygonMeshVertex
 10
0.6887000000000004
 20
-2.089
 30
4.636499999999999
 70
    64
  0
VERTEX
  5
70D81
330
70D73
100
AcDbEntity
  8
0
100
AcDbVertex
100
AcDbPolygonMeshVertex
 10
0.6887000000000004
 20
-2.089
 30
4.636499999999999
 70
    64
  0
VERTEX
  5
70D82
330
70D73
100
AcDbEntity
  8
0
100
AcDbVertex
100
AcDbPolygonMeshVertex
 10
0.6887000000000004
 20
-2.203
 30
4.636499999999999
 70
    64
  0
VERTEX
  5
70D83
330
70D73
100
AcDbEntity
  8
0
100
AcDbVertex
100
AcDbPolygonMeshVertex
 10
0.7427000000000006
 20
-2.089
 30
4.636499999999999
 70
    64
  0
VERTEX
  5
70D84
330
70D73
100
AcDbEntity
  8
0
100
AcDbVertex
100
AcDbPolygonMeshVertex
 10
0.7427000000000006
 20
-2.089
 30
4.636499999999999
 70
    64
  0
VERTEX
  5
70D85
330
70D73
100
AcDbEntity
  8
0
100
AcDbVertex
100
AcDbPolygonMeshVertex
 10
0.7427000000000006
 20
-2.203
 30
4.636499999999999
 70
    64
  0
SEQEND
  5
70D86
330
70D73
100
AcDbEntity
  8
0
  0
LINE
  5
70D87
330
458D6
100
AcDbEntity
  8
0
100
AcDbLine
 10
0.2363499999999994
 20
-2.089
 30
3.905499999999999
 11
0.506349999999999
 21
-2.089
 31
3.905499999999999
  0
LINE
  5
70D88
330
458D6
100
AcDbEntity
  8
0
100
AcDbLine
 10
0.2363499999999994
 20
-2.089
 30
4.199499999999999
 11
0.506349999999999
 21
-2.089
 31
4.199499999999999
  0
LINE
  5
70D89
330
458D6
100
AcDbEntity
  8
0
100
AcDbLine
 10
0.2363499999999994
 20
-2.089
 30
3.905499999999999
 11
0.17435
 21
-2.088999999999999
 31
3.964999999999999
  0
LINE
  5
70D8A
330
458D6
100
AcDbEntity
  8
0
100
AcDbLine
 10
0.2363500000000003
 20
-2.089
 30
4.199499999999999
 11
0.2363499999999994
 21
-2.089
 31
4.024499999999999
  0
LINE
  5
70D8B
330
458D6
100
AcDbEntity
  8
0
100
AcDbLine
 10
0.1743499999999991
 20
-2.089
 30
4.024499999999999
 11
0.2363499999999994
 21
-2.089
 31
4.024499999999999
  0
LINE
  5
70D8C
330
458D6
100
AcDbEntity
  8
0
100
AcDbLine
 10
0.9250500000000002
 20
-2.089
 30
4.199499999999999
 11
1.19505
 21
-2.089
 31
4.199499999999999
  0
LINE
  5
70D8D
330
458D6
100
AcDbEntity
  8
0
100
AcDbLine
 10
0.9250500000000002
 20
-2.089
 30
3.905499999999999
 11
1.19505
 21
-2.089
 31
3.905499999999999
  0
LINE
  5
70D8E
330
458D6
100
AcDbEntity
  8
0
100
AcDbLine
 10
0.506349999999999
 20
-2.089
 30
3.905499999999999
 11
0.5683500000000002
 21
-2.089
 31
3.94596065259117
  0
LINE
  5
70D8F
330
458D6
100
AcDbEntity
  8
0
100
AcDbLine
 10
0.9250500000000002
 20
-2.089
 30
3.905499999999999
 11
0.8630500000000008
 21
-2.088999999999999
 31
3.964999999999999
  0
LINE
  5
70D90
330
458D6
100
AcDbEntity
  8
0
100
AcDbLine
 10
0.506349999999999
 20
-2.089
 30
4.199499999999999
 11
0.506349999999999
 21
-2.089
 31
4.024499999999999
  0
LINE
  5
70D91
330
458D6
100
AcDbEntity
  8
0
100
AcDbLine
 10
0.5683500000000002
 20
-2.089
 30
4.0245
 11
0.506349999999999
 21
-2.089
 31
4.024499999999999
  0
LINE
  5
70D92
330
458D6
100
AcDbEntity
  8
0
100
AcDbLine
 10
0.925050000000002
 20
-2.089
 30
4.199499999999999
 11
0.9250500000000002
 21
-2.089
 31
4.024499999999999
  0
LINE
  5
70D93
330
458D6
100
AcDbEntity
  8
0
100
AcDbLine
 10
0.8630500000000008
 20
-2.089
 30
4.024499999999999
 11
0.9250500000000002
 21
-2.089
 31
4.024499999999999
  0
LINE
  5
70D94
330
458D6
100
AcDbEntity
  8
0
100
AcDbLine
 10
1.19505
 20
-2.089
 30
3.905499999999999
 11
1.25705
 21
-2.089
 31
3.94596065259117
  0
LINE
  5
70D95
330
458D6
100
AcDbEntity
  8
0
100
AcDbLine
 10
1.19505
 20
-2.089
 30
4.199499999999999
 11
1.19505
 21
-2.089
 31
4.024499999999999
  0
LINE
  5
70D96
330
458D6
100
AcDbEntity
  8
0
100
AcDbLine
 10
1.25705
 20
-2.089
 30
4.0245
 11
1.19505
 21
-2.089
 31
4.024499999999999
  0
LINE
  5
70D97
330
458D6
100
AcDbEntity
  8
0
100
AcDbLine
 10
0.1743499999999982
 20
-2.088999999999999
 30
4.636499999999999
 11
0.5683499999999984
 21
-2.089
 31
4.636499999999999
210
0.0
220
1.0
230
0.0
  0
LINE
  5
70D98
330
458D6
100
AcDbEntity
  8
0
100
AcDbLine
 10
0.2363499999999994
 20
-2.089
 30
4.575499999999999
 11
0.506349999999999
 21
-2.089
 31
4.575499999999999
  0
LINE
  5
70D99
330
458D6
100
AcDbEntity
  8
0
100
AcDbLine
 10
0.2363499999999994
 20
-2.089
 30
4.303499999999999
 11
0.506349999999999
 21
-2.089
 31
4.303499999999999
  0
LINE
  5
70D9A
330
458D6
100
AcDbEntity
  8
0
100
AcDbLine
 10
0.2363499999999994
 20
-2.089
 30
4.575499999999999
 11
0.2363499999999994
 21
-2.089
 31
4.303499999999999
  0
LINE
  5
70D9B
330
458D6
100
AcDbEntity
  8
0
100
AcDbLine
 10
0.9250500000000002
 20
-2.089
 30
4.303499999999999
 11
1.19505
 21
-2.089
 31
4.303499999999999
  0
LINE
  5
70D9C
330
458D6
100
AcDbEntity
  8
0
100
AcDbLine
 10
0.9250500000000002
 20
-2.089
 30
4.575499999999999
 11
1.19505
 21
-2.089
 31
4.575499999999999
  0
LINE
  5
70D9D
330
458D6
100
AcDbEntity
  8
0
100
AcDbLine
 10
0.9250500000000002
 20
-2.089
 30
4.575499999999999
 11
0.9250500000000002
 21
-2.089
 31
4.303499999999999
  0
LINE
  5
70D9E
330
458D6
100
AcDbEntity
  8
0
100
AcDbLine
 10
0.506349999999999
 20
-2.089
 30
4.575499999999999
 11
0.506349999999999
 21
-2.089
 31
4.303499999999999
  0
LINE
  5
70D9F
330
458D6
100
AcDbEntity
  8
0
100
AcDbLine
 10
1.19505
 20
-2.089
 30
4.575499999999999
 11
1.19505
 21
-2.089
 31
4.303499999999999
  0
LINE
  5
70DA0
330
458D6
100
AcDbEntity
  8
0
100
AcDbLine
 10
0.863049999999999
 20
-2.088999999999999
 30
4.636499999999999
 11
1.257049999999998
 21
-2.089
 31
4.636499999999999
210
0.0
220
1.0
230
0.0
  0
LINE
  5
70DA1
330
458D6
100
AcDbEntity
  8
0
100
AcDbLine
 10
1.613649999999999
 20
-2.089
 30
4.199499999999999
 11
1.883649999999999
 21
-2.089
 31
4.199499999999999
  0
LINE
  5
70DA2
330
458D6
100
AcDbEntity
  8
0
100
AcDbLine
 10
1.61365
 20
-2.089
 30
4.199499999999999
 11
1.613649999999999
 21
-2.089
 31
4.024499999999999
  0
LINE
  5
70DA3
330
458D6
100
AcDbEntity
  8
0
100
AcDbLine
 10
1.883649999999999
 20
-2.089
 30
4.575499999999999
 11
1.883649999999999
 21
-2.089
 31
4.303499999999999
  0
LINE
  5
70DA4
330
458D6
100
AcDbEntity
  8
0
100
AcDbLine
 10
1.613649999999999
 20
-2.089
 30
4.575499999999999
 11
1.613649999999999
 21
-2.089
 31
4.303499999999999
  0
LINE
  5
70DA5
330
458D6
100
AcDbEntity
  8
0
100
AcDbLine
 10
1.613649999999999
 20
-2.089
 30
4.303499999999999
 11
1.883649999999999
 21
-2.089
 31
4.303499999999999
  0
LINE
  5
70DA6
330
458D6
100
AcDbEntity
  8
0
100
AcDbLine
 10
1.613649999999999
 20
-2.089
 30
4.575499999999999
 11
1.883649999999999
 21
-2.089
 31
4.575499999999999
  0
POLYLINE
  5
70DA7
330
458D6
100
AcDbEntity
  8
0
100
AcDbPolygonMesh
 66
     1
 10
0.0
 20
0.0
 30
0.0
 70
    16
 71
     6
 72
     3
  0
VERTEX
  5
70DA8
330
70DA7
100
AcDbEntity
  8
0
100
AcDbVertex
100
AcDbPolygonMeshVertex
 10
-0.0000000000000004
 20
-2.203
 30
4.636499999999999
 70
    64
  0
VERTEX
  5
70DA9
330
70DA7
100
AcDbEntity
  8
0
100
AcDbVertex
100
AcDbPolygonMeshVertex
 10
-0.0000000000000004
 20
-2.203
 30
3.218499999999999
 70
    64
  0
VERTEX
  5
70DAA
330
70DA7
100
AcDbEntity
  8
0
100
AcDbVertex
100
AcDbPolygonMeshVertex
 10
-0.0000000000000004
 20
-2.203
 30
3.218499999999999
 70
    64
  0
VERTEX
  5
70DAB
330
70DA7
100
AcDbEntity
  8
0
100
AcDbVertex
100
AcDbPolygonMeshVertex
 10
0.0539999999999998
 20
-2.203
 30
4.636499999999999
 70
    64
  0
VERTEX
  5
70DAC
330
70DA7
100
AcDbEntity
  8
0
100
AcDbVertex
100
AcDbPolygonMeshVertex
 10
0.0539999999999998
 20
-2.203
 30
3.218499999999999
 70
    64
  0
VERTEX
  5
70DAD
330
70DA7
100
AcDbEntity
  8
0
100
AcDbVertex
100
AcDbPolygonMeshVertex
 10
0.0539999999999998
 20
-2.203
 30
3.218499999999999
 70
    64
  0
VERTEX
  5
70DAE
330
70DA7
100
AcDbEntity
  8
0
100
AcDbVertex
100
AcDbPolygonMeshVertex
 10
0.0539999999999998
 20
-2.089
 30
4.636499999999999
 70
    64
  0
VERTEX
  5
70DAF
330
70DA7
100
AcDbEntity
  8
0
100
AcDbVertex
100
AcDbPolygonMeshVertex
 10
0.0539999999999998
 20
-2.089
 30
3.218499999999999
 70
    64
  0
VERTEX
  5
70DB0
330
70DA7
100
AcDbEntity
  8
0
100
AcDbVertex
100
AcDbPolygonMeshVertex
 10
0.0539999999999998
 20
-2.203
 30
3.218499999999999
 70
    64
  0
VERTEX
  5
70DB1
330
70DA7
100
AcDbEntity
  8
0
100
AcDbVertex
100
AcDbPolygonMeshVertex
 10
-0.0000000000000004
 20
-2.089
 30
4.636499999999999
 70
    64
  0
VERTEX
  5
70DB2
330
70DA7
100
AcDbEntity
  8
0
100
AcDbVertex
100
AcDbPolygonMeshVertex
 10
-0.0000000000000004
 20
-2.089
 30
3.218499999999999
 70
    64
  0
VERTEX
  5
70DB3
330
70DA7
100
AcDbEntity
  8
0
100
AcDbVertex
100
AcDbPolygonMeshVertex
 10
-0.0000000000000004
 20
-2.203
 30
3.218499999999999
 70
    64
  0
VERTEX
  5
70DB4
330
70DA7
100
AcDbEntity
  8
0
100
AcDbVertex
100
AcDbPolygonMeshVertex
 10
-0.0000000000000004
 20
-2.089
 30
4.636499999999999
 70
    64
  0
VERTEX
  5
70DB5
330
70DA7
100
AcDbEntity
  8
0
100
AcDbVertex
100
AcDbPolygonMeshVertex
 10
-0.0000000000000004
 20
-2.089
 30
4.636499999999999
 70
    64
  0
VERTEX
  5
70DB6
330
70DA7
100
AcDbEntity
  8
0
100
AcDbVertex
100
AcDbPolygonMeshVertex
 10
-0.0000000000000004
 20
-2.203
 30
4.636499999999999
 70
    64
  0
VERTEX
  5
70DB7
330
70DA7
100
AcDbEntity
  8
0
100
AcDbVertex
100
AcDbPolygonMeshVertex
 10
0.0539999999999998
 20
-2.089
 30
4.636499999999999
 70
    64
  0
VERTEX
  5
70DB8
330
70DA7
100
AcDbEntity
  8
0
100
AcDbVertex
100
AcDbPolygonMeshVertex
 10
0.0539999999999998
 20
-2.089
 30
4.636499999999999
 70
    64
  0
VERTEX
  5
70DB9
330
70DA7
100
AcDbEntity
  8
0
100
AcDbVertex
100
AcDbPolygonMeshVertex
 10
0.0539999999999998
 20
-2.203
 30
4.636499999999999
 70
    64
  0
SEQEND
  5
70DBA
330
70DA7
100
AcDbEntity
  8
0
  0
LINE
  5
70DBB
330
458D6
100
AcDbEntity
  8
0
100
AcDbLine
 10
1.613649999999999
 20
-2.089
 30
3.905499999999999
 11
1.551649999999999
 21
-2.088999999999999
 31
3.964999999999999
  0
POLYLINE
  5
70DBC
330
458D6
100
AcDbEntity
  8
0
100
AcDbPolygonMesh
 66
     1
 10
0.0
 20
0.0
 30
0.0
 70
    16
 71
     6
 72
     3
  0
VERTEX
  5
70DBD
330
70DBC
100
AcDbEntity
  8
0
100
AcDbVertex
100
AcDbPolygonMeshVertex
 10
2.065999999999998
 20
-2.203
 30
4.636499999999999
 70
    64
  0
VERTEX
  5
70DBE
330
70DBC
100
AcDbEntity
  8
0
100
AcDbVertex
100
AcDbPolygonMeshVertex
 10
2.065999999999998
 20
-2.203
 30
3.218499999999999
 70
    64
  0
VERTEX
  5
70DBF
330
70DBC
100
AcDbEntity
  8
0
100
AcDbVertex
100
AcDbPolygonMeshVertex
 10
2.065999999999998
 20
-2.203
 30
3.218499999999999
 70
    64
  0
VERTEX
  5
70DC0
330
70DBC
100
AcDbEntity
  8
0
100
AcDbVertex
100
AcDbPolygonMeshVertex
 10
2.119999999999999
 20
-2.203
 30
4.636499999999999
 70
    64
  0
VERTEX
  5
70DC1
330
70DBC
100
AcDbEntity
  8
0
100
AcDbVertex
100
AcDbPolygonMeshVertex
 10
2.119999999999999
 20
-2.203
 30
3.218499999999999
 70
    64
  0
VERTEX
  5
70DC2
330
70DBC
100
AcDbEntity
  8
0
100
AcDbVertex
100
AcDbPolygonMeshVertex
 10
2.119999999999999
 20
-2.203
 30
3.218499999999999
 70
    64
  0
VERTEX
  5
70DC3
330
70DBC
100
AcDbEntity
  8
0
100
AcDbVertex
100
AcDbPolygonMeshVertex
 10
2.119999999999999
 20
-2.089
 30
4.636499999999999
 70
    64
  0
VERTEX
  5
70DC4
330
70DBC
100
AcDbEntity
  8
0
100
AcDbVertex
100
AcDbPolygonMeshVertex
 10
2.119999999999999
 20
-2.089
 30
3.218499999999999
 70
    64
  0
VERTEX
  5
70DC5
330
70DBC
100
AcDbEntity
  8
0
100
AcDbVertex
100
AcDbPolygonMeshVertex
 10
2.119999999999999
 20
-2.203
 30
3.218499999999999
 70
    64
  0
VERTEX
  5
70DC6
330
70DBC
100
AcDbEntity
  8
0
100
AcDbVertex
100
AcDbPolygonMeshVertex
 10
2.065999999999998
 20
-2.089
 30
4.636499999999999
 70
    64
  0
VERTEX
  5
70DC7
330
70DBC
100
AcDbEntity
  8
0
100
AcDbVertex
100
AcDbPolygonMeshVertex
 10
2.065999999999998
 20
-2.089
 30
3.218499999999999
 70
    64
  0
VERTEX
  5
70DC8
330
70DBC
100
AcDbEntity
  8
0
100
AcDbVertex
100
AcDbPolygonMeshVertex
 10
2.065999999999998
 20
-2.203
 30
3.218499999999999
 70
    64
  0
VERTEX
  5
70DC9
330
70DBC
100
AcDbEntity
  8
0
100
AcDbVertex
100
AcDbPolygonMeshVertex
 10
2.065999999999998
 20
-2.089
 30
4.636499999999999
 70
    64
  0
VERTEX
  5
70DCA
330
70DBC
100
AcDbEntity
  8
0
100
AcDbVertex
100
AcDbPolygonMeshVertex
 10
2.065999999999998
 20
-2.089
 30
4.636499999999999
 70
    64
  0
VERTEX
  5
70DCB
330
70DBC
100
AcDbEntity
  8
0
100
AcDbVertex
100
AcDbPolygonMeshVertex
 10
2.065999999999998
 20
-2.203
 30
4.636499999999999
 70
    64
  0
VERTEX
  5
70DCC
330
70DBC
100
AcDbEntity
  8
0
100
AcDbVertex
100
AcDbPolygonMeshVertex
 10
2.119999999999999
 20
-2.089
 30
4.636499999999999
 70
    64
  0
VERTEX
  5
70DCD
330
70DBC
100
AcDbEntity
  8
0
100
AcDbVertex
100
AcDbPolygonMeshVertex
 10
2.119999999999999
 20
-2.089
 30
4.636499999999999
 70
    64
  0
VERTEX
  5
70DCE
330
70DBC
100
AcDbEntity
  8
0
100
AcDbVertex
100
AcDbPolygonMeshVertex
 10
2.119999999999999
 20
-2.203
 30
4.636499999999999
 70
    64
  0
SEQEND
  5
70DCF
330
70DBC
100
AcDbEntity
  8
0
  0
LINE
  5
70DD0
330
458D6
100
AcDbEntity
  8
0
100
AcDbLine
 10
1.945649999999999
 20
-2.089
 30
3.94596065259117
 11
1.945649999999997
 21
-2.089
 31
4.636499999999999
  0
LINE
  5
70DD1
330
458D6
100
AcDbEntity
  8
0
100
AcDbLine
 10
1.613649999999999
 20
-2.089
 30
3.905499999999999
 11
1.883649999999999
 21
-2.089
 31
3.905499999999999
  0
LINE
  5
70DD2
330
458D6
100
AcDbEntity
  8
0
100
AcDbLine
 10
1.883649999999999
 20
-2.089
 30
3.905499999999999
 11
1.945649999999999
 21
-2.089
 31
3.94596065259117
  0
LINE
  5
70DD3
330
458D6
100
AcDbEntity
  8
0
100
AcDbLine
 10
1.883649999999999
 20
-2.089
 30
4.199499999999999
 11
1.883649999999999
 21
-2.089
 31
4.024499999999999
  0
LINE
  5
70DD4
330
458D6
100
AcDbEntity
  8
0
100
AcDbLine
 10
1.945649999999999
 20
-2.089
 30
4.0245
 11
1.883649999999999
 21
-2.089
 31
4.024499999999999
  0
LINE
  5
70DD5
330
458D6
100
AcDbEntity
  8
0
100
AcDbLine
 10
0.647723391696637
 20
-2.089
 30
-0.0000000000000001
 11
0.8583900583633035
 21
-2.089
 31
-0.0000000000000001
  0
POLYLINE
  5
70DD6
330
458D6
100
AcDbEntity
  8
0
100
AcDb3dPolyline
 66
     1
 10
0.0
 20
0.0
 30
0.0
 70
     8
  0
VERTEX
  5
70DD7
330
70DD6
100
AcDbEntity
  8
0
100
AcDbVertex
100
AcDb3dPolylineVertex
 10
0.647723391696637
 20
-2.089
 30
-0.0000000000000001
 70
    32
  0
VERTEX
  5
70DD8
330
70DD6
100
AcDbEntity
  8
0
100
AcDbVertex
100
AcDb3dPolylineVertex
 10
0.647723391696637
 20
-2.224
 30
0.0
 70
    32
  0
VERTEX
  5
70DD9
330
70DD6
100
AcDbEntity
  8
0
100
AcDbVertex
100
AcDb3dPolylineVertex
 10
0.8583900583633035
 20
-2.224
 30
0.0
 70
    32
  0
VERTEX
  5
70DDA
330
70DD6
100
AcDbEntity
  8
0
100
AcDbVertex
100
AcDb3dPolylineVertex
 10
0.8583900583633035
 20
-2.089
 30
-0.0000000000000001
 70
    32
  0
SEQEND
  5
70DDB
330
70DD6
100
AcDbEntity
  8
0
  0
POLYLINE
  5
70DDC
330
458D6
100
AcDbEntity
  8
0
100
AcDb3dPolyline
 66
     1
 10
0.0
 20
0.0
 30
0.0
 70
     8
  0
VERTEX
  5
70DDD
330
70DDC
100
AcDbEntity
  8
0
100
AcDbVertex
100
AcDb3dPolylineVertex
 10
0.647723391696637
 20
-2.089
 30
0.187
 70
    32
  0
VERTEX
  5
70DDE
330
70DDC
100
AcDbEntity
  8
0
100
AcDbVertex
100
AcDb3dPolylineVertex
 10
0.647723391696637
 20
-2.224
 30
0.187
 70
    32
  0
VERTEX
  5
70DDF
330
70DDC
100
AcDbEntity
  8
0
100
AcDbVertex
100
AcDb3dPolylineVertex
 10
0.8583900583633035
 20
-2.224
 30
0.187
 70
    32
  0
VERTEX
  5
70DE0
330
70DDC
100
AcDbEntity
  8
0
100
AcDbVertex
100
AcDb3dPolylineVertex
 10
0.8583900583633035
 20
-2.089
 30
0.187
 70
    32
  0
SEQEND
  5
70DE1
330
70DDC
100
AcDbEntity
  8
0
  0
POLYLINE
  5
70DE2
330
458D6
100
AcDbEntity
  8
0
100
AcDbPolygonMesh
 66
     1
 10
0.0
 20
0.0
 30
0.0
 70
    16
 71
     6
 72
     3
  0
VERTEX
  5
70DE3
330
70DE2
100
AcDbEntity
  8
0
100
AcDbVertex
100
AcDbPolygonMeshVertex
 10
0.9203900583633028
 20
-2.286
 30
0.187
 70
    64
  0
VERTEX
  5
70DE4
330
70DE2
100
AcDbEntity
  8
0
100
AcDbVertex
100
AcDbPolygonMeshVertex
 10
0.9203900583633028
 20
-2.286
 30
0.0
 70
    64
  0
VERTEX
  5
70DE5
330
70DE2
100
AcDbEntity
  8
0
100
AcDbVertex
100
AcDbPolygonMeshVertex
 10
0.9203900583633028
 20
-2.286
 30
0.0
 70
    64
  0
VERTEX
  5
70DE6
330
70DE2
100
AcDbEntity
  8
0
100
AcDbVertex
100
AcDbPolygonMeshVertex
 10
0.3130567250299698
 20
-2.286
 30
0.187
 70
    64
  0
VERTEX
  5
70DE7
330
70DE2
100
AcDbEntity
  8
0
100
AcDbVertex
100
AcDbPolygonMeshVertex
 10
0.3130567250299698
 20
-2.286
 30
0.0
 70
    64
  0
VERTEX
  5
70DE8
330
70DE2
100
AcDbEntity
  8
0
100
AcDbVertex
100
AcDbPolygonMeshVertex
 10
0.3130567250299698
 20
-2.286
 30
0.0
 70
    64
  0
VERTEX
  5
70DE9
330
70DE2
100
AcDbEntity
  8
0
100
AcDbVertex
100
AcDbPolygonMeshVertex
 10
0.3130567250299698
 20
-2.224
 30
0.187
 70
    64
  0
VERTEX
  5
70DEA
330
70DE2
100
AcDbEntity
  8
0
100
AcDbVertex
100
AcDbPolygonMeshVertex
 10
0.3130567250299698
 20
-2.224
 30
0.0
 70
    64
  0
VERTEX
  5
70DEB
330
70DE2
100
AcDbEntity
  8
0
100
AcDbVertex
100
AcDbPolygonMeshVertex
 10
0.3130567250299698
 20
-2.286
 30
0.0
 70
    64
  0
VERTEX
  5
70DEC
330
70DE2
100
AcDbEntity
  8
0
100
AcDbVertex
100
AcDbPolygonMeshVertex
 10
0.9203900583633028
 20
-2.224
 30
0.187
 70
    64
  0
VERTEX
  5
70DED
330
70DE2
100
AcDbEntity
  8
0
100
AcDbVertex
100
AcDbPolygonMeshVertex
 10
0.9203900583633028
 20
-2.224
 30
0.0
 70
    64
  0
VERTEX
  5
70DEE
330
70DE2
100
AcDbEntity
  8
0
100
AcDbVertex
100
AcDbPolygonMeshVertex
 10
0.9203900583633028
 20
-2.286
 30
0.0
 70
    64
  0
VERTEX
  5
70DEF
330
70DE2
100
AcDbEntity
  8
0
100
AcDbVertex
100
AcDbPolygonMeshVertex
 10
0.9203900583633028
 20
-2.224
 30
0.187
 70
    64
  0
VERTEX
  5
70DF0
330
70DE2
100
AcDbEntity
  8
0
100
AcDbVertex
100
AcDbPolygonMeshVertex
 10
0.9203900583633028
 20
-2.224
 30
0.187
 70
    64
  0
VERTEX
  5
70DF1
330
70DE2
100
AcDbEntity
  8
0
100
AcDbVertex
100
AcDbPolygonMeshVertex
 10
0.9203900583633028
 20
-2.286
 30
0.187
 70
    64
  0
VERTEX
  5
70DF2
330
70DE2
100
AcDbEntity
  8
0
100
AcDbVertex
100
AcDbPolygonMeshVertex
 10
0.3130567250299698
 20
-2.224
 30
0.187
 70
    64
  0
VERTEX
  5
70DF3
330
70DE2
100
AcDbEntity
  8
0
100
AcDbVertex
100
AcDbPolygonMeshVertex
 10
0.3130567250299698
 20
-2.224
 30
0.187
 70
    64
  0
VERTEX
  5
70DF4
330
70DE2
100
AcDbEntity
  8
0
100
AcDbVertex
100
AcDbPolygonMeshVertex
 10
0.3130567250299698
 20
-2.286
 30
0.187
 70
    64
  0
SEQEND
  5
70DF5
330
70DE2
100
AcDbEntity
  8
0
  0
LINE
  5
70DF6
330
458D6
100
AcDbEntity
  8
0
100
AcDbLine
 10
0.1962766083033625
 20
-1.954
 30
0.187
 11
0.1962766083033625
 21
-1.954
 31
0.187
  0
POLYLINE
  5
70DF7
330
458D6
100
AcDbEntity
  8
0
100
AcDbPolygonMesh
 66
     1
 10
0.0
 20
0.0
 30
0.0
 70
    16
 71
     6
 72
     3
  0
VERTEX
  5
70DF8
330
70DF7
100
AcDbEntity
  8
0
100
AcDbVertex
100
AcDbPolygonMeshVertex
 10
0.9203900583633028
 20
-2.224
 30
0.187
 70
    64
  0
VERTEX
  5
70DF9
330
70DF7
100
AcDbEntity
  8
0
100
AcDbVertex
100
AcDbPolygonMeshVertex
 10
0.9203900583633028
 20
-2.224
 30
0.0
 70
    64
  0
VERTEX
  5
70DFA
330
70DF7
100
AcDbEntity
  8
0
100
AcDbVertex
100
AcDbPolygonMeshVertex
 10
0.9203900583633028
 20
-2.224
 30
0.0
 70
    64
  0
VERTEX
  5
70DFB
330
70DF7
100
AcDbEntity
  8
0
100
AcDbVertex
100
AcDbPolygonMeshVertex
 10
0.5857233916966376
 20
-2.224
 30
0.187
 70
    64
  0
VERTEX
  5
70DFC
330
70DF7
100
AcDbEntity
  8
0
100
AcDbVertex
100
AcDbPolygonMeshVertex
 10
0.5857233916966376
 20
-2.224
 30
0.0
 70
    64
  0
VERTEX
  5
70DFD
330
70DF7
100
AcDbEntity
  8
0
100
AcDbVertex
100
AcDbPolygonMeshVertex
 10
0.5857233916966376
 20
-2.224
 30
0.0
 70
    64
  0
VERTEX
  5
70DFE
330
70DF7
100
AcDbEntity
  8
0
100
AcDbVertex
100
AcDbPolygonMeshVertex
 10
0.5857233916966376
 20
-2.027000000000001
 30
0.187
 70
    64
  0
VERTEX
  5
70DFF
330
70DF7
100
AcDbEntity
  8
0
100
AcDbVertex
100
AcDbPolygonMeshVertex
 10
0.5857233916966376
 20
-2.027000000000001
 30
0.0
 70
    64
  0
VERTEX
  5
70E00
330
70DF7
100
AcDbEntity
  8
0
100
AcDbVertex
100
AcDbPolygonMeshVertex
 10
0.5857233916966376
 20
-2.224
 30
0.0
 70
    64
  0
VERTEX
  5
70E01
330
70DF7
100
AcDbEntity
  8
0
100
AcDbVertex
100
AcDbPolygonMeshVertex
 10
0.9203900583633028
 20
-2.027000000000001
 30
0.187
 70
    64
  0
VERTEX
  5
70E02
330
70DF7
100
AcDbEntity
  8
0
100
AcDbVertex
100
AcDbPolygonMeshVertex
 10
0.9203900583633028
 20
-2.027000000000001
 30
0.0
 70
    64
  0
VERTEX
  5
70E03
330
70DF7
100
AcDbEntity
  8
0
100
AcDbVertex
100
AcDbPolygonMeshVertex
 10
0.9203900583633028
 20
-2.224
 30
0.0
 70
    64
  0
VERTEX
  5
70E04
330
70DF7
100
AcDbEntity
  8
0
100
AcDbVertex
100
AcDbPolygonMeshVertex
 10
0.9203900583633028
 20
-2.027000000000001
 30
0.187
 70
    64
  0
VERTEX
  5
70E05
330
70DF7
100
AcDbEntity
  8
0
100
AcDbVertex
100
AcDbPolygonMeshVertex
 10
0.9203900583633028
 20
-2.027000000000001
 30
0.187
 70
    64
  0
VERTEX
  5
70E06
330
70DF7
100
AcDbEntity
  8
0
100
AcDbVertex
100
AcDbPolygonMeshVertex
 10
0.9203900583633028
 20
-2.224
 30
0.187
 70
    64
  0
VERTEX
  5
70E07
330
70DF7
100
AcDbEntity
  8
0
100
AcDbVertex
100
AcDbPolygonMeshVertex
 10
0.5857233916966376
 20
-2.027000000000001
 30
0.187
 70
    64
  0
VERTEX
  5
70E08
330
70DF7
100
AcDbEntity
  8
0
100
AcDbVertex
100
AcDbPolygonMeshVertex
 10
0.5857233916966376
 20
-2.027000000000001
 30
0.187
 70
    64
  0
VERTEX
  5
70E09
330
70DF7
100
AcDbEntity
  8
0
100
AcDbVertex
100
AcDbPolygonMeshVertex
 10
0.5857233916966376
 20
-2.224
 30
0.187
 70
    64
  0
SEQEND
  5
70E0A
330
70DF7
100
AcDbEntity
  8
0
  0
LINE
  5
70E0B
330
458D6
100
AcDbEntity
  8
0
100
AcDbLine
 10
0.647723391696637
 20
-2.089
 30
0.187
 11
0.8583900583633035
 21
-2.089
 31
0.187
  0
CIRCLE
  5
70E0C
330
458D6
100
AcDbEntity
  8
0
100
AcDbCircle
 10
1.060049999999997
 20
0.1807980402316449
 30
5.4375
 40
0.138
  0
CIRCLE
  5
70E0D
330
458D6
100
AcDbEntity
  8
0
100
AcDbCircle
 10
1.748649999999996
 20
0.1807980402316449
 30
5.4375
 40
0.138
  0
CIRCLE
  5
70E0E
330
458D6
100
AcDbEntity
  8
0
100
AcDbCircle
 10
0.3713499999999978
 20
-1.868798040231645
 30
5.4375
 40
0.138
  0
TEXT
  5
70E0F
330
458D6
100
AcDbEntity
  8
0
100
AcDbText
 39
0.0000001
 10
0.533641379288321
 20
0.7426541452578432
 30
3.6395
 40
0.0834654981097751
  1
A1
100
AcDbText
  0
TEXT
  5
70E10
330
458D6
100
AcDbEntity
  8
0
100
AcDbText
 39
0.0000001
 10
1.454764247209924
 20
0.7418122791519969
 30
3.6395
 40
0.0834654981097751
  1
A2
100
AcDbText
  0
POLYLINE
  5
70E11
330
458D6
100
AcDbEntity
  8
0
100
AcDb3dPolyline
 66
     1
 10
0.0
 20
0.0
 30
0.0
 70
     8
  0
VERTEX
  5
70E12
330
70E11
100
AcDbEntity
  8
0
100
AcDbVertex
100
AcDb3dPolylineVertex
 10
-0.0000000000000036
 20
-0.7610000000000002
 30
3.1695
 70
    32
  0
VERTEX
  5
70E13
330
70E11
100
AcDbEntity
  8
0
100
AcDbVertex
100
AcDb3dPolylineVertex
 10
-0.0000000000000036
 20
-0.7610000000000002
 30
3.7425
 70
    32
  0
VERTEX
  5
70E14
330
70E11
100
AcDbEntity
  8
0
100
AcDbVertex
100
AcDb3dPolylineVertex
 10
-0.0000000000000036
 20
-0.9269999999999999
 30
3.7425
 70
    32
  0
VERTEX
  5
70E15
330
70E11
100
AcDbEntity
  8
0
100
AcDbVertex
100
AcDb3dPolylineVertex
 10
-0.0000000000000036
 20
-0.9270000000000004
 30
3.1695
 70
    32
  0
VERTEX
  5
70E16
330
70E11
100
AcDbEntity
  8
0
100
AcDbVertex
100
AcDb3dPolylineVertex
 10
-0.0000000000000036
 20
-0.7610000000000002
 30
3.1695
 70
    32
  0
SEQEND
  5
70E17
330
70E11
100
AcDbEntity
  8
0
  0
LINE
  5
70E18
330
458D6
100
AcDbEntity
  8
0
100
AcDbLine
 10
-0.0000000000000036
 20
-0.9270000000000003
 30
3.456
 11
-0.0000000000000036
 21
-0.7610000000000002
 31
3.456
  0
LINE
  5
70E19
330
458D6
100
AcDbEntity
  8
0
100
AcDbLine
 10
-0.0000000000000036
 20
-0.9270000000000004
 30
3.646
 11
-0.0000000000000036
 21
-0.7610000000000002
 31
3.646
  0
POLYLINE
  5
70E1A
330
458D6
100
AcDbEntity
  8
0
100
AcDb3dPolyline
 66
     1
 10
0.0
 20
0.0
 30
0.0
 70
     8
  0
VERTEX
  5
70E1B
330
70E1A
100
AcDbEntity
  8
0
100
AcDbVertex
100
AcDb3dPolylineVertex
 10
2.119999999999996
 20
-0.7610000000000002
 30
3.1695
 70
    32
  0
VERTEX
  5
70E1C
330
70E1A
100
AcDbEntity
  8
0
100
AcDbVertex
100
AcDb3dPolylineVertex
 10
2.119999999999996
 20
-0.7610000000000002
 30
3.7425
 70
    32
  0
VERTEX
  5
70E1D
330
70E1A
100
AcDbEntity
  8
0
100
AcDbVertex
100
AcDb3dPolylineVertex
 10
2.119999999999996
 20
-0.9269999999999999
 30
3.7425
 70
    32
  0
VERTEX
  5
70E1E
330
70E1A
100
AcDbEntity
  8
0
100
AcDbVertex
100
AcDb3dPolylineVertex
 10
2.119999999999996
 20
-0.9270000000000004
 30
3.1695
 70
    32
  0
VERTEX
  5
70E1F
330
70E1A
100
AcDbEntity
  8
0
100
AcDbVertex
100
AcDb3dPolylineVertex
 10
2.119999999999996
 20
-0.7610000000000002
 30
3.1695
 70
    32
  0
SEQEND
  5
70E20
330
70E1A
100
AcDbEntity
  8
0
  0
LINE
  5
70E21
330
458D6
100
AcDbEntity
  8
0
100
AcDbLine
 10
2.119999999999996
 20
-0.9270000000000003
 30
3.456
 11
2.119999999999996
 21
-0.7610000000000002
 31
3.456
  0
LINE
  5
70E22
330
458D6
100
AcDbEntity
  8
0
100
AcDbLine
 10
2.119999999999996
 20
-0.9270000000000004
 30
3.646
 11
2.119999999999996
 21
-0.7610000000000002
 31
3.646
  0
POLYLINE
  5
70E23
330
458D6
100
AcDbEntity
  8
0
100
AcDbPolygonMesh
 66
     1
 10
0.0
 20
0.0
 30
0.0
 70
    16
 71
     6
 72
     3
  0
VERTEX
  5
70E24
330
70E23
100
AcDbEntity
  8
0
100
AcDbVertex
100
AcDbPolygonMeshVertex
 10
0.391
 20
-2.172
 30
0.3160000000000003
 70
    64
  0
VERTEX
  5
70E25
330
70E23
100
AcDbEntity
  8
0
100
AcDbVertex
100
AcDbPolygonMeshVertex
 10
0.391
 20
-2.172
 30
0.0000000000000002
 70
    64
  0
VERTEX
  5
70E26
330
70E23
100
AcDbEntity
  8
0
100
AcDbVertex
100
AcDbPolygonMeshVertex
 10
0.391
 20
-2.172
 30
0.0000000000000002
 70
    64
  0
VERTEX
  5
70E27
330
70E23
100
AcDbEntity
  8
0
100
AcDbVertex
100
AcDbPolygonMeshVertex
 10
0.0
 20
-2.172
 30
0.3160000000000003
 70
    64
  0
VERTEX
  5
70E28
330
70E23
100
AcDbEntity
  8
0
100
AcDbVertex
100
AcDbPolygonMeshVertex
 10
0.0
 20
-2.172
 30
0.0000000000000002
 70
    64
  0
VERTEX
  5
70E29
330
70E23
100
AcDbEntity
  8
0
100
AcDbVertex
100
AcDbPolygonMeshVertex
 10
0.0
 20
-2.172
 30
0.0000000000000002
 70
    64
  0
VERTEX
  5
70E2A
330
70E23
100
AcDbEntity
  8
0
100
AcDbVertex
100
AcDbPolygonMeshVertex
 10
0.0
 20
-1.806
 30
0.3160000000000003
 70
    64
  0
VERTEX
  5
70E2B
330
70E23
100
AcDbEntity
  8
0
100
AcDbVertex
100
AcDbPolygonMeshVertex
 10
0.0
 20
-1.806
 30
0.0000000000000002
 70
    64
  0
VERTEX
  5
70E2C
330
70E23
100
AcDbEntity
  8
0
100
AcDbVertex
100
AcDbPolygonMeshVertex
 10
0.0
 20
-2.172
 30
0.0000000000000002
 70
    64
  0
VERTEX
  5
70E2D
330
70E23
100
AcDbEntity
  8
0
100
AcDbVertex
100
AcDbPolygonMeshVertex
 10
0.391
 20
-1.806
 30
0.3160000000000003
 70
    64
  0
VERTEX
  5
70E2E
330
70E23
100
AcDbEntity
  8
0
100
AcDbVertex
100
AcDbPolygonMeshVertex
 10
0.391
 20
-1.806
 30
0.0000000000000002
 70
    64
  0
VERTEX
  5
70E2F
330
70E23
100
AcDbEntity
  8
0
100
AcDbVertex
100
AcDbPolygonMeshVertex
 10
0.391
 20
-2.172
 30
0.0000000000000002
 70
    64
  0
VERTEX
  5
70E30
330
70E23
100
AcDbEntity
  8
0
100
AcDbVertex
100
AcDbPolygonMeshVertex
 10
0.391
 20
-1.806
 30
0.3160000000000003
 70
    64
  0
VERTEX
  5
70E31
330
70E23
100
AcDbEntity
  8
0
100
AcDbVertex
100
AcDbPolygonMeshVertex
 10
0.391
 20
-1.806
 30
0.3160000000000003
 70
    64
  0
VERTEX
  5
70E32
330
70E23
100
AcDbEntity
  8
0
100
AcDbVertex
100
AcDbPolygonMeshVertex
 10
0.391
 20
-2.172
 30
0.3160000000000003
 70
    64
  0
VERTEX
  5
70E33
330
70E23
100
AcDbEntity
  8
0
100
AcDbVertex
100
AcDbPolygonMeshVertex
 10
0.0
 20
-1.806
 30
0.3160000000000003
 70
    64
  0
VERTEX
  5
70E34
330
70E23
100
AcDbEntity
  8
0
100
AcDbVertex
100
AcDbPolygonMeshVertex
 10
0.0
 20
-1.806
 30
0.3160000000000003
 70
    64
  0
VERTEX
  5
70E35
330
70E23
100
AcDbEntity
  8
0
100
AcDbVertex
100
AcDbPolygonMeshVertex
 10
0.0
 20
-2.172
 30
0.3160000000000003
 70
    64
  0
SEQEND
  5
70E36
330
70E23
100
AcDbEntity
  8
0
  0
POLYLINE
  5
70E37
330
458D6
100
AcDbEntity
  8
0
100
AcDbPolygonMesh
 66
     1
 10
0.0
 20
0.0
 30
0.0
 70
    16
 71
     6
 72
     3
  0
VERTEX
  5
70E38
330
70E37
100
AcDbEntity
  8
0
100
AcDbVertex
100
AcDbPolygonMeshVertex
 10
2.12
 20
0.1179999999999994
 30
0.3160000000000003
 70
    64
  0
VERTEX
  5
70E39
330
70E37
100
AcDbEntity
  8
0
100
AcDbVertex
100
AcDbPolygonMeshVertex
 10
2.12
 20
0.1179999999999994
 30
0.0000000000000002
 70
    64
  0
VERTEX
  5
70E3A
330
70E37
100
AcDbEntity
  8
0
100
AcDbVertex
100
AcDbPolygonMeshVertex
 10
2.12
 20
0.1179999999999994
 30
0.0000000000000002
 70
    64
  0
VERTEX
  5
70E3B
330
70E37
100
AcDbEntity
  8
0
100
AcDbVertex
100
AcDbPolygonMeshVertex
 10
1.729
 20
0.1179999999999994
 30
0.3160000000000003
 70
    64
  0
VERTEX
  5
70E3C
330
70E37
100
AcDbEntity
  8
0
100
AcDbVertex
100
AcDbPolygonMeshVertex
 10
1.729
 20
0.1179999999999994
 30
0.0000000000000002
 70
    64
  0
VERTEX
  5
70E3D
330
70E37
100
AcDbEntity
  8
0
100
AcDbVertex
100
AcDbPolygonMeshVertex
 10
1.729
 20
0.1179999999999994
 30
0.0000000000000002
 70
    64
  0
VERTEX
  5
70E3E
330
70E37
100
AcDbEntity
  8
0
100
AcDbVertex
100
AcDbPolygonMeshVertex
 10
1.729
 20
0.4839999999999995
 30
0.3160000000000003
 70
    64
  0
VERTEX
  5
70E3F
330
70E37
100
AcDbEntity
  8
0
100
AcDbVertex
100
AcDbPolygonMeshVertex
 10
1.729
 20
0.4839999999999995
 30
0.0000000000000002
 70
    64
  0
VERTEX
  5
70E40
330
70E37
100
AcDbEntity
  8
0
100
AcDbVertex
100
AcDbPolygonMeshVertex
 10
1.729
 20
0.1179999999999994
 30
0.0000000000000002
 70
    64
  0
VERTEX
  5
70E41
330
70E37
100
AcDbEntity
  8
0
100
AcDbVertex
100
AcDbPolygonMeshVertex
 10
2.12
 20
0.4839999999999995
 30
0.3160000000000003
 70
    64
  0
VERTEX
  5
70E42
330
70E37
100
AcDbEntity
  8
0
100
AcDbVertex
100
AcDbPolygonMeshVertex
 10
2.12
 20
0.4839999999999995
 30
0.0000000000000002
 70
    64
  0
VERTEX
  5
70E43
330
70E37
100
AcDbEntity
  8
0
100
AcDbVertex
100
AcDbPolygonMeshVertex
 10
2.12
 20
0.1179999999999994
 30
0.0000000000000002
 70
    64
  0
VERTEX
  5
70E44
330
70E37
100
AcDbEntity
  8
0
100
AcDbVertex
100
AcDbPolygonMeshVertex
 10
2.12
 20
0.4839999999999995
 30
0.3160000000000003
 70
    64
  0
VERTEX
  5
70E45
330
70E37
100
AcDbEntity
  8
0
100
AcDbVertex
100
AcDbPolygonMeshVertex
 10
2.12
 20
0.4839999999999995
 30
0.3160000000000003
 70
    64
  0
VERTEX
  5
70E46
330
70E37
100
AcDbEntity
  8
0
100
AcDbVertex
100
AcDbPolygonMeshVertex
 10
2.12
 20
0.1179999999999994
 30
0.3160000000000003
 70
    64
  0
VERTEX
  5
70E47
330
70E37
100
AcDbEntity
  8
0
100
AcDbVertex
100
AcDbPolygonMeshVertex
 10
1.729
 20
0.4839999999999995
 30
0.3160000000000003
 70
    64
  0
VERTEX
  5
70E48
330
70E37
100
AcDbEntity
  8
0
100
AcDbVertex
100
AcDbPolygonMeshVertex
 10
1.729
 20
0.4839999999999995
 30
0.3160000000000003
 70
    64
  0
VERTEX
  5
70E49
330
70E37
100
AcDbEntity
  8
0
100
AcDbVertex
100
AcDbPolygonMeshVertex
 10
1.729
 20
0.1179999999999994
 30
0.3160000000000003
 70
    64
  0
SEQEND
  5
70E4A
330
70E37
100
AcDbEntity
  8
0
  0
3DFACE
  5
70E4B
330
458D6
100
AcDbEntity
  8
0
100
AcDbFace
 10
2.12
 20
-2.089
 30
1.318
 11
2.12
 21
-2.089
 31
1.318
 12
0.0
 22
-2.089
 32
1.318
 13
0.0
 23
-2.089
 33
1.318
  0
3DFACE
  5
70E4C
330
458D6
100
AcDbEntity
  8
0
100
AcDbFace
 10
0.0
 20
-2.089
 30
1.318
 11
0.0
 21
-2.089
 31
1.318
 12
0.0
 22
-2.089
 32
1.318
 13
0.0
 23
0.4009999999999998
 33
1.318
  0
3DFACE
  5
70E4D
330
458D6
100
AcDbEntity
  8
0
100
AcDbFace
 10
0.0
 20
0.4009999999999998
 30
1.318
 11
0.0
 21
-2.089
 31
1.318
 12
2.12
 22
-2.089
 32
1.318
 13
2.12
 23
0.4009999999999998
 33
1.318
  0
3DFACE
  5
70E4E
330
458D6
100
AcDbEntity
  8
0
100
AcDbFace
 10
2.12
 20
0.4009999999999998
 30
5.4375
 11
2.12
 21
0.4009999999999998
 31
5.4375
 12
0.0
 22
0.4009999999999998
 32
5.4375
 13
0.0
 23
0.4009999999999998
 33
5.4375
  0
3DFACE
  5
70E4F
330
458D6
100
AcDbEntity
  8
0
100
AcDbFace
 10
2.12
 20
0.4009999999999998
 30
5.4375
 11
2.12
 21
-2.089
 31
5.4375
 12
0.0
 22
-2.089
 32
5.4375
 13
0.0
 23
0.4009999999999998
 33
5.4375
  0
POINT
  5
70E50
330
458D6
100
AcDbEntity
  8
SNAP_POINTS
100
AcDbPoint
 10
-0.0000000000000036
 20
-0.8940000000000001
 30
3.646
  0
POINT
  5
70E51
330
458D6
100
AcDbEntity
  8
SNAP_POINTS
100
AcDbPoint
 10
2.119999999999996
 20
-0.7939999999999998
 30
3.646
  0
POINT
  5
70E52
330
458D6
100
AcDbEntity
  8
SNAP_POINTS
100
AcDbPoint
 10
1.059999999999998
 20
-0.8499999999999996
 30
5.4715
  0
POINT
  5
70E53
330
458D6
100
AcDbEntity
  8
SNAP_POINTS
100
AcDbPoint
 10
1.729
 20
-2.089
 30
1.318
  0
POINT
  5
70E54
330
458D6
100
AcDbEntity
  8
SNAP_POINTS
100
AcDbPoint
 10
0.0
 20
0.0
 30
0.0
  0
POINT
  5
70E55
330
458D6
100
AcDbEntity
  8
SNAP_POINTS
100
AcDbPoint
 10
0.8794999999999992
 20
0.838
 30
3.2185
  0
POLYLINE
  5
70E56
330
458D6
100
AcDbEntity
  8
0
100
AcDbPolygonMesh
 66
     1
 10
0.0
 20
0.0
 30
0.0
 70
    16
 71
     6
 72
     3
  0
VERTEX
  5
70E57
330
70E56
100
AcDbEntity
  8
0
100
AcDbVertex
100
AcDbPolygonMeshVertex
 10
2.119999999999999
 20
-2.089
 30
5.4375
 70
    64
  0
VERTEX
  5
70E58
330
70E56
100
AcDbEntity
  8
0
100
AcDbVertex
100
AcDbPolygonMeshVertex
 10
2.119999999999999
 20
-2.089
 30
1.317999999999999
 70
    64
  0
VERTEX
  5
70E59
330
70E56
100
AcDbEntity
  8
0
100
AcDbVertex
100
AcDbPolygonMeshVertex
 10
2.119999999999999
 20
-2.089
 30
1.317999999999999
 70
    64
  0
VERTEX
  5
70E5A
330
70E56
100
AcDbEntity
  8
0
100
AcDbVertex
100
AcDbPolygonMeshVertex
 10
0.0
 20
-2.089
 30
5.4375
 70
    64
  0
VERTEX
  5
70E5B
330
70E56
100
AcDbEntity
  8
0
100
AcDbVertex
100
AcDbPolygonMeshVertex
 10
0.0
 20
-2.089
 30
1.317999999999999
 70
    64
  0
VERTEX
  5
70E5C
330
70E56
100
AcDbEntity
  8
0
100
AcDbVertex
100
AcDbPolygonMeshVertex
 10
0.0
 20
-2.089
 30
1.317999999999999
 70
    64
  0
VERTEX
  5
70E5D
330
70E56
100
AcDbEntity
  8
0
100
AcDbVertex
100
AcDbPolygonMeshVertex
 10
0.0
 20
0.4010000000000003
 30
5.4375
 70
    64
  0
VERTEX
  5
70E5E
330
70E56
100
AcDbEntity
  8
0
100
AcDbVertex
100
AcDbPolygonMeshVertex
 10
0.0
 20
0.4010000000000003
 30
1.317999999999999
 70
    64
  0
VERTEX
  5
70E5F
330
70E56
100
AcDbEntity
  8
0
100
AcDbVertex
100
AcDbPolygonMeshVertex
 10
0.0
 20
-2.089
 30
1.317999999999999
 70
    64
  0
VERTEX
  5
70E60
330
70E56
100
AcDbEntity
  8
0
100
AcDbVertex
100
AcDbPolygonMeshVertex
 10
2.119999999999999
 20
0.4010000000000003
 30
5.4375
 70
    64
  0
VERTEX
  5
70E61
330
70E56
100
AcDbEntity
  8
0
100
AcDbVertex
100
AcDbPolygonMeshVertex
 10
2.119999999999999
 20
0.4010000000000003
 30
1.317999999999999
 70
    64
  0
VERTEX
  5
70E62
330
70E56
100
AcDbEntity
  8
0
100
AcDbVertex
100
AcDbPolygonMeshVertex
 10
2.119999999999999
 20
-2.089
 30
1.317999999999999
 70
    64
  0
VERTEX
  5
70E63
330
70E56
100
AcDbEntity
  8
0
100
AcDbVertex
100
AcDbPolygonMeshVertex
 10
2.119999999999999
 20
0.4010000000000003
 30
5.4375
 70
    64
  0
VERTEX
  5
70E64
330
70E56
100
AcDbEntity
  8
0
100
AcDbVertex
100
AcDbPolygonMeshVertex
 10
2.119999999999999
 20
0.4010000000000003
 30
5.4375
 70
    64
  0
VERTEX
  5
70E65
330
70E56
100
AcDbEntity
  8
0
100
AcDbVertex
100
AcDbPolygonMeshVertex
 10
2.119999999999999
 20
-2.089
 30
5.4375
 70
    64
  0
VERTEX
  5
70E66
330
70E56
100
AcDbEntity
  8
0
100
AcDbVertex
100
AcDbPolygonMeshVertex
 10
0.0
 20
0.4010000000000003
 30
5.4375
 70
    64
  0
VERTEX
  5
70E67
330
70E56
100
AcDbEntity
  8
0
100
AcDbVertex
100
AcDbPolygonMeshVertex
 10
0.0
 20
0.4010000000000003
 30
5.4375
 70
    64
  0
VERTEX
  5
70E68
330
70E56
100
AcDbEntity
  8
0
100
AcDbVertex
100
AcDbPolygonMeshVertex
 10
0.0
 20
-2.089
 30
5.4375
 70
    64
  0
SEQEND
  5
70E69
330
70E56
100
AcDbEntity
  8
0
  0
POLYLINE
  5
70E6A
330
458D6
100
AcDbEntity
  8
0
100
AcDbPolygonMesh
 66
     1
 10
0.0
 20
0.0
 30
0.0
 70
    16
 71
     6
 72
     3
  0
VERTEX
  5
70E6B
330
70E6A
100
AcDbEntity
  8
0
100
AcDbVertex
100
AcDbPolygonMeshVertex
 10
1.959
 20
-2.286
 30
1.764499999999999
 70
    64
  0
VERTEX
  5
70E6C
330
70E6A
100
AcDbEntity
  8
0
100
AcDbVertex
100
AcDbPolygonMeshVertex
 10
1.959
 20
-2.286
 30
1.577499999999999
 70
    64
  0
VERTEX
  5
70E6D
330
70E6A
100
AcDbEntity
  8
0
100
AcDbVertex
100
AcDbPolygonMeshVertex
 10
1.959
 20
-2.286
 30
1.577499999999999
 70
    64
  0
VERTEX
  5
70E6E
330
70E6A
100
AcDbEntity
  8
0
100
AcDbVertex
100
AcDbPolygonMeshVertex
 10
1.079
 20
-2.286
 30
1.764499999999999
 70
    64
  0
VERTEX
  5
70E6F
330
70E6A
100
AcDbEntity
  8
0
100
AcDbVertex
100
AcDbPolygonMeshVertex
 10
1.079
 20
-2.286
 30
1.577499999999999
 70
    64
  0
VERTEX
  5
70E70
330
70E6A
100
AcDbEntity
  8
0
100
AcDbVertex
100
AcDbPolygonMeshVertex
 10
1.079
 20
-2.286
 30
1.577499999999999
 70
    64
  0
VERTEX
  5
70E71
330
70E6A
100
AcDbEntity
  8
0
100
AcDbVertex
100
AcDbPolygonMeshVertex
 10
1.079
 20
-2.089
 30
1.764499999999999
 70
    64
  0
VERTEX
  5
70E72
330
70E6A
100
AcDbEntity
  8
0
100
AcDbVertex
100
AcDbPolygonMeshVertex
 10
1.079
 20
-2.089
 30
1.577499999999999
 70
    64
  0
VERTEX
  5
70E73
330
70E6A
100
AcDbEntity
  8
0
100
AcDbVertex
100
AcDbPolygonMeshVertex
 10
1.079
 20
-2.286
 30
1.577499999999999
 70
    64
  0
VERTEX
  5
70E74
330
70E6A
100
AcDbEntity
  8
0
100
AcDbVertex
100
AcDbPolygonMeshVertex
 10
1.959
 20
-2.089
 30
1.764499999999999
 70
    64
  0
VERTEX
  5
70E75
330
70E6A
100
AcDbEntity
  8
0
100
AcDbVertex
100
AcDbPolygonMeshVertex
 10
1.959
 20
-2.089
 30
1.577499999999999
 70
    64
  0
VERTEX
  5
70E76
330
70E6A
100
AcDbEntity
  8
0
100
AcDbVertex
100
AcDbPolygonMeshVertex
 10
1.959
 20
-2.286
 30
1.577499999999999
 70
    64
  0
VERTEX
  5
70E77
330
70E6A
100
AcDbEntity
  8
0
100
AcDbVertex
100
AcDbPolygonMeshVertex
 10
1.959
 20
-2.089
 30
1.764499999999999
 70
    64
  0
VERTEX
  5
70E78
330
70E6A
100
AcDbEntity
  8
0
100
AcDbVertex
100
AcDbPolygonMeshVertex
 10
1.959
 20
-2.089
 30
1.764499999999999
 70
    64
  0
VERTEX
  5
70E79
330
70E6A
100
AcDbEntity
  8
0
100
AcDbVertex
100
AcDbPolygonMeshVertex
 10
1.959
 20
-2.286
 30
1.764499999999999
 70
    64
  0
VERTEX
  5
70E7A
330
70E6A
100
AcDbEntity
  8
0
100
AcDbVertex
100
AcDbPolygonMeshVertex
 10
1.079
 20
-2.089
 30
1.764499999999999
 70
    64
  0
VERTEX
  5
70E7B
330
70E6A
100
AcDbEntity
  8
0
100
AcDbVertex
100
AcDbPolygonMeshVertex
 10
1.079
 20
-2.089
 30
1.764499999999999
 70
    64
  0
VERTEX
  5
70E7C
330
70E6A
100
AcDbEntity
  8
0
100
AcDbVertex
100
AcDbPolygonMeshVertex
 10
1.079
 20
-2.286
 30
1.764499999999999
 70
    64
  0
SEQEND
  5
70E7D
330
70E6A
100
AcDbEntity
  8
0
  0
POLYLINE
  5
70E7E
330
458D6
100
AcDbEntity
  8
0
100
AcDbPolygonMesh
 66
     1
 10
0.0
 20
0.0
 30
0.0
 70
    16
 71
     6
 72
     3
  0
VERTEX
  5
70E7F
330
70E7E
100
AcDbEntity
  8
0
100
AcDbVertex
100
AcDbPolygonMeshVertex
 10
1.040999999999999
 20
0.4009999999999998
 30
1.764499999999999
 70
    64
  0
VERTEX
  5
70E80
330
70E7E
100
AcDbEntity
  8
0
100
AcDbVertex
100
AcDbPolygonMeshVertex
 10
1.040999999999999
 20
0.4009999999999998
 30
1.577499999999999
 70
    64
  0
VERTEX
  5
70E81
330
70E7E
100
AcDbEntity
  8
0
100
AcDbVertex
100
AcDbPolygonMeshVertex
 10
1.040999999999999
 20
0.4009999999999998
 30
1.577499999999999
 70
    64
  0
VERTEX
  5
70E82
330
70E7E
100
AcDbEntity
  8
0
100
AcDbVertex
100
AcDbPolygonMeshVertex
 10
0.161
 20
0.4009999999999998
 30
1.764499999999999
 70
    64
  0
VERTEX
  5
70E83
330
70E7E
100
AcDbEntity
  8
0
100
AcDbVertex
100
AcDbPolygonMeshVertex
 10
0.161
 20
0.4009999999999998
 30
1.577499999999999
 70
    64
  0
VERTEX
  5
70E84
330
70E7E
100
AcDbEntity
  8
0
100
AcDbVertex
100
AcDbPolygonMeshVertex
 10
0.161
 20
0.4009999999999998
 30
1.577499999999999
 70
    64
  0
VERTEX
  5
70E85
330
70E7E
100
AcDbEntity
  8
0
100
AcDbVertex
100
AcDbPolygonMeshVertex
 10
0.161
 20
0.5979999999999998
 30
1.764499999999999
 70
    64
  0
VERTEX
  5
70E86
330
70E7E
100
AcDbEntity
  8
0
100
AcDbVertex
100
AcDbPolygonMeshVertex
 10
0.161
 20
0.5979999999999998
 30
1.577499999999999
 70
    64
  0
VERTEX
  5
70E87
330
70E7E
100
AcDbEntity
  8
0
100
AcDbVertex
100
AcDbPolygonMeshVertex
 10
0.161
 20
0.4009999999999998
 30
1.577499999999999
 70
    64
  0
VERTEX
  5
70E88
330
70E7E
100
AcDbEntity
  8
0
100
AcDbVertex
100
AcDbPolygonMeshVertex
 10
1.040999999999999
 20
0.5979999999999998
 30
1.764499999999999
 70
    64
  0
VERTEX
  5
70E89
330
70E7E
100
AcDbEntity
  8
0
100
AcDbVertex
100
AcDbPolygonMeshVertex
 10
1.040999999999999
 20
0.5979999999999998
 30
1.577499999999999
 70
    64
  0
VERTEX
  5
70E8A
330
70E7E
100
AcDbEntity
  8
0
100
AcDbVertex
100
AcDbPolygonMeshVertex
 10
1.040999999999999
 20
0.4009999999999998
 30
1.577499999999999
 70
    64
  0
VERTEX
  5
70E8B
330
70E7E
100
AcDbEntity
  8
0
100
AcDbVertex
100
AcDbPolygonMeshVertex
 10
1.040999999999999
 20
0.5979999999999998
 30
1.764499999999999
 70
    64
  0
VERTEX
  5
70E8C
330
70E7E
100
AcDbEntity
  8
0
100
AcDbVertex
100
AcDbPolygonMeshVertex
 10
1.040999999999999
 20
0.5979999999999998
 30
1.764499999999999
 70
    64
  0
VERTEX
  5
70E8D
330
70E7E
100
AcDbEntity
  8
0
100
AcDbVertex
100
AcDbPolygonMeshVertex
 10
1.040999999999999
 20
0.4009999999999998
 30
1.764499999999999
 70
    64
  0
VERTEX
  5
70E8E
330
70E7E
100
AcDbEntity
  8
0
100
AcDbVertex
100
AcDbPolygonMeshVertex
 10
0.161
 20
0.5979999999999998
 30
1.764499999999999
 70
    64
  0
VERTEX
  5
70E8F
330
70E7E
100
AcDbEntity
  8
0
100
AcDbVertex
100
AcDbPolygonMeshVertex
 10
0.161
 20
0.5979999999999998
 30
1.764499999999999
 70
    64
  0
VERTEX
  5
70E90
330
70E7E
100
AcDbEntity
  8
0
100
AcDbVertex
100
AcDbPolygonMeshVertex
 10
0.161
 20
0.4009999999999998
 30
1.764499999999999
 70
    64
  0
SEQEND
  5
70E91
330
70E7E
100
AcDbEntity
  8
0
  0
POLYLINE
  5
70E92
330
458D6
100
AcDbEntity
  8
0
100
AcDbPolygonMesh
 66
     1
 10
0.0
 20
0.0
 30
0.0
 70
    16
 71
     6
 72
     3
  0
VERTEX
  5
70E93
330
70E92
100
AcDbEntity
  8
0
100
AcDbVertex
100
AcDbPolygonMeshVertex
 10
1.729
 20
0.0
 30
0.187
 70
    64
  0
VERTEX
  5
70E94
330
70E92
100
AcDbEntity
  8
0
100
AcDbVertex
100
AcDbPolygonMeshVertex
 10
1.729
 20
0.0
 30
0.0
 70
    64
  0
VERTEX
  5
70E95
330
70E92
100
AcDbEntity
  8
0
100
AcDbVertex
100
AcDbPolygonMeshVertex
 10
1.729
 20
0.0
 30
0.0
 70
    64
  0
VERTEX
  5
70E96
330
70E92
100
AcDbEntity
  8
0
100
AcDbVertex
100
AcDbPolygonMeshVertex
 10
0.0
 20
0.0
 30
0.187
 70
    64
  0
VERTEX
  5
70E97
330
70E92
100
AcDbEntity
  8
0
100
AcDbVertex
100
AcDbPolygonMeshVertex
 10
0.0
 20
0.0
 30
0.0
 70
    64
  0
VERTEX
  5
70E98
330
70E92
100
AcDbEntity
  8
0
100
AcDbVertex
100
AcDbPolygonMeshVertex
 10
0.0
 20
0.0
 30
0.0
 70
    64
  0
VERTEX
  5
70E99
330
70E92
100
AcDbEntity
  8
0
100
AcDbVertex
100
AcDbPolygonMeshVertex
 10
0.0
 20
0.4009999999999998
 30
0.187
 70
    64
  0
VERTEX
  5
70E9A
330
70E92
100
AcDbEntity
  8
0
100
AcDbVertex
100
AcDbPolygonMeshVertex
 10
0.0
 20
0.4009999999999998
 30
0.0
 70
    64
  0
VERTEX
  5
70E9B
330
70E92
100
AcDbEntity
  8
0
100
AcDbVertex
100
AcDbPolygonMeshVertex
 10
0.0
 20
0.0
 30
0.0
 70
    64
  0
VERTEX
  5
70E9C
330
70E92
100
AcDbEntity
  8
0
100
AcDbVertex
100
AcDbPolygonMeshVertex
 10
1.729
 20
0.4009999999999998
 30
0.187
 70
    64
  0
VERTEX
  5
70E9D
330
70E92
100
AcDbEntity
  8
0
100
AcDbVertex
100
AcDbPolygonMeshVertex
 10
1.729
 20
0.4009999999999998
 30
0.0
 70
    64
  0
VERTEX
  5
70E9E
330
70E92
100
AcDbEntity
  8
0
100
AcDbVertex
100
AcDbPolygonMeshVertex
 10
1.729
 20
0.0
 30
0.0
 70
    64
  0
VERTEX
  5
70E9F
330
70E92
100
AcDbEntity
  8
0
100
AcDbVertex
100
AcDbPolygonMeshVertex
 10
1.729
 20
0.4009999999999998
 30
0.187
 70
    64
  0
VERTEX
  5
70EA0
330
70E92
100
AcDbEntity
  8
0
100
AcDbVertex
100
AcDbPolygonMeshVertex
 10
1.729
 20
0.4009999999999998
 30
0.187
 70
    64
  0
VERTEX
  5
70EA1
330
70E92
100
AcDbEntity
  8
0
100
AcDbVertex
100
AcDbPolygonMeshVertex
 10
1.729
 20
0.0
 30
0.187
 70
    64
  0
VERTEX
  5
70EA2
330
70E92
100
AcDbEntity
  8
0
100
AcDbVertex
100
AcDbPolygonMeshVertex
 10
0.0
 20
0.4009999999999998
 30
0.187
 70
    64
  0
VERTEX
  5
70EA3
330
70E92
100
AcDbEntity
  8
0
100
AcDbVertex
100
AcDbPolygonMeshVertex
 10
0.0
 20
0.4009999999999998
 30
0.187
 70
    64
  0
VERTEX
  5
70EA4
330
70E92
100
AcDbEntity
  8
0
100
AcDbVertex
100
AcDbPolygonMeshVertex
 10
0.0
 20
0.0
 30
0.187
 70
    64
  0
SEQEND
  5
70EA5
330
70E92
100
AcDbEntity
  8
0
  0
POINT
  5
70EA6
330
458D6
100
AcDbEntity
  8
DIMS-MTG-HOLES
100
AcDbPoint
 10
0.1730000000000008
 20
-2.024999999999999
 30
0.0000000000000002
  0
POINT
  5
70EA7
330
458D6
100
AcDbEntity
  8
DIMS-MTG-HOLES
100
AcDbPoint
 10
1.944999999999999
 20
0.3369999999999995
 30
0.0000000000000002
  0
LWPOLYLINE
  5
70EA8
330
458D6
100
AcDbEntity
  8
0
100
AcDbPolyline
 90
        6
 70
     0
 43
0.0
 38
3.6395
 10
0.7409999999999975
 20
0.737821595661996
 10
0.7409999999999975
 20
0.6394999999999996
 10
0.8009999999999974
 20
0.6394999999999996
 10
0.8009999999999974
 20
0.5994999999999995
 10
0.7409999999999975
 20
0.5994999999999995
 10
0.7409999999999975
 20
0.5011784043380115
  0
LWPOLYLINE
  5
70EA9
330
458D6
100
AcDbEntity
  8
0
100
AcDbPolyline
 90
        6
 70
     0
 43
0.0
 38
3.6395
 10
0.7009999999999974
 20
0.7378215956619876
 10
0.7009999999999974
 20
0.6394999999999996
 10
0.6409999999999974
 20
0.6394999999999996
 10
0.6409999999999974
 20
0.5994999999999995
 10
0.7009999999999974
 20
0.5994999999999995
 10
0.7009999999999974
 20
0.501178404338003
  0
LWPOLYLINE
  5
70EAA
330
458D6
100
AcDbEntity
  8
0
100
AcDbPolyline
 90
        6
 70
     0
 43
0.0
 38
3.6395
 10
1.419000000000001
 20
0.737821595661996
 10
1.419000000000001
 20
0.6394999999999996
 10
1.479000000000001
 20
0.6394999999999996
 10
1.479000000000001
 20
0.5994999999999995
 10
1.419000000000001
 20
0.5994999999999995
 10
1.419000000000001
 20
0.5011784043380115
  0
LWPOLYLINE
  5
70EAB
330
458D6
100
AcDbEntity
  8
0
100
AcDbPolyline
 90
        6
 70
     0
 43
0.0
 38
3.6395
 10
1.379000000000001
 20
0.7378215956619876
 10
1.379000000000001
 20
0.6394999999999996
 10
1.319000000000001
 20
0.6394999999999996
 10
1.319000000000001
 20
0.5994999999999995
 10
1.379000000000001
 20
0.5994999999999995
 10
1.379000000000001
 20
0.501178404338003
  0
LWPOLYLINE
  5
70EAC
330
458D6
100
AcDbEntity
  8
0
100
AcDbPolyline
 90
        6
 70
     0
 43
0.0
 38
5.4375
 10
0.3913499999999979
 20
0.3173410737412312
 10
0.3913499999999979
 20
0.2007980402316449
 10
0.451349999999998
 20
0.2007980402316449
 10
0.451349999999998
 20
0.1607980402316449
 10
0.3913499999999979
 20
0.1607980402316449
 10
0.3913499999999979
 20
0.0442550067220586
  0
LWPOLYLINE
  5
70EAD
330
458D6
100
AcDbEntity
  8
0
100
AcDbPolyline
 90
        6
 70
     0
 43
0.0
 38
5.4375
 10
0.3513499999999978
 20
0.3173410737412312
 10
0.3513499999999978
 20
0.2007980402316449
 10
0.2913499999999978
 20
0.2007980402316449
 10
0.2913499999999978
 20
0.1607980402316449
 10
0.3513499999999978
 20
0.1607980402316449
 10
0.3513499999999978
 20
0.0442550067220586
  0
LWPOLYLINE
  5
70EAE
330
458D6
100
AcDbEntity
  8
0
100
AcDbPolyline
 90
        6
 70
     0
 43
0.0
 38
5.4375
 10
1.080049999999997
 20
0.3173410737412312
 10
1.080049999999997
 20
0.2007980402316449
 10
1.140049999999997
 20
0.2007980402316449
 10
1.140049999999997
 20
0.1607980402316449
 10
1.080049999999997
 20
0.1607980402316449
 10
1.080049999999997
 20
0.0442550067220586
  0
LWPOLYLINE
  5
70EAF
330
458D6
100
AcDbEntity
  8
0
100
AcDbPolyline
 90
        6
 70
     0
 43
0.0
 38
5.4375
 10
1.040049999999997
 20
0.3173410737412312
 10
1.040049999999997
 20
0.2007980402316449
 10
0.9800499999999976
 20
0.2007980402316449
 10
0.9800499999999976
 20
0.1607980402316449
 10
1.040049999999997
 20
0.1607980402316449
 10
1.040049999999997
 20
0.0442550067220586
  0
LWPOLYLINE
  5
70EB0
330
458D6
100
AcDbEntity
  8
0
100
AcDbPolyline
 90
        6
 70
     0
 43
0.0
 38
5.4375
 10
1.768649999999996
 20
0.3173410737412312
 10
1.768649999999996
 20
0.2007980402316449
 10
1.828649999999997
 20
0.2007980402316449
 10
1.828649999999997
 20
0.1607980402316449
 10
1.768649999999996
 20
0.1607980402316449
 10
1.768649999999996
 20
0.0442550067220586
  0
LWPOLYLINE
  5
70EB1
330
458D6
100
AcDbEntity
  8
0
100
AcDbPolyline
 90
        6
 70
     0
 43
0.0
 38
5.4375
 10
1.728649999999996
 20
0.3173410737412312
 10
1.728649999999996
 20
0.2007980402316449
 10
1.668649999999996
 20
0.2007980402316449
 10
1.668649999999996
 20
0.1607980402316449
 10
1.728649999999996
 20
0.1607980402316449
 10
1.728649999999996
 20
0.0442550067220586
  0
LWPOLYLINE
  5
70EB2
330
458D6
100
AcDbEntity
  8
0
100
AcDbPolyline
 90
        6
 70
     0
 43
0.0
 38
5.4375
 10
1.040049999999997
 20
-1.732255006722059
 10
1.040049999999997
 20
-1.848798040231645
 10
0.9800499999999976
 20
-1.848798040231645
 10
0.9800499999999976
 20
-1.888798040231645
 10
1.040049999999997
 20
-1.888798040231645
 10
1.040049999999997
 20
-2.005341073741231
  0
LWPOLYLINE
  5
70EB3
330
458D6
100
AcDbEntity
  8
0
100
AcDbPolyline
 90
        6
 70
     0
 43
0.0
 38
5.4375
 10
1.080049999999997
 20
-1.732255006722059
 10
1.080049999999997
 20
-1.848798040231645
 10
1.140049999999997
 20
-1.848798040231645
 10
1.140049999999997
 20
-1.888798040231645
 10
1.080049999999997
 20
-1.888798040231645
 10
1.080049999999997
 20
-2.005341073741231
  0
CIRCLE
  5
70EB4
330
458D6
100
AcDbEntity
  8
0
100
AcDbCircle
 10
1.060049999999997
 20
-1.868798040231645
 30
5.4375
 40
0.138
  0
LWPOLYLINE
  5
70EB5
330
458D6
100
AcDbEntity
  8
0
100
AcDbPolyline
 90
        6
 70
     0
 43
0.0
 38
5.4375
 10
1.728649999999996
 20
-1.732255006722059
 10
1.728649999999996
 20
-1.848798040231645
 10
1.668649999999996
 20
-1.848798040231645
 10
1.668649999999996
 20
-1.888798040231645
 10
1.728649999999996
 20
-1.888798040231645
 10
1.728649999999996
 20
-2.005341073741231
  0
CIRCLE
  5
70EB6
330
458D6
100
AcDbEntity
  8
0
100
AcDbCircle
 10
1.748649999999996
 20
-1.868798040231645
 30
5.4375
 40
0.138
  0
LWPOLYLINE
  5
70EB7
330
458D6
100
AcDbEntity
  8
0
100
AcDbPolyline
 90
        6
 70
     0
 43
0.0
 38
5.4375
 10
1.768649999999996
 20
-1.732255006722059
 10
1.768649999999996
 20
-1.848798040231645
 10
1.828649999999997
 20
-1.848798040231645
 10
1.828649999999997
 20
-1.888798040231645
 10
1.768649999999996
 20
-1.888798040231645
 10
1.768649999999996
 20
-2.005341073741231
  0
LWPOLYLINE
  5
70EB8
330
458D6
100
AcDbEntity
  8
0
100
AcDbPolyline
 90
        6
 70
     0
 43
0.0
 38
5.4375
 10
0.3913499999999979
 20
-1.732255006722059
 10
0.3913499999999979
 20
-1.848798040231645
 10
0.451349999999998
 20
-1.848798040231645
 10
0.451349999999998
 20
-1.888798040231645
 10
0.3913499999999979
 20
-1.888798040231645
 10
0.3913499999999979
 20
-2.005341073741231
  0
LWPOLYLINE
  5
70EB9
330
458D6
100
AcDbEntity
  8
0
100
AcDbPolyline
 90
        6
 70
     0
 43
0.0
 38
5.4375
 10
0.3513499999999978
 20
-1.732255006722059
 10
0.3513499999999978
 20
-1.848798040231645
 10
0.2913499999999978
 20
-1.848798040231645
 10
0.2913499999999978
 20
-1.888798040231645
 10
0.3513499999999978
 20
-1.888798040231645
 10
0.3513499999999978
 20
-2.005341073741231
  0
DIMENSION
  5
70EBA
330
458D6
100
AcDbEntity
  8
AREA1
100
AcDbDimension
  2
*D0
 10
-0.4362370437753568
 20
-2.342
 30
0.0
 11
-0.4362370437753565
 21
-0.8338448340329431
 31
0.0
 70
   160
 71
     5
 42
-1.0
 73
     0
 74
     0
 75
     0
  3
ABECAD_3D
100
AcDbAlignedDimension
 13
0.5074999999999994
 23
0.838
 33
2.9655
 14
0.874499999999999
 24
-2.342
 34
2.9655
 50
90.0
100
AcDbRotatedDimension
  0
DIMENSION
  5
70EC8
330
458D6
100
AcDbEntity
  8
AREA1
100
AcDbDimension
  2
*D1
 10
2.119999999999999
 20
1.163531272698225
 30
0.0
 11
1.029164727651779
 21
1.163531272698225
 31
0.0
 70
   160
 71
     5
 42
-1.0
 73
     0
 74
     0
 75
     0
  3
ABECAD_3D
100
AcDbAlignedDimension
 13
-0.0000000000000009
 23
0.5149999999999997
 33
3.218499999999999
 14
2.119999999999999
 24
0.5149999999999997
 34
3.218499999999999
100
AcDbRotatedDimension
  0
LWPOLYLINE
  5
70EE5
330
458D6
100
AcDbEntity
  8
SCALE
100
AcDbPolyline
 90
        4
 70
     1
 43
0.0
 10
0.455561752233447
 20
-2.414991021242495
 10
1.591190571775419
 20
-2.414991021242495
 10
1.591190571775419
 20
-3.25660058802051
 10
0.455561752233447
 20
-3.25660058802051
  0
LINE
  5
70EE6
330
458D6
100
AcDbEntity
  8
SCALE
100
AcDbLine
 10
0.513560416460209
 20
-2.79506933994671
 30
0.0
 11
1.513560416460209
 21
-2.79506933994671
 31
0.0
  0
LINE
  5
70EE7
330
458D6
100
AcDbEntity
  8
SCALE
100
AcDbLine
 10
0.513560416460209
 20
-3.09506933994671
 30
0.0
 11
0.907260416460209
 21
-3.09506933994671
 31
0.0
  0
LINE
  5
70EE8
330
458D6
100
AcDbEntity
  8
SCALE
100
AcDbLine
 10
0.513560416460209
 20
-2.895069339946711
 30
0.0
 11
0.513560416460209
 21
-2.69506933994671
 31
0.0
  0
TEXT
  5
70EE9
330
458D6
100
AcDbEntity
  8
SCALE
100
AcDbText
 10
0.5695363983906839
 20
-3.047384250183868
 30
0.0
 40
0.0625
  1
[10mm]
100
AcDbText
  0
LINE
  5
70EEA
330
458D6
100
AcDbEntity
  8
SCALE
100
AcDbLine
 10
0.513560416460209
 20
-3.19506933994671
 30
0.0
 11
0.513560416460209
 21
-2.99506933994671
 31
0.0
  0
TEXT
  5
70EEB
330
458D6
100
AcDbEntity
  8
SCALE
100
AcDbText
 10
0.5150906817067349
 20
-2.520192218673097
 30
0.0
 40
0.0625
  1
SCALE:
100
AcDbText
  0
LINE
  5
70EEC
330
458D6
100
AcDbEntity
  8
SCALE
100
AcDbLine
 10
0.907260416460209
 20
-3.19506933994671
 30
0.0
 11
0.907260416460209
 21
-2.99506933994671
 31
0.0
  0
TEXT
  5
70EED
330
458D6
100
AcDbEntity
  8
SCALE
100
AcDbText
 10
0.8768434049441186
 20
-2.726020644573509
 30
0.0
 40
0.0625
  1
1 Inch
100
AcDbText
  0
LINE
  5
70EEE
330
458D6
100
AcDbEntity
  8
SCALE
100
AcDbLine
 10
1.513560416460209
 20
-2.79506933994671
 30
0.0
 11
1.513560416460209
 21
-2.895069339946711
 31
0.0
  0
LINE
  5
70EEF
330
458D6
100
AcDbEntity
  8
SCALE
100
AcDbLine
 10
1.513560416460209
 20
-2.895069339946711
 30
0.0
 11
1.513560416460209
 21
-2.69506933994671
 31
0.0
  0
VIEWPORT
  5
5677D
330
458D3
100
AcDbEntity
 67
     1
  8
0
100
AcDbViewport
 10
5.249999639556163
 20
3.999999883606677
 30
0.0
 40
16.38686186943767
 41
8.992999745766947
 68
     1
 69
     1
 12
5.249999639556163
 22
3.999999883606677
 13
0.0
 23
0.0
 14
0.5
 24
0.5
 15
0.5
 25
0.5
 16
0.0
 26
0.0
 36
1.0
 17
0.0
 27
0.0
 37
0.0
 42
50.0
 43
0.0
 44
0.0
 45
8.992999745766947
 50
0.0
 51
0.0
 72
 20000
 90
    32800
  1

281
     0
 71
     1
 74
     0
110
0.0
120
0.0
130
0.0
111
1.0
121
0.0
131
0.0
112
0.0
122
1.0
132
0.0
 79
     0
146
0.0
170
     0
 61
     5
348
70F97
292
     1
282
     1
141
0.0
142
0.0
 63
   250
421
  3355443
  0
VIEWPORT
  5
5677F
330
458D3
100
AcDbEntity
 67
     1
  8
AREA1
100
AcDbViewport
 10
5.24999976158142
 20
3.99999976158142
 30
0.0
 40
8.399999618530271
 41
6.399999618530272
 68
     2
 69
     2
 12
-1.017175299537903
 22
0.747812767808223
 13
0.0
 23
0.0
 14
0.25
 24
0.25
 15
0.25
 25
0.25
 16
0.0
 26
0.0
 36
1.0
 17
0.5634438949382106
 27
-0.8801371703728531
 37
1.68649307151727
 42
50.0
 43
0.0
 44
0.0
 45
4.58291448918931
 50
0.0
 51
0.0
 72
 20000
 90
    32800
  1

281
     1
 71
     1
 74
     0
110
0.0
120
0.0
130
0.0
111
1.0
121
0.0
131
0.0
112
0.0
122
1.0
132
0.0
 79
     1
146
0.0
170
     0
 61
     5
348
70F98
292
     1
282
     1
141
0.0
142
0.0
 63
   250
421
  3355443
  0
ENDSEC
  0
SECTION
  2
OBJECTS
  0
DICTIONARY
  5
458CB
330
0
100
AcDbDictionary
281
     1
  3
ACAD_BACKGROUND
350
70FA7
  3
ACAD_COLOR
350
70FA2
  3
ACAD_GROUP
350
458CC
  3
ACAD_LAYOUT
350
458FB
  3
ACAD_MATERIAL
350
70F8D
  3
ACAD_MLINESTYLE
350
458D9
  3
ACAD_PLOTSETTINGS
350
458FC
  3
ACAD_PLOTSTYLENAME
350
458F9
  3
ACAD_TABLESTYLE
350
70FA3
  3
ACAD_VISUALSTYLE
350
70F91
  3
ACADE_WIRETYPE
350
70FBC
  3
ACDBVARIABLEDICTIONARY
350
458E1
  3
ASE_INDEX_DICTIONARY
350
70FAF
  0
DICTIONARY
  5
70FAC
330
70FAB
100
AcDbDictionary
280
     1
281
     1
  3
ACADE_WIRETYPE
360
70FAD
  0
DICTIONARY
  5
4592C
330
458D6
100
AcDbDictionary
280
     1
281
     1
  3
ACAD_LAYOUTSELFREF
360
70F81
  0
DICTIONARY
  5
4592A
330
458D3
100
AcDbDictionary
280
     1
281
     1
  3
ACAD_LAYOUTSELFREF
360
70F80
  0
DICTIONARY
  5
70FA7
102
{ACAD_REACTORS
330
458CB
102
}
330
458CB
100
AcDbDictionary
281
     1
  0
DICTIONARY
  5
70FA2
102
{ACAD_REACTORS
330
458CB
102
}
330
458CB
100
AcDbDictionary
281
     1
  0
DICTIONARY
  5
458CC
102
{ACAD_REACTORS
330
458CB
102
}
330
458CB
100
AcDbDictionary
281
     1
  0
DICTIONARY
  5
458FB
102
{ACAD_REACTORS
330
458CB
102
}
330
458CB
100
AcDbDictionary
281
     1
  3
Layout1
350
458FE
  3
Model
350
458FD
  0
DICTIONARY
  5
70F8D
102
{ACAD_REACTORS
330
458CB
102
}
330
458CB
100
AcDbDictionary
281
     1
  3
ByBlock
350
70F8F
  3
ByLayer
350
70F8E
  3
Global
350
70F90
  0
DICTIONARY
  5
458D9
102
{ACAD_REACTORS
330
458CB
102
}
330
458CB
100
AcDbDictionary
281
     1
  3
STANDARD
350
458DA
  0
DICTIONARY
  5
458FC
102
{ACAD_REACTORS
330
458CB
102
}
330
458CB
100
AcDbDictionary
281
     1
  0
ACDBDICTIONARYWDFLT
  5
458F9
102
{ACAD_REACTORS
330
458CB
102
}
330
458CB
100
AcDbDictionary
281
     1
  3
Normal
350
458FA
100
AcDbDictionaryWithDefault
340
458FA
  0
DICTIONARY
  5
70FA3
102
{ACAD_REACTORS
330
458CB
102
}
330
458CB
100
AcDbDictionary
281
     1
  3
Standard
350
70FA4
  0
DICTIONARY
  5
70F91
102
{ACAD_REACTORS
330
458CB
102
}
330
458CB
100
AcDbDictionary
281
     1
  3
2dWireframe
350
70F97
  3
3D Hidden
350
70F99
  3
3dWireframe
350
70F98
  3
Basic
350
70F96
  3
Brighten
350
70F9D
  3
ColorChange
350
70FA1
  3
Conceptual
350
70F9A
  3
Dim
350
70F9C
  3
Facepattern
350
70FA0
  3
Flat
350
70F92
  3
FlatWithEdges
350
70F93
  3
Gouraud
350
70F94
  3
GouraudWithEdges
350
70F95
  3
Linepattern
350
70F9F
  3
Realistic
350
70F9B
  3
Thicken
350
70F9E
  0
DICTIONARY
  5
70FBC
102
{ACAD_REACTORS
330
458CB
102
}
330
458CB
100
AcDbDictionary
281
     1
  3
CURRENT_WIRELAY
350
70FBD
  0
DICTIONARY
  5
458E1
102
{ACAD_REACTORS
330
458CB
102
}
330
458CB
100
AcDbDictionary
281
     1
  3
CTABLESTYLE
350
70FB2
  3
DIMADEC
350
458E2
  0
DICTIONARY
  5
70FAF
102
{ACAD_REACTORS
330
458CB
102
}
330
458CB
100
AcDbDictionary
281
     1
  3
ASEBlockHierarchyIndexRecord
350
70FB1
1001
DCO15
1040
1582952780.146
  0
XRECORD
  5
70FAD
102
{ACAD_REACTORS
330
70FAC
102
}
330
70FAC
100
AcDbXrecord
280
     1
  1

  2

  3
WIRE
 90
        0
  0
XRECORD
  5
70F81
102
{ACAD_REACTORS
330
4592C
102
}
330
4592C
100
AcDbXrecord
280
     1
340
458D6
  0
XRECORD
  5
70F80
102
{ACAD_REACTORS
330
4592A
102
}
330
4592A
100
AcDbXrecord
280
     1
340
458D3
  0
LAYOUT
  5
458FE
102
{ACAD_REACTORS
330
458FB
102
}
330
458FB
100
AcDbPlotSettings
  1

  2
none_device
  4
Letter_(8.50_x_11.00_Inches)
  6

 40
6.349999904632568
 41
6.349999904632568
 42
6.350006103515625
 43
6.350006103515625
 44
215.8999938964844
 45
279.3999938964844
 46
0.0
 47
0.0
 48
0.0
 49
0.0
140
0.0
141
0.0
142
1.0
143
1.0
 70
   688
 72
     0
 73
     1
 74
     5
  7
Default R14 pen assignments.ctb
 75
    16
147
1.0
 76
     0
 77
     2
 78
   300
148
0.0
149
0.0
100
AcDbLayout
  1
Layout1
 70
     1
 71
     1
 10
-0.2500002402958907
 20
-0.2499999962453767
 11
10.74999951940821
 21
8.249999763458731
 12
0.0
 22
0.0
 32
0.0
 14
1.049999952316284
 24
0.7999999523162842
 34
0.0
 15
9.449999570846555
 25
7.199999570846556
 35
0.0
146
0.0
 13
0.0
 23
0.0
 33
0.0
 16
1.0
 26
0.0
 36
0.0
 17
0.0
 27
1.0
 37
0.0
 76
     0
330
458D3
331
5677D
  0
LAYOUT
  5
458FD
102
{ACAD_REACTORS
330
458FB
102
}
330
458FB
100
AcDbPlotSettings
  1

  2
HP LaserJet 5000 Series PCL 6
  4

  6

 40
0.0
 41
0.0
 42
0.0
 43
0.0
 44
0.0
 45
0.0
 46
0.0
 47
0.0
 48
0.0
 49
0.0
140
0.0
141
0.0
142
1.0
143
1.0
 70
  1712
 72
     0
 73
     0
 74
     0
  7
Default R14 pen assignments.ctb
 75
     0
147
1.0
 76
     0
 77
     2
 78
   300
148
0.0
149
0.0
100
AcDbLayout
  1
Model
 70
     1
 71
     0
 10
0.0
 20
0.0
 11
12.0
 21
9.0
 12
0.0
 22
0.0
 32
0.0
 14
0.0
 24
0.0
 34
0.0
 15
0.0
 25
0.0
 35
0.0
146
0.0
 13
0.0
 23
0.0
 33
0.0
 16
1.0
 26
0.0
 36
0.0
 17
0.0
 27
1.0
 37
0.0
 76
     0
330
458D6
331
70F5A
  0
MATERIAL
  5
70F8F
102
{ACAD_REACTORS
330
70F8D
102
}
330
70F8D
100
AcDbMaterial
  1
ByBlock
  0
MATERIAL
  5
70F8E
102
{ACAD_REACTORS
330
70F8D
102
}
330
70F8D
100
AcDbMaterial
  1
ByLayer
  0
MATERIAL
  5
70F90
102
{ACAD_REACTORS
330
70F8D
102
}
330
70F8D
100
AcDbMaterial
  1
Global
  0
MLINESTYLE
  5
458DA
102
{ACAD_REACTORS
330
458D9
102
}
330
458D9
100
AcDbMlineStyle
  2
STANDARD
 70
     0
  3

 62
   256
 51
90.0
 52
90.0
 71
     2
 49
0.5
 62
   256
  6
BYLAYER
 49
-0.5
 62
   256
  6
BYLAYER
  0
ACDBPLACEHOLDER
  5
458FA
102
{ACAD_REACTORS
330
458F9
102
}
330
458F9
  0
TABLESTYLE
  5
70FA4
102
{ACAD_REACTORS
330
70FA3
102
}
330
70FA3
100
AcDbTableStyle
  3
Standard
 70
     0
 71
     0
 40
0.06
 41
0.06
280
     0
281
     0
  7
STANDARD
140
0.18
170
     2
 62
     0
 63
     7
283
     0
 90
      512
 91
        0
  1

274
    -2
284
     1
 64
     0
275
    -2
285
     1
 65
     0
276
    -2
286
     1
 66
     0
277
    -2
287
     1
 67
     0
278
    -2
288
     1
 68
     0
279
    -2
289
     1
 69
     0
  7
STANDARD
140
0.25
170
     5
 62
     0
 63
     7
283
     0
 90
      512
 91
        0
  1

274
    -2
284
     1
 64
     0
275
    -2
285
     1
 65
     0
276
    -2
286
     1
 66
     0
277
    -2
287
     1
 67
     0
278
    -2
288
     1
 68
     0
279
    -2
289
     1
 69
     0
  7
STANDARD
140
0.18
170
     5
 62
     0
 63
     7
283
     0
 90
      512
 91
        0
  1

274
    -2
284
     1
 64
     0
275
    -2
285
     1
 65
     0
276
    -2
286
     1
 66
     0
277
    -2
287
     1
 67
     0
278
    -2
288
     1
 68
     0
279
    -2
289
     1
 69
     0
  0
VISUALSTYLE
  5
70F97
102
{ACAD_REACTORS
330
70F91
102
}
330
70F91
100
AcDbVisualStyle
  2
2dWireframe
 70
     4
 71
     0
 72
     2
 73
     0
 90
        0
 40
-0.6
 41
-30.0
 62
     5
 63
     7
421
 16777215
 74
     1
 91
        4
 64
     7
 65
   257
 75
     1
175
     1
 42
1.0
 92
        0
 66
   257
 43
1.0
 76
     1
 77
     6
 78
     2
 67
     7
 79
     5
170
     0
171
     0
290
     0
174
     0
 93
        1
 44
0.0
173
     0
291
     0
 45
0.0
  0
VISUALSTYLE
  5
70F99
102
{ACAD_REACTORS
330
70F91
102
}
330
70F91
100
AcDbVisualStyle
  2
3D Hidden
 70
     6
 71
     1
 72
     2
 73
     2
 90
        0
 40
-0.6
 41
-30.0
 62
     5
 63
     7
421
 16777215
 74
     2
 91
        2
 64
     7
 65
   257
 75
     2
175
     1
 42
40.0
 92
        0
 66
   257
 43
1.0
 76
     1
 77
     6
 78
     2
 67
     7
 79
     3
170
     0
171
     0
290
     0
174
     0
 93
        1
 44
0.0
173
     0
291
     0
 45
0.0
  0
VISUALSTYLE
  5
70F98
102
{ACAD_REACTORS
330
70F91
102
}
330
70F91
100
AcDbVisualStyle
  2
3dWireframe
 70
     5
 71
     0
 72
     2
 73
     0
 90
        0
 40
-0.6
 41
-30.0
 62
     5
 63
     7
421
 16777215
 74
     1
 91
        4
 64
     7
 65
   257
 75
     1
175
     1
 42
1.0
 92
        0
 66
   257
 43
1.0
 76
     1
 77
     6
 78
     2
 67
     7
 79
     5
170
     0
171
     0
290
     0
174
     0
 93
        1
 44
0.0
173
     0
291
     0
 45
0.0
  0
VISUALSTYLE
  5
70F96
102
{ACAD_REACTORS
330
70F91
102
}
330
70F91
100
AcDbVisualStyle
  2
Basic
 70
     7
 71
     1
 72
     0
 73
     1
 90
        0
 40
-0.6
 41
-30.0
 62
     5
 63
     7
421
 16777215
 74
     0
 91
        4
 64
     7
 65
   257
 75
     1
175
     1
 42
1.0
 92
        8
 66
     7
 43
1.0
 76
     1
 77
     6
 78
     2
 67
     7
 79
     5
170
     0
171
     0
290
     0
174
     0
 93
        1
 44
0.0
173
     0
291
     1
 45
0.0
  0
VISUALSTYLE
  5
70F9D
102
{ACAD_REACTORS
330
70F91
102
}
330
70F91
100
AcDbVisualStyle
  2
Brighten
 70
    12
 71
     2
 72
     2
 73
     0
 90
        0
 40
-0.6
 41
-30.0
 62
     5
 63
     7
421
 16777215
 74
     1
 91
        4
 64
     7
 65
   257
 75
     1
175
     1
 42
1.0
 92
        8
 66
     7
 43
1.0
 76
     1
 77
     6
 78
     2
 67
     7
 79
     5
170
     0
171
     0
290
     0
174
     0
 93
        1
 44
50.0
173
     0
291
     1
 45
0.0
  0
VISUALSTYLE
  5
70FA1
102
{ACAD_REACTORS
330
70F91
102
}
330
70F91
100
AcDbVisualStyle
  2
ColorChange
 70
    16
 71
     2
 72
     2
 73
     3
 90
        0
 40
-0.6
 41
-30.0
 62
     5
 63
     8
421
  8421504
 74
     1
 91
        4
 64
     7
 65
   257
 75
     1
175
     1
 42
1.0
 92
        8
 66
     8
424
  8421504
 43
1.0
 76
     1
 77
     6
 78
     2
 67
     7
 79
     5
170
     0
171
     0
290
     0
174
     0
 93
        1
 44
0.0
173
     0
291
     1
 45
0.0
  0
VISUALSTYLE
  5
70F9A
102
{ACAD_REACTORS
330
70F91
102
}
330
70F91
100
AcDbVisualStyle
  2
Conceptual
 70
     9
 71
     3
 72
     2
 73
     0
 90
        0
 40
-0.6
 41
-30.0
 62
     5
 63
     7
421
 16777215
 74
     2
 91
        2
 64
     7
 65
   257
 75
     1
175
     1
 42
40.0
 92
        8
 66
     7
 43
1.0
 76
     1
 77
     6
 78
     2
 67
     7
 79
     3
170
     0
171
     0
290
     0
174
     0
 93
        1
 44
0.0
173
     0
291
     0
 45
0.0
  0
VISUALSTYLE
  5
70F9C
102
{ACAD_REACTORS
330
70F91
102
}
330
70F91
100
AcDbVisualStyle
  2
Dim
 70
    11
 71
     2
 72
     2
 73
     0
 90
        0
 40
-0.6
 41
-30.0
 62
     5
 63
     7
421
 16777215
 74
     1
 91
        4
 64
     7
 65
   257
 75
     1
175
     1
 42
1.0
 92
        8
 66
     7
 43
1.0
 76
     1
 77
     6
 78
     2
 67
     7
 79
     5
170
     0
171
     0
290
     0
174
     0
 93
        1
 44
-50.0
173
     0
291
     1
 45
0.0
  0
VISUALSTYLE
  5
70FA0
102
{ACAD_REACTORS
330
70F91
102
}
330
70F91
100
AcDbVisualStyle
  2
Facepattern
 70
    15
 71
     2
 72
     2
 73
     0
 90
        0
 40
-0.6
 41
-30.0
 62
     5
 63
     7
421
 16777215
 74
     1
 91
        4
 64
     7
 65
   257
 75
     1
175
     1
 42
1.0
 92
        8
 66
     7
 43
1.0
 76
     1
 77
     6
 78
     2
 67
     7
 79
     5
170
     0
171
     0
290
     0
174
     0
 93
        1
 44
0.0
173
     0
291
     1
 45
0.0
  0
VISUALSTYLE
  5
70F92
102
{ACAD_REACTORS
330
70F91
102
}
330
70F91
100
AcDbVisualStyle
  2
Flat
 70
     0
 71
     2
 72
     1
 73
     1
 90
        2
 40
-0.6
 41
30.0
 62
     5
 63
     7
421
 16777215
 74
     0
 91
        4
 64
     7
 65
   257
 75
     1
175
     1
 42
1.0
 92
        8
 66
     7
 43
1.0
 76
     1
 77
     6
 78
     2
 67
     7
 79
     5
170
     0
171
     0
290
     0
174
     0
 93
       13
 44
0.0
173
     0
291
     1
 45
0.0
  0
VISUALSTYLE
  5
70F93
102
{ACAD_REACTORS
330
70F91
102
}
330
70F91
100
AcDbVisualStyle
  2
FlatWithEdges
 70
     1
 71
     2
 72
     1
 73
     1
 90
        2
 40
-0.6
 41
30.0
 62
     5
 63
     7
421
 16777215
 74
     1
 91
        4
 64
     7
 65
   257
 75
     1
175
     1
 42
1.0
 92
        0
 66
   257
 43
1.0
 76
     1
 77
     6
 78
     2
 67
     7
 79
     5
170
     0
171
     0
290
     0
174
     0
 93
       13
 44
0.0
173
     0
291
     1
 45
0.0
  0
VISUALSTYLE
  5
70F94
102
{ACAD_REACTORS
330
70F91
102
}
330
70F91
100
AcDbVisualStyle
  2
Gouraud
 70
     2
 71
     2
 72
     2
 73
     1
 90
        2
 40
-0.6
 41
30.0
 62
     5
 63
     7
421
 16777215
 74
     0
 91
        4
 64
     7
 65
   257
 75
     1
175
     1
 42
1.0
 92
        0
 66
     7
 43
1.0
 76
     1
 77
     6
 78
     2
 67
     7
 79
     5
170
     0
171
     0
290
     0
174
     0
 93
       13
 44
0.0
173
     0
291
     1
 45
0.0
  0
VISUALSTYLE
  5
70F95
102
{ACAD_REACTORS
330
70F91
102
}
330
70F91
100
AcDbVisualStyle
  2
GouraudWithEdges
 70
     3
 71
     2
 72
     2
 73
     1
 90
        2
 40
-0.6
 41
30.0
 62
     5
 63
     7
421
 16777215
 74
     1
 91
        4
 64
     7
 65
   257
 75
     1
175
     1
 42
1.0
 92
        0
 66
   257
 43
1.0
 76
     1
 77
     6
 78
     2
 67
     7
 79
     5
170
     0
171
     0
290
     0
174
     0
 93
       13
 44
0.0
173
     0
291
     1
 45
0.0
  0
VISUALSTYLE
  5
70F9F
102
{ACAD_REACTORS
330
70F91
102
}
330
70F91
100
AcDbVisualStyle
  2
Linepattern
 70
    14
 71
     2
 72
     2
 73
     0
 90
        0
 40
-0.6
 41
-30.0
 62
     5
 63
     7
421
 16777215
 74
     1
 91
        4
 64
     7
 65
   257
 75
     7
175
     7
 42
1.0
 92
        8
 66
     7
 43
1.0
 76
     1
 77
     6
 78
     2
 67
     7
 79
     5
170
     0
171
     0
290
     0
174
     0
 93
        1
 44
0.0
173
     0
291
     1
 45
0.0
  0
VISUALSTYLE
  5
70F9B
102
{ACAD_REACTORS
330
70F91
102
}
330
70F91
100
AcDbVisualStyle
  2
Realistic
 70
     8
 71
     2
 72
     2
 73
     0
 90
        0
 40
-0.6
 41
-30.0
 62
     5
 63
     7
421
 16777215
 74
     1
 91
        0
 64
     7
 65
   257
 75
     1
175
     1
 42
1.0
 92
        8
 66
     8
424
  7895160
 43
1.0
 76
     1
 77
     6
 78
     2
 67
     7
 79
     5
170
     0
171
     0
290
     0
174
     0
 93
       13
 44
0.0
173
     0
291
     0
 45
0.0
  0
VISUALSTYLE
  5
70F9E
102
{ACAD_REACTORS
330
70F91
102
}
330
70F91
100
AcDbVisualStyle
  2
Thicken
 70
    13
 71
     2
 72
     2
 73
     0
 90
        0
 40
-0.6
 41
-30.0
 62
     5
 63
     7
421
 16777215
 74
     1
 91
        4
 64
     7
 65
   257
 75
     1
175
     1
 42
1.0
 92
       12
 66
     7
 43
1.0
 76
     1
 77
     6
 78
     2
 67
     7
 79
     5
170
     0
171
     0
290
     0
174
     0
 93
        1
 44
0.0
173
     0
291
     1
 45
0.0
  0
XRECORD
  5
70FBD
102
{ACAD_REACTORS
330
70FBC
102
}
330
70FBC
100
AcDbXrecord
280
     1
  1
WIRES
  1
WIRES
  1

290
     0
  0
DICTIONARYVAR
  5
70FB2
102
{ACAD_REACTORS
330
458E1
102
}
330
458E1
100
DictionaryVariables
280
     0
  1
STANDARD
  0
DICTIONARYVAR
  5
458E2
102
{ACAD_REACTORS
330
458E1
102
}
330
458E1
100
DictionaryVariables
280
     0
  1
0
  0
XRECORD
  5
70FB1
102
{ACAD_REACTORS
330
70FAF
102
}
330
70FAF
100
AcDbXrecord
280
     1
  0
ENDSEC
  0
EOF
