  0
SECTION
  2
HEADER
  9
$ACADVER
  1
AC1021
  9
$ACADMAINTVER
 70
     1
  9
$DWGCODEPAGE
  3
ANSI_1252
  9
$LASTSAVEDBY
  1
gdseiver
  9
$INSBASE
 10
0.0
 20
0.0
 30
0.0
  9
$EXTMIN
 10
-0.0000000000000036
 20
-2.526
 30
-0.0000000000000001
  9
$EXTMAX
 10
2.12
 20
0.654
 30
5.687499999999999
  9
$LIMMIN
 10
0.0
 20
0.0
  9
$LIMMAX
 10
12.0
 20
9.0
  9
$ORTHOMODE
 70
     0
  9
$REGENMODE
 70
     1
  9
$FILLMODE
 70
     1
  9
$QTEXTMODE
 70
     0
  9
$MIRRTEXT
 70
     1
  9
$LTSCALE
 40
1.0
  9
$ATTMODE
 70
     1
  9
$TEXTSIZE
 40
0.12
  9
$TRACEWID
 40
0.05
  9
$TEXTSTYLE
  7
STANDARD
  9
$CLAYER
  8
0
  9
$CELTYPE
  6
BYLAYER
  9
$CECOLOR
 62
   256
  9
$CELTSCALE
 40
1.0
  9
$DISPSILH
 70
     0
  9
$DIMSCALE
 40
1.0
  9
$DIMASZ
 40
0.125
  9
$DIMEXO
 40
0.0625
  9
$DIMDLI
 40
0.375
  9
$DIMRND
 40
0.0
  9
$DIMDLE
 40
0.0
  9
$DIMEXE
 40
0.1
  9
$DIMTP
 40
0.0
  9
$DIMTM
 40
0.0
  9
$DIMTXT
 40
0.125
  9
$DIMCEN
 40
0.09
  9
$DIMTSZ
 40
0.0
  9
$DIMTOL
 70
     0
  9
$DIMLIM
 70
     0
  9
$DIMTIH
 70
     0
  9
$DIMTOH
 70
     1
  9
$DIMSE1
 70
     0
  9
$DIMSE2
 70
     0
  9
$DIMTAD
 70
     0
  9
$DIMZIN
 70
     4
  9
$DIMBLK
  1

  9
$DIMASO
 70
     1
  9
$DIMSHO
 70
     1
  9
$DIMPOST
  1

  9
$DIMAPOST
  1

  9
$DIMALT
 70
     1
  9
$DIMALTD
 70
     2
  9
$DIMALTF
 40
25.4
  9
$DIMLFAC
 40
1.0
  9
$DIMTOFL
 70
     0
  9
$DIMTVP
 40
0.0
  9
$DIMTIX
 70
     0
  9
$DIMSOXD
 70
     0
  9
$DIMSAH
 70
     0
  9
$DIMBLK1
  1

  9
$DIMBLK2
  1

  9
$DIMSTYLE
  2
ABECAD_3D
  9
$DIMCLRD
 70
     0
  9
$DIMCLRE
 70
     0
  9
$DIMCLRT
 70
     0
  9
$DIMTFAC
 40
1.5
  9
$DIMGAP
 40
0.09
  9
$DIMJUST
 70
     0
  9
$DIMSD1
 70
     0
  9
$DIMSD2
 70
     0
  9
$DIMTOLJ
 70
     1
  9
$DIMTZIN
 70
     4
  9
$DIMALTZ
 70
     4
  9
$DIMALTTZ
 70
     4
  9
$DIMUPT
 70
     1
  9
$DIMDEC
 70
     6
  9
$DIMTDEC
 70
     6
  9
$DIMALTU
 70
     2
  9
$DIMALTTD
 70
     2
  9
$DIMTXSTY
  7
STANDARD
  9
$DIMAUNIT
 70
     0
  9
$DIMADEC
 70
     0
  9
$DIMALTRND
 40
0.0
  9
$DIMAZIN
 70
     0
  9
$DIMDSEP
 70
    46
  9
$DIMATFIT
 70
     2
  9
$DIMFRAC
 70
     2
  9
$DIMLDRBLK
  1

  9
$DIMLUNIT
 70
     5
  9
$DIMLWD
 70
    -2
  9
$DIMLWE
 70
    -2
  9
$DIMTMOVE
 70
     2
  9
$DIMFXL
 40
1.0
  9
$DIMFXLON
 70
     0
  9
$DIMJOGANG
 40
0.7853981633974483
  9
$DIMTFILL
 70
     0
  9
$DIMTFILLCLR
 70
     0
  9
$DIMARCSYM
 70
     0
  9
$DIMLTYPE
  6

  9
$DIMLTEX1
  6

  9
$DIMLTEX2
  6

  9
$LUNITS
 70
     2
  9
$LUPREC
 70
     4
  9
$SKETCHINC
 40
0.1
  9
$FILLETRAD
 40
0.0
  9
$AUNITS
 70
     0
  9
$AUPREC
 70
     0
  9
$MENU
  1
ACAD
  9
$ELEVATION
 40
0.0
  9
$PELEVATION
 40
0.0
  9
$THICKNESS
 40
0.0
  9
$LIMCHECK
 70
     0
  9
$CHAMFERA
 40
0.0
  9
$CHAMFERB
 40
0.0
  9
$CHAMFERC
 40
0.0
  9
$CHAMFERD
 40
0.0
  9
$SKPOLY
 70
     0
  9
$TDCREATE
 40
2451726.480055787
  9
$TDUCREATE
 40
2451726.688389120
  9
$TDUPDATE
 40
2454229.679255058
  9
$TDUUPDATE
 40
2454229.887588391
  9
$TDINDWG
 40
0.9139880556
  9
$TDUSRTIMER
 40
0.9139880556
  9
$USRTIMER
 70
     1
  9
$ANGBASE
 50
0.0
  9
$ANGDIR
 70
     0
  9
$PDMODE
 70
     3
  9
$PDSIZE
 40
0.09
  9
$PLINEWID
 40
0.0
  9
$SPLFRAME
 70
     1
  9
$SPLINETYPE
 70
     6
  9
$SPLINESEGS
 70
     8
  9
$HANDSEED
  5
72FE7
  9
$SURFTAB1
 70
     6
  9
$SURFTAB2
 70
     6
  9
$SURFTYPE
 70
     6
  9
$SURFU
 70
     6
  9
$SURFV
 70
     6
  9
$UCSBASE
  2

  9
$UCSNAME
  2

  9
$UCSORG
 10
0.0
 20
0.0
 30
0.0
  9
$UCSXDIR
 10
1.0
 20
0.0
 30
0.0
  9
$UCSYDIR
 10
0.0
 20
1.0
 30
0.0
  9
$UCSORTHOREF
  2

  9
$UCSORTHOVIEW
 70
     1
  9
$UCSORGTOP
 10
0.0
 20
0.0
 30
0.0
  9
$UCSORGBOTTOM
 10
0.0
 20
0.0
 30
0.0
  9
$UCSORGLEFT
 10
0.0
 20
0.0
 30
0.0
  9
$UCSORGRIGHT
 10
0.0
 20
0.0
 30
0.0
  9
$UCSORGFRONT
 10
0.0
 20
0.0
 30
0.0
  9
$UCSORGBACK
 10
0.0
 20
0.0
 30
0.0
  9
$PUCSBASE
  2

  9
$PUCSNAME
  2

  9
$PUCSORG
 10
0.0
 20
0.0
 30
0.0
  9
$PUCSXDIR
 10
1.0
 20
0.0
 30
0.0
  9
$PUCSYDIR
 10
0.0
 20
1.0
 30
0.0
  9
$PUCSORTHOREF
  2

  9
$PUCSORTHOVIEW
 70
     0
  9
$PUCSORGTOP
 10
0.0
 20
0.0
 30
0.0
  9
$PUCSORGBOTTOM
 10
0.0
 20
0.0
 30
0.0
  9
$PUCSORGLEFT
 10
0.0
 20
0.0
 30
0.0
  9
$PUCSORGRIGHT
 10
0.0
 20
0.0
 30
0.0
  9
$PUCSORGFRONT
 10
0.0
 20
0.0
 30
0.0
  9
$PUCSORGBACK
 10
0.0
 20
0.0
 30
0.0
  9
$USERI1
 70
     0
  9
$USERI2
 70
     0
  9
$USERI3
 70
     0
  9
$USERI4
 70
     0
  9
$USERI5
 70
     0
  9
$USERR1
 40
0.0
  9
$USERR2
 40
0.0
  9
$USERR3
 40
0.0
  9
$USERR4
 40
0.0
  9
$USERR5
 40
0.0
  9
$WORLDVIEW
 70
     1
  9
$SHADEDGE
 70
     3
  9
$SHADEDIF
 70
    70
  9
$TILEMODE
 70
     1
  9
$MAXACTVP
 70
    16
  9
$PINSBASE
 10
0.0
 20
0.0
 30
0.0
  9
$PLIMCHECK
 70
     0
  9
$PEXTMIN
 10
1.049999952316284
 20
0.7999999523162842
 30
0.0
  9
$PEXTMAX
 10
9.449999570846555
 20
7.199999570846556
 30
0.0
  9
$PLIMMIN
 10
-0.2500002402958907
 20
-0.2499999962453767
  9
$PLIMMAX
 10
10.74999951940821
 20
8.249999763458731
  9
$UNITMODE
 70
     0
  9
$VISRETAIN
 70
     0
  9
$PLINEGEN
 70
     0
  9
$PSLTSCALE
 70
     1
  9
$TREEDEPTH
 70
  3020
  9
$CMLSTYLE
  2
STANDARD
  9
$CMLJUST
 70
     0
  9
$CMLSCALE
 40
1.0
  9
$PROXYGRAPHICS
 70
     1
  9
$MEASUREMENT
 70
     0
  9
$CELWEIGHT
370
    -1
  9
$ENDCAPS
280
     0
  9
$JOINSTYLE
280
     0
  9
$LWDISPLAY
290
     0
  9
$INSUNITS
 70
     0
  9
$HYPERLINKBASE
  1

  9
$STYLESHEET
  1

  9
$XEDIT
290
     1
  9
$CEPSNTYPE
380
     0
  9
$PSTYLEMODE
290
     1
  9
$FINGERPRINTGUID
  2
{6E0CF4B8-225E-11D4-A150-00A0CC3303EC}
  9
$VERSIONGUID
  2
{AC205328-107A-4596-91CB-5791E152FECF}
  9
$EXTNAMES
290
     1
  9
$PSVPSCALE
 40
0.0
  9
$OLESTARTUP
290
     0
  9
$SORTENTS
280
   127
  9
$INDEXCTL
280
     0
  9
$HIDETEXT
280
     0
  9
$XCLIPFRAME
290
     0
  9
$HALOGAP
280
     0
  9
$OBSCOLOR
 70
   257
  9
$OBSLTYPE
280
     0
  9
$INTERSECTIONDISPLAY
280
     0
  9
$INTERSECTIONCOLOR
 70
   257
  9
$DIMASSOC
280
     1
  9
$PROJECTNAME
  1

  9
$CAMERADISPLAY
290
     0
  9
$LENSLENGTH
 40
50.0
  9
$CAMERAHEIGHT
 40
0.0
  9
$STEPSPERSEC
 40
2.0
  9
$STEPSIZE
 40
6.0
  9
$3DDWFPREC
 40
2.0
  9
$PSOLWIDTH
 40
0.25
  9
$PSOLHEIGHT
 40
4.0
  9
$LOFTANG1
 40
1.570796326794896
  9
$LOFTANG2
 40
1.570796326794896
  9
$LOFTMAG1
 40
0.0
  9
$LOFTMAG2
 40
0.0
  9
$LOFTPARAM
 70
     7
  9
$LOFTNORMALS
280
     1
  9
$LATITUDE
 40
37.795
  9
$LONGITUDE
 40
-122.394
  9
$NORTHDIRECTION
 40
0.0
  9
$TIMEZONE
 70
 -8000
  9
$LIGHTGLYPHDISPLAY
280
     1
  9
$TILEMODELIGHTSYNCH
280
     1
  9
$CMATERIAL
347
72F91
  9
$SOLIDHIST
280
     1
  9
$SHOWHIST
280
     1
  9
$DWFFRAME
280
     2
  9
$DGNFRAME
280
     0
  9
$REALWORLDSCALE
290
     1
  9
$INTERFERECOLOR
 62
     1
  9
$INTERFEREOBJVS
345
72F9E
  9
$INTERFEREVPVS
346
72F9B
  9
$CSHADOW
280
     0
  9
$SHADOWPLANELOCATION
 40
0.0
  0
ENDSEC
  0
SECTION
  2
CLASSES
  0
CLASS
  1
DICTIONARYVAR
  2
AcDbDictionaryVar
  3
ObjectDBX Classes
 90
        0
 91
        2
280
     0
281
     0
  0
CLASS
  1
ACDBDICTIONARYWDFLT
  2
AcDbDictionaryWithDefault
  3
ObjectDBX Classes
 90
        0
 91
        1
280
     0
281
     0
  0
CLASS
  1
MATERIAL
  2
AcDbMaterial
  3
ObjectDBX Classes
 90
     1024
 91
        3
280
     0
281
     0
  0
CLASS
  1
VISUALSTYLE
  2
AcDbVisualStyle
  3
ObjectDBX Classes
 90
     4095
 91
       16
280
     0
281
     0
  0
CLASS
  1
TABLESTYLE
  2
AcDbTableStyle
  3
ObjectDBX Classes
 90
     4095
 91
        1
280
     0
281
     0
  0
CLASS
  1
SOLID_BACKGROUND
  2
AcDbSolidBackground
  3
SCENEOE
 90
     4095
 91
        1
280
     0
281
     0
  0
CLASS
  1
NPOCOLLECTION
  2
AcDbImpNonPersistentObjectsCollection
  3
ObjectDBX Classes
 90
     1153
 91
        1
280
     0
281
     0
  0
CLASS
  1
EXACXREFPANELOBJECT
  2
ExAcXREFPanelObject
  3
EXAC_ESW
 90
     1025
 91
        0
280
     0
281
     0
  0
ENDSEC
  0
SECTION
  2
TABLES
  0
TABLE
  2
VPORT
  5
458C7
102
{ACAD_XDICTIONARY
360
72FC1
102
}
330
0
100
AcDbSymbolTable
 70
     1
  0
VPORT
  5
72F5D
330
458C7
100
AcDbSymbolTableRecord
100
AcDbViewportTableRecord
  2
*Active
 70
     0
 10
0.0
 20
0.0
 11
1.0
 21
1.0
 12
0.4965561050617878
 22
-0.0558628296271473
 13
0.0
 23
0.0
 14
0.25
 24
0.25
 15
0.25
 25
0.25
 16
0.0
 26
0.0
 36
1.0
 17
0.5634438949382106
 27
-0.8801371703728531
 37
1.68649307151727
 40
3.203233345066399
 41
1.421818181818181
 42
50.0
 43
0.0
 44
0.0
 50
0.0
 51
0.0
 71
     0
 72
 20000
 73
     1
 74
     1
 75
     0
 76
     0
 77
     0
 78
     0
281
     1
 65
     1
110
0.0
120
0.0
130
0.0
111
1.0
121
0.0
131
0.0
112
0.0
122
1.0
132
0.0
 79
     0
146
0.0
348
72F9B
 60
     3
 61
     5
292
     1
282
     1
141
0.0
142
0.0
 63
   250
421
  3355443
  0
ENDTAB
  0
TABLE
  2
LTYPE
  5
458C4
330
0
100
AcDbSymbolTable
 70
     1
  0
LTYPE
  5
458D0
330
458C4
100
AcDbSymbolTableRecord
100
AcDbLinetypeTableRecord
  2
BYBLOCK
 70
     0
  3

 72
    65
 73
     0
 40
0.0
  0
LTYPE
  5
458D1
330
458C4
100
AcDbSymbolTableRecord
100
AcDbLinetypeTableRecord
  2
BYLAYER
 70
     0
  3

 72
    65
 73
     0
 40
0.0
  0
LTYPE
  5
458D2
330
458C4
100
AcDbSymbolTableRecord
100
AcDbLinetypeTableRecord
  2
CONTINUOUS
 70
     0
  3
Solid line
 72
    65
 73
     0
 40
0.0
  0
ENDTAB
  0
TABLE
  2
LAYER
  5
458C1
330
0
100
AcDbSymbolTable
 70
     8
  0
LAYER
  5
458CD
330
458C1
100
AcDbSymbolTableRecord
100
AcDbLayerTableRecord
  2
0
 70
     0
 62
     7
  6
CONTINUOUS
370
    -3
390
458FA
347
72F93
  0
LAYER
  5
458EA
330
458C1
100
AcDbSymbolTableRecord
100
AcDbLayerTableRecord
  2
DIMS-MTG-HOLES
 70
     0
 62
     1
  6
CONTINUOUS
370
    -3
390
458FA
347
72F93
  0
LAYER
  5
458EB
330
458C1
100
AcDbSymbolTableRecord
100
AcDbLayerTableRecord
  2
ATTRIBUTES
 70
     0
 62
     7
  6
CONTINUOUS
370
    -3
390
458FA
347
72F93
  0
LAYER
  5
4593B
330
458C1
100
AcDbSymbolTableRecord
100
AcDbLayerTableRecord
  2
AREA1
 70
     1
 62
     7
  6
CONTINUOUS
290
     0
370
    -3
390
458FA
347
72F93
  0
LAYER
  5
45940
330
458C1
100
AcDbSymbolTableRecord
100
AcDbLayerTableRecord
  2
Defpoints
 70
     1
 62
     7
  6
CONTINUOUS
290
     0
370
    -3
390
458FA
347
72F93
  0
LAYER
  5
45954
330
458C1
100
AcDbSymbolTableRecord
100
AcDbLayerTableRecord
  2
SCALE
 70
     1
 62
     7
  6
CONTINUOUS
370
    -3
390
458FA
347
72F93
  0
LAYER
  5
4D59A
330
458C1
100
AcDbSymbolTableRecord
100
AcDbLayerTableRecord
  2
SNAP_POINTS
 70
     1
 62
     1
  6
CONTINUOUS
370
    -3
390
458FA
347
72F93
  0
LAYER
  5
72FAE
102
{ACAD_XDICTIONARY
360
72FAF
102
}
330
458C1
100
AcDbSymbolTableRecord
100
AcDbLayerTableRecord
  2
WIRES
 70
     0
 62
     7
  6
CONTINUOUS
370
    -3
390
458FA
347
72F93
  0
ENDTAB
  0
TABLE
  2
STYLE
  5
458C2
330
0
100
AcDbSymbolTable
 70
     1
  0
STYLE
  5
458CE
330
458C2
100
AcDbSymbolTableRecord
100
AcDbTextStyleTableRecord
  2
STANDARD
 70
     0
 40
0.0
 41
1.0
 50
0.0
 71
     0
 42
0.12
  3
txt
  4

  0
ENDTAB
  0
TABLE
  2
VIEW
  5
458C5
330
0
100
AcDbSymbolTable
 70
     0
  0
ENDTAB
  0
TABLE
  2
UCS
  5
458C6
330
0
100
AcDbSymbolTable
 70
     0
  0
ENDTAB
  0
TABLE
  2
APPID
  5
458C8
330
0
100
AcDbSymbolTable
 70
     3
  0
APPID
  5
458CF
330
458C8
100
AcDbSymbolTableRecord
100
AcDbRegAppTableRecord
  2
ACAD
 70
     0
  0
APPID
  5
5FD5B
330
458C8
100
AcDbSymbolTableRecord
100
AcDbRegAppTableRecord
  2
AVE_RENDER
 70
     0
  0
APPID
  5
72FB3
330
458C8
100
AcDbSymbolTableRecord
100
AcDbRegAppTableRecord
  2
DCO15
 70
     0
  0
ENDTAB
  0
TABLE
  2
DIMSTYLE
  5
458C9
330
0
100
AcDbSymbolTable
 70
     1
100
AcDbDimStyleTable
 71
     0
  0
DIMSTYLE
105
458F6
102
{ACAD_REACTORS
330
72EBD
330
72ECB
102
}
330
458C9
100
AcDbSymbolTableRecord
100
AcDbDimStyleTableRecord
  2
ABECAD_3D
 70
     0
 41
0.125
 43
0.375
 44
0.1
 73
     0
 78
     4
140
0.125
146
1.5
170
     1
271
     6
272
     6
276
     2
277
     5
279
     2
284
     4
285
     4
286
     4
288
     1
289
     2
340
458CE
  0
ENDTAB
  0
TABLE
  2
BLOCK_RECORD
  5
458C0
330
0
100
AcDbSymbolTable
 70
     2
  0
BLOCK_RECORD
  5
458D6
102
{ACAD_XDICTIONARY
360
4592C
102
}
330
458C0
100
AcDbSymbolTableRecord
100
AcDbBlockTableRecord
  2
*MODEL_SPACE
340
458FD
 70
     0
280
     1
281
     0
  0
BLOCK_RECORD
  5
458D3
102
{ACAD_XDICTIONARY
360
4592A
102
}
330
458C0
100
AcDbSymbolTableRecord
100
AcDbBlockTableRecord
  2
*PAPER_SPACE
340
458FE
 70
     0
280
     1
281
     0
  0
BLOCK_RECORD
  5
72EBE
330
458C0
100
AcDbSymbolTableRecord
100
AcDbBlockTableRecord
  2
*D0
340
0
 70
     0
280
     1
281
     0
  0
BLOCK_RECORD
  5
72ECC
330
458C0
100
AcDbSymbolTableRecord
100
AcDbBlockTableRecord
  2
*D1
340
0
 70
     0
280
     1
281
     0
  0
ENDTAB
  0
ENDSEC
  0
SECTION
  2
BLOCKS
  0
BLOCK
  5
458DF
330
458D6
100
AcDbEntity
  8
0
100
AcDbBlockBegin
  2
*MODEL_SPACE
 70
     0
 10
0.0
 20
0.0
 30
0.0
  3
*MODEL_SPACE
  1

  0
ENDBLK
  5
458E0
330
458D6
100
AcDbEntity
  8
0
100
AcDbBlockEnd
  0
BLOCK
  5
458DD
330
458D3
100
AcDbEntity
 67
     1
  8
0
100
AcDbBlockBegin
  2
*PAPER_SPACE
 70
     0
 10
0.0
 20
0.0
 30
0.0
  3
*PAPER_SPACE
  1

  0
ENDBLK
  5
458DE
330
458D3
100
AcDbEntity
 67
     1
  8
0
100
AcDbBlockEnd
  0
BLOCK
  5
72EC9
330
72EBE
100
AcDbEntity
  8
0
100
AcDbBlockBegin
  2
*D0
 70
     1
 10
0.0
 20
0.0
 30
0.0
  3
*D0
  1

  0
LINE
  5
72EBF
330
72EBE
100
AcDbEntity
  8
AREA1
 62
     0
370
    -2
100
AcDbLine
 10
0.8119999999999993
 20
0.654
 30
0.0
 11
-0.674686320787417
 21
0.6540000000000004
 31
0.0
  0
LINE
  5
72EC0
330
72EBE
100
AcDbEntity
  8
AREA1
 62
     0
370
    -2
100
AcDbLine
 10
0.4449999999999993
 20
-2.526
 30
0.0
 11
-0.6746863207874176
 21
-2.526
 31
0.0
  0
LINE
  5
72EC1
330
72EBE
100
AcDbEntity
  8
AREA1
 62
     0
370
    -2
100
AcDbLine
 10
-0.574686320787417
 20
0.5290000000000004
 30
0.0
 11
-0.5746863207874171
 21
-0.0928911351633741
 31
0.0
  0
LINE
  5
72EC2
330
72EBE
100
AcDbEntity
  8
AREA1
 62
     0
370
    -2
100
AcDbLine
 10
-0.5746863207874177
 20
-2.401
 30
0.0
 11
-0.5746863207874176
 21
-1.75205780183004
 31
0.0
  0
MTEXT
  5
72EC3
330
72EBE
100
AcDbEntity
  8
AREA1
 62
     0
100
AcDbMText
 10
-0.5746863207874174
 20
-0.9224744684967074
 30
0.0
 40
0.125
 41
0.0
 46
0.0
 71
     5
 72
     1
  1
\A1;3 3/16 [80.77]
 11
0.0000000000000001
 21
1.0
 31
0.0
 73
     1
 44
1.0
  0
SOLID
  5
72EC4
330
72EBE
100
AcDbEntity
  8
AREA1
 62
     0
100
AcDbTrace
 10
-0.5955196541207504
 20
0.5290000000000004
 30
0.0
 11
-0.5538529874540837
 21
0.5290000000000004
 31
0.0
 12
-0.574686320787417
 22
0.6540000000000004
 32
0.0
 13
-0.574686320787417
 23
0.6540000000000004
 33
0.0
  0
SOLID
  5
72EC5
330
72EBE
100
AcDbEntity
  8
AREA1
 62
     0
100
AcDbTrace
 10
-0.595519654120751
 20
-2.401
 30
0.0
 11
-0.5538529874540843
 21
-2.401
 31
0.0
 12
-0.5746863207874177
 22
-2.526
 32
0.0
 13
-0.5746863207874177
 23
-2.526
 33
0.0
  0
POINT
  5
72EC6
330
72EBE
100
AcDbEntity
  8
Defpoints
 62
     0
100
AcDbPoint
 10
0.8744999999999993
 20
0.654
 30
2.9655
  0
POINT
  5
72EC7
330
72EBE
100
AcDbEntity
  8
Defpoints
 62
     0
100
AcDbPoint
 10
0.5074999999999993
 20
-2.526
 30
2.9655
  0
POINT
  5
72EC8
330
72EBE
100
AcDbEntity
  8
Defpoints
 62
     0
100
AcDbPoint
 10
-0.5746863207874177
 20
-2.526
 30
0.0
  0
ENDBLK
  5
72ECA
330
72EBE
100
AcDbEntity
  8
0
100
AcDbBlockEnd
  0
BLOCK
  5
72ED7
330
72ECC
100
AcDbEntity
  8
0
100
AcDbBlockBegin
  2
*D1
 70
     1
 10
0.0
 20
0.0
 30
0.0
  3
*D1
  1

  0
LINE
  5
72ECD
330
72ECC
100
AcDbEntity
  8
AREA1
 62
     0
370
    -2
100
AcDbLine
 10
-0.0000000000000009
 20
0.5774999999999997
 30
0.0
 11
-0.0000000000000009
 21
1.102265421042018
 31
0.0
  0
LINE
  5
72ECE
330
72ECC
100
AcDbEntity
  8
AREA1
 62
     0
370
    -2
100
AcDbLine
 10
2.119999999999999
 20
0.5774999999999997
 30
0.0
 11
2.119999999999999
 21
1.102265421042018
 31
0.0
  0
LINE
  5
72ECF
330
72ECC
100
AcDbEntity
  8
AREA1
 62
     0
370
    -2
100
AcDbLine
 10
0.1249999999999991
 20
1.002265421042018
 30
0.0
 11
0.2608269228608475
 21
1.002265421042018
 31
0.0
  0
LINE
  5
72ED0
330
72ECC
100
AcDbEntity
  8
AREA1
 62
     0
370
    -2
100
AcDbLine
 10
1.994999999999999
 20
1.002265421042018
 30
0.0
 11
1.815826922860847
 21
1.002265421042018
 31
0.0
  0
MTEXT
  5
72ED1
330
72ECC
100
AcDbEntity
  8
AREA1
 62
     0
100
AcDbMText
 10
1.038326922860847
 20
1.002265421042018
 30
0.0
 40
0.125
 41
0.0
 46
0.0
 71
     5
 72
     1
  1
\A1;2 1/8 [53.85]
 73
     1
 44
1.0
  0
SOLID
  5
72ED2
330
72ECC
100
AcDbEntity
  8
AREA1
 62
     0
100
AcDbTrace
 10
0.1249999999999991
 20
1.023098754375351
 30
0.0
 11
0.1249999999999991
 21
0.9814320877086851
 31
0.0
 12
-0.0000000000000009
 22
1.002265421042018
 32
0.0
 13
-0.0000000000000009
 23
1.002265421042018
 33
0.0
  0
SOLID
  5
72ED3
330
72ECC
100
AcDbEntity
  8
AREA1
 62
     0
100
AcDbTrace
 10
1.994999999999999
 20
1.023098754375351
 30
0.0
 11
1.994999999999999
 21
0.9814320877086851
 31
0.0
 12
2.119999999999999
 22
1.002265421042018
 32
0.0
 13
2.119999999999999
 23
1.002265421042018
 33
0.0
  0
POINT
  5
72ED4
330
72ECC
100
AcDbEntity
  8
Defpoints
 62
     0
100
AcDbPoint
 10
-0.0000000000000009
 20
0.5149999999999997
 30
3.218499999999999
  0
POINT
  5
72ED5
330
72ECC
100
AcDbEntity
  8
Defpoints
 62
     0
100
AcDbPoint
 10
2.119999999999999
 20
0.5149999999999997
 30
3.218499999999999
  0
POINT
  5
72ED6
330
72ECC
100
AcDbEntity
  8
Defpoints
 62
     0
100
AcDbPoint
 10
2.119999999999999
 20
1.002265421042018
 30
0.0
  0
ENDBLK
  5
72ED8
330
72ECC
100
AcDbEntity
  8
0
100
AcDbBlockEnd
  0
ENDSEC
  0
SECTION
  2
ENTITIES
  0
ATTDEF
  5
72B63
330
458D6
100
AcDbEntity
  8
ATTRIBUTES
100
AcDbText
 10
0.0784846182650734
 20
-0.2461715662756023
 30
0.0000000000000002
 40
0.0805203758744914
  1
SPRECHER+SCHUH
100
AcDbAttributeDefinition
  3
MANUFACTURER NAME?
  2
AC_VND_LABEL
 70
     1
280
     0
  0
ATTDEF
  5
72B64
330
458D6
100
AcDbEntity
  8
ATTRIBUTES
100
AcDbText
 10
0.0784846182650734
 20
-0.4139223493474602
 30
0.0000000000000002
 40
0.0805203758744914
  1
CA7-43DU
100
AcDbAttributeDefinition
  3
CATALOG NUMBER?
  2
AC_PART_NO
 70
     1
280
     0
  0
ATTDEF
  5
72B65
330
458D6
100
AcDbEntity
  8
ATTRIBUTES
100
AcDbText
 10
0.0784846182650734
 20
-0.5816731324193163
 30
0.0000000000000002
 40
0.0805203758744914
  1
IEC DC CONTACTOR, 43A
100
AcDbAttributeDefinition
  3
PART DESCRIPTION?
  2
AC_DESCRIPTION
 70
     1
280
     0
  0
ATTDEF
  5
72B66
330
458D6
100
AcDbEntity
  8
ATTRIBUTES
100
AcDbText
 10
0.0784846182650734
 20
-0.7494239154911742
 30
0.0000000000000002
 40
0.0805203758744914
  1

100
AcDbAttributeDefinition
  3
DEVICE ID?
  2
DEVICE_ID
 70
     1
280
     0
  0
ATTDEF
  5
72B67
330
458D6
100
AcDbEntity
  8
ATTRIBUTES
100
AcDbText
 10
0.0784846182650734
 20
-0.9171746985630303
 30
0.0000000000000002
 40
0.0805203758744914
  1

100
AcDbAttributeDefinition
  3
CUSTOMER PART NUMBER?
  2
AC_CPART_NO
 70
     1
280
     0
  0
ATTDEF
  5
72B68
330
458D6
100
AcDbEntity
  8
ATTRIBUTES
100
AcDbText
 10
0.0784846182650734
 20
-1.084925481634888
 30
0.0000000000000002
 40
0.0805203758744914
  1

100
AcDbAttributeDefinition
  3
CUSTOMER NOTE?
  2
AC_NOTE
 70
     1
280
     0
  0
ATTDEF
  5
72B69
330
458D6
100
AcDbEntity
  8
ATTRIBUTES
100
AcDbText
 10
0.0784846182650734
 20
-1.252676264706745
 30
0.0000000000000002
 40
0.0805203758744914
  1

100
AcDbAttributeDefinition
  3
FASTENER DATA?
  2
FASTENER
 70
     1
280
     0
  0
ATTDEF
  5
72B6A
330
458D6
100
AcDbEntity
  8
ATTRIBUTES
100
AcDbText
 10
0.0784846182650734
 20
-1.420427047778603
 30
0.0000000000000002
 40
0.0805203758744914
  1
INCH
100
AcDbAttributeDefinition
  3
UNIT OF SCALE?
  2
AC_SCALE_UNIT
 70
     1
280
     0
  0
ATTDEF
  5
72B6B
330
458D6
100
AcDbEntity
  8
ATTRIBUTES
100
AcDbText
 10
0.0784846182650734
 20
-1.58817783085046
 30
0.0000000000000002
 40
0.0805203758744914
  1
0
100
AcDbAttributeDefinition
  3
VIEW CODE?
  2
AC_VIEW_CODE
 70
     1
280
     0
  0
CIRCLE
  5
72B6C
330
458D6
100
AcDbEntity
  8
0
100
AcDbCircle
 10
0.3713499999999978
 20
0.1807980402316449
 30
5.4375
 40
0.138
  0
POLYLINE
  5
72B6D
330
458D6
100
AcDbEntity
  8
0
100
AcDbPolygonMesh
 66
     1
 10
0.0
 20
0.0
 30
0.0
 70
    16
 71
     6
 72
     3
  0
VERTEX
  5
72B6E
330
72B6D
100
AcDbEntity
  8
0
100
AcDbVertex
100
AcDbPolygonMeshVertex
 10
1.4455
 20
-1.5045
 30
5.637499999999998
 70
    64
  0
VERTEX
  5
72B6F
330
72B6D
100
AcDbEntity
  8
0
100
AcDbVertex
100
AcDbPolygonMeshVertex
 10
1.4455
 20
-1.5045
 30
5.4375
 70
    64
  0
VERTEX
  5
72B70
330
72B6D
100
AcDbEntity
  8
0
100
AcDbVertex
100
AcDbPolygonMeshVertex
 10
1.4455
 20
-1.5045
 30
5.4375
 70
    64
  0
VERTEX
  5
72B71
330
72B6D
100
AcDbEntity
  8
0
100
AcDbVertex
100
AcDbPolygonMeshVertex
 10
0.6744999999999993
 20
-1.5045
 30
5.637499999999998
 70
    64
  0
VERTEX
  5
72B72
330
72B6D
100
AcDbEntity
  8
0
100
AcDbVertex
100
AcDbPolygonMeshVertex
 10
0.6744999999999993
 20
-1.5045
 30
5.4375
 70
    64
  0
VERTEX
  5
72B73
330
72B6D
100
AcDbEntity
  8
0
100
AcDbVertex
100
AcDbPolygonMeshVertex
 10
0.6744999999999993
 20
-1.5045
 30
5.4375
 70
    64
  0
VERTEX
  5
72B74
330
72B6D
100
AcDbEntity
  8
0
100
AcDbVertex
100
AcDbPolygonMeshVertex
 10
0.6744999999999993
 20
-1.2225
 30
5.637499999999998
 70
    64
  0
VERTEX
  5
72B75
330
72B6D
100
AcDbEntity
  8
0
100
AcDbVertex
100
AcDbPolygonMeshVertex
 10
0.6744999999999993
 20
-1.2225
 30
5.4375
 70
    64
  0
VERTEX
  5
72B76
330
72B6D
100
AcDbEntity
  8
0
100
AcDbVertex
100
AcDbPolygonMeshVertex
 10
0.6744999999999993
 20
-1.5045
 30
5.4375
 70
    64
  0
VERTEX
  5
72B77
330
72B6D
100
AcDbEntity
  8
0
100
AcDbVertex
100
AcDbPolygonMeshVertex
 10
1.4455
 20
-1.2225
 30
5.637499999999998
 70
    64
  0
VERTEX
  5
72B78
330
72B6D
100
AcDbEntity
  8
0
100
AcDbVertex
100
AcDbPolygonMeshVertex
 10
1.4455
 20
-1.2225
 30
5.4375
 70
    64
  0
VERTEX
  5
72B79
330
72B6D
100
AcDbEntity
  8
0
100
AcDbVertex
100
AcDbPolygonMeshVertex
 10
1.4455
 20
-1.5045
 30
5.4375
 70
    64
  0
VERTEX
  5
72B7A
330
72B6D
100
AcDbEntity
  8
0
100
AcDbVertex
100
AcDbPolygonMeshVertex
 10
1.4455
 20
-1.2225
 30
5.637499999999998
 70
    64
  0
VERTEX
  5
72B7B
330
72B6D
100
AcDbEntity
  8
0
100
AcDbVertex
100
AcDbPolygonMeshVertex
 10
1.4455
 20
-1.2225
 30
5.637499999999998
 70
    64
  0
VERTEX
  5
72B7C
330
72B6D
100
AcDbEntity
  8
0
100
AcDbVertex
100
AcDbPolygonMeshVertex
 10
1.4455
 20
-1.5045
 30
5.637499999999998
 70
    64
  0
VERTEX
  5
72B7D
330
72B6D
100
AcDbEntity
  8
0
100
AcDbVertex
100
AcDbPolygonMeshVertex
 10
0.6744999999999993
 20
-1.2225
 30
5.637499999999998
 70
    64
  0
VERTEX
  5
72B7E
330
72B6D
100
AcDbEntity
  8
0
100
AcDbVertex
100
AcDbPolygonMeshVertex
 10
0.6744999999999993
 20
-1.2225
 30
5.637499999999998
 70
    64
  0
VERTEX
  5
72B7F
330
72B6D
100
AcDbEntity
  8
0
100
AcDbVertex
100
AcDbPolygonMeshVertex
 10
0.6744999999999993
 20
-1.5045
 30
5.637499999999998
 70
    64
  0
SEQEND
  5
72B80
330
72B6D
100
AcDbEntity
  8
0
  0
LWPOLYLINE
  5
72B81
330
458D6
100
AcDbEntity
  8
0
100
AcDbPolyline
 90
        4
 70
     1
 43
0.0
 38
3.6395
 10
0.9265000000000004
 20
-2.141
 10
1.1935
 20
-2.141
 10
1.1935
 20
-2.29
 10
0.9265000000000004
 20
-2.29
  0
POLYLINE
  5
72B82
330
458D6
100
AcDbEntity
  8
0
100
AcDb3dPolyline
 66
     1
 10
0.0
 20
0.0
 30
0.0
 70
     8
  0
VERTEX
  5
72B83
330
72B82
100
AcDbEntity
  8
0
100
AcDbVertex
100
AcDb3dPolylineVertex
 10
2.12
 20
-1.472999999999999
 30
0.187
 70
    32
  0
VERTEX
  5
72B84
330
72B82
100
AcDbEntity
  8
0
100
AcDbVertex
100
AcDb3dPolylineVertex
 10
2.12
 20
-1.472999999999999
 30
1.056999999999999
 70
    32
  0
VERTEX
  5
72B85
330
72B82
100
AcDbEntity
  8
0
100
AcDbVertex
100
AcDb3dPolylineVertex
 10
2.12
 20
-1.628
 30
1.056999999999999
 70
    32
  0
VERTEX
  5
72B86
330
72B82
100
AcDbEntity
  8
0
100
AcDbVertex
100
AcDb3dPolylineVertex
 10
2.12
 20
-1.628
 30
0.187
 70
    32
  0
SEQEND
  5
72B87
330
72B82
100
AcDbEntity
  8
0
  0
POLYLINE
  5
72B88
330
458D6
100
AcDbEntity
  8
0
100
AcDb3dPolyline
 66
     1
 10
0.0
 20
0.0
 30
0.0
 70
     8
  0
VERTEX
  5
72B89
330
72B88
100
AcDbEntity
  8
0
100
AcDbVertex
100
AcDb3dPolylineVertex
 10
2.12
 20
-0.0940000000000003
 30
0.187
 70
    32
  0
VERTEX
  5
72B8A
330
72B88
100
AcDbEntity
  8
0
100
AcDbVertex
100
AcDb3dPolylineVertex
 10
2.12
 20
-0.0940000000000003
 30
1.056999999999999
 70
    32
  0
VERTEX
  5
72B8B
330
72B88
100
AcDbEntity
  8
0
100
AcDbVertex
100
AcDb3dPolylineVertex
 10
2.12
 20
-0.2490000000000005
 30
1.056999999999999
 70
    32
  0
VERTEX
  5
72B8C
330
72B88
100
AcDbEntity
  8
0
100
AcDbVertex
100
AcDb3dPolylineVertex
 10
2.12
 20
-0.2490000000000005
 30
0.187
 70
    32
  0
SEQEND
  5
72B8D
330
72B88
100
AcDbEntity
  8
0
  0
POLYLINE
  5
72B8E
330
458D6
100
AcDbEntity
  8
0
100
AcDb3dPolyline
 66
     1
 10
0.0
 20
0.0
 30
0.0
 70
     8
  0
VERTEX
  5
72B8F
330
72B8E
100
AcDbEntity
  8
0
100
AcDbVertex
100
AcDb3dPolylineVertex
 10
0.0
 20
-0.0940000000000003
 30
0.1870000000000001
 70
    32
  0
VERTEX
  5
72B90
330
72B8E
100
AcDbEntity
  8
0
100
AcDbVertex
100
AcDb3dPolylineVertex
 10
0.0
 20
-0.0940000000000003
 30
1.056999999999999
 70
    32
  0
VERTEX
  5
72B91
330
72B8E
100
AcDbEntity
  8
0
100
AcDbVertex
100
AcDb3dPolylineVertex
 10
0.0
 20
-0.2490000000000005
 30
1.056999999999999
 70
    32
  0
VERTEX
  5
72B92
330
72B8E
100
AcDbEntity
  8
0
100
AcDbVertex
100
AcDb3dPolylineVertex
 10
0.0
 20
-0.2490000000000005
 30
0.1870000000000001
 70
    32
  0
SEQEND
  5
72B93
330
72B8E
100
AcDbEntity
  8
0
  0
POLYLINE
  5
72B94
330
458D6
100
AcDbEntity
  8
0
100
AcDb3dPolyline
 66
     1
 10
0.0
 20
0.0
 30
0.0
 70
     8
  0
VERTEX
  5
72B95
330
72B94
100
AcDbEntity
  8
0
100
AcDbVertex
100
AcDb3dPolylineVertex
 10
0.0
 20
-1.472999999999999
 30
0.1870000000000001
 70
    32
  0
VERTEX
  5
72B96
330
72B94
100
AcDbEntity
  8
0
100
AcDbVertex
100
AcDb3dPolylineVertex
 10
0.0
 20
-1.472999999999999
 30
1.056999999999999
 70
    32
  0
VERTEX
  5
72B97
330
72B94
100
AcDbEntity
  8
0
100
AcDbVertex
100
AcDb3dPolylineVertex
 10
0.0
 20
-1.628
 30
1.056999999999999
 70
    32
  0
VERTEX
  5
72B98
330
72B94
100
AcDbEntity
  8
0
100
AcDbVertex
100
AcDb3dPolylineVertex
 10
0.0
 20
-1.628
 30
0.1870000000000001
 70
    32
  0
SEQEND
  5
72B99
330
72B94
100
AcDbEntity
  8
0
  0
CIRCLE
  5
72B9A
330
458D6
100
AcDbEntity
  8
0
100
AcDbCircle
 10
1.944999999999999
 20
0.3369999999999995
 30
0.3160000000000003
 40
0.086
  0
POLYLINE
  5
72B9B
330
458D6
100
AcDbEntity
  8
0
100
AcDb3dPolyline
 66
     1
 10
0.0
 20
0.0
 30
0.0
 70
     8
  0
VERTEX
  5
72B9C
330
72B9B
100
AcDbEntity
  8
0
100
AcDbVertex
100
AcDb3dPolylineVertex
 10
0.7063333333333325
 20
0.4009999999999998
 30
1.764499999999999
 70
    32
  0
VERTEX
  5
72B9D
330
72B9B
100
AcDbEntity
  8
0
100
AcDbVertex
100
AcDb3dPolylineVertex
 10
0.7063333333333325
 20
0.5359999999999995
 30
1.764499999999999
 70
    32
  0
VERTEX
  5
72B9E
330
72B9B
100
AcDbEntity
  8
0
100
AcDbVertex
100
AcDb3dPolylineVertex
 10
0.4956666666666659
 20
0.5359999999999995
 30
1.764499999999999
 70
    32
  0
VERTEX
  5
72B9F
330
72B9B
100
AcDbEntity
  8
0
100
AcDbVertex
100
AcDb3dPolylineVertex
 10
0.4956666666666659
 20
0.4009999999999998
 30
1.764499999999999
 70
    32
  0
SEQEND
  5
72BA0
330
72B9B
100
AcDbEntity
  8
0
  0
POLYLINE
  5
72BA1
330
458D6
100
AcDbEntity
  8
0
100
AcDb3dPolyline
 66
     1
 10
0.0
 20
0.0
 30
0.0
 70
     8
  0
VERTEX
  5
72BA2
330
72BA1
100
AcDbEntity
  8
0
100
AcDbVertex
100
AcDb3dPolylineVertex
 10
0.4336666666666666
 20
0.4009999999999998
 30
1.764499999999999
 70
    32
  0
VERTEX
  5
72BA3
330
72BA1
100
AcDbEntity
  8
0
100
AcDbVertex
100
AcDb3dPolylineVertex
 10
0.4336666666666666
 20
0.5359999999999995
 30
1.764499999999999
 70
    32
  0
VERTEX
  5
72BA4
330
72BA1
100
AcDbEntity
  8
0
100
AcDbVertex
100
AcDb3dPolylineVertex
 10
0.2230000000000004
 20
0.5359999999999995
 30
1.764499999999999
 70
    32
  0
VERTEX
  5
72BA5
330
72BA1
100
AcDbEntity
  8
0
100
AcDbVertex
100
AcDb3dPolylineVertex
 10
0.2230000000000004
 20
0.4009999999999998
 30
1.764499999999999
 70
    32
  0
SEQEND
  5
72BA6
330
72BA1
100
AcDbEntity
  8
0
  0
POLYLINE
  5
72BA7
330
458D6
100
AcDbEntity
  8
0
100
AcDb3dPolyline
 66
     1
 10
0.0
 20
0.0
 30
0.0
 70
     8
  0
VERTEX
  5
72BA8
330
72BA7
100
AcDbEntity
  8
0
100
AcDbVertex
100
AcDb3dPolylineVertex
 10
0.9789999999999984
 20
0.4009999999999998
 30
1.764499999999999
 70
    32
  0
VERTEX
  5
72BA9
330
72BA7
100
AcDbEntity
  8
0
100
AcDbVertex
100
AcDb3dPolylineVertex
 10
0.9789999999999984
 20
0.5359999999999995
 30
1.764499999999999
 70
    32
  0
VERTEX
  5
72BAA
330
72BA7
100
AcDbEntity
  8
0
100
AcDbVertex
100
AcDb3dPolylineVertex
 10
0.7683333333333319
 20
0.5359999999999995
 30
1.764499999999999
 70
    32
  0
VERTEX
  5
72BAB
330
72BA7
100
AcDbEntity
  8
0
100
AcDbVertex
100
AcDb3dPolylineVertex
 10
0.7683333333333319
 20
0.4009999999999998
 30
1.764499999999999
 70
    32
  0
SEQEND
  5
72BAC
330
72BA7
100
AcDbEntity
  8
0
  0
POLYLINE
  5
72BAD
330
458D6
100
AcDbEntity
  8
0
100
AcDbPolygonMesh
 66
     1
 10
0.0
 20
0.0
 30
0.0
 70
    16
 71
     6
 72
     3
  0
VERTEX
  5
72BAE
330
72BAD
100
AcDbEntity
  8
0
100
AcDbVertex
100
AcDbPolygonMeshVertex
 10
0.8639999999999989
 20
-0.5675000000000004
 30
5.648499999999999
 70
    64
  0
VERTEX
  5
72BAF
330
72BAD
100
AcDbEntity
  8
0
100
AcDbVertex
100
AcDbPolygonMeshVertex
 10
0.8639999999999989
 20
-0.5675000000000004
 30
5.471499999999998
 70
    64
  0
VERTEX
  5
72BB0
330
72BAD
100
AcDbEntity
  8
0
100
AcDbVertex
100
AcDbPolygonMeshVertex
 10
0.8639999999999989
 20
-0.5675000000000004
 30
5.471499999999998
 70
    64
  0
VERTEX
  5
72BB1
330
72BAD
100
AcDbEntity
  8
0
100
AcDbVertex
100
AcDbPolygonMeshVertex
 10
0.6944999999999988
 20
-0.5675000000000004
 30
5.648499999999999
 70
    64
  0
VERTEX
  5
72BB2
330
72BAD
100
AcDbEntity
  8
0
100
AcDbVertex
100
AcDbPolygonMeshVertex
 10
0.6944999999999988
 20
-0.5675000000000004
 30
5.471499999999998
 70
    64
  0
VERTEX
  5
72BB3
330
72BAD
100
AcDbEntity
  8
0
100
AcDbVertex
100
AcDbPolygonMeshVertex
 10
0.6944999999999988
 20
-0.5675000000000004
 30
5.471499999999998
 70
    64
  0
VERTEX
  5
72BB4
330
72BAD
100
AcDbEntity
  8
0
100
AcDbVertex
100
AcDbPolygonMeshVertex
 10
0.6944999999999988
 20
-0.2145000000000006
 30
5.648499999999999
 70
    64
  0
VERTEX
  5
72BB5
330
72BAD
100
AcDbEntity
  8
0
100
AcDbVertex
100
AcDbPolygonMeshVertex
 10
0.6944999999999988
 20
-0.2145000000000006
 30
5.471499999999998
 70
    64
  0
VERTEX
  5
72BB6
330
72BAD
100
AcDbEntity
  8
0
100
AcDbVertex
100
AcDbPolygonMeshVertex
 10
0.6944999999999988
 20
-0.5675000000000004
 30
5.471499999999998
 70
    64
  0
VERTEX
  5
72BB7
330
72BAD
100
AcDbEntity
  8
0
100
AcDbVertex
100
AcDbPolygonMeshVertex
 10
0.8639999999999989
 20
-0.2145000000000006
 30
5.648499999999999
 70
    64
  0
VERTEX
  5
72BB8
330
72BAD
100
AcDbEntity
  8
0
100
AcDbVertex
100
AcDbPolygonMeshVertex
 10
0.8639999999999989
 20
-0.2145000000000006
 30
5.471499999999998
 70
    64
  0
VERTEX
  5
72BB9
330
72BAD
100
AcDbEntity
  8
0
100
AcDbVertex
100
AcDbPolygonMeshVertex
 10
0.8639999999999989
 20
-0.5675000000000004
 30
5.471499999999998
 70
    64
  0
VERTEX
  5
72BBA
330
72BAD
100
AcDbEntity
  8
0
100
AcDbVertex
100
AcDbPolygonMeshVertex
 10
0.8639999999999989
 20
-0.2145000000000006
 30
5.648499999999999
 70
    64
  0
VERTEX
  5
72BBB
330
72BAD
100
AcDbEntity
  8
0
100
AcDbVertex
100
AcDbPolygonMeshVertex
 10
0.8639999999999989
 20
-0.2145000000000006
 30
5.648499999999999
 70
    64
  0
VERTEX
  5
72BBC
330
72BAD
100
AcDbEntity
  8
0
100
AcDbVertex
100
AcDbPolygonMeshVertex
 10
0.8639999999999989
 20
-0.5675000000000004
 30
5.648499999999999
 70
    64
  0
VERTEX
  5
72BBD
330
72BAD
100
AcDbEntity
  8
0
100
AcDbVertex
100
AcDbPolygonMeshVertex
 10
0.6944999999999988
 20
-0.2145000000000006
 30
5.648499999999999
 70
    64
  0
VERTEX
  5
72BBE
330
72BAD
100
AcDbEntity
  8
0
100
AcDbVertex
100
AcDbPolygonMeshVertex
 10
0.6944999999999988
 20
-0.2145000000000006
 30
5.648499999999999
 70
    64
  0
VERTEX
  5
72BBF
330
72BAD
100
AcDbEntity
  8
0
100
AcDbVertex
100
AcDbPolygonMeshVertex
 10
0.6944999999999988
 20
-0.5675000000000004
 30
5.648499999999999
 70
    64
  0
SEQEND
  5
72BC0
330
72BAD
100
AcDbEntity
  8
0
  0
POLYLINE
  5
72BC1
330
458D6
100
AcDbEntity
  8
0
100
AcDbPolygonMesh
 66
     1
 10
0.0
 20
0.0
 30
0.0
 70
    16
 71
     6
 72
     3
  0
VERTEX
  5
72BC2
330
72BC1
100
AcDbEntity
  8
0
100
AcDbVertex
100
AcDbPolygonMeshVertex
 10
1.425499999999998
 20
-0.5675000000000004
 30
5.471499999999998
 70
    64
  0
VERTEX
  5
72BC3
330
72BC1
100
AcDbEntity
  8
0
100
AcDbVertex
100
AcDbPolygonMeshVertex
 10
1.425499999999998
 20
-0.5675000000000004
 30
5.4375
 70
    64
  0
VERTEX
  5
72BC4
330
72BC1
100
AcDbEntity
  8
0
100
AcDbVertex
100
AcDbPolygonMeshVertex
 10
1.425499999999998
 20
-0.5675000000000004
 30
5.4375
 70
    64
  0
VERTEX
  5
72BC5
330
72BC1
100
AcDbEntity
  8
0
100
AcDbVertex
100
AcDbPolygonMeshVertex
 10
0.6944999999999988
 20
-0.5675000000000004
 30
5.471499999999998
 70
    64
  0
VERTEX
  5
72BC6
330
72BC1
100
AcDbEntity
  8
0
100
AcDbVertex
100
AcDbPolygonMeshVertex
 10
0.6944999999999988
 20
-0.5675000000000004
 30
5.4375
 70
    64
  0
VERTEX
  5
72BC7
330
72BC1
100
AcDbEntity
  8
0
100
AcDbVertex
100
AcDbPolygonMeshVertex
 10
0.6944999999999988
 20
-0.5675000000000004
 30
5.4375
 70
    64
  0
VERTEX
  5
72BC8
330
72BC1
100
AcDbEntity
  8
0
100
AcDbVertex
100
AcDbPolygonMeshVertex
 10
0.6944999999999988
 20
-0.2145000000000006
 30
5.471499999999998
 70
    64
  0
VERTEX
  5
72BC9
330
72BC1
100
AcDbEntity
  8
0
100
AcDbVertex
100
AcDbPolygonMeshVertex
 10
0.6944999999999988
 20
-0.2145000000000006
 30
5.4375
 70
    64
  0
VERTEX
  5
72BCA
330
72BC1
100
AcDbEntity
  8
0
100
AcDbVertex
100
AcDbPolygonMeshVertex
 10
0.6944999999999988
 20
-0.5675000000000004
 30
5.4375
 70
    64
  0
VERTEX
  5
72BCB
330
72BC1
100
AcDbEntity
  8
0
100
AcDbVertex
100
AcDbPolygonMeshVertex
 10
1.425499999999998
 20
-0.2145000000000006
 30
5.471499999999998
 70
    64
  0
VERTEX
  5
72BCC
330
72BC1
100
AcDbEntity
  8
0
100
AcDbVertex
100
AcDbPolygonMeshVertex
 10
1.425499999999998
 20
-0.2145000000000006
 30
5.4375
 70
    64
  0
VERTEX
  5
72BCD
330
72BC1
100
AcDbEntity
  8
0
100
AcDbVertex
100
AcDbPolygonMeshVertex
 10
1.425499999999998
 20
-0.5675000000000004
 30
5.4375
 70
    64
  0
VERTEX
  5
72BCE
330
72BC1
100
AcDbEntity
  8
0
100
AcDbVertex
100
AcDbPolygonMeshVertex
 10
1.425499999999998
 20
-0.2145000000000006
 30
5.471499999999998
 70
    64
  0
VERTEX
  5
72BCF
330
72BC1
100
AcDbEntity
  8
0
100
AcDbVertex
100
AcDbPolygonMeshVertex
 10
1.425499999999998
 20
-0.2145000000000006
 30
5.471499999999998
 70
    64
  0
VERTEX
  5
72BD0
330
72BC1
100
AcDbEntity
  8
0
100
AcDbVertex
100
AcDbPolygonMeshVertex
 10
1.425499999999998
 20
-0.5675000000000004
 30
5.471499999999998
 70
    64
  0
VERTEX
  5
72BD1
330
72BC1
100
AcDbEntity
  8
0
100
AcDbVertex
100
AcDbPolygonMeshVertex
 10
0.6944999999999988
 20
-0.2145000000000006
 30
5.471499999999998
 70
    64
  0
VERTEX
  5
72BD2
330
72BC1
100
AcDbEntity
  8
0
100
AcDbVertex
100
AcDbPolygonMeshVertex
 10
0.6944999999999988
 20
-0.2145000000000006
 30
5.471499999999998
 70
    64
  0
VERTEX
  5
72BD3
330
72BC1
100
AcDbEntity
  8
0
100
AcDbVertex
100
AcDbPolygonMeshVertex
 10
0.6944999999999988
 20
-0.5675000000000004
 30
5.471499999999998
 70
    64
  0
SEQEND
  5
72BD4
330
72BC1
100
AcDbEntity
  8
0
  0
POLYLINE
  5
72BD5
330
458D6
100
AcDbEntity
  8
0
100
AcDbPolygonMesh
 66
     1
 10
0.0
 20
0.0
 30
0.0
 70
    16
 71
     6
 72
     3
  0
VERTEX
  5
72BD6
330
72BD5
100
AcDbEntity
  8
0
100
AcDbVertex
100
AcDbPolygonMeshVertex
 10
1.425499999999998
 20
-0.5675000000000004
 30
5.648499999999999
 70
    64
  0
VERTEX
  5
72BD7
330
72BD5
100
AcDbEntity
  8
0
100
AcDbVertex
100
AcDbPolygonMeshVertex
 10
1.425499999999998
 20
-0.5675000000000004
 30
5.471499999999998
 70
    64
  0
VERTEX
  5
72BD8
330
72BD5
100
AcDbEntity
  8
0
100
AcDbVertex
100
AcDbPolygonMeshVertex
 10
1.425499999999998
 20
-0.5675000000000004
 30
5.471499999999998
 70
    64
  0
VERTEX
  5
72BD9
330
72BD5
100
AcDbEntity
  8
0
100
AcDbVertex
100
AcDbPolygonMeshVertex
 10
1.255999999999998
 20
-0.5675000000000004
 30
5.648499999999999
 70
    64
  0
VERTEX
  5
72BDA
330
72BD5
100
AcDbEntity
  8
0
100
AcDbVertex
100
AcDbPolygonMeshVertex
 10
1.255999999999998
 20
-0.5675000000000004
 30
5.471499999999998
 70
    64
  0
VERTEX
  5
72BDB
330
72BD5
100
AcDbEntity
  8
0
100
AcDbVertex
100
AcDbPolygonMeshVertex
 10
1.255999999999998
 20
-0.5675000000000004
 30
5.471499999999998
 70
    64
  0
VERTEX
  5
72BDC
330
72BD5
100
AcDbEntity
  8
0
100
AcDbVertex
100
AcDbPolygonMeshVertex
 10
1.255999999999998
 20
-0.2145000000000006
 30
5.648499999999999
 70
    64
  0
VERTEX
  5
72BDD
330
72BD5
100
AcDbEntity
  8
0
100
AcDbVertex
100
AcDbPolygonMeshVertex
 10
1.255999999999998
 20
-0.2145000000000006
 30
5.471499999999998
 70
    64
  0
VERTEX
  5
72BDE
330
72BD5
100
AcDbEntity
  8
0
100
AcDbVertex
100
AcDbPolygonMeshVertex
 10
1.255999999999998
 20
-0.5675000000000004
 30
5.471499999999998
 70
    64
  0
VERTEX
  5
72BDF
330
72BD5
100
AcDbEntity
  8
0
100
AcDbVertex
100
AcDbPolygonMeshVertex
 10
1.425499999999998
 20
-0.2145000000000006
 30
5.648499999999999
 70
    64
  0
VERTEX
  5
72BE0
330
72BD5
100
AcDbEntity
  8
0
100
AcDbVertex
100
AcDbPolygonMeshVertex
 10
1.425499999999998
 20
-0.2145000000000006
 30
5.471499999999998
 70
    64
  0
VERTEX
  5
72BE1
330
72BD5
100
AcDbEntity
  8
0
100
AcDbVertex
100
AcDbPolygonMeshVertex
 10
1.425499999999998
 20
-0.5675000000000004
 30
5.471499999999998
 70
    64
  0
VERTEX
  5
72BE2
330
72BD5
100
AcDbEntity
  8
0
100
AcDbVertex
100
AcDbPolygonMeshVertex
 10
1.425499999999998
 20
-0.2145000000000006
 30
5.648499999999999
 70
    64
  0
VERTEX
  5
72BE3
330
72BD5
100
AcDbEntity
  8
0
100
AcDbVertex
100
AcDbPolygonMeshVertex
 10
1.425499999999998
 20
-0.2145000000000006
 30
5.648499999999999
 70
    64
  0
VERTEX
  5
72BE4
330
72BD5
100
AcDbEntity
  8
0
100
AcDbVertex
100
AcDbPolygonMeshVertex
 10
1.425499999999998
 20
-0.5675000000000004
 30
5.648499999999999
 70
    64
  0
VERTEX
  5
72BE5
330
72BD5
100
AcDbEntity
  8
0
100
AcDbVertex
100
AcDbPolygonMeshVertex
 10
1.255999999999998
 20
-0.2145000000000006
 30
5.648499999999999
 70
    64
  0
VERTEX
  5
72BE6
330
72BD5
100
AcDbEntity
  8
0
100
AcDbVertex
100
AcDbPolygonMeshVertex
 10
1.255999999999998
 20
-0.2145000000000006
 30
5.648499999999999
 70
    64
  0
VERTEX
  5
72BE7
330
72BD5
100
AcDbEntity
  8
0
100
AcDbVertex
100
AcDbPolygonMeshVertex
 10
1.255999999999998
 20
-0.5675000000000004
 30
5.648499999999999
 70
    64
  0
SEQEND
  5
72BE8
330
72BD5
100
AcDbEntity
  8
0
  0
POLYLINE
  5
72BE9
330
458D6
100
AcDbEntity
  8
0
100
AcDbPolygonMesh
 66
     1
 10
0.0
 20
0.0
 30
0.0
 70
    16
 71
     6
 72
     3
  0
VERTEX
  5
72BEA
330
72BE9
100
AcDbEntity
  8
0
100
AcDbVertex
100
AcDbPolygonMeshVertex
 10
0.9574999999999986
 20
-1.022499999999999
 30
5.687499999999999
 70
    64
  0
VERTEX
  5
72BEB
330
72BE9
100
AcDbEntity
  8
0
100
AcDbVertex
100
AcDbPolygonMeshVertex
 10
0.9574999999999986
 20
-1.022499999999999
 30
5.4715
 70
    64
  0
VERTEX
  5
72BEC
330
72BE9
100
AcDbEntity
  8
0
100
AcDbVertex
100
AcDbPolygonMeshVertex
 10
0.9574999999999986
 20
-1.022499999999999
 30
5.4715
 70
    64
  0
VERTEX
  5
72BED
330
72BE9
100
AcDbEntity
  8
0
100
AcDbVertex
100
AcDbPolygonMeshVertex
 10
0.8224999999999988
 20
-1.022499999999999
 30
5.687499999999999
 70
    64
  0
VERTEX
  5
72BEE
330
72BE9
100
AcDbEntity
  8
0
100
AcDbVertex
100
AcDbPolygonMeshVertex
 10
0.8224999999999988
 20
-1.022499999999999
 30
5.4715
 70
    64
  0
VERTEX
  5
72BEF
330
72BE9
100
AcDbEntity
  8
0
100
AcDbVertex
100
AcDbPolygonMeshVertex
 10
0.8224999999999988
 20
-1.022499999999999
 30
5.4715
 70
    64
  0
VERTEX
  5
72BF0
330
72BE9
100
AcDbEntity
  8
0
100
AcDbVertex
100
AcDbPolygonMeshVertex
 10
0.8224999999999988
 20
-0.6774999999999998
 30
5.687499999999999
 70
    64
  0
VERTEX
  5
72BF1
330
72BE9
100
AcDbEntity
  8
0
100
AcDbVertex
100
AcDbPolygonMeshVertex
 10
0.8224999999999988
 20
-0.6774999999999998
 30
5.4715
 70
    64
  0
VERTEX
  5
72BF2
330
72BE9
100
AcDbEntity
  8
0
100
AcDbVertex
100
AcDbPolygonMeshVertex
 10
0.8224999999999988
 20
-1.022499999999999
 30
5.4715
 70
    64
  0
VERTEX
  5
72BF3
330
72BE9
100
AcDbEntity
  8
0
100
AcDbVertex
100
AcDbPolygonMeshVertex
 10
0.9574999999999986
 20
-0.6774999999999998
 30
5.687499999999999
 70
    64
  0
VERTEX
  5
72BF4
330
72BE9
100
AcDbEntity
  8
0
100
AcDbVertex
100
AcDbPolygonMeshVertex
 10
0.9574999999999986
 20
-0.6774999999999998
 30
5.4715
 70
    64
  0
VERTEX
  5
72BF5
330
72BE9
100
AcDbEntity
  8
0
100
AcDbVertex
100
AcDbPolygonMeshVertex
 10
0.9574999999999986
 20
-1.022499999999999
 30
5.4715
 70
    64
  0
VERTEX
  5
72BF6
330
72BE9
100
AcDbEntity
  8
0
100
AcDbVertex
100
AcDbPolygonMeshVertex
 10
0.9574999999999986
 20
-0.6774999999999998
 30
5.687499999999999
 70
    64
  0
VERTEX
  5
72BF7
330
72BE9
100
AcDbEntity
  8
0
100
AcDbVertex
100
AcDbPolygonMeshVertex
 10
0.9574999999999986
 20
-0.6774999999999998
 30
5.687499999999999
 70
    64
  0
VERTEX
  5
72BF8
330
72BE9
100
AcDbEntity
  8
0
100
AcDbVertex
100
AcDbPolygonMeshVertex
 10
0.9574999999999986
 20
-1.022499999999999
 30
5.687499999999999
 70
    64
  0
VERTEX
  5
72BF9
330
72BE9
100
AcDbEntity
  8
0
100
AcDbVertex
100
AcDbPolygonMeshVertex
 10
0.8224999999999988
 20
-0.6774999999999998
 30
5.687499999999999
 70
    64
  0
VERTEX
  5
72BFA
330
72BE9
100
AcDbEntity
  8
0
100
AcDbVertex
100
AcDbPolygonMeshVertex
 10
0.8224999999999988
 20
-0.6774999999999998
 30
5.687499999999999
 70
    64
  0
VERTEX
  5
72BFB
330
72BE9
100
AcDbEntity
  8
0
100
AcDbVertex
100
AcDbPolygonMeshVertex
 10
0.8224999999999988
 20
-1.022499999999999
 30
5.687499999999999
 70
    64
  0
SEQEND
  5
72BFC
330
72BE9
100
AcDbEntity
  8
0
  0
POLYLINE
  5
72BFD
330
458D6
100
AcDbEntity
  8
0
100
AcDbPolygonMesh
 66
     1
 10
0.0
 20
0.0
 30
0.0
 70
    16
 71
     6
 72
     3
  0
VERTEX
  5
72BFE
330
72BFD
100
AcDbEntity
  8
0
100
AcDbVertex
100
AcDbPolygonMeshVertex
 10
1.297499999999998
 20
-1.022499999999999
 30
5.4715
 70
    64
  0
VERTEX
  5
72BFF
330
72BFD
100
AcDbEntity
  8
0
100
AcDbVertex
100
AcDbPolygonMeshVertex
 10
1.297499999999998
 20
-1.022499999999999
 30
5.4375
 70
    64
  0
VERTEX
  5
72C00
330
72BFD
100
AcDbEntity
  8
0
100
AcDbVertex
100
AcDbPolygonMeshVertex
 10
1.297499999999998
 20
-1.022499999999999
 30
5.4375
 70
    64
  0
VERTEX
  5
72C01
330
72BFD
100
AcDbEntity
  8
0
100
AcDbVertex
100
AcDbPolygonMeshVertex
 10
0.8224999999999988
 20
-1.022499999999999
 30
5.4715
 70
    64
  0
VERTEX
  5
72C02
330
72BFD
100
AcDbEntity
  8
0
100
AcDbVertex
100
AcDbPolygonMeshVertex
 10
0.8224999999999988
 20
-1.022499999999999
 30
5.4375
 70
    64
  0
VERTEX
  5
72C03
330
72BFD
100
AcDbEntity
  8
0
100
AcDbVertex
100
AcDbPolygonMeshVertex
 10
0.8224999999999988
 20
-1.022499999999999
 30
5.4375
 70
    64
  0
VERTEX
  5
72C04
330
72BFD
100
AcDbEntity
  8
0
100
AcDbVertex
100
AcDbPolygonMeshVertex
 10
0.8224999999999988
 20
-0.6774999999999998
 30
5.4715
 70
    64
  0
VERTEX
  5
72C05
330
72BFD
100
AcDbEntity
  8
0
100
AcDbVertex
100
AcDbPolygonMeshVertex
 10
0.8224999999999988
 20
-0.6774999999999998
 30
5.4375
 70
    64
  0
VERTEX
  5
72C06
330
72BFD
100
AcDbEntity
  8
0
100
AcDbVertex
100
AcDbPolygonMeshVertex
 10
0.8224999999999988
 20
-1.022499999999999
 30
5.4375
 70
    64
  0
VERTEX
  5
72C07
330
72BFD
100
AcDbEntity
  8
0
100
AcDbVertex
100
AcDbPolygonMeshVertex
 10
1.297499999999998
 20
-0.6774999999999998
 30
5.4715
 70
    64
  0
VERTEX
  5
72C08
330
72BFD
100
AcDbEntity
  8
0
100
AcDbVertex
100
AcDbPolygonMeshVertex
 10
1.297499999999998
 20
-0.6774999999999998
 30
5.4375
 70
    64
  0
VERTEX
  5
72C09
330
72BFD
100
AcDbEntity
  8
0
100
AcDbVertex
100
AcDbPolygonMeshVertex
 10
1.297499999999998
 20
-1.022499999999999
 30
5.4375
 70
    64
  0
VERTEX
  5
72C0A
330
72BFD
100
AcDbEntity
  8
0
100
AcDbVertex
100
AcDbPolygonMeshVertex
 10
1.297499999999998
 20
-0.6774999999999998
 30
5.4715
 70
    64
  0
VERTEX
  5
72C0B
330
72BFD
100
AcDbEntity
  8
0
100
AcDbVertex
100
AcDbPolygonMeshVertex
 10
1.297499999999998
 20
-0.6774999999999998
 30
5.4715
 70
    64
  0
VERTEX
  5
72C0C
330
72BFD
100
AcDbEntity
  8
0
100
AcDbVertex
100
AcDbPolygonMeshVertex
 10
1.297499999999998
 20
-1.022499999999999
 30
5.4715
 70
    64
  0
VERTEX
  5
72C0D
330
72BFD
100
AcDbEntity
  8
0
100
AcDbVertex
100
AcDbPolygonMeshVertex
 10
0.8224999999999988
 20
-0.6774999999999998
 30
5.4715
 70
    64
  0
VERTEX
  5
72C0E
330
72BFD
100
AcDbEntity
  8
0
100
AcDbVertex
100
AcDbPolygonMeshVertex
 10
0.8224999999999988
 20
-0.6774999999999998
 30
5.4715
 70
    64
  0
VERTEX
  5
72C0F
330
72BFD
100
AcDbEntity
  8
0
100
AcDbVertex
100
AcDbPolygonMeshVertex
 10
0.8224999999999988
 20
-1.022499999999999
 30
5.4715
 70
    64
  0
SEQEND
  5
72C10
330
72BFD
100
AcDbEntity
  8
0
  0
POLYLINE
  5
72C11
330
458D6
100
AcDbEntity
  8
0
100
AcDbPolygonMesh
 66
     1
 10
0.0
 20
0.0
 30
0.0
 70
    16
 71
     6
 72
     3
  0
VERTEX
  5
72C12
330
72C11
100
AcDbEntity
  8
0
100
AcDbVertex
100
AcDbPolygonMeshVertex
 10
1.297499999999998
 20
-1.022499999999999
 30
5.687499999999999
 70
    64
  0
VERTEX
  5
72C13
330
72C11
100
AcDbEntity
  8
0
100
AcDbVertex
100
AcDbPolygonMeshVertex
 10
1.297499999999998
 20
-1.022499999999999
 30
5.4715
 70
    64
  0
VERTEX
  5
72C14
330
72C11
100
AcDbEntity
  8
0
100
AcDbVertex
100
AcDbPolygonMeshVertex
 10
1.297499999999998
 20
-1.022499999999999
 30
5.4715
 70
    64
  0
VERTEX
  5
72C15
330
72C11
100
AcDbEntity
  8
0
100
AcDbVertex
100
AcDbPolygonMeshVertex
 10
1.162499999999998
 20
-1.022499999999999
 30
5.687499999999999
 70
    64
  0
VERTEX
  5
72C16
330
72C11
100
AcDbEntity
  8
0
100
AcDbVertex
100
AcDbPolygonMeshVertex
 10
1.162499999999998
 20
-1.022499999999999
 30
5.4715
 70
    64
  0
VERTEX
  5
72C17
330
72C11
100
AcDbEntity
  8
0
100
AcDbVertex
100
AcDbPolygonMeshVertex
 10
1.162499999999998
 20
-1.022499999999999
 30
5.4715
 70
    64
  0
VERTEX
  5
72C18
330
72C11
100
AcDbEntity
  8
0
100
AcDbVertex
100
AcDbPolygonMeshVertex
 10
1.162499999999998
 20
-0.6774999999999998
 30
5.687499999999999
 70
    64
  0
VERTEX
  5
72C19
330
72C11
100
AcDbEntity
  8
0
100
AcDbVertex
100
AcDbPolygonMeshVertex
 10
1.162499999999998
 20
-0.6774999999999998
 30
5.4715
 70
    64
  0
VERTEX
  5
72C1A
330
72C11
100
AcDbEntity
  8
0
100
AcDbVertex
100
AcDbPolygonMeshVertex
 10
1.162499999999998
 20
-1.022499999999999
 30
5.4715
 70
    64
  0
VERTEX
  5
72C1B
330
72C11
100
AcDbEntity
  8
0
100
AcDbVertex
100
AcDbPolygonMeshVertex
 10
1.297499999999998
 20
-0.6774999999999998
 30
5.687499999999999
 70
    64
  0
VERTEX
  5
72C1C
330
72C11
100
AcDbEntity
  8
0
100
AcDbVertex
100
AcDbPolygonMeshVertex
 10
1.297499999999998
 20
-0.6774999999999998
 30
5.4715
 70
    64
  0
VERTEX
  5
72C1D
330
72C11
100
AcDbEntity
  8
0
100
AcDbVertex
100
AcDbPolygonMeshVertex
 10
1.297499999999998
 20
-1.022499999999999
 30
5.4715
 70
    64
  0
VERTEX
  5
72C1E
330
72C11
100
AcDbEntity
  8
0
100
AcDbVertex
100
AcDbPolygonMeshVertex
 10
1.297499999999998
 20
-0.6774999999999998
 30
5.687499999999999
 70
    64
  0
VERTEX
  5
72C1F
330
72C11
100
AcDbEntity
  8
0
100
AcDbVertex
100
AcDbPolygonMeshVertex
 10
1.297499999999998
 20
-0.6774999999999998
 30
5.687499999999999
 70
    64
  0
VERTEX
  5
72C20
330
72C11
100
AcDbEntity
  8
0
100
AcDbVertex
100
AcDbPolygonMeshVertex
 10
1.297499999999998
 20
-1.022499999999999
 30
5.687499999999999
 70
    64
  0
VERTEX
  5
72C21
330
72C11
100
AcDbEntity
  8
0
100
AcDbVertex
100
AcDbPolygonMeshVertex
 10
1.162499999999998
 20
-0.6774999999999998
 30
5.687499999999999
 70
    64
  0
VERTEX
  5
72C22
330
72C11
100
AcDbEntity
  8
0
100
AcDbVertex
100
AcDbPolygonMeshVertex
 10
1.162499999999998
 20
-0.6774999999999998
 30
5.687499999999999
 70
    64
  0
VERTEX
  5
72C23
330
72C11
100
AcDbEntity
  8
0
100
AcDbVertex
100
AcDbPolygonMeshVertex
 10
1.162499999999998
 20
-1.022499999999999
 30
5.687499999999999
 70
    64
  0
SEQEND
  5
72C24
330
72C11
100
AcDbEntity
  8
0
  0
TEXT
  5
72C25
330
458D6
100
AcDbEntity
  8
0
100
AcDbText
 10
0.1132297932738142
 20
0.2811155340969122
 30
5.4375
 40
0.0834654981097751
  1
1
100
AcDbText
  0
TEXT
  5
72C26
330
458D6
100
AcDbEntity
  8
0
100
AcDbText
 10
0.5691308389222805
 20
0.2802736679910658
 30
5.4375
 40
0.0834654981097751
  1
L1
100
AcDbText
  0
TEXT
  5
72C27
330
458D6
100
AcDbEntity
  8
0
100
AcDbText
 10
0.8427030777100581
 20
0.2794318018852193
 30
5.4375
 40
0.0834654981097751
  1
3
100
AcDbText
  0
TEXT
  5
72C28
330
458D6
100
AcDbEntity
  8
0
100
AcDbText
 10
1.226609268925797
 20
0.2808433009258362
 30
5.4375
 40
0.0834654981097751
  1
L2
100
AcDbText
  0
TEXT
  5
72C29
330
458D6
100
AcDbEntity
  8
0
100
AcDbText
 10
1.534201536158613
 20
0.2822547999664535
 30
5.4375
 40
0.0834654981097751
  1
5
100
AcDbText
  0
TEXT
  5
72C2A
330
458D6
100
AcDbEntity
  8
0
100
AcDbText
 10
1.917518723896797
 20
0.2842550160273163
 30
5.4375
 40
0.0834654981097751
  1
L3
100
AcDbText
  0
TEXT
  5
72C2B
330
458D6
100
AcDbEntity
  8
0
100
AcDbText
 10
0.106209880414954
 20
-2.064187320954868
 30
5.4375
 40
0.0834654981097751
  1
2
100
AcDbText
  0
TEXT
  5
72C2C
330
458D6
100
AcDbEntity
  8
0
100
AcDbText
 10
0.5673196778400627
 20
-2.062775821914252
 30
5.4375
 40
0.0834654981097751
  1
T1
100
AcDbText
  0
TEXT
  5
72C2D
330
458D6
100
AcDbEntity
  8
0
100
AcDbText
 10
0.8432572033404213
 20
-2.060775605853388
 30
5.4375
 40
0.0834654981097751
  1
4
100
AcDbText
  0
TEXT
  5
72C2E
330
458D6
100
AcDbEntity
  8
0
100
AcDbText
 10
1.227641572907644
 20
-2.062206188979481
 30
5.4375
 40
0.0834654981097751
  1
T2
100
AcDbText
  0
TEXT
  5
72C2F
330
458D6
100
AcDbEntity
  8
0
100
AcDbText
 10
1.539077812557039
 20
-2.063048055085327
 30
5.4375
 40
0.0834654981097751
  1
6
100
AcDbText
  0
TEXT
  5
72C30
330
458D6
100
AcDbEntity
  8
0
100
AcDbText
 10
1.917186248518578
 20
-2.06163655604471
 30
5.4375
 40
0.0834654981097751
  1
T3
100
AcDbText
  0
CIRCLE
  5
72C31
330
458D6
100
AcDbEntity
  8
0
100
AcDbCircle
 10
1.944999999999999
 20
0.3369999999999995
 30
0.0000000000000002
 40
0.086
  0
POLYLINE
  5
72C32
330
458D6
100
AcDbEntity
  8
0
100
AcDb3dPolyline
 66
     1
 10
0.0
 20
0.0
 30
0.0
 70
     8
  0
VERTEX
  5
72C33
330
72C32
100
AcDbEntity
  8
0
100
AcDbVertex
100
AcDb3dPolylineVertex
 10
0.9789999999999984
 20
0.4009999999999998
 30
1.577499999999999
 70
    32
  0
VERTEX
  5
72C34
330
72C32
100
AcDbEntity
  8
0
100
AcDbVertex
100
AcDb3dPolylineVertex
 10
0.9789999999999984
 20
0.5359999999999995
 30
1.577499999999999
 70
    32
  0
VERTEX
  5
72C35
330
72C32
100
AcDbEntity
  8
0
100
AcDbVertex
100
AcDb3dPolylineVertex
 10
0.7683333333333319
 20
0.5359999999999995
 30
1.577499999999999
 70
    32
  0
VERTEX
  5
72C36
330
72C32
100
AcDbEntity
  8
0
100
AcDbVertex
100
AcDb3dPolylineVertex
 10
0.7683333333333319
 20
0.4009999999999998
 30
1.577499999999999
 70
    32
  0
SEQEND
  5
72C37
330
72C32
100
AcDbEntity
  8
0
  0
POLYLINE
  5
72C38
330
458D6
100
AcDbEntity
  8
0
100
AcDb3dPolyline
 66
     1
 10
0.0
 20
0.0
 30
0.0
 70
     8
  0
VERTEX
  5
72C39
330
72C38
100
AcDbEntity
  8
0
100
AcDbVertex
100
AcDb3dPolylineVertex
 10
0.7063333333333325
 20
0.4009999999999998
 30
1.577499999999999
 70
    32
  0
VERTEX
  5
72C3A
330
72C38
100
AcDbEntity
  8
0
100
AcDbVertex
100
AcDb3dPolylineVertex
 10
0.7063333333333325
 20
0.5359999999999995
 30
1.577499999999999
 70
    32
  0
VERTEX
  5
72C3B
330
72C38
100
AcDbEntity
  8
0
100
AcDbVertex
100
AcDb3dPolylineVertex
 10
0.4956666666666659
 20
0.5359999999999995
 30
1.577499999999999
 70
    32
  0
VERTEX
  5
72C3C
330
72C38
100
AcDbEntity
  8
0
100
AcDbVertex
100
AcDb3dPolylineVertex
 10
0.4956666666666659
 20
0.4009999999999998
 30
1.577499999999999
 70
    32
  0
SEQEND
  5
72C3D
330
72C38
100
AcDbEntity
  8
0
  0
POLYLINE
  5
72C3E
330
458D6
100
AcDbEntity
  8
0
100
AcDb3dPolyline
 66
     1
 10
0.0
 20
0.0
 30
0.0
 70
     8
  0
VERTEX
  5
72C3F
330
72C3E
100
AcDbEntity
  8
0
100
AcDbVertex
100
AcDb3dPolylineVertex
 10
0.4336666666666666
 20
0.4009999999999998
 30
1.577499999999999
 70
    32
  0
VERTEX
  5
72C40
330
72C3E
100
AcDbEntity
  8
0
100
AcDbVertex
100
AcDb3dPolylineVertex
 10
0.4336666666666666
 20
0.5359999999999995
 30
1.577499999999999
 70
    32
  0
VERTEX
  5
72C41
330
72C3E
100
AcDbEntity
  8
0
100
AcDbVertex
100
AcDb3dPolylineVertex
 10
0.2230000000000004
 20
0.5359999999999995
 30
1.577499999999999
 70
    32
  0
VERTEX
  5
72C42
330
72C3E
100
AcDbEntity
  8
0
100
AcDbVertex
100
AcDb3dPolylineVertex
 10
0.2230000000000004
 20
0.4009999999999998
 30
1.577499999999999
 70
    32
  0
SEQEND
  5
72C43
330
72C3E
100
AcDbEntity
  8
0
  0
LINE
  5
72C44
330
458D6
100
AcDbEntity
  8
0
100
AcDbLine
 10
0.9789999999999984
 20
0.4009999999999998
 30
1.577499999999999
 11
0.7683333333333328
 21
0.4009999999999998
 31
1.577499999999999
  0
LINE
  5
72C45
330
458D6
100
AcDbEntity
  8
0
100
AcDbLine
 10
0.7063333333333325
 20
0.4009999999999998
 30
1.577499999999999
 11
0.4956666666666668
 21
0.4009999999999998
 31
1.577499999999999
  0
LINE
  5
72C46
330
458D6
100
AcDbEntity
  8
0
100
AcDbLine
 10
0.4336666666666666
 20
0.4009999999999998
 30
1.577499999999999
 11
0.2230000000000008
 21
0.4009999999999998
 31
1.577499999999999
  0
POLYLINE
  5
72C47
330
458D6
100
AcDbEntity
  8
0
100
AcDbPolygonMesh
 66
     1
 10
0.0
 20
0.0
 30
0.0
 70
    16
 71
     6
 72
     3
  0
VERTEX
  5
72C48
330
72C47
100
AcDbEntity
  8
0
100
AcDbVertex
100
AcDbPolygonMeshVertex
 10
0.391
 20
-1.806
 30
1.318
 70
    64
  0
VERTEX
  5
72C49
330
72C47
100
AcDbEntity
  8
0
100
AcDbVertex
100
AcDbPolygonMeshVertex
 10
0.391
 20
-1.806
 30
0.187
 70
    64
  0
VERTEX
  5
72C4A
330
72C47
100
AcDbEntity
  8
0
100
AcDbVertex
100
AcDbPolygonMeshVertex
 10
0.391
 20
-1.806
 30
0.187
 70
    64
  0
VERTEX
  5
72C4B
330
72C47
100
AcDbEntity
  8
0
100
AcDbVertex
100
AcDbPolygonMeshVertex
 10
0.0
 20
-1.806
 30
1.318
 70
    64
  0
VERTEX
  5
72C4C
330
72C47
100
AcDbEntity
  8
0
100
AcDbVertex
100
AcDbPolygonMeshVertex
 10
0.0
 20
-1.806
 30
0.187
 70
    64
  0
VERTEX
  5
72C4D
330
72C47
100
AcDbEntity
  8
0
100
AcDbVertex
100
AcDbPolygonMeshVertex
 10
0.0
 20
-1.806
 30
0.187
 70
    64
  0
VERTEX
  5
72C4E
330
72C47
100
AcDbEntity
  8
0
100
AcDbVertex
100
AcDbPolygonMeshVertex
 10
0.0
 20
0.4009999999999998
 30
1.318
 70
    64
  0
VERTEX
  5
72C4F
330
72C47
100
AcDbEntity
  8
0
100
AcDbVertex
100
AcDbPolygonMeshVertex
 10
0.0
 20
0.4009999999999998
 30
0.187
 70
    64
  0
VERTEX
  5
72C50
330
72C47
100
AcDbEntity
  8
0
100
AcDbVertex
100
AcDbPolygonMeshVertex
 10
0.0
 20
-1.806
 30
0.187
 70
    64
  0
VERTEX
  5
72C51
330
72C47
100
AcDbEntity
  8
0
100
AcDbVertex
100
AcDbPolygonMeshVertex
 10
0.391
 20
0.4009999999999998
 30
1.318
 70
    64
  0
VERTEX
  5
72C52
330
72C47
100
AcDbEntity
  8
0
100
AcDbVertex
100
AcDbPolygonMeshVertex
 10
0.391
 20
0.4009999999999998
 30
0.187
 70
    64
  0
VERTEX
  5
72C53
330
72C47
100
AcDbEntity
  8
0
100
AcDbVertex
100
AcDbPolygonMeshVertex
 10
0.391
 20
-1.806
 30
0.187
 70
    64
  0
VERTEX
  5
72C54
330
72C47
100
AcDbEntity
  8
0
100
AcDbVertex
100
AcDbPolygonMeshVertex
 10
0.391
 20
0.4009999999999998
 30
1.318
 70
    64
  0
VERTEX
  5
72C55
330
72C47
100
AcDbEntity
  8
0
100
AcDbVertex
100
AcDbPolygonMeshVertex
 10
0.391
 20
0.4009999999999998
 30
1.318
 70
    64
  0
VERTEX
  5
72C56
330
72C47
100
AcDbEntity
  8
0
100
AcDbVertex
100
AcDbPolygonMeshVertex
 10
0.391
 20
-1.806
 30
1.318
 70
    64
  0
VERTEX
  5
72C57
330
72C47
100
AcDbEntity
  8
0
100
AcDbVertex
100
AcDbPolygonMeshVertex
 10
0.0
 20
0.4009999999999998
 30
1.318
 70
    64
  0
VERTEX
  5
72C58
330
72C47
100
AcDbEntity
  8
0
100
AcDbVertex
100
AcDbPolygonMeshVertex
 10
0.0
 20
0.4009999999999998
 30
1.318
 70
    64
  0
VERTEX
  5
72C59
330
72C47
100
AcDbEntity
  8
0
100
AcDbVertex
100
AcDbPolygonMeshVertex
 10
0.0
 20
-1.806
 30
1.318
 70
    64
  0
SEQEND
  5
72C5A
330
72C47
100
AcDbEntity
  8
0
  0
POLYLINE
  5
72C5B
330
458D6
100
AcDbEntity
  8
0
100
AcDbPolygonMesh
 66
     1
 10
0.0
 20
0.0
 30
0.0
 70
    16
 71
     6
 72
     3
  0
VERTEX
  5
72C5C
330
72C5B
100
AcDbEntity
  8
0
100
AcDbVertex
100
AcDbPolygonMeshVertex
 10
2.12
 20
-2.089
 30
1.318
 70
    64
  0
VERTEX
  5
72C5D
330
72C5B
100
AcDbEntity
  8
0
100
AcDbVertex
100
AcDbPolygonMeshVertex
 10
2.12
 20
-2.089
 30
0.187
 70
    64
  0
VERTEX
  5
72C5E
330
72C5B
100
AcDbEntity
  8
0
100
AcDbVertex
100
AcDbPolygonMeshVertex
 10
2.12
 20
-2.089
 30
0.187
 70
    64
  0
VERTEX
  5
72C5F
330
72C5B
100
AcDbEntity
  8
0
100
AcDbVertex
100
AcDbPolygonMeshVertex
 10
1.729
 20
-2.089
 30
1.318
 70
    64
  0
VERTEX
  5
72C60
330
72C5B
100
AcDbEntity
  8
0
100
AcDbVertex
100
AcDbPolygonMeshVertex
 10
1.729
 20
-2.089
 30
0.187
 70
    64
  0
VERTEX
  5
72C61
330
72C5B
100
AcDbEntity
  8
0
100
AcDbVertex
100
AcDbPolygonMeshVertex
 10
1.729
 20
-2.089
 30
0.187
 70
    64
  0
VERTEX
  5
72C62
330
72C5B
100
AcDbEntity
  8
0
100
AcDbVertex
100
AcDbPolygonMeshVertex
 10
1.729
 20
0.1179999999999994
 30
1.318
 70
    64
  0
VERTEX
  5
72C63
330
72C5B
100
AcDbEntity
  8
0
100
AcDbVertex
100
AcDbPolygonMeshVertex
 10
1.729
 20
0.1179999999999994
 30
0.187
 70
    64
  0
VERTEX
  5
72C64
330
72C5B
100
AcDbEntity
  8
0
100
AcDbVertex
100
AcDbPolygonMeshVertex
 10
1.729
 20
-2.089
 30
0.187
 70
    64
  0
VERTEX
  5
72C65
330
72C5B
100
AcDbEntity
  8
0
100
AcDbVertex
100
AcDbPolygonMeshVertex
 10
2.12
 20
0.1179999999999994
 30
1.318
 70
    64
  0
VERTEX
  5
72C66
330
72C5B
100
AcDbEntity
  8
0
100
AcDbVertex
100
AcDbPolygonMeshVertex
 10
2.12
 20
0.1179999999999994
 30
0.187
 70
    64
  0
VERTEX
  5
72C67
330
72C5B
100
AcDbEntity
  8
0
100
AcDbVertex
100
AcDbPolygonMeshVertex
 10
2.12
 20
-2.089
 30
0.187
 70
    64
  0
VERTEX
  5
72C68
330
72C5B
100
AcDbEntity
  8
0
100
AcDbVertex
100
AcDbPolygonMeshVertex
 10
2.12
 20
0.1179999999999994
 30
1.318
 70
    64
  0
VERTEX
  5
72C69
330
72C5B
100
AcDbEntity
  8
0
100
AcDbVertex
100
AcDbPolygonMeshVertex
 10
2.12
 20
0.1179999999999994
 30
1.318
 70
    64
  0
VERTEX
  5
72C6A
330
72C5B
100
AcDbEntity
  8
0
100
AcDbVertex
100
AcDbPolygonMeshVertex
 10
2.12
 20
-2.089
 30
1.318
 70
    64
  0
VERTEX
  5
72C6B
330
72C5B
100
AcDbEntity
  8
0
100
AcDbVertex
100
AcDbPolygonMeshVertex
 10
1.729
 20
0.1179999999999994
 30
1.318
 70
    64
  0
VERTEX
  5
72C6C
330
72C5B
100
AcDbEntity
  8
0
100
AcDbVertex
100
AcDbPolygonMeshVertex
 10
1.729
 20
0.1179999999999994
 30
1.318
 70
    64
  0
VERTEX
  5
72C6D
330
72C5B
100
AcDbEntity
  8
0
100
AcDbVertex
100
AcDbPolygonMeshVertex
 10
1.729
 20
-2.089
 30
1.318
 70
    64
  0
SEQEND
  5
72C6E
330
72C5B
100
AcDbEntity
  8
0
  0
POLYLINE
  5
72C6F
330
458D6
100
AcDbEntity
  8
0
100
AcDbPolygonMesh
 66
     1
 10
0.0
 20
0.0
 30
0.0
 70
    16
 71
     6
 72
     3
  0
VERTEX
  5
72C70
330
72C6F
100
AcDbEntity
  8
0
100
AcDbVertex
100
AcDbPolygonMeshVertex
 10
1.729
 20
-2.089
 30
1.318
 70
    64
  0
VERTEX
  5
72C71
330
72C6F
100
AcDbEntity
  8
0
100
AcDbVertex
100
AcDbPolygonMeshVertex
 10
1.729
 20
-2.089
 30
0.187
 70
    64
  0
VERTEX
  5
72C72
330
72C6F
100
AcDbEntity
  8
0
100
AcDbVertex
100
AcDbPolygonMeshVertex
 10
1.729
 20
-2.089
 30
0.187
 70
    64
  0
VERTEX
  5
72C73
330
72C6F
100
AcDbEntity
  8
0
100
AcDbVertex
100
AcDbPolygonMeshVertex
 10
0.391
 20
-2.089
 30
1.318
 70
    64
  0
VERTEX
  5
72C74
330
72C6F
100
AcDbEntity
  8
0
100
AcDbVertex
100
AcDbPolygonMeshVertex
 10
0.391
 20
-2.089
 30
0.187
 70
    64
  0
VERTEX
  5
72C75
330
72C6F
100
AcDbEntity
  8
0
100
AcDbVertex
100
AcDbPolygonMeshVertex
 10
0.391
 20
-2.089
 30
0.187
 70
    64
  0
VERTEX
  5
72C76
330
72C6F
100
AcDbEntity
  8
0
100
AcDbVertex
100
AcDbPolygonMeshVertex
 10
0.391
 20
0.4009999999999998
 30
1.318
 70
    64
  0
VERTEX
  5
72C77
330
72C6F
100
AcDbEntity
  8
0
100
AcDbVertex
100
AcDbPolygonMeshVertex
 10
0.391
 20
0.4009999999999998
 30
0.187
 70
    64
  0
VERTEX
  5
72C78
330
72C6F
100
AcDbEntity
  8
0
100
AcDbVertex
100
AcDbPolygonMeshVertex
 10
0.391
 20
-2.089
 30
0.187
 70
    64
  0
VERTEX
  5
72C79
330
72C6F
100
AcDbEntity
  8
0
100
AcDbVertex
100
AcDbPolygonMeshVertex
 10
1.729
 20
0.4009999999999998
 30
1.318
 70
    64
  0
VERTEX
  5
72C7A
330
72C6F
100
AcDbEntity
  8
0
100
AcDbVertex
100
AcDbPolygonMeshVertex
 10
1.729
 20
0.4009999999999998
 30
0.187
 70
    64
  0
VERTEX
  5
72C7B
330
72C6F
100
AcDbEntity
  8
0
100
AcDbVertex
100
AcDbPolygonMeshVertex
 10
1.729
 20
-2.089
 30
0.187
 70
    64
  0
VERTEX
  5
72C7C
330
72C6F
100
AcDbEntity
  8
0
100
AcDbVertex
100
AcDbPolygonMeshVertex
 10
1.729
 20
0.4009999999999998
 30
1.318
 70
    64
  0
VERTEX
  5
72C7D
330
72C6F
100
AcDbEntity
  8
0
100
AcDbVertex
100
AcDbPolygonMeshVertex
 10
1.729
 20
0.4009999999999998
 30
1.318
 70
    64
  0
VERTEX
  5
72C7E
330
72C6F
100
AcDbEntity
  8
0
100
AcDbVertex
100
AcDbPolygonMeshVertex
 10
1.729
 20
-2.089
 30
1.318
 70
    64
  0
VERTEX
  5
72C7F
330
72C6F
100
AcDbEntity
  8
0
100
AcDbVertex
100
AcDbPolygonMeshVertex
 10
0.391
 20
0.4009999999999998
 30
1.318
 70
    64
  0
VERTEX
  5
72C80
330
72C6F
100
AcDbEntity
  8
0
100
AcDbVertex
100
AcDbPolygonMeshVertex
 10
0.391
 20
0.4009999999999998
 30
1.318
 70
    64
  0
VERTEX
  5
72C81
330
72C6F
100
AcDbEntity
  8
0
100
AcDbVertex
100
AcDbPolygonMeshVertex
 10
0.391
 20
-2.089
 30
1.318
 70
    64
  0
SEQEND
  5
72C82
330
72C6F
100
AcDbEntity
  8
0
  0
LINE
  5
72C83
330
458D6
100
AcDbEntity
  8
0
100
AcDbLine
 10
0.3600000000000004
 20
0.5979999999999998
 30
1.764499999999999
 11
0.161
 21
0.5979999999999998
 31
1.764499999999999
  0
POLYLINE
  5
72C84
330
458D6
100
AcDbEntity
  8
0
100
AcDb3dPolyline
 66
     1
 10
0.0
 20
0.0
 30
0.0
 70
     8
  0
VERTEX
  5
72C85
330
72C84
100
AcDbEntity
  8
0
100
AcDbVertex
100
AcDb3dPolylineVertex
 10
1.686333333333333
 20
-2.089
 30
1.577499999999999
 70
    32
  0
VERTEX
  5
72C86
330
72C84
100
AcDbEntity
  8
0
100
AcDbVertex
100
AcDb3dPolylineVertex
 10
1.686333333333333
 20
-2.224
 30
1.577499999999999
 70
    32
  0
VERTEX
  5
72C87
330
72C84
100
AcDbEntity
  8
0
100
AcDbVertex
100
AcDb3dPolylineVertex
 10
1.896999999999999
 20
-2.224
 30
1.577499999999999
 70
    32
  0
VERTEX
  5
72C88
330
72C84
100
AcDbEntity
  8
0
100
AcDbVertex
100
AcDb3dPolylineVertex
 10
1.896999999999999
 20
-2.089
 30
1.577499999999999
 70
    32
  0
SEQEND
  5
72C89
330
72C84
100
AcDbEntity
  8
0
  0
POLYLINE
  5
72C8A
330
458D6
100
AcDbEntity
  8
0
100
AcDb3dPolyline
 66
     1
 10
0.0
 20
0.0
 30
0.0
 70
     8
  0
VERTEX
  5
72C8B
330
72C8A
100
AcDbEntity
  8
0
100
AcDbVertex
100
AcDb3dPolylineVertex
 10
1.686333333333333
 20
-2.089
 30
1.764499999999999
 70
    32
  0
VERTEX
  5
72C8C
330
72C8A
100
AcDbEntity
  8
0
100
AcDbVertex
100
AcDb3dPolylineVertex
 10
1.686333333333333
 20
-2.224
 30
1.764499999999999
 70
    32
  0
VERTEX
  5
72C8D
330
72C8A
100
AcDbEntity
  8
0
100
AcDbVertex
100
AcDb3dPolylineVertex
 10
1.896999999999999
 20
-2.224
 30
1.764499999999999
 70
    32
  0
VERTEX
  5
72C8E
330
72C8A
100
AcDbEntity
  8
0
100
AcDbVertex
100
AcDb3dPolylineVertex
 10
1.896999999999999
 20
-2.089
 30
1.764499999999999
 70
    32
  0
SEQEND
  5
72C8F
330
72C8A
100
AcDbEntity
  8
0
  0
POLYLINE
  5
72C90
330
458D6
100
AcDbEntity
  8
0
100
AcDb3dPolyline
 66
     1
 10
0.0
 20
0.0
 30
0.0
 70
     8
  0
VERTEX
  5
72C91
330
72C90
100
AcDbEntity
  8
0
100
AcDbVertex
100
AcDb3dPolylineVertex
 10
1.413666666666667
 20
-2.089
 30
1.577499999999999
 70
    32
  0
VERTEX
  5
72C92
330
72C90
100
AcDbEntity
  8
0
100
AcDbVertex
100
AcDb3dPolylineVertex
 10
1.413666666666667
 20
-2.224
 30
1.577499999999999
 70
    32
  0
VERTEX
  5
72C93
330
72C90
100
AcDbEntity
  8
0
100
AcDbVertex
100
AcDb3dPolylineVertex
 10
1.624333333333334
 20
-2.224
 30
1.577499999999999
 70
    32
  0
VERTEX
  5
72C94
330
72C90
100
AcDbEntity
  8
0
100
AcDbVertex
100
AcDb3dPolylineVertex
 10
1.624333333333334
 20
-2.089
 30
1.577499999999999
 70
    32
  0
SEQEND
  5
72C95
330
72C90
100
AcDbEntity
  8
0
  0
POLYLINE
  5
72C96
330
458D6
100
AcDbEntity
  8
0
100
AcDb3dPolyline
 66
     1
 10
0.0
 20
0.0
 30
0.0
 70
     8
  0
VERTEX
  5
72C97
330
72C96
100
AcDbEntity
  8
0
100
AcDbVertex
100
AcDb3dPolylineVertex
 10
1.413666666666667
 20
-2.089
 30
1.764499999999999
 70
    32
  0
VERTEX
  5
72C98
330
72C96
100
AcDbEntity
  8
0
100
AcDbVertex
100
AcDb3dPolylineVertex
 10
1.413666666666667
 20
-2.224
 30
1.764499999999999
 70
    32
  0
VERTEX
  5
72C99
330
72C96
100
AcDbEntity
  8
0
100
AcDbVertex
100
AcDb3dPolylineVertex
 10
1.624333333333334
 20
-2.224
 30
1.764499999999999
 70
    32
  0
VERTEX
  5
72C9A
330
72C96
100
AcDbEntity
  8
0
100
AcDbVertex
100
AcDb3dPolylineVertex
 10
1.624333333333334
 20
-2.089
 30
1.764499999999999
 70
    32
  0
SEQEND
  5
72C9B
330
72C96
100
AcDbEntity
  8
0
  0
POLYLINE
  5
72C9C
330
458D6
100
AcDbEntity
  8
0
100
AcDb3dPolyline
 66
     1
 10
0.0
 20
0.0
 30
0.0
 70
     8
  0
VERTEX
  5
72C9D
330
72C9C
100
AcDbEntity
  8
0
100
AcDbVertex
100
AcDb3dPolylineVertex
 10
1.141000000000001
 20
-2.089
 30
1.577499999999999
 70
    32
  0
VERTEX
  5
72C9E
330
72C9C
100
AcDbEntity
  8
0
100
AcDbVertex
100
AcDb3dPolylineVertex
 10
1.141000000000001
 20
-2.224
 30
1.577499999999999
 70
    32
  0
VERTEX
  5
72C9F
330
72C9C
100
AcDbEntity
  8
0
100
AcDbVertex
100
AcDb3dPolylineVertex
 10
1.351666666666668
 20
-2.224
 30
1.577499999999999
 70
    32
  0
VERTEX
  5
72CA0
330
72C9C
100
AcDbEntity
  8
0
100
AcDbVertex
100
AcDb3dPolylineVertex
 10
1.351666666666668
 20
-2.089
 30
1.577499999999999
 70
    32
  0
SEQEND
  5
72CA1
330
72C9C
100
AcDbEntity
  8
0
  0
POLYLINE
  5
72CA2
330
458D6
100
AcDbEntity
  8
0
100
AcDb3dPolyline
 66
     1
 10
0.0
 20
0.0
 30
0.0
 70
     8
  0
VERTEX
  5
72CA3
330
72CA2
100
AcDbEntity
  8
0
100
AcDbVertex
100
AcDb3dPolylineVertex
 10
1.141000000000001
 20
-2.089
 30
1.764499999999999
 70
    32
  0
VERTEX
  5
72CA4
330
72CA2
100
AcDbEntity
  8
0
100
AcDbVertex
100
AcDb3dPolylineVertex
 10
1.141000000000001
 20
-2.224
 30
1.764499999999999
 70
    32
  0
VERTEX
  5
72CA5
330
72CA2
100
AcDbEntity
  8
0
100
AcDbVertex
100
AcDb3dPolylineVertex
 10
1.351666666666668
 20
-2.224
 30
1.764499999999999
 70
    32
  0
VERTEX
  5
72CA6
330
72CA2
100
AcDbEntity
  8
0
100
AcDbVertex
100
AcDb3dPolylineVertex
 10
1.351666666666668
 20
-2.089
 30
1.764499999999999
 70
    32
  0
SEQEND
  5
72CA7
330
72CA2
100
AcDbEntity
  8
0
  0
CIRCLE
  5
72CA8
330
458D6
100
AcDbEntity
  8
0
100
AcDbCircle
 10
0.1730000000000008
 20
-2.024999999999999
 30
0.0000000000000002
 40
0.086
  0
CIRCLE
  5
72CA9
330
458D6
100
AcDbEntity
  8
0
100
AcDbCircle
 10
0.1730000000000008
 20
-2.024999999999999
 30
0.3160000000000003
 40
0.086
  0
POLYLINE
  5
72CAA
330
458D6
100
AcDbEntity
  8
0
100
AcDbPolygonMesh
 66
     1
 10
0.0
 20
0.0
 30
0.0
 70
    16
 71
     6
 72
     3
  0
VERTEX
  5
72CAB
330
72CAA
100
AcDbEntity
  8
0
100
AcDbVertex
100
AcDbPolygonMeshVertex
 10
0.6886999999999999
 20
0.5149999999999997
 30
4.636499999999999
 70
    64
  0
VERTEX
  5
72CAC
330
72CAA
100
AcDbEntity
  8
0
100
AcDbVertex
100
AcDbPolygonMeshVertex
 10
0.6886999999999999
 20
0.5149999999999997
 30
4.024499999999999
 70
    64
  0
VERTEX
  5
72CAD
330
72CAA
100
AcDbEntity
  8
0
100
AcDbVertex
100
AcDbPolygonMeshVertex
 10
0.6886999999999999
 20
0.5149999999999997
 30
4.024499999999999
 70
    64
  0
VERTEX
  5
72CAE
330
72CAA
100
AcDbEntity
  8
0
100
AcDbVertex
100
AcDbPolygonMeshVertex
 10
0.7427000000000002
 20
0.5149999999999997
 30
4.636499999999999
 70
    64
  0
VERTEX
  5
72CAF
330
72CAA
100
AcDbEntity
  8
0
100
AcDbVertex
100
AcDbPolygonMeshVertex
 10
0.7427000000000002
 20
0.5149999999999997
 30
4.024499999999999
 70
    64
  0
VERTEX
  5
72CB0
330
72CAA
100
AcDbEntity
  8
0
100
AcDbVertex
100
AcDbPolygonMeshVertex
 10
0.7427000000000002
 20
0.5149999999999997
 30
4.024499999999999
 70
    64
  0
VERTEX
  5
72CB1
330
72CAA
100
AcDbEntity
  8
0
100
AcDbVertex
100
AcDbPolygonMeshVertex
 10
0.7427000000000002
 20
0.4009999999999998
 30
4.636499999999999
 70
    64
  0
VERTEX
  5
72CB2
330
72CAA
100
AcDbEntity
  8
0
100
AcDbVertex
100
AcDbPolygonMeshVertex
 10
0.7427000000000002
 20
0.4009999999999998
 30
4.024499999999999
 70
    64
  0
VERTEX
  5
72CB3
330
72CAA
100
AcDbEntity
  8
0
100
AcDbVertex
100
AcDbPolygonMeshVertex
 10
0.7427000000000002
 20
0.5149999999999997
 30
4.024499999999999
 70
    64
  0
VERTEX
  5
72CB4
330
72CAA
100
AcDbEntity
  8
0
100
AcDbVertex
100
AcDbPolygonMeshVertex
 10
0.6886999999999999
 20
0.4009999999999998
 30
4.636499999999999
 70
    64
  0
VERTEX
  5
72CB5
330
72CAA
100
AcDbEntity
  8
0
100
AcDbVertex
100
AcDbPolygonMeshVertex
 10
0.6886999999999999
 20
0.4009999999999998
 30
4.024499999999999
 70
    64
  0
VERTEX
  5
72CB6
330
72CAA
100
AcDbEntity
  8
0
100
AcDbVertex
100
AcDbPolygonMeshVertex
 10
0.6886999999999999
 20
0.5149999999999997
 30
4.024499999999999
 70
    64
  0
VERTEX
  5
72CB7
330
72CAA
100
AcDbEntity
  8
0
100
AcDbVertex
100
AcDbPolygonMeshVertex
 10
0.6886999999999999
 20
0.4009999999999998
 30
4.636499999999999
 70
    64
  0
VERTEX
  5
72CB8
330
72CAA
100
AcDbEntity
  8
0
100
AcDbVertex
100
AcDbPolygonMeshVertex
 10
0.6886999999999999
 20
0.4009999999999998
 30
4.636499999999999
 70
    64
  0
VERTEX
  5
72CB9
330
72CAA
100
AcDbEntity
  8
0
100
AcDbVertex
100
AcDbPolygonMeshVertex
 10
0.6886999999999999
 20
0.5149999999999997
 30
4.636499999999999
 70
    64
  0
VERTEX
  5
72CBA
330
72CAA
100
AcDbEntity
  8
0
100
AcDbVertex
100
AcDbPolygonMeshVertex
 10
0.7427000000000002
 20
0.4009999999999998
 30
4.636499999999999
 70
    64
  0
VERTEX
  5
72CBB
330
72CAA
100
AcDbEntity
  8
0
100
AcDbVertex
100
AcDbPolygonMeshVertex
 10
0.7427000000000002
 20
0.4009999999999998
 30
4.636499999999999
 70
    64
  0
VERTEX
  5
72CBC
330
72CAA
100
AcDbEntity
  8
0
100
AcDbVertex
100
AcDbPolygonMeshVertex
 10
0.7427000000000002
 20
0.5149999999999997
 30
4.636499999999999
 70
    64
  0
SEQEND
  5
72CBD
330
72CAA
100
AcDbEntity
  8
0
  0
POLYLINE
  5
72CBE
330
458D6
100
AcDbEntity
  8
0
100
AcDbPolygonMesh
 66
     1
 10
0.0
 20
0.0
 30
0.0
 70
    16
 71
     6
 72
     3
  0
VERTEX
  5
72CBF
330
72CBE
100
AcDbEntity
  8
0
100
AcDbVertex
100
AcDbPolygonMeshVertex
 10
1.431299999999998
 20
0.5149999999999997
 30
4.636499999999999
 70
    64
  0
VERTEX
  5
72CC0
330
72CBE
100
AcDbEntity
  8
0
100
AcDbVertex
100
AcDbPolygonMeshVertex
 10
1.431299999999998
 20
0.5149999999999997
 30
4.024499999999999
 70
    64
  0
VERTEX
  5
72CC1
330
72CBE
100
AcDbEntity
  8
0
100
AcDbVertex
100
AcDbPolygonMeshVertex
 10
1.431299999999998
 20
0.5149999999999997
 30
4.024499999999999
 70
    64
  0
VERTEX
  5
72CC2
330
72CBE
100
AcDbEntity
  8
0
100
AcDbVertex
100
AcDbPolygonMeshVertex
 10
1.377299999999999
 20
0.5149999999999997
 30
4.636499999999999
 70
    64
  0
VERTEX
  5
72CC3
330
72CBE
100
AcDbEntity
  8
0
100
AcDbVertex
100
AcDbPolygonMeshVertex
 10
1.377299999999999
 20
0.5149999999999997
 30
4.024499999999999
 70
    64
  0
VERTEX
  5
72CC4
330
72CBE
100
AcDbEntity
  8
0
100
AcDbVertex
100
AcDbPolygonMeshVertex
 10
1.377299999999999
 20
0.5149999999999997
 30
4.024499999999999
 70
    64
  0
VERTEX
  5
72CC5
330
72CBE
100
AcDbEntity
  8
0
100
AcDbVertex
100
AcDbPolygonMeshVertex
 10
1.377299999999999
 20
0.4009999999999998
 30
4.636499999999999
 70
    64
  0
VERTEX
  5
72CC6
330
72CBE
100
AcDbEntity
  8
0
100
AcDbVertex
100
AcDbPolygonMeshVertex
 10
1.377299999999999
 20
0.4009999999999998
 30
4.024499999999999
 70
    64
  0
VERTEX
  5
72CC7
330
72CBE
100
AcDbEntity
  8
0
100
AcDbVertex
100
AcDbPolygonMeshVertex
 10
1.377299999999999
 20
0.5149999999999997
 30
4.024499999999999
 70
    64
  0
VERTEX
  5
72CC8
330
72CBE
100
AcDbEntity
  8
0
100
AcDbVertex
100
AcDbPolygonMeshVertex
 10
1.431299999999998
 20
0.4009999999999998
 30
4.636499999999999
 70
    64
  0
VERTEX
  5
72CC9
330
72CBE
100
AcDbEntity
  8
0
100
AcDbVertex
100
AcDbPolygonMeshVertex
 10
1.431299999999998
 20
0.4009999999999998
 30
4.024499999999999
 70
    64
  0
VERTEX
  5
72CCA
330
72CBE
100
AcDbEntity
  8
0
100
AcDbVertex
100
AcDbPolygonMeshVertex
 10
1.431299999999998
 20
0.5149999999999997
 30
4.024499999999999
 70
    64
  0
VERTEX
  5
72CCB
330
72CBE
100
AcDbEntity
  8
0
100
AcDbVertex
100
AcDbPolygonMeshVertex
 10
1.431299999999998
 20
0.4009999999999998
 30
4.636499999999999
 70
    64
  0
VERTEX
  5
72CCC
330
72CBE
100
AcDbEntity
  8
0
100
AcDbVertex
100
AcDbPolygonMeshVertex
 10
1.431299999999998
 20
0.4009999999999998
 30
4.636499999999999
 70
    64
  0
VERTEX
  5
72CCD
330
72CBE
100
AcDbEntity
  8
0
100
AcDbVertex
100
AcDbPolygonMeshVertex
 10
1.431299999999998
 20
0.5149999999999997
 30
4.636499999999999
 70
    64
  0
VERTEX
  5
72CCE
330
72CBE
100
AcDbEntity
  8
0
100
AcDbVertex
100
AcDbPolygonMeshVertex
 10
1.377299999999999
 20
0.4009999999999998
 30
4.636499999999999
 70
    64
  0
VERTEX
  5
72CCF
330
72CBE
100
AcDbEntity
  8
0
100
AcDbVertex
100
AcDbPolygonMeshVertex
 10
1.377299999999999
 20
0.4009999999999998
 30
4.636499999999999
 70
    64
  0
VERTEX
  5
72CD0
330
72CBE
100
AcDbEntity
  8
0
100
AcDbVertex
100
AcDbPolygonMeshVertex
 10
1.377299999999999
 20
0.5149999999999997
 30
4.636499999999999
 70
    64
  0
SEQEND
  5
72CD1
330
72CBE
100
AcDbEntity
  8
0
  0
LINE
  5
72CD2
330
458D6
100
AcDbEntity
  8
0
100
AcDbLine
 10
0.2363499999999998
 20
0.4009999999999998
 30
4.575499999999999
 11
0.5063499999999995
 21
0.4009999999999998
 31
4.575499999999999
  0
LINE
  5
72CD3
330
458D6
100
AcDbEntity
  8
0
100
AcDbLine
 10
0.2363499999999998
 20
0.4009999999999998
 30
3.905499999999999
 11
0.5063499999999995
 21
0.4009999999999998
 31
3.905499999999999
  0
LINE
  5
72CD4
330
458D6
100
AcDbEntity
  8
0
100
AcDbLine
 10
0.2363499999999998
 20
0.4009999999999998
 30
4.303499999999999
 11
0.5063499999999995
 21
0.4009999999999998
 31
4.303499999999999
  0
LINE
  5
72CD5
330
458D6
100
AcDbEntity
  8
0
100
AcDbLine
 10
0.2363499999999998
 20
0.4009999999999998
 30
4.199499999999999
 11
0.5063499999999995
 21
0.4009999999999998
 31
4.199499999999999
  0
LINE
  5
72CD6
330
458D6
100
AcDbEntity
  8
0
100
AcDbLine
 10
0.5683499999999997
 20
0.4010000000000003
 30
3.94596065259117
 11
0.568349999999998
 21
0.4009999999999998
 31
4.636499999999999
  0
LINE
  5
72CD7
330
458D6
100
AcDbEntity
  8
0
100
AcDbLine
 10
0.1743499999999996
 20
0.4009999999999993
 30
3.964999999999999
 11
0.1743499999999982
 21
0.4009999999999989
 31
4.636499999999999
  0
LINE
  5
72CD8
330
458D6
100
AcDbEntity
  8
0
100
AcDbLine
 10
0.2363499999999998
 20
0.4009999999999998
 30
4.575499999999999
 11
0.2363499999999998
 21
0.4009999999999998
 31
4.303499999999999
  0
LINE
  5
72CD9
330
458D6
100
AcDbEntity
  8
0
100
AcDbLine
 10
0.5063499999999995
 20
0.4009999999999998
 30
4.575499999999999
 11
0.5063499999999995
 21
0.4009999999999998
 31
4.303499999999999
  0
LINE
  5
72CDA
330
458D6
100
AcDbEntity
  8
0
100
AcDbLine
 10
0.2363500000000003
 20
0.4009999999999998
 30
4.199499999999999
 11
0.2363499999999998
 21
0.4009999999999998
 31
4.024499999999999
  0
LINE
  5
72CDB
330
458D6
100
AcDbEntity
  8
0
100
AcDbLine
 10
0.1743499999999991
 20
0.4009999999999998
 30
4.024499999999999
 11
0.2363499999999998
 21
0.4009999999999998
 31
4.024499999999999
  0
LINE
  5
72CDC
330
458D6
100
AcDbEntity
  8
0
100
AcDbLine
 10
0.5063499999999995
 20
0.4009999999999998
 30
3.905499999999999
 11
0.5683499999999997
 21
0.4009999999999998
 31
3.94596065259117
  0
LINE
  5
72CDD
330
458D6
100
AcDbEntity
  8
0
100
AcDbLine
 10
0.5683499999999997
 20
0.4009999999999998
 30
4.0245
 11
0.5063499999999995
 21
0.4009999999999998
 31
4.024499999999999
  0
LINE
  5
72CDE
330
458D6
100
AcDbEntity
  8
0
100
AcDbLine
 10
0.5063499999999995
 20
0.4009999999999998
 30
4.199499999999999
 11
0.5063499999999995
 21
0.4009999999999998
 31
4.024499999999999
  0
LINE
  5
72CDF
330
458D6
100
AcDbEntity
  8
0
100
AcDbLine
 10
0.2363499999999998
 20
0.4009999999999998
 30
3.905499999999999
 11
0.17435
 21
0.4009999999999994
 31
3.964999999999999
  0
LINE
  5
72CE0
330
458D6
100
AcDbEntity
  8
0
100
AcDbLine
 10
0.1743499999999982
 20
0.4009999999999989
 30
4.636499999999999
 11
0.568349999999998
 21
0.4009999999999998
 31
4.636499999999999
210
0.0
220
-1.0
230
0.0
  0
LINE
  5
72CE1
330
458D6
100
AcDbEntity
  8
0
100
AcDbLine
 10
0.8630500000000003
 20
0.4009999999999993
 30
3.964999999999999
 11
0.8630499999999985
 21
0.4009999999999989
 31
4.636499999999999
  0
LINE
  5
72CE2
330
458D6
100
AcDbEntity
  8
0
100
AcDbLine
 10
1.25705
 20
0.4010000000000002
 30
3.94596065259117
 11
1.257049999999998
 21
0.4009999999999998
 31
4.636499999999999
  0
LINE
  5
72CE3
330
458D6
100
AcDbEntity
  8
0
100
AcDbLine
 10
0.9250500000000005
 20
0.4009999999999998
 30
3.905499999999999
 11
1.19505
 21
0.4009999999999998
 31
3.905499999999999
  0
LINE
  5
72CE4
330
458D6
100
AcDbEntity
  8
0
100
AcDbLine
 10
0.9250500000000005
 20
0.4009999999999998
 30
4.199499999999999
 11
1.19505
 21
0.4009999999999998
 31
4.199499999999999
  0
LINE
  5
72CE5
330
458D6
100
AcDbEntity
  8
0
100
AcDbLine
 10
0.9250500000000005
 20
0.4009999999999998
 30
3.905499999999999
 11
0.8630500000000003
 21
0.4009999999999993
 31
3.964999999999999
  0
LINE
  5
72CE6
330
458D6
100
AcDbEntity
  8
0
100
AcDbLine
 10
0.9250500000000014
 20
0.4009999999999998
 30
4.199499999999999
 11
0.9250500000000005
 21
0.4009999999999998
 31
4.024499999999999
  0
LINE
  5
72CE7
330
458D6
100
AcDbEntity
  8
0
100
AcDbLine
 10
0.8630500000000003
 20
0.4009999999999998
 30
4.024499999999999
 11
0.9250500000000005
 21
0.4009999999999998
 31
4.024499999999999
  0
LINE
  5
72CE8
330
458D6
100
AcDbEntity
  8
0
100
AcDbLine
 10
1.19505
 20
0.4009999999999998
 30
3.905499999999999
 11
1.25705
 21
0.4009999999999998
 31
3.94596065259117
  0
LINE
  5
72CE9
330
458D6
100
AcDbEntity
  8
0
100
AcDbLine
 10
1.19505
 20
0.4009999999999998
 30
4.199499999999999
 11
1.19505
 21
0.4009999999999998
 31
4.024499999999999
  0
LINE
  5
72CEA
330
458D6
100
AcDbEntity
  8
0
100
AcDbLine
 10
1.25705
 20
0.4009999999999998
 30
4.0245
 11
1.19505
 21
0.4009999999999998
 31
4.024499999999999
  0
LINE
  5
72CEB
330
458D6
100
AcDbEntity
  8
0
100
AcDbLine
 10
0.8630499999999985
 20
0.4009999999999989
 30
4.636499999999999
 11
1.257049999999998
 21
0.4009999999999998
 31
4.636499999999999
210
0.0
220
-1.0
230
0.0
  0
LINE
  5
72CEC
330
458D6
100
AcDbEntity
  8
0
100
AcDbLine
 10
0.9250500000000005
 20
0.4009999999999998
 30
4.575499999999999
 11
1.19505
 21
0.4009999999999998
 31
4.575499999999999
  0
LINE
  5
72CED
330
458D6
100
AcDbEntity
  8
0
100
AcDbLine
 10
0.9250500000000005
 20
0.4009999999999998
 30
4.303499999999999
 11
1.19505
 21
0.4009999999999998
 31
4.303499999999999
  0
LINE
  5
72CEE
330
458D6
100
AcDbEntity
  8
0
100
AcDbLine
 10
0.9250500000000005
 20
0.4009999999999998
 30
4.575499999999999
 11
0.9250500000000005
 21
0.4009999999999998
 31
4.303499999999999
  0
LINE
  5
72CEF
330
458D6
100
AcDbEntity
  8
0
100
AcDbLine
 10
1.19505
 20
0.4009999999999998
 30
4.575499999999999
 11
1.19505
 21
0.4009999999999998
 31
4.303499999999999
  0
LINE
  5
72CF0
330
458D6
100
AcDbEntity
  8
0
100
AcDbLine
 10
1.945649999999999
 20
0.4010000000000002
 30
3.94596065259117
 11
1.945649999999997
 21
0.4009999999999998
 31
4.636499999999999
  0
LINE
  5
72CF1
330
458D6
100
AcDbEntity
  8
0
100
AcDbLine
 10
1.551649999999999
 20
0.4009999999999993
 30
3.964999999999999
 11
1.551649999999997
 21
0.4009999999999989
 31
4.636499999999999
  0
LINE
  5
72CF2
330
458D6
100
AcDbEntity
  8
0
100
AcDbLine
 10
1.61365
 20
0.4009999999999998
 30
4.199499999999999
 11
1.883649999999999
 21
0.4009999999999998
 31
4.199499999999999
  0
LINE
  5
72CF3
330
458D6
100
AcDbEntity
  8
0
100
AcDbLine
 10
1.61365
 20
0.4009999999999998
 30
3.905499999999999
 11
1.883649999999999
 21
0.4009999999999998
 31
3.905499999999999
  0
LINE
  5
72CF4
330
458D6
100
AcDbEntity
  8
0
100
AcDbLine
 10
1.61365
 20
0.4009999999999998
 30
3.905499999999999
 11
1.551649999999999
 21
0.4009999999999993
 31
3.964999999999999
  0
LINE
  5
72CF5
330
458D6
100
AcDbEntity
  8
0
100
AcDbLine
 10
1.61365
 20
0.4009999999999998
 30
4.199499999999999
 11
1.61365
 21
0.4009999999999998
 31
4.024499999999999
  0
LINE
  5
72CF6
330
458D6
100
AcDbEntity
  8
0
100
AcDbLine
 10
1.551649999999999
 20
0.4009999999999998
 30
4.024499999999999
 11
1.61365
 21
0.4009999999999998
 31
4.024499999999999
  0
LINE
  5
72CF7
330
458D6
100
AcDbEntity
  8
0
100
AcDbLine
 10
1.883649999999999
 20
0.4009999999999998
 30
3.905499999999999
 11
1.945649999999999
 21
0.4009999999999998
 31
3.94596065259117
  0
LINE
  5
72CF8
330
458D6
100
AcDbEntity
  8
0
100
AcDbLine
 10
1.883649999999999
 20
0.4009999999999998
 30
4.199499999999999
 11
1.883649999999999
 21
0.4009999999999998
 31
4.024499999999999
  0
LINE
  5
72CF9
330
458D6
100
AcDbEntity
  8
0
100
AcDbLine
 10
1.945649999999999
 20
0.4009999999999998
 30
4.0245
 11
1.883649999999999
 21
0.4009999999999998
 31
4.024499999999999
  0
LINE
  5
72CFA
330
458D6
100
AcDbEntity
  8
0
100
AcDbLine
 10
1.61365
 20
0.4009999999999998
 30
4.303499999999999
 11
1.883649999999999
 21
0.4009999999999998
 31
4.303499999999999
  0
LINE
  5
72CFB
330
458D6
100
AcDbEntity
  8
0
100
AcDbLine
 10
1.61365
 20
0.4009999999999998
 30
4.575499999999999
 11
1.883649999999999
 21
0.4009999999999998
 31
4.575499999999999
  0
LINE
  5
72CFC
330
458D6
100
AcDbEntity
  8
0
100
AcDbLine
 10
1.61365
 20
0.4009999999999998
 30
4.575499999999999
 11
1.61365
 21
0.4009999999999998
 31
4.303499999999999
  0
LINE
  5
72CFD
330
458D6
100
AcDbEntity
  8
0
100
AcDbLine
 10
1.883649999999999
 20
0.4009999999999998
 30
4.575499999999999
 11
1.883649999999999
 21
0.4009999999999998
 31
4.303499999999999
  0
LINE
  5
72CFE
330
458D6
100
AcDbEntity
  8
0
100
AcDbLine
 10
1.551649999999997
 20
0.4009999999999989
 30
4.636499999999999
 11
1.945649999999997
 21
0.4009999999999998
 31
4.636499999999999
210
0.0
220
-1.0
230
0.0
  0
POLYLINE
  5
72CFF
330
458D6
100
AcDbEntity
  8
0
100
AcDbPolygonMesh
 66
     1
 10
0.0
 20
0.0
 30
0.0
 70
    16
 71
     6
 72
     3
  0
VERTEX
  5
72D00
330
72CFF
100
AcDbEntity
  8
0
100
AcDbVertex
100
AcDbPolygonMeshVertex
 10
2.065999999999999
 20
0.5149999999999997
 30
4.636499999999999
 70
    64
  0
VERTEX
  5
72D01
330
72CFF
100
AcDbEntity
  8
0
100
AcDbVertex
100
AcDbPolygonMeshVertex
 10
2.065999999999999
 20
0.5149999999999997
 30
3.218499999999999
 70
    64
  0
VERTEX
  5
72D02
330
72CFF
100
AcDbEntity
  8
0
100
AcDbVertex
100
AcDbPolygonMeshVertex
 10
2.065999999999999
 20
0.5149999999999997
 30
3.218499999999999
 70
    64
  0
VERTEX
  5
72D03
330
72CFF
100
AcDbEntity
  8
0
100
AcDbVertex
100
AcDbPolygonMeshVertex
 10
2.119999999999999
 20
0.5149999999999997
 30
4.636499999999999
 70
    64
  0
VERTEX
  5
72D04
330
72CFF
100
AcDbEntity
  8
0
100
AcDbVertex
100
AcDbPolygonMeshVertex
 10
2.119999999999999
 20
0.5149999999999997
 30
3.218499999999999
 70
    64
  0
VERTEX
  5
72D05
330
72CFF
100
AcDbEntity
  8
0
100
AcDbVertex
100
AcDbPolygonMeshVertex
 10
2.119999999999999
 20
0.5149999999999997
 30
3.218499999999999
 70
    64
  0
VERTEX
  5
72D06
330
72CFF
100
AcDbEntity
  8
0
100
AcDbVertex
100
AcDbPolygonMeshVertex
 10
2.119999999999999
 20
0.4009999999999998
 30
4.636499999999999
 70
    64
  0
VERTEX
  5
72D07
330
72CFF
100
AcDbEntity
  8
0
100
AcDbVertex
100
AcDbPolygonMeshVertex
 10
2.119999999999999
 20
0.4009999999999998
 30
3.218499999999999
 70
    64
  0
VERTEX
  5
72D08
330
72CFF
100
AcDbEntity
  8
0
100
AcDbVertex
100
AcDbPolygonMeshVertex
 10
2.119999999999999
 20
0.5149999999999997
 30
3.218499999999999
 70
    64
  0
VERTEX
  5
72D09
330
72CFF
100
AcDbEntity
  8
0
100
AcDbVertex
100
AcDbPolygonMeshVertex
 10
2.065999999999999
 20
0.4009999999999998
 30
4.636499999999999
 70
    64
  0
VERTEX
  5
72D0A
330
72CFF
100
AcDbEntity
  8
0
100
AcDbVertex
100
AcDbPolygonMeshVertex
 10
2.065999999999999
 20
0.4009999999999998
 30
3.218499999999999
 70
    64
  0
VERTEX
  5
72D0B
330
72CFF
100
AcDbEntity
  8
0
100
AcDbVertex
100
AcDbPolygonMeshVertex
 10
2.065999999999999
 20
0.5149999999999997
 30
3.218499999999999
 70
    64
  0
VERTEX
  5
72D0C
330
72CFF
100
AcDbEntity
  8
0
100
AcDbVertex
100
AcDbPolygonMeshVertex
 10
2.065999999999999
 20
0.4009999999999998
 30
4.636499999999999
 70
    64
  0
VERTEX
  5
72D0D
330
72CFF
100
AcDbEntity
  8
0
100
AcDbVertex
100
AcDbPolygonMeshVertex
 10
2.065999999999999
 20
0.4009999999999998
 30
4.636499999999999
 70
    64
  0
VERTEX
  5
72D0E
330
72CFF
100
AcDbEntity
  8
0
100
AcDbVertex
100
AcDbPolygonMeshVertex
 10
2.065999999999999
 20
0.5149999999999997
 30
4.636499999999999
 70
    64
  0
VERTEX
  5
72D0F
330
72CFF
100
AcDbEntity
  8
0
100
AcDbVertex
100
AcDbPolygonMeshVertex
 10
2.119999999999999
 20
0.4009999999999998
 30
4.636499999999999
 70
    64
  0
VERTEX
  5
72D10
330
72CFF
100
AcDbEntity
  8
0
100
AcDbVertex
100
AcDbPolygonMeshVertex
 10
2.119999999999999
 20
0.4009999999999998
 30
4.636499999999999
 70
    64
  0
VERTEX
  5
72D11
330
72CFF
100
AcDbEntity
  8
0
100
AcDbVertex
100
AcDbPolygonMeshVertex
 10
2.119999999999999
 20
0.5149999999999997
 30
4.636499999999999
 70
    64
  0
SEQEND
  5
72D12
330
72CFF
100
AcDbEntity
  8
0
  0
POLYLINE
  5
72D13
330
458D6
100
AcDbEntity
  8
0
100
AcDbPolygonMesh
 66
     1
 10
0.0
 20
0.0
 30
0.0
 70
    16
 71
     6
 72
     3
  0
VERTEX
  5
72D14
330
72D13
100
AcDbEntity
  8
0
100
AcDbVertex
100
AcDbPolygonMeshVertex
 10
-0.0000000000000009
 20
0.5149999999999997
 30
4.636499999999999
 70
    64
  0
VERTEX
  5
72D15
330
72D13
100
AcDbEntity
  8
0
100
AcDbVertex
100
AcDbPolygonMeshVertex
 10
-0.0000000000000009
 20
0.5149999999999997
 30
3.218499999999999
 70
    64
  0
VERTEX
  5
72D16
330
72D13
100
AcDbEntity
  8
0
100
AcDbVertex
100
AcDbPolygonMeshVertex
 10
-0.0000000000000009
 20
0.5149999999999997
 30
3.218499999999999
 70
    64
  0
VERTEX
  5
72D17
330
72D13
100
AcDbEntity
  8
0
100
AcDbVertex
100
AcDbPolygonMeshVertex
 10
0.0539999999999994
 20
0.5149999999999997
 30
4.636499999999999
 70
    64
  0
VERTEX
  5
72D18
330
72D13
100
AcDbEntity
  8
0
100
AcDbVertex
100
AcDbPolygonMeshVertex
 10
0.0539999999999994
 20
0.5149999999999997
 30
3.218499999999999
 70
    64
  0
VERTEX
  5
72D19
330
72D13
100
AcDbEntity
  8
0
100
AcDbVertex
100
AcDbPolygonMeshVertex
 10
0.0539999999999994
 20
0.5149999999999997
 30
3.218499999999999
 70
    64
  0
VERTEX
  5
72D1A
330
72D13
100
AcDbEntity
  8
0
100
AcDbVertex
100
AcDbPolygonMeshVertex
 10
0.0539999999999994
 20
0.4009999999999998
 30
4.636499999999999
 70
    64
  0
VERTEX
  5
72D1B
330
72D13
100
AcDbEntity
  8
0
100
AcDbVertex
100
AcDbPolygonMeshVertex
 10
0.0539999999999994
 20
0.4009999999999998
 30
3.218499999999999
 70
    64
  0
VERTEX
  5
72D1C
330
72D13
100
AcDbEntity
  8
0
100
AcDbVertex
100
AcDbPolygonMeshVertex
 10
0.0539999999999994
 20
0.5149999999999997
 30
3.218499999999999
 70
    64
  0
VERTEX
  5
72D1D
330
72D13
100
AcDbEntity
  8
0
100
AcDbVertex
100
AcDbPolygonMeshVertex
 10
-0.0000000000000009
 20
0.4009999999999998
 30
4.636499999999999
 70
    64
  0
VERTEX
  5
72D1E
330
72D13
100
AcDbEntity
  8
0
100
AcDbVertex
100
AcDbPolygonMeshVertex
 10
-0.0000000000000009
 20
0.4009999999999998
 30
3.218499999999999
 70
    64
  0
VERTEX
  5
72D1F
330
72D13
100
AcDbEntity
  8
0
100
AcDbVertex
100
AcDbPolygonMeshVertex
 10
-0.0000000000000009
 20
0.5149999999999997
 30
3.218499999999999
 70
    64
  0
VERTEX
  5
72D20
330
72D13
100
AcDbEntity
  8
0
100
AcDbVertex
100
AcDbPolygonMeshVertex
 10
-0.0000000000000009
 20
0.4009999999999998
 30
4.636499999999999
 70
    64
  0
VERTEX
  5
72D21
330
72D13
100
AcDbEntity
  8
0
100
AcDbVertex
100
AcDbPolygonMeshVertex
 10
-0.0000000000000009
 20
0.4009999999999998
 30
4.636499999999999
 70
    64
  0
VERTEX
  5
72D22
330
72D13
100
AcDbEntity
  8
0
100
AcDbVertex
100
AcDbPolygonMeshVertex
 10
-0.0000000000000009
 20
0.5149999999999997
 30
4.636499999999999
 70
    64
  0
VERTEX
  5
72D23
330
72D13
100
AcDbEntity
  8
0
100
AcDbVertex
100
AcDbPolygonMeshVertex
 10
0.0539999999999994
 20
0.4009999999999998
 30
4.636499999999999
 70
    64
  0
VERTEX
  5
72D24
330
72D13
100
AcDbEntity
  8
0
100
AcDbVertex
100
AcDbPolygonMeshVertex
 10
0.0539999999999994
 20
0.4009999999999998
 30
4.636499999999999
 70
    64
  0
VERTEX
  5
72D25
330
72D13
100
AcDbEntity
  8
0
100
AcDbVertex
100
AcDbPolygonMeshVertex
 10
0.0539999999999994
 20
0.5149999999999997
 30
4.636499999999999
 70
    64
  0
SEQEND
  5
72D26
330
72D13
100
AcDbEntity
  8
0
  0
LINE
  5
72D27
330
458D6
100
AcDbEntity
  8
0
100
AcDbLine
 10
1.551649999999997
 20
-2.088999999999999
 30
4.636499999999999
 11
1.945649999999997
 21
-2.089
 31
4.636499999999999
210
0.0
220
1.0
230
0.0
  0
LINE
  5
72D28
330
458D6
100
AcDbEntity
  8
0
100
AcDbLine
 10
1.551649999999999
 20
-2.089
 30
4.024499999999999
 11
1.613649999999999
 21
-2.089
 31
4.024499999999999
  0
LINE
  5
72D29
330
458D6
100
AcDbEntity
  8
0
100
AcDbLine
 10
1.551649999999999
 20
-2.088999999999999
 30
3.964999999999999
 11
1.551649999999997
 21
-2.088999999999999
 31
4.636499999999999
  0
LINE
  5
72D2A
330
458D6
100
AcDbEntity
  8
0
100
AcDbLine
 10
1.25705
 20
-2.089
 30
3.94596065259117
 11
1.257049999999998
 21
-2.089
 31
4.636499999999999
  0
LINE
  5
72D2B
330
458D6
100
AcDbEntity
  8
0
100
AcDbLine
 10
0.8630500000000008
 20
-2.088999999999999
 30
3.964999999999999
 11
0.863049999999999
 21
-2.088999999999999
 31
4.636499999999999
  0
LINE
  5
72D2C
330
458D6
100
AcDbEntity
  8
0
100
AcDbLine
 10
0.17435
 20
-2.088999999999999
 30
3.964999999999999
 11
0.1743499999999982
 21
-2.088999999999999
 31
4.636499999999999
  0
LINE
  5
72D2D
330
458D6
100
AcDbEntity
  8
0
100
AcDbLine
 10
0.5683500000000002
 20
-2.089
 30
3.94596065259117
 11
0.5683499999999984
 21
-2.089
 31
4.636499999999999
  0
POLYLINE
  5
72D2E
330
458D6
100
AcDbEntity
  8
0
100
AcDbPolygonMesh
 66
     1
 10
0.0
 20
0.0
 30
0.0
 70
    16
 71
     6
 72
     3
  0
VERTEX
  5
72D2F
330
72D2E
100
AcDbEntity
  8
0
100
AcDbVertex
100
AcDbPolygonMeshVertex
 10
1.431299999999999
 20
-2.203
 30
4.636499999999999
 70
    64
  0
VERTEX
  5
72D30
330
72D2E
100
AcDbEntity
  8
0
100
AcDbVertex
100
AcDbPolygonMeshVertex
 10
1.431299999999999
 20
-2.203
 30
4.024499999999999
 70
    64
  0
VERTEX
  5
72D31
330
72D2E
100
AcDbEntity
  8
0
100
AcDbVertex
100
AcDbPolygonMeshVertex
 10
1.431299999999999
 20
-2.203
 30
4.024499999999999
 70
    64
  0
VERTEX
  5
72D32
330
72D2E
100
AcDbEntity
  8
0
100
AcDbVertex
100
AcDbPolygonMeshVertex
 10
1.377299999999999
 20
-2.203
 30
4.636499999999999
 70
    64
  0
VERTEX
  5
72D33
330
72D2E
100
AcDbEntity
  8
0
100
AcDbVertex
100
AcDbPolygonMeshVertex
 10
1.377299999999999
 20
-2.203
 30
4.024499999999999
 70
    64
  0
VERTEX
  5
72D34
330
72D2E
100
AcDbEntity
  8
0
100
AcDbVertex
100
AcDbPolygonMeshVertex
 10
1.377299999999999
 20
-2.203
 30
4.024499999999999
 70
    64
  0
VERTEX
  5
72D35
330
72D2E
100
AcDbEntity
  8
0
100
AcDbVertex
100
AcDbPolygonMeshVertex
 10
1.377299999999999
 20
-2.089
 30
4.636499999999999
 70
    64
  0
VERTEX
  5
72D36
330
72D2E
100
AcDbEntity
  8
0
100
AcDbVertex
100
AcDbPolygonMeshVertex
 10
1.377299999999999
 20
-2.089
 30
4.024499999999999
 70
    64
  0
VERTEX
  5
72D37
330
72D2E
100
AcDbEntity
  8
0
100
AcDbVertex
100
AcDbPolygonMeshVertex
 10
1.377299999999999
 20
-2.203
 30
4.024499999999999
 70
    64
  0
VERTEX
  5
72D38
330
72D2E
100
AcDbEntity
  8
0
100
AcDbVertex
100
AcDbPolygonMeshVertex
 10
1.431299999999999
 20
-2.089
 30
4.636499999999999
 70
    64
  0
VERTEX
  5
72D39
330
72D2E
100
AcDbEntity
  8
0
100
AcDbVertex
100
AcDbPolygonMeshVertex
 10
1.431299999999999
 20
-2.089
 30
4.024499999999999
 70
    64
  0
VERTEX
  5
72D3A
330
72D2E
100
AcDbEntity
  8
0
100
AcDbVertex
100
AcDbPolygonMeshVertex
 10
1.431299999999999
 20
-2.203
 30
4.024499999999999
 70
    64
  0
VERTEX
  5
72D3B
330
72D2E
100
AcDbEntity
  8
0
100
AcDbVertex
100
AcDbPolygonMeshVertex
 10
1.431299999999999
 20
-2.089
 30
4.636499999999999
 70
    64
  0
VERTEX
  5
72D3C
330
72D2E
100
AcDbEntity
  8
0
100
AcDbVertex
100
AcDbPolygonMeshVertex
 10
1.431299999999999
 20
-2.089
 30
4.636499999999999
 70
    64
  0
VERTEX
  5
72D3D
330
72D2E
100
AcDbEntity
  8
0
100
AcDbVertex
100
AcDbPolygonMeshVertex
 10
1.431299999999999
 20
-2.203
 30
4.636499999999999
 70
    64
  0
VERTEX
  5
72D3E
330
72D2E
100
AcDbEntity
  8
0
100
AcDbVertex
100
AcDbPolygonMeshVertex
 10
1.377299999999999
 20
-2.089
 30
4.636499999999999
 70
    64
  0
VERTEX
  5
72D3F
330
72D2E
100
AcDbEntity
  8
0
100
AcDbVertex
100
AcDbPolygonMeshVertex
 10
1.377299999999999
 20
-2.089
 30
4.636499999999999
 70
    64
  0
VERTEX
  5
72D40
330
72D2E
100
AcDbEntity
  8
0
100
AcDbVertex
100
AcDbPolygonMeshVertex
 10
1.377299999999999
 20
-2.203
 30
4.636499999999999
 70
    64
  0
SEQEND
  5
72D41
330
72D2E
100
AcDbEntity
  8
0
  0
POLYLINE
  5
72D42
330
458D6
100
AcDbEntity
  8
0
100
AcDbPolygonMesh
 66
     1
 10
0.0
 20
0.0
 30
0.0
 70
    16
 71
     6
 72
     3
  0
VERTEX
  5
72D43
330
72D42
100
AcDbEntity
  8
0
100
AcDbVertex
100
AcDbPolygonMeshVertex
 10
0.6887000000000004
 20
-2.203
 30
4.636499999999999
 70
    64
  0
VERTEX
  5
72D44
330
72D42
100
AcDbEntity
  8
0
100
AcDbVertex
100
AcDbPolygonMeshVertex
 10
0.6887000000000004
 20
-2.203
 30
4.024499999999999
 70
    64
  0
VERTEX
  5
72D45
330
72D42
100
AcDbEntity
  8
0
100
AcDbVertex
100
AcDbPolygonMeshVertex
 10
0.6887000000000004
 20
-2.203
 30
4.024499999999999
 70
    64
  0
VERTEX
  5
72D46
330
72D42
100
AcDbEntity
  8
0
100
AcDbVertex
100
AcDbPolygonMeshVertex
 10
0.7427000000000006
 20
-2.203
 30
4.636499999999999
 70
    64
  0
VERTEX
  5
72D47
330
72D42
100
AcDbEntity
  8
0
100
AcDbVertex
100
AcDbPolygonMeshVertex
 10
0.7427000000000006
 20
-2.203
 30
4.024499999999999
 70
    64
  0
VERTEX
  5
72D48
330
72D42
100
AcDbEntity
  8
0
100
AcDbVertex
100
AcDbPolygonMeshVertex
 10
0.7427000000000006
 20
-2.203
 30
4.024499999999999
 70
    64
  0
VERTEX
  5
72D49
330
72D42
100
AcDbEntity
  8
0
100
AcDbVertex
100
AcDbPolygonMeshVertex
 10
0.7427000000000006
 20
-2.089
 30
4.636499999999999
 70
    64
  0
VERTEX
  5
72D4A
330
72D42
100
AcDbEntity
  8
0
100
AcDbVertex
100
AcDbPolygonMeshVertex
 10
0.7427000000000006
 20
-2.089
 30
4.024499999999999
 70
    64
  0
VERTEX
  5
72D4B
330
72D42
100
AcDbEntity
  8
0
100
AcDbVertex
100
AcDbPolygonMeshVertex
 10
0.7427000000000006
 20
-2.203
 30
4.024499999999999
 70
    64
  0
VERTEX
  5
72D4C
330
72D42
100
AcDbEntity
  8
0
100
AcDbVertex
100
AcDbPolygonMeshVertex
 10
0.6887000000000004
 20
-2.089
 30
4.636499999999999
 70
    64
  0
VERTEX
  5
72D4D
330
72D42
100
AcDbEntity
  8
0
100
AcDbVertex
100
AcDbPolygonMeshVertex
 10
0.6887000000000004
 20
-2.089
 30
4.024499999999999
 70
    64
  0
VERTEX
  5
72D4E
330
72D42
100
AcDbEntity
  8
0
100
AcDbVertex
100
AcDbPolygonMeshVertex
 10
0.6887000000000004
 20
-2.203
 30
4.024499999999999
 70
    64
  0
VERTEX
  5
72D4F
330
72D42
100
AcDbEntity
  8
0
100
AcDbVertex
100
AcDbPolygonMeshVertex
 10
0.6887000000000004
 20
-2.089
 30
4.636499999999999
 70
    64
  0
VERTEX
  5
72D50
330
72D42
100
AcDbEntity
  8
0
100
AcDbVertex
100
AcDbPolygonMeshVertex
 10
0.6887000000000004
 20
-2.089
 30
4.636499999999999
 70
    64
  0
VERTEX
  5
72D51
330
72D42
100
AcDbEntity
  8
0
100
AcDbVertex
100
AcDbPolygonMeshVertex
 10
0.6887000000000004
 20
-2.203
 30
4.636499999999999
 70
    64
  0
VERTEX
  5
72D52
330
72D42
100
AcDbEntity
  8
0
100
AcDbVertex
100
AcDbPolygonMeshVertex
 10
0.7427000000000006
 20
-2.089
 30
4.636499999999999
 70
    64
  0
VERTEX
  5
72D53
330
72D42
100
AcDbEntity
  8
0
100
AcDbVertex
100
AcDbPolygonMeshVertex
 10
0.7427000000000006
 20
-2.089
 30
4.636499999999999
 70
    64
  0
VERTEX
  5
72D54
330
72D42
100
AcDbEntity
  8
0
100
AcDbVertex
100
AcDbPolygonMeshVertex
 10
0.7427000000000006
 20
-2.203
 30
4.636499999999999
 70
    64
  0
SEQEND
  5
72D55
330
72D42
100
AcDbEntity
  8
0
  0
LINE
  5
72D56
330
458D6
100
AcDbEntity
  8
0
100
AcDbLine
 10
0.2363499999999994
 20
-2.089
 30
3.905499999999999
 11
0.506349999999999
 21
-2.089
 31
3.905499999999999
  0
LINE
  5
72D57
330
458D6
100
AcDbEntity
  8
0
100
AcDbLine
 10
0.2363499999999994
 20
-2.089
 30
4.199499999999999
 11
0.506349999999999
 21
-2.089
 31
4.199499999999999
  0
LINE
  5
72D58
330
458D6
100
AcDbEntity
  8
0
100
AcDbLine
 10
0.2363499999999994
 20
-2.089
 30
3.905499999999999
 11
0.17435
 21
-2.088999999999999
 31
3.964999999999999
  0
LINE
  5
72D59
330
458D6
100
AcDbEntity
  8
0
100
AcDbLine
 10
0.2363500000000003
 20
-2.089
 30
4.199499999999999
 11
0.2363499999999994
 21
-2.089
 31
4.024499999999999
  0
LINE
  5
72D5A
330
458D6
100
AcDbEntity
  8
0
100
AcDbLine
 10
0.1743499999999991
 20
-2.089
 30
4.024499999999999
 11
0.2363499999999994
 21
-2.089
 31
4.024499999999999
  0
LINE
  5
72D5B
330
458D6
100
AcDbEntity
  8
0
100
AcDbLine
 10
0.9250500000000002
 20
-2.089
 30
4.199499999999999
 11
1.19505
 21
-2.089
 31
4.199499999999999
  0
LINE
  5
72D5C
330
458D6
100
AcDbEntity
  8
0
100
AcDbLine
 10
0.9250500000000002
 20
-2.089
 30
3.905499999999999
 11
1.19505
 21
-2.089
 31
3.905499999999999
  0
LINE
  5
72D5D
330
458D6
100
AcDbEntity
  8
0
100
AcDbLine
 10
0.506349999999999
 20
-2.089
 30
3.905499999999999
 11
0.5683500000000002
 21
-2.089
 31
3.94596065259117
  0
LINE
  5
72D5E
330
458D6
100
AcDbEntity
  8
0
100
AcDbLine
 10
0.9250500000000002
 20
-2.089
 30
3.905499999999999
 11
0.8630500000000008
 21
-2.088999999999999
 31
3.964999999999999
  0
LINE
  5
72D5F
330
458D6
100
AcDbEntity
  8
0
100
AcDbLine
 10
0.506349999999999
 20
-2.089
 30
4.199499999999999
 11
0.506349999999999
 21
-2.089
 31
4.024499999999999
  0
LINE
  5
72D60
330
458D6
100
AcDbEntity
  8
0
100
AcDbLine
 10
0.5683500000000002
 20
-2.089
 30
4.0245
 11
0.506349999999999
 21
-2.089
 31
4.024499999999999
  0
LINE
  5
72D61
330
458D6
100
AcDbEntity
  8
0
100
AcDbLine
 10
0.925050000000002
 20
-2.089
 30
4.199499999999999
 11
0.9250500000000002
 21
-2.089
 31
4.024499999999999
  0
LINE
  5
72D62
330
458D6
100
AcDbEntity
  8
0
100
AcDbLine
 10
0.8630500000000008
 20
-2.089
 30
4.024499999999999
 11
0.9250500000000002
 21
-2.089
 31
4.024499999999999
  0
LINE
  5
72D63
330
458D6
100
AcDbEntity
  8
0
100
AcDbLine
 10
1.19505
 20
-2.089
 30
3.905499999999999
 11
1.25705
 21
-2.089
 31
3.94596065259117
  0
LINE
  5
72D64
330
458D6
100
AcDbEntity
  8
0
100
AcDbLine
 10
1.19505
 20
-2.089
 30
4.199499999999999
 11
1.19505
 21
-2.089
 31
4.024499999999999
  0
LINE
  5
72D65
330
458D6
100
AcDbEntity
  8
0
100
AcDbLine
 10
1.25705
 20
-2.089
 30
4.0245
 11
1.19505
 21
-2.089
 31
4.024499999999999
  0
LINE
  5
72D66
330
458D6
100
AcDbEntity
  8
0
100
AcDbLine
 10
0.1743499999999982
 20
-2.088999999999999
 30
4.636499999999999
 11
0.5683499999999984
 21
-2.089
 31
4.636499999999999
210
0.0
220
1.0
230
0.0
  0
LINE
  5
72D67
330
458D6
100
AcDbEntity
  8
0
100
AcDbLine
 10
0.2363499999999994
 20
-2.089
 30
4.575499999999999
 11
0.506349999999999
 21
-2.089
 31
4.575499999999999
  0
LINE
  5
72D68
330
458D6
100
AcDbEntity
  8
0
100
AcDbLine
 10
0.2363499999999994
 20
-2.089
 30
4.303499999999999
 11
0.506349999999999
 21
-2.089
 31
4.303499999999999
  0
LINE
  5
72D69
330
458D6
100
AcDbEntity
  8
0
100
AcDbLine
 10
0.2363499999999994
 20
-2.089
 30
4.575499999999999
 11
0.2363499999999994
 21
-2.089
 31
4.303499999999999
  0
LINE
  5
72D6A
330
458D6
100
AcDbEntity
  8
0
100
AcDbLine
 10
0.9250500000000002
 20
-2.089
 30
4.303499999999999
 11
1.19505
 21
-2.089
 31
4.303499999999999
  0
LINE
  5
72D6B
330
458D6
100
AcDbEntity
  8
0
100
AcDbLine
 10
0.9250500000000002
 20
-2.089
 30
4.575499999999999
 11
1.19505
 21
-2.089
 31
4.575499999999999
  0
LINE
  5
72D6C
330
458D6
100
AcDbEntity
  8
0
100
AcDbLine
 10
0.9250500000000002
 20
-2.089
 30
4.575499999999999
 11
0.9250500000000002
 21
-2.089
 31
4.303499999999999
  0
LINE
  5
72D6D
330
458D6
100
AcDbEntity
  8
0
100
AcDbLine
 10
0.506349999999999
 20
-2.089
 30
4.575499999999999
 11
0.506349999999999
 21
-2.089
 31
4.303499999999999
  0
LINE
  5
72D6E
330
458D6
100
AcDbEntity
  8
0
100
AcDbLine
 10
1.19505
 20
-2.089
 30
4.575499999999999
 11
1.19505
 21
-2.089
 31
4.303499999999999
  0
LINE
  5
72D6F
330
458D6
100
AcDbEntity
  8
0
100
AcDbLine
 10
0.863049999999999
 20
-2.088999999999999
 30
4.636499999999999
 11
1.257049999999998
 21
-2.089
 31
4.636499999999999
210
0.0
220
1.0
230
0.0
  0
LINE
  5
72D70
330
458D6
100
AcDbEntity
  8
0
100
AcDbLine
 10
1.613649999999999
 20
-2.089
 30
4.199499999999999
 11
1.883649999999999
 21
-2.089
 31
4.199499999999999
  0
LINE
  5
72D71
330
458D6
100
AcDbEntity
  8
0
100
AcDbLine
 10
1.61365
 20
-2.089
 30
4.199499999999999
 11
1.613649999999999
 21
-2.089
 31
4.024499999999999
  0
LINE
  5
72D72
330
458D6
100
AcDbEntity
  8
0
100
AcDbLine
 10
1.883649999999999
 20
-2.089
 30
4.575499999999999
 11
1.883649999999999
 21
-2.089
 31
4.303499999999999
  0
LINE
  5
72D73
330
458D6
100
AcDbEntity
  8
0
100
AcDbLine
 10
1.613649999999999
 20
-2.089
 30
4.575499999999999
 11
1.613649999999999
 21
-2.089
 31
4.303499999999999
  0
LINE
  5
72D74
330
458D6
100
AcDbEntity
  8
0
100
AcDbLine
 10
1.613649999999999
 20
-2.089
 30
4.303499999999999
 11
1.883649999999999
 21
-2.089
 31
4.303499999999999
  0
LINE
  5
72D75
330
458D6
100
AcDbEntity
  8
0
100
AcDbLine
 10
1.613649999999999
 20
-2.089
 30
4.575499999999999
 11
1.883649999999999
 21
-2.089
 31
4.575499999999999
  0
POLYLINE
  5
72D76
330
458D6
100
AcDbEntity
  8
0
100
AcDbPolygonMesh
 66
     1
 10
0.0
 20
0.0
 30
0.0
 70
    16
 71
     6
 72
     3
  0
VERTEX
  5
72D77
330
72D76
100
AcDbEntity
  8
0
100
AcDbVertex
100
AcDbPolygonMeshVertex
 10
-0.0000000000000004
 20
-2.203
 30
4.636499999999999
 70
    64
  0
VERTEX
  5
72D78
330
72D76
100
AcDbEntity
  8
0
100
AcDbVertex
100
AcDbPolygonMeshVertex
 10
-0.0000000000000004
 20
-2.203
 30
3.218499999999999
 70
    64
  0
VERTEX
  5
72D79
330
72D76
100
AcDbEntity
  8
0
100
AcDbVertex
100
AcDbPolygonMeshVertex
 10
-0.0000000000000004
 20
-2.203
 30
3.218499999999999
 70
    64
  0
VERTEX
  5
72D7A
330
72D76
100
AcDbEntity
  8
0
100
AcDbVertex
100
AcDbPolygonMeshVertex
 10
0.0539999999999998
 20
-2.203
 30
4.636499999999999
 70
    64
  0
VERTEX
  5
72D7B
330
72D76
100
AcDbEntity
  8
0
100
AcDbVertex
100
AcDbPolygonMeshVertex
 10
0.0539999999999998
 20
-2.203
 30
3.218499999999999
 70
    64
  0
VERTEX
  5
72D7C
330
72D76
100
AcDbEntity
  8
0
100
AcDbVertex
100
AcDbPolygonMeshVertex
 10
0.0539999999999998
 20
-2.203
 30
3.218499999999999
 70
    64
  0
VERTEX
  5
72D7D
330
72D76
100
AcDbEntity
  8
0
100
AcDbVertex
100
AcDbPolygonMeshVertex
 10
0.0539999999999998
 20
-2.089
 30
4.636499999999999
 70
    64
  0
VERTEX
  5
72D7E
330
72D76
100
AcDbEntity
  8
0
100
AcDbVertex
100
AcDbPolygonMeshVertex
 10
0.0539999999999998
 20
-2.089
 30
3.218499999999999
 70
    64
  0
VERTEX
  5
72D7F
330
72D76
100
AcDbEntity
  8
0
100
AcDbVertex
100
AcDbPolygonMeshVertex
 10
0.0539999999999998
 20
-2.203
 30
3.218499999999999
 70
    64
  0
VERTEX
  5
72D80
330
72D76
100
AcDbEntity
  8
0
100
AcDbVertex
100
AcDbPolygonMeshVertex
 10
-0.0000000000000004
 20
-2.089
 30
4.636499999999999
 70
    64
  0
VERTEX
  5
72D81
330
72D76
100
AcDbEntity
  8
0
100
AcDbVertex
100
AcDbPolygonMeshVertex
 10
-0.0000000000000004
 20
-2.089
 30
3.218499999999999
 70
    64
  0
VERTEX
  5
72D82
330
72D76
100
AcDbEntity
  8
0
100
AcDbVertex
100
AcDbPolygonMeshVertex
 10
-0.0000000000000004
 20
-2.203
 30
3.218499999999999
 70
    64
  0
VERTEX
  5
72D83
330
72D76
100
AcDbEntity
  8
0
100
AcDbVertex
100
AcDbPolygonMeshVertex
 10
-0.0000000000000004
 20
-2.089
 30
4.636499999999999
 70
    64
  0
VERTEX
  5
72D84
330
72D76
100
AcDbEntity
  8
0
100
AcDbVertex
100
AcDbPolygonMeshVertex
 10
-0.0000000000000004
 20
-2.089
 30
4.636499999999999
 70
    64
  0
VERTEX
  5
72D85
330
72D76
100
AcDbEntity
  8
0
100
AcDbVertex
100
AcDbPolygonMeshVertex
 10
-0.0000000000000004
 20
-2.203
 30
4.636499999999999
 70
    64
  0
VERTEX
  5
72D86
330
72D76
100
AcDbEntity
  8
0
100
AcDbVertex
100
AcDbPolygonMeshVertex
 10
0.0539999999999998
 20
-2.089
 30
4.636499999999999
 70
    64
  0
VERTEX
  5
72D87
330
72D76
100
AcDbEntity
  8
0
100
AcDbVertex
100
AcDbPolygonMeshVertex
 10
0.0539999999999998
 20
-2.089
 30
4.636499999999999
 70
    64
  0
VERTEX
  5
72D88
330
72D76
100
AcDbEntity
  8
0
100
AcDbVertex
100
AcDbPolygonMeshVertex
 10
0.0539999999999998
 20
-2.203
 30
4.636499999999999
 70
    64
  0
SEQEND
  5
72D89
330
72D76
100
AcDbEntity
  8
0
  0
LINE
  5
72D8A
330
458D6
100
AcDbEntity
  8
0
100
AcDbLine
 10
1.613649999999999
 20
-2.089
 30
3.905499999999999
 11
1.551649999999999
 21
-2.088999999999999
 31
3.964999999999999
  0
POLYLINE
  5
72D8B
330
458D6
100
AcDbEntity
  8
0
100
AcDbPolygonMesh
 66
     1
 10
0.0
 20
0.0
 30
0.0
 70
    16
 71
     6
 72
     3
  0
VERTEX
  5
72D8C
330
72D8B
100
AcDbEntity
  8
0
100
AcDbVertex
100
AcDbPolygonMeshVertex
 10
2.065999999999998
 20
-2.203
 30
4.636499999999999
 70
    64
  0
VERTEX
  5
72D8D
330
72D8B
100
AcDbEntity
  8
0
100
AcDbVertex
100
AcDbPolygonMeshVertex
 10
2.065999999999998
 20
-2.203
 30
3.218499999999999
 70
    64
  0
VERTEX
  5
72D8E
330
72D8B
100
AcDbEntity
  8
0
100
AcDbVertex
100
AcDbPolygonMeshVertex
 10
2.065999999999998
 20
-2.203
 30
3.218499999999999
 70
    64
  0
VERTEX
  5
72D8F
330
72D8B
100
AcDbEntity
  8
0
100
AcDbVertex
100
AcDbPolygonMeshVertex
 10
2.119999999999999
 20
-2.203
 30
4.636499999999999
 70
    64
  0
VERTEX
  5
72D90
330
72D8B
100
AcDbEntity
  8
0
100
AcDbVertex
100
AcDbPolygonMeshVertex
 10
2.119999999999999
 20
-2.203
 30
3.218499999999999
 70
    64
  0
VERTEX
  5
72D91
330
72D8B
100
AcDbEntity
  8
0
100
AcDbVertex
100
AcDbPolygonMeshVertex
 10
2.119999999999999
 20
-2.203
 30
3.218499999999999
 70
    64
  0
VERTEX
  5
72D92
330
72D8B
100
AcDbEntity
  8
0
100
AcDbVertex
100
AcDbPolygonMeshVertex
 10
2.119999999999999
 20
-2.089
 30
4.636499999999999
 70
    64
  0
VERTEX
  5
72D93
330
72D8B
100
AcDbEntity
  8
0
100
AcDbVertex
100
AcDbPolygonMeshVertex
 10
2.119999999999999
 20
-2.089
 30
3.218499999999999
 70
    64
  0
VERTEX
  5
72D94
330
72D8B
100
AcDbEntity
  8
0
100
AcDbVertex
100
AcDbPolygonMeshVertex
 10
2.119999999999999
 20
-2.203
 30
3.218499999999999
 70
    64
  0
VERTEX
  5
72D95
330
72D8B
100
AcDbEntity
  8
0
100
AcDbVertex
100
AcDbPolygonMeshVertex
 10
2.065999999999998
 20
-2.089
 30
4.636499999999999
 70
    64
  0
VERTEX
  5
72D96
330
72D8B
100
AcDbEntity
  8
0
100
AcDbVertex
100
AcDbPolygonMeshVertex
 10
2.065999999999998
 20
-2.089
 30
3.218499999999999
 70
    64
  0
VERTEX
  5
72D97
330
72D8B
100
AcDbEntity
  8
0
100
AcDbVertex
100
AcDbPolygonMeshVertex
 10
2.065999999999998
 20
-2.203
 30
3.218499999999999
 70
    64
  0
VERTEX
  5
72D98
330
72D8B
100
AcDbEntity
  8
0
100
AcDbVertex
100
AcDbPolygonMeshVertex
 10
2.065999999999998
 20
-2.089
 30
4.636499999999999
 70
    64
  0
VERTEX
  5
72D99
330
72D8B
100
AcDbEntity
  8
0
100
AcDbVertex
100
AcDbPolygonMeshVertex
 10
2.065999999999998
 20
-2.089
 30
4.636499999999999
 70
    64
  0
VERTEX
  5
72D9A
330
72D8B
100
AcDbEntity
  8
0
100
AcDbVertex
100
AcDbPolygonMeshVertex
 10
2.065999999999998
 20
-2.203
 30
4.636499999999999
 70
    64
  0
VERTEX
  5
72D9B
330
72D8B
100
AcDbEntity
  8
0
100
AcDbVertex
100
AcDbPolygonMeshVertex
 10
2.119999999999999
 20
-2.089
 30
4.636499999999999
 70
    64
  0
VERTEX
  5
72D9C
330
72D8B
100
AcDbEntity
  8
0
100
AcDbVertex
100
AcDbPolygonMeshVertex
 10
2.119999999999999
 20
-2.089
 30
4.636499999999999
 70
    64
  0
VERTEX
  5
72D9D
330
72D8B
100
AcDbEntity
  8
0
100
AcDbVertex
100
AcDbPolygonMeshVertex
 10
2.119999999999999
 20
-2.203
 30
4.636499999999999
 70
    64
  0
SEQEND
  5
72D9E
330
72D8B
100
AcDbEntity
  8
0
  0
LINE
  5
72D9F
330
458D6
100
AcDbEntity
  8
0
100
AcDbLine
 10
1.945649999999999
 20
-2.089
 30
3.94596065259117
 11
1.945649999999997
 21
-2.089
 31
4.636499999999999
  0
LINE
  5
72DA0
330
458D6
100
AcDbEntity
  8
0
100
AcDbLine
 10
1.613649999999999
 20
-2.089
 30
3.905499999999999
 11
1.883649999999999
 21
-2.089
 31
3.905499999999999
  0
LINE
  5
72DA1
330
458D6
100
AcDbEntity
  8
0
100
AcDbLine
 10
1.883649999999999
 20
-2.089
 30
3.905499999999999
 11
1.945649999999999
 21
-2.089
 31
3.94596065259117
  0
LINE
  5
72DA2
330
458D6
100
AcDbEntity
  8
0
100
AcDbLine
 10
1.883649999999999
 20
-2.089
 30
4.199499999999999
 11
1.883649999999999
 21
-2.089
 31
4.024499999999999
  0
LINE
  5
72DA3
330
458D6
100
AcDbEntity
  8
0
100
AcDbLine
 10
1.945649999999999
 20
-2.089
 30
4.0245
 11
1.883649999999999
 21
-2.089
 31
4.024499999999999
  0
LINE
  5
72DA4
330
458D6
100
AcDbEntity
  8
0
100
AcDbLine
 10
0.647723391696637
 20
-2.089
 30
-0.0000000000000001
 11
0.8583900583633035
 21
-2.089
 31
-0.0000000000000001
  0
POLYLINE
  5
72DA5
330
458D6
100
AcDbEntity
  8
0
100
AcDb3dPolyline
 66
     1
 10
0.0
 20
0.0
 30
0.0
 70
     8
  0
VERTEX
  5
72DA6
330
72DA5
100
AcDbEntity
  8
0
100
AcDbVertex
100
AcDb3dPolylineVertex
 10
0.647723391696637
 20
-2.089
 30
-0.0000000000000001
 70
    32
  0
VERTEX
  5
72DA7
330
72DA5
100
AcDbEntity
  8
0
100
AcDbVertex
100
AcDb3dPolylineVertex
 10
0.647723391696637
 20
-2.224
 30
0.0
 70
    32
  0
VERTEX
  5
72DA8
330
72DA5
100
AcDbEntity
  8
0
100
AcDbVertex
100
AcDb3dPolylineVertex
 10
0.8583900583633035
 20
-2.224
 30
0.0
 70
    32
  0
VERTEX
  5
72DA9
330
72DA5
100
AcDbEntity
  8
0
100
AcDbVertex
100
AcDb3dPolylineVertex
 10
0.8583900583633035
 20
-2.089
 30
-0.0000000000000001
 70
    32
  0
SEQEND
  5
72DAA
330
72DA5
100
AcDbEntity
  8
0
  0
POLYLINE
  5
72DAB
330
458D6
100
AcDbEntity
  8
0
100
AcDb3dPolyline
 66
     1
 10
0.0
 20
0.0
 30
0.0
 70
     8
  0
VERTEX
  5
72DAC
330
72DAB
100
AcDbEntity
  8
0
100
AcDbVertex
100
AcDb3dPolylineVertex
 10
0.647723391696637
 20
-2.089
 30
0.187
 70
    32
  0
VERTEX
  5
72DAD
330
72DAB
100
AcDbEntity
  8
0
100
AcDbVertex
100
AcDb3dPolylineVertex
 10
0.647723391696637
 20
-2.224
 30
0.187
 70
    32
  0
VERTEX
  5
72DAE
330
72DAB
100
AcDbEntity
  8
0
100
AcDbVertex
100
AcDb3dPolylineVertex
 10
0.8583900583633035
 20
-2.224
 30
0.187
 70
    32
  0
VERTEX
  5
72DAF
330
72DAB
100
AcDbEntity
  8
0
100
AcDbVertex
100
AcDb3dPolylineVertex
 10
0.8583900583633035
 20
-2.089
 30
0.187
 70
    32
  0
SEQEND
  5
72DB0
330
72DAB
100
AcDbEntity
  8
0
  0
POLYLINE
  5
72DB1
330
458D6
100
AcDbEntity
  8
0
100
AcDbPolygonMesh
 66
     1
 10
0.0
 20
0.0
 30
0.0
 70
    16
 71
     6
 72
     3
  0
VERTEX
  5
72DB2
330
72DB1
100
AcDbEntity
  8
0
100
AcDbVertex
100
AcDbPolygonMeshVertex
 10
0.9203900583633028
 20
-2.286
 30
0.187
 70
    64
  0
VERTEX
  5
72DB3
330
72DB1
100
AcDbEntity
  8
0
100
AcDbVertex
100
AcDbPolygonMeshVertex
 10
0.9203900583633028
 20
-2.286
 30
0.0
 70
    64
  0
VERTEX
  5
72DB4
330
72DB1
100
AcDbEntity
  8
0
100
AcDbVertex
100
AcDbPolygonMeshVertex
 10
0.9203900583633028
 20
-2.286
 30
0.0
 70
    64
  0
VERTEX
  5
72DB5
330
72DB1
100
AcDbEntity
  8
0
100
AcDbVertex
100
AcDbPolygonMeshVertex
 10
0.3130567250299698
 20
-2.286
 30
0.187
 70
    64
  0
VERTEX
  5
72DB6
330
72DB1
100
AcDbEntity
  8
0
100
AcDbVertex
100
AcDbPolygonMeshVertex
 10
0.3130567250299698
 20
-2.286
 30
0.0
 70
    64
  0
VERTEX
  5
72DB7
330
72DB1
100
AcDbEntity
  8
0
100
AcDbVertex
100
AcDbPolygonMeshVertex
 10
0.3130567250299698
 20
-2.286
 30
0.0
 70
    64
  0
VERTEX
  5
72DB8
330
72DB1
100
AcDbEntity
  8
0
100
AcDbVertex
100
AcDbPolygonMeshVertex
 10
0.3130567250299698
 20
-2.224
 30
0.187
 70
    64
  0
VERTEX
  5
72DB9
330
72DB1
100
AcDbEntity
  8
0
100
AcDbVertex
100
AcDbPolygonMeshVertex
 10
0.3130567250299698
 20
-2.224
 30
0.0
 70
    64
  0
VERTEX
  5
72DBA
330
72DB1
100
AcDbEntity
  8
0
100
AcDbVertex
100
AcDbPolygonMeshVertex
 10
0.3130567250299698
 20
-2.286
 30
0.0
 70
    64
  0
VERTEX
  5
72DBB
330
72DB1
100
AcDbEntity
  8
0
100
AcDbVertex
100
AcDbPolygonMeshVertex
 10
0.9203900583633028
 20
-2.224
 30
0.187
 70
    64
  0
VERTEX
  5
72DBC
330
72DB1
100
AcDbEntity
  8
0
100
AcDbVertex
100
AcDbPolygonMeshVertex
 10
0.9203900583633028
 20
-2.224
 30
0.0
 70
    64
  0
VERTEX
  5
72DBD
330
72DB1
100
AcDbEntity
  8
0
100
AcDbVertex
100
AcDbPolygonMeshVertex
 10
0.9203900583633028
 20
-2.286
 30
0.0
 70
    64
  0
VERTEX
  5
72DBE
330
72DB1
100
AcDbEntity
  8
0
100
AcDbVertex
100
AcDbPolygonMeshVertex
 10
0.9203900583633028
 20
-2.224
 30
0.187
 70
    64
  0
VERTEX
  5
72DBF
330
72DB1
100
AcDbEntity
  8
0
100
AcDbVertex
100
AcDbPolygonMeshVertex
 10
0.9203900583633028
 20
-2.224
 30
0.187
 70
    64
  0
VERTEX
  5
72DC0
330
72DB1
100
AcDbEntity
  8
0
100
AcDbVertex
100
AcDbPolygonMeshVertex
 10
0.9203900583633028
 20
-2.286
 30
0.187
 70
    64
  0
VERTEX
  5
72DC1
330
72DB1
100
AcDbEntity
  8
0
100
AcDbVertex
100
AcDbPolygonMeshVertex
 10
0.3130567250299698
 20
-2.224
 30
0.187
 70
    64
  0
VERTEX
  5
72DC2
330
72DB1
100
AcDbEntity
  8
0
100
AcDbVertex
100
AcDbPolygonMeshVertex
 10
0.3130567250299698
 20
-2.224
 30
0.187
 70
    64
  0
VERTEX
  5
72DC3
330
72DB1
100
AcDbEntity
  8
0
100
AcDbVertex
100
AcDbPolygonMeshVertex
 10
0.3130567250299698
 20
-2.286
 30
0.187
 70
    64
  0
SEQEND
  5
72DC4
330
72DB1
100
AcDbEntity
  8
0
  0
LINE
  5
72DC5
330
458D6
100
AcDbEntity
  8
0
100
AcDbLine
 10
0.1962766083033625
 20
-1.954
 30
0.187
 11
0.1962766083033625
 21
-1.954
 31
0.187
  0
POLYLINE
  5
72DC6
330
458D6
100
AcDbEntity
  8
0
100
AcDbPolygonMesh
 66
     1
 10
0.0
 20
0.0
 30
0.0
 70
    16
 71
     6
 72
     3
  0
VERTEX
  5
72DC7
330
72DC6
100
AcDbEntity
  8
0
100
AcDbVertex
100
AcDbPolygonMeshVertex
 10
0.9203900583633028
 20
-2.224
 30
0.187
 70
    64
  0
VERTEX
  5
72DC8
330
72DC6
100
AcDbEntity
  8
0
100
AcDbVertex
100
AcDbPolygonMeshVertex
 10
0.9203900583633028
 20
-2.224
 30
0.0
 70
    64
  0
VERTEX
  5
72DC9
330
72DC6
100
AcDbEntity
  8
0
100
AcDbVertex
100
AcDbPolygonMeshVertex
 10
0.9203900583633028
 20
-2.224
 30
0.0
 70
    64
  0
VERTEX
  5
72DCA
330
72DC6
100
AcDbEntity
  8
0
100
AcDbVertex
100
AcDbPolygonMeshVertex
 10
0.5857233916966376
 20
-2.224
 30
0.187
 70
    64
  0
VERTEX
  5
72DCB
330
72DC6
100
AcDbEntity
  8
0
100
AcDbVertex
100
AcDbPolygonMeshVertex
 10
0.5857233916966376
 20
-2.224
 30
0.0
 70
    64
  0
VERTEX
  5
72DCC
330
72DC6
100
AcDbEntity
  8
0
100
AcDbVertex
100
AcDbPolygonMeshVertex
 10
0.5857233916966376
 20
-2.224
 30
0.0
 70
    64
  0
VERTEX
  5
72DCD
330
72DC6
100
AcDbEntity
  8
0
100
AcDbVertex
100
AcDbPolygonMeshVertex
 10
0.5857233916966376
 20
-2.027000000000001
 30
0.187
 70
    64
  0
VERTEX
  5
72DCE
330
72DC6
100
AcDbEntity
  8
0
100
AcDbVertex
100
AcDbPolygonMeshVertex
 10
0.5857233916966376
 20
-2.027000000000001
 30
0.0
 70
    64
  0
VERTEX
  5
72DCF
330
72DC6
100
AcDbEntity
  8
0
100
AcDbVertex
100
AcDbPolygonMeshVertex
 10
0.5857233916966376
 20
-2.224
 30
0.0
 70
    64
  0
VERTEX
  5
72DD0
330
72DC6
100
AcDbEntity
  8
0
100
AcDbVertex
100
AcDbPolygonMeshVertex
 10
0.9203900583633028
 20
-2.027000000000001
 30
0.187
 70
    64
  0
VERTEX
  5
72DD1
330
72DC6
100
AcDbEntity
  8
0
100
AcDbVertex
100
AcDbPolygonMeshVertex
 10
0.9203900583633028
 20
-2.027000000000001
 30
0.0
 70
    64
  0
VERTEX
  5
72DD2
330
72DC6
100
AcDbEntity
  8
0
100
AcDbVertex
100
AcDbPolygonMeshVertex
 10
0.9203900583633028
 20
-2.224
 30
0.0
 70
    64
  0
VERTEX
  5
72DD3
330
72DC6
100
AcDbEntity
  8
0
100
AcDbVertex
100
AcDbPolygonMeshVertex
 10
0.9203900583633028
 20
-2.027000000000001
 30
0.187
 70
    64
  0
VERTEX
  5
72DD4
330
72DC6
100
AcDbEntity
  8
0
100
AcDbVertex
100
AcDbPolygonMeshVertex
 10
0.9203900583633028
 20
-2.027000000000001
 30
0.187
 70
    64
  0
VERTEX
  5
72DD5
330
72DC6
100
AcDbEntity
  8
0
100
AcDbVertex
100
AcDbPolygonMeshVertex
 10
0.9203900583633028
 20
-2.224
 30
0.187
 70
    64
  0
VERTEX
  5
72DD6
330
72DC6
100
AcDbEntity
  8
0
100
AcDbVertex
100
AcDbPolygonMeshVertex
 10
0.5857233916966376
 20
-2.027000000000001
 30
0.187
 70
    64
  0
VERTEX
  5
72DD7
330
72DC6
100
AcDbEntity
  8
0
100
AcDbVertex
100
AcDbPolygonMeshVertex
 10
0.5857233916966376
 20
-2.027000000000001
 30
0.187
 70
    64
  0
VERTEX
  5
72DD8
330
72DC6
100
AcDbEntity
  8
0
100
AcDbVertex
100
AcDbPolygonMeshVertex
 10
0.5857233916966376
 20
-2.224
 30
0.187
 70
    64
  0
SEQEND
  5
72DD9
330
72DC6
100
AcDbEntity
  8
0
  0
LINE
  5
72DDA
330
458D6
100
AcDbEntity
  8
0
100
AcDbLine
 10
0.647723391696637
 20
-2.089
 30
0.187
 11
0.8583900583633035
 21
-2.089
 31
0.187
  0
CIRCLE
  5
72DDB
330
458D6
100
AcDbEntity
  8
0
100
AcDbCircle
 10
0.3713499999999978
 20
-1.868798040231645
 30
5.4375
 40
0.138
  0
CIRCLE
  5
72DDC
330
458D6
100
AcDbEntity
  8
0
100
AcDbCircle
 10
1.060049999999997
 20
-1.868798040231645
 30
5.4375
 40
0.138
  0
CIRCLE
  5
72DDD
330
458D6
100
AcDbEntity
  8
0
100
AcDbCircle
 10
1.748649999999996
 20
-1.868798040231645
 30
5.4375
 40
0.138
  0
POLYLINE
  5
72DDE
330
458D6
100
AcDbEntity
  8
0
100
AcDb3dPolyline
 66
     1
 10
0.0
 20
0.0
 30
0.0
 70
     8
  0
VERTEX
  5
72DDF
330
72DDE
100
AcDbEntity
  8
0
100
AcDbVertex
100
AcDb3dPolylineVertex
 10
-0.0000000000000036
 20
-0.7610000000000002
 30
3.1695
 70
    32
  0
VERTEX
  5
72DE0
330
72DDE
100
AcDbEntity
  8
0
100
AcDbVertex
100
AcDb3dPolylineVertex
 10
-0.0000000000000036
 20
-0.7610000000000002
 30
3.7425
 70
    32
  0
VERTEX
  5
72DE1
330
72DDE
100
AcDbEntity
  8
0
100
AcDbVertex
100
AcDb3dPolylineVertex
 10
-0.0000000000000036
 20
-0.9269999999999999
 30
3.7425
 70
    32
  0
VERTEX
  5
72DE2
330
72DDE
100
AcDbEntity
  8
0
100
AcDbVertex
100
AcDb3dPolylineVertex
 10
-0.0000000000000036
 20
-0.9270000000000004
 30
3.1695
 70
    32
  0
VERTEX
  5
72DE3
330
72DDE
100
AcDbEntity
  8
0
100
AcDbVertex
100
AcDb3dPolylineVertex
 10
-0.0000000000000036
 20
-0.7610000000000002
 30
3.1695
 70
    32
  0
SEQEND
  5
72DE4
330
72DDE
100
AcDbEntity
  8
0
  0
LINE
  5
72DE5
330
458D6
100
AcDbEntity
  8
0
100
AcDbLine
 10
-0.0000000000000036
 20
-0.9270000000000003
 30
3.456
 11
-0.0000000000000036
 21
-0.7610000000000002
 31
3.456
  0
LINE
  5
72DE6
330
458D6
100
AcDbEntity
  8
0
100
AcDbLine
 10
-0.0000000000000036
 20
-0.9270000000000004
 30
3.646
 11
-0.0000000000000036
 21
-0.7610000000000002
 31
3.646
  0
POLYLINE
  5
72DE7
330
458D6
100
AcDbEntity
  8
0
100
AcDb3dPolyline
 66
     1
 10
0.0
 20
0.0
 30
0.0
 70
     8
  0
VERTEX
  5
72DE8
330
72DE7
100
AcDbEntity
  8
0
100
AcDbVertex
100
AcDb3dPolylineVertex
 10
2.119999999999996
 20
-0.7610000000000002
 30
3.1695
 70
    32
  0
VERTEX
  5
72DE9
330
72DE7
100
AcDbEntity
  8
0
100
AcDbVertex
100
AcDb3dPolylineVertex
 10
2.119999999999996
 20
-0.7610000000000002
 30
3.7425
 70
    32
  0
VERTEX
  5
72DEA
330
72DE7
100
AcDbEntity
  8
0
100
AcDbVertex
100
AcDb3dPolylineVertex
 10
2.119999999999996
 20
-0.9269999999999999
 30
3.7425
 70
    32
  0
VERTEX
  5
72DEB
330
72DE7
100
AcDbEntity
  8
0
100
AcDbVertex
100
AcDb3dPolylineVertex
 10
2.119999999999996
 20
-0.9270000000000004
 30
3.1695
 70
    32
  0
VERTEX
  5
72DEC
330
72DE7
100
AcDbEntity
  8
0
100
AcDbVertex
100
AcDb3dPolylineVertex
 10
2.119999999999996
 20
-0.7610000000000002
 30
3.1695
 70
    32
  0
SEQEND
  5
72DED
330
72DE7
100
AcDbEntity
  8
0
  0
LINE
  5
72DEE
330
458D6
100
AcDbEntity
  8
0
100
AcDbLine
 10
2.119999999999996
 20
-0.9270000000000003
 30
3.456
 11
2.119999999999996
 21
-0.7610000000000002
 31
3.456
  0
LINE
  5
72DEF
330
458D6
100
AcDbEntity
  8
0
100
AcDbLine
 10
2.119999999999996
 20
-0.9270000000000004
 30
3.646
 11
2.119999999999996
 21
-0.7610000000000002
 31
3.646
  0
POLYLINE
  5
72DF0
330
458D6
100
AcDbEntity
  8
0
100
AcDbPolygonMesh
 66
     1
 10
0.0
 20
0.0
 30
0.0
 70
    16
 71
     6
 72
     3
  0
VERTEX
  5
72DF1
330
72DF0
100
AcDbEntity
  8
0
100
AcDbVertex
100
AcDbPolygonMeshVertex
 10
0.391
 20
-2.172
 30
0.3160000000000003
 70
    64
  0
VERTEX
  5
72DF2
330
72DF0
100
AcDbEntity
  8
0
100
AcDbVertex
100
AcDbPolygonMeshVertex
 10
0.391
 20
-2.172
 30
0.0000000000000002
 70
    64
  0
VERTEX
  5
72DF3
330
72DF0
100
AcDbEntity
  8
0
100
AcDbVertex
100
AcDbPolygonMeshVertex
 10
0.391
 20
-2.172
 30
0.0000000000000002
 70
    64
  0
VERTEX
  5
72DF4
330
72DF0
100
AcDbEntity
  8
0
100
AcDbVertex
100
AcDbPolygonMeshVertex
 10
0.0
 20
-2.172
 30
0.3160000000000003
 70
    64
  0
VERTEX
  5
72DF5
330
72DF0
100
AcDbEntity
  8
0
100
AcDbVertex
100
AcDbPolygonMeshVertex
 10
0.0
 20
-2.172
 30
0.0000000000000002
 70
    64
  0
VERTEX
  5
72DF6
330
72DF0
100
AcDbEntity
  8
0
100
AcDbVertex
100
AcDbPolygonMeshVertex
 10
0.0
 20
-2.172
 30
0.0000000000000002
 70
    64
  0
VERTEX
  5
72DF7
330
72DF0
100
AcDbEntity
  8
0
100
AcDbVertex
100
AcDbPolygonMeshVertex
 10
0.0
 20
-1.806
 30
0.3160000000000003
 70
    64
  0
VERTEX
  5
72DF8
330
72DF0
100
AcDbEntity
  8
0
100
AcDbVertex
100
AcDbPolygonMeshVertex
 10
0.0
 20
-1.806
 30
0.0000000000000002
 70
    64
  0
VERTEX
  5
72DF9
330
72DF0
100
AcDbEntity
  8
0
100
AcDbVertex
100
AcDbPolygonMeshVertex
 10
0.0
 20
-2.172
 30
0.0000000000000002
 70
    64
  0
VERTEX
  5
72DFA
330
72DF0
100
AcDbEntity
  8
0
100
AcDbVertex
100
AcDbPolygonMeshVertex
 10
0.391
 20
-1.806
 30
0.3160000000000003
 70
    64
  0
VERTEX
  5
72DFB
330
72DF0
100
AcDbEntity
  8
0
100
AcDbVertex
100
AcDbPolygonMeshVertex
 10
0.391
 20
-1.806
 30
0.0000000000000002
 70
    64
  0
VERTEX
  5
72DFC
330
72DF0
100
AcDbEntity
  8
0
100
AcDbVertex
100
AcDbPolygonMeshVertex
 10
0.391
 20
-2.172
 30
0.0000000000000002
 70
    64
  0
VERTEX
  5
72DFD
330
72DF0
100
AcDbEntity
  8
0
100
AcDbVertex
100
AcDbPolygonMeshVertex
 10
0.391
 20
-1.806
 30
0.3160000000000003
 70
    64
  0
VERTEX
  5
72DFE
330
72DF0
100
AcDbEntity
  8
0
100
AcDbVertex
100
AcDbPolygonMeshVertex
 10
0.391
 20
-1.806
 30
0.3160000000000003
 70
    64
  0
VERTEX
  5
72DFF
330
72DF0
100
AcDbEntity
  8
0
100
AcDbVertex
100
AcDbPolygonMeshVertex
 10
0.391
 20
-2.172
 30
0.3160000000000003
 70
    64
  0
VERTEX
  5
72E00
330
72DF0
100
AcDbEntity
  8
0
100
AcDbVertex
100
AcDbPolygonMeshVertex
 10
0.0
 20
-1.806
 30
0.3160000000000003
 70
    64
  0
VERTEX
  5
72E01
330
72DF0
100
AcDbEntity
  8
0
100
AcDbVertex
100
AcDbPolygonMeshVertex
 10
0.0
 20
-1.806
 30
0.3160000000000003
 70
    64
  0
VERTEX
  5
72E02
330
72DF0
100
AcDbEntity
  8
0
100
AcDbVertex
100
AcDbPolygonMeshVertex
 10
0.0
 20
-2.172
 30
0.3160000000000003
 70
    64
  0
SEQEND
  5
72E03
330
72DF0
100
AcDbEntity
  8
0
  0
POLYLINE
  5
72E04
330
458D6
100
AcDbEntity
  8
0
100
AcDbPolygonMesh
 66
     1
 10
0.0
 20
0.0
 30
0.0
 70
    16
 71
     6
 72
     3
  0
VERTEX
  5
72E05
330
72E04
100
AcDbEntity
  8
0
100
AcDbVertex
100
AcDbPolygonMeshVertex
 10
2.12
 20
0.1179999999999994
 30
0.3160000000000003
 70
    64
  0
VERTEX
  5
72E06
330
72E04
100
AcDbEntity
  8
0
100
AcDbVertex
100
AcDbPolygonMeshVertex
 10
2.12
 20
0.1179999999999994
 30
0.0000000000000002
 70
    64
  0
VERTEX
  5
72E07
330
72E04
100
AcDbEntity
  8
0
100
AcDbVertex
100
AcDbPolygonMeshVertex
 10
2.12
 20
0.1179999999999994
 30
0.0000000000000002
 70
    64
  0
VERTEX
  5
72E08
330
72E04
100
AcDbEntity
  8
0
100
AcDbVertex
100
AcDbPolygonMeshVertex
 10
1.729
 20
0.1179999999999994
 30
0.3160000000000003
 70
    64
  0
VERTEX
  5
72E09
330
72E04
100
AcDbEntity
  8
0
100
AcDbVertex
100
AcDbPolygonMeshVertex
 10
1.729
 20
0.1179999999999994
 30
0.0000000000000002
 70
    64
  0
VERTEX
  5
72E0A
330
72E04
100
AcDbEntity
  8
0
100
AcDbVertex
100
AcDbPolygonMeshVertex
 10
1.729
 20
0.1179999999999994
 30
0.0000000000000002
 70
    64
  0
VERTEX
  5
72E0B
330
72E04
100
AcDbEntity
  8
0
100
AcDbVertex
100
AcDbPolygonMeshVertex
 10
1.729
 20
0.4839999999999995
 30
0.3160000000000003
 70
    64
  0
VERTEX
  5
72E0C
330
72E04
100
AcDbEntity
  8
0
100
AcDbVertex
100
AcDbPolygonMeshVertex
 10
1.729
 20
0.4839999999999995
 30
0.0000000000000002
 70
    64
  0
VERTEX
  5
72E0D
330
72E04
100
AcDbEntity
  8
0
100
AcDbVertex
100
AcDbPolygonMeshVertex
 10
1.729
 20
0.1179999999999994
 30
0.0000000000000002
 70
    64
  0
VERTEX
  5
72E0E
330
72E04
100
AcDbEntity
  8
0
100
AcDbVertex
100
AcDbPolygonMeshVertex
 10
2.12
 20
0.4839999999999995
 30
0.3160000000000003
 70
    64
  0
VERTEX
  5
72E0F
330
72E04
100
AcDbEntity
  8
0
100
AcDbVertex
100
AcDbPolygonMeshVertex
 10
2.12
 20
0.4839999999999995
 30
0.0000000000000002
 70
    64
  0
VERTEX
  5
72E10
330
72E04
100
AcDbEntity
  8
0
100
AcDbVertex
100
AcDbPolygonMeshVertex
 10
2.12
 20
0.1179999999999994
 30
0.0000000000000002
 70
    64
  0
VERTEX
  5
72E11
330
72E04
100
AcDbEntity
  8
0
100
AcDbVertex
100
AcDbPolygonMeshVertex
 10
2.12
 20
0.4839999999999995
 30
0.3160000000000003
 70
    64
  0
VERTEX
  5
72E12
330
72E04
100
AcDbEntity
  8
0
100
AcDbVertex
100
AcDbPolygonMeshVertex
 10
2.12
 20
0.4839999999999995
 30
0.3160000000000003
 70
    64
  0
VERTEX
  5
72E13
330
72E04
100
AcDbEntity
  8
0
100
AcDbVertex
100
AcDbPolygonMeshVertex
 10
2.12
 20
0.1179999999999994
 30
0.3160000000000003
 70
    64
  0
VERTEX
  5
72E14
330
72E04
100
AcDbEntity
  8
0
100
AcDbVertex
100
AcDbPolygonMeshVertex
 10
1.729
 20
0.4839999999999995
 30
0.3160000000000003
 70
    64
  0
VERTEX
  5
72E15
330
72E04
100
AcDbEntity
  8
0
100
AcDbVertex
100
AcDbPolygonMeshVertex
 10
1.729
 20
0.4839999999999995
 30
0.3160000000000003
 70
    64
  0
VERTEX
  5
72E16
330
72E04
100
AcDbEntity
  8
0
100
AcDbVertex
100
AcDbPolygonMeshVertex
 10
1.729
 20
0.1179999999999994
 30
0.3160000000000003
 70
    64
  0
SEQEND
  5
72E17
330
72E04
100
AcDbEntity
  8
0
  0
3DFACE
  5
72E18
330
458D6
100
AcDbEntity
  8
0
100
AcDbFace
 10
2.12
 20
-2.089
 30
1.318
 11
2.12
 21
-2.089
 31
1.318
 12
0.0
 22
-2.089
 32
1.318
 13
0.0
 23
-2.089
 33
1.318
  0
3DFACE
  5
72E19
330
458D6
100
AcDbEntity
  8
0
100
AcDbFace
 10
0.0
 20
-2.089
 30
1.318
 11
0.0
 21
-2.089
 31
1.318
 12
0.0
 22
-2.089
 32
1.318
 13
0.0
 23
0.4009999999999998
 33
1.318
  0
3DFACE
  5
72E1A
330
458D6
100
AcDbEntity
  8
0
100
AcDbFace
 10
0.0
 20
0.4009999999999998
 30
1.318
 11
0.0
 21
-2.089
 31
1.318
 12
2.12
 22
-2.089
 32
1.318
 13
2.12
 23
0.4009999999999998
 33
1.318
  0
3DFACE
  5
72E1B
330
458D6
100
AcDbEntity
  8
0
100
AcDbFace
 10
2.12
 20
0.4009999999999998
 30
5.4375
 11
2.12
 21
0.4009999999999998
 31
5.4375
 12
0.0
 22
0.4009999999999998
 32
5.4375
 13
0.0
 23
0.4009999999999998
 33
5.4375
  0
3DFACE
  5
72E1C
330
458D6
100
AcDbEntity
  8
0
100
AcDbFace
 10
2.12
 20
0.4009999999999998
 30
5.4375
 11
2.12
 21
-2.089
 31
5.4375
 12
0.0
 22
-2.089
 32
5.4375
 13
0.0
 23
0.4009999999999998
 33
5.4375
  0
POINT
  5
72E1D
330
458D6
100
AcDbEntity
  8
SNAP_POINTS
100
AcDbPoint
 10
-0.0000000000000036
 20
-0.8940000000000003
 30
3.646
  0
POINT
  5
72E1E
330
458D6
100
AcDbEntity
  8
SNAP_POINTS
100
AcDbPoint
 10
2.119999999999996
 20
-0.7940000000000001
 30
3.646
  0
POINT
  5
72E1F
330
458D6
100
AcDbEntity
  8
SNAP_POINTS
100
AcDbPoint
 10
1.059999999999998
 20
-0.8499999999999996
 30
5.4715
  0
POINT
  5
72E20
330
458D6
100
AcDbEntity
  8
SNAP_POINTS
100
AcDbPoint
 10
1.729
 20
-2.089
 30
1.318
  0
POINT
  5
72E21
330
458D6
100
AcDbEntity
  8
SNAP_POINTS
100
AcDbPoint
 10
0.0
 20
0.0
 30
0.0
  0
POLYLINE
  5
72E22
330
458D6
100
AcDbEntity
  8
0
100
AcDbPolygonMesh
 66
     1
 10
0.0
 20
0.0
 30
0.0
 70
    16
 71
     6
 72
     3
  0
VERTEX
  5
72E23
330
72E22
100
AcDbEntity
  8
0
100
AcDbVertex
100
AcDbPolygonMeshVertex
 10
2.119999999999999
 20
-2.089
 30
5.4375
 70
    64
  0
VERTEX
  5
72E24
330
72E22
100
AcDbEntity
  8
0
100
AcDbVertex
100
AcDbPolygonMeshVertex
 10
2.119999999999999
 20
-2.089
 30
1.317999999999999
 70
    64
  0
VERTEX
  5
72E25
330
72E22
100
AcDbEntity
  8
0
100
AcDbVertex
100
AcDbPolygonMeshVertex
 10
2.119999999999999
 20
-2.089
 30
1.317999999999999
 70
    64
  0
VERTEX
  5
72E26
330
72E22
100
AcDbEntity
  8
0
100
AcDbVertex
100
AcDbPolygonMeshVertex
 10
0.0
 20
-2.089
 30
5.4375
 70
    64
  0
VERTEX
  5
72E27
330
72E22
100
AcDbEntity
  8
0
100
AcDbVertex
100
AcDbPolygonMeshVertex
 10
0.0
 20
-2.089
 30
1.317999999999999
 70
    64
  0
VERTEX
  5
72E28
330
72E22
100
AcDbEntity
  8
0
100
AcDbVertex
100
AcDbPolygonMeshVertex
 10
0.0
 20
-2.089
 30
1.317999999999999
 70
    64
  0
VERTEX
  5
72E29
330
72E22
100
AcDbEntity
  8
0
100
AcDbVertex
100
AcDbPolygonMeshVertex
 10
0.0
 20
0.4010000000000003
 30
5.4375
 70
    64
  0
VERTEX
  5
72E2A
330
72E22
100
AcDbEntity
  8
0
100
AcDbVertex
100
AcDbPolygonMeshVertex
 10
0.0
 20
0.4010000000000003
 30
1.317999999999999
 70
    64
  0
VERTEX
  5
72E2B
330
72E22
100
AcDbEntity
  8
0
100
AcDbVertex
100
AcDbPolygonMeshVertex
 10
0.0
 20
-2.089
 30
1.317999999999999
 70
    64
  0
VERTEX
  5
72E2C
330
72E22
100
AcDbEntity
  8
0
100
AcDbVertex
100
AcDbPolygonMeshVertex
 10
2.119999999999999
 20
0.4010000000000003
 30
5.4375
 70
    64
  0
VERTEX
  5
72E2D
330
72E22
100
AcDbEntity
  8
0
100
AcDbVertex
100
AcDbPolygonMeshVertex
 10
2.119999999999999
 20
0.4010000000000003
 30
1.317999999999999
 70
    64
  0
VERTEX
  5
72E2E
330
72E22
100
AcDbEntity
  8
0
100
AcDbVertex
100
AcDbPolygonMeshVertex
 10
2.119999999999999
 20
-2.089
 30
1.317999999999999
 70
    64
  0
VERTEX
  5
72E2F
330
72E22
100
AcDbEntity
  8
0
100
AcDbVertex
100
AcDbPolygonMeshVertex
 10
2.119999999999999
 20
0.4010000000000003
 30
5.4375
 70
    64
  0
VERTEX
  5
72E30
330
72E22
100
AcDbEntity
  8
0
100
AcDbVertex
100
AcDbPolygonMeshVertex
 10
2.119999999999999
 20
0.4010000000000003
 30
5.4375
 70
    64
  0
VERTEX
  5
72E31
330
72E22
100
AcDbEntity
  8
0
100
AcDbVertex
100
AcDbPolygonMeshVertex
 10
2.119999999999999
 20
-2.089
 30
5.4375
 70
    64
  0
VERTEX
  5
72E32
330
72E22
100
AcDbEntity
  8
0
100
AcDbVertex
100
AcDbPolygonMeshVertex
 10
0.0
 20
0.4010000000000003
 30
5.4375
 70
    64
  0
VERTEX
  5
72E33
330
72E22
100
AcDbEntity
  8
0
100
AcDbVertex
100
AcDbPolygonMeshVertex
 10
0.0
 20
0.4010000000000003
 30
5.4375
 70
    64
  0
VERTEX
  5
72E34
330
72E22
100
AcDbEntity
  8
0
100
AcDbVertex
100
AcDbPolygonMeshVertex
 10
0.0
 20
-2.089
 30
5.4375
 70
    64
  0
SEQEND
  5
72E35
330
72E22
100
AcDbEntity
  8
0
  0
POLYLINE
  5
72E36
330
458D6
100
AcDbEntity
  8
0
100
AcDbPolygonMesh
 66
     1
 10
0.0
 20
0.0
 30
0.0
 70
    16
 71
     6
 72
     3
  0
VERTEX
  5
72E37
330
72E36
100
AcDbEntity
  8
0
100
AcDbVertex
100
AcDbPolygonMeshVertex
 10
1.959
 20
-2.286
 30
1.764499999999999
 70
    64
  0
VERTEX
  5
72E38
330
72E36
100
AcDbEntity
  8
0
100
AcDbVertex
100
AcDbPolygonMeshVertex
 10
1.959
 20
-2.286
 30
1.577499999999999
 70
    64
  0
VERTEX
  5
72E39
330
72E36
100
AcDbEntity
  8
0
100
AcDbVertex
100
AcDbPolygonMeshVertex
 10
1.959
 20
-2.286
 30
1.577499999999999
 70
    64
  0
VERTEX
  5
72E3A
330
72E36
100
AcDbEntity
  8
0
100
AcDbVertex
100
AcDbPolygonMeshVertex
 10
1.079
 20
-2.286
 30
1.764499999999999
 70
    64
  0
VERTEX
  5
72E3B
330
72E36
100
AcDbEntity
  8
0
100
AcDbVertex
100
AcDbPolygonMeshVertex
 10
1.079
 20
-2.286
 30
1.577499999999999
 70
    64
  0
VERTEX
  5
72E3C
330
72E36
100
AcDbEntity
  8
0
100
AcDbVertex
100
AcDbPolygonMeshVertex
 10
1.079
 20
-2.286
 30
1.577499999999999
 70
    64
  0
VERTEX
  5
72E3D
330
72E36
100
AcDbEntity
  8
0
100
AcDbVertex
100
AcDbPolygonMeshVertex
 10
1.079
 20
-2.089
 30
1.764499999999999
 70
    64
  0
VERTEX
  5
72E3E
330
72E36
100
AcDbEntity
  8
0
100
AcDbVertex
100
AcDbPolygonMeshVertex
 10
1.079
 20
-2.089
 30
1.577499999999999
 70
    64
  0
VERTEX
  5
72E3F
330
72E36
100
AcDbEntity
  8
0
100
AcDbVertex
100
AcDbPolygonMeshVertex
 10
1.079
 20
-2.286
 30
1.577499999999999
 70
    64
  0
VERTEX
  5
72E40
330
72E36
100
AcDbEntity
  8
0
100
AcDbVertex
100
AcDbPolygonMeshVertex
 10
1.959
 20
-2.089
 30
1.764499999999999
 70
    64
  0
VERTEX
  5
72E41
330
72E36
100
AcDbEntity
  8
0
100
AcDbVertex
100
AcDbPolygonMeshVertex
 10
1.959
 20
-2.089
 30
1.577499999999999
 70
    64
  0
VERTEX
  5
72E42
330
72E36
100
AcDbEntity
  8
0
100
AcDbVertex
100
AcDbPolygonMeshVertex
 10
1.959
 20
-2.286
 30
1.577499999999999
 70
    64
  0
VERTEX
  5
72E43
330
72E36
100
AcDbEntity
  8
0
100
AcDbVertex
100
AcDbPolygonMeshVertex
 10
1.959
 20
-2.089
 30
1.764499999999999
 70
    64
  0
VERTEX
  5
72E44
330
72E36
100
AcDbEntity
  8
0
100
AcDbVertex
100
AcDbPolygonMeshVertex
 10
1.959
 20
-2.089
 30
1.764499999999999
 70
    64
  0
VERTEX
  5
72E45
330
72E36
100
AcDbEntity
  8
0
100
AcDbVertex
100
AcDbPolygonMeshVertex
 10
1.959
 20
-2.286
 30
1.764499999999999
 70
    64
  0
VERTEX
  5
72E46
330
72E36
100
AcDbEntity
  8
0
100
AcDbVertex
100
AcDbPolygonMeshVertex
 10
1.079
 20
-2.089
 30
1.764499999999999
 70
    64
  0
VERTEX
  5
72E47
330
72E36
100
AcDbEntity
  8
0
100
AcDbVertex
100
AcDbPolygonMeshVertex
 10
1.079
 20
-2.089
 30
1.764499999999999
 70
    64
  0
VERTEX
  5
72E48
330
72E36
100
AcDbEntity
  8
0
100
AcDbVertex
100
AcDbPolygonMeshVertex
 10
1.079
 20
-2.286
 30
1.764499999999999
 70
    64
  0
SEQEND
  5
72E49
330
72E36
100
AcDbEntity
  8
0
  0
POLYLINE
  5
72E4A
330
458D6
100
AcDbEntity
  8
0
100
AcDbPolygonMesh
 66
     1
 10
0.0
 20
0.0
 30
0.0
 70
    16
 71
     6
 72
     3
  0
VERTEX
  5
72E4B
330
72E4A
100
AcDbEntity
  8
0
100
AcDbVertex
100
AcDbPolygonMeshVertex
 10
1.040999999999999
 20
0.4009999999999998
 30
1.764499999999999
 70
    64
  0
VERTEX
  5
72E4C
330
72E4A
100
AcDbEntity
  8
0
100
AcDbVertex
100
AcDbPolygonMeshVertex
 10
1.040999999999999
 20
0.4009999999999998
 30
1.577499999999999
 70
    64
  0
VERTEX
  5
72E4D
330
72E4A
100
AcDbEntity
  8
0
100
AcDbVertex
100
AcDbPolygonMeshVertex
 10
1.040999999999999
 20
0.4009999999999998
 30
1.577499999999999
 70
    64
  0
VERTEX
  5
72E4E
330
72E4A
100
AcDbEntity
  8
0
100
AcDbVertex
100
AcDbPolygonMeshVertex
 10
0.161
 20
0.4009999999999998
 30
1.764499999999999
 70
    64
  0
VERTEX
  5
72E4F
330
72E4A
100
AcDbEntity
  8
0
100
AcDbVertex
100
AcDbPolygonMeshVertex
 10
0.161
 20
0.4009999999999998
 30
1.577499999999999
 70
    64
  0
VERTEX
  5
72E50
330
72E4A
100
AcDbEntity
  8
0
100
AcDbVertex
100
AcDbPolygonMeshVertex
 10
0.161
 20
0.4009999999999998
 30
1.577499999999999
 70
    64
  0
VERTEX
  5
72E51
330
72E4A
100
AcDbEntity
  8
0
100
AcDbVertex
100
AcDbPolygonMeshVertex
 10
0.161
 20
0.5979999999999998
 30
1.764499999999999
 70
    64
  0
VERTEX
  5
72E52
330
72E4A
100
AcDbEntity
  8
0
100
AcDbVertex
100
AcDbPolygonMeshVertex
 10
0.161
 20
0.5979999999999998
 30
1.577499999999999
 70
    64
  0
VERTEX
  5
72E53
330
72E4A
100
AcDbEntity
  8
0
100
AcDbVertex
100
AcDbPolygonMeshVertex
 10
0.161
 20
0.4009999999999998
 30
1.577499999999999
 70
    64
  0
VERTEX
  5
72E54
330
72E4A
100
AcDbEntity
  8
0
100
AcDbVertex
100
AcDbPolygonMeshVertex
 10
1.040999999999999
 20
0.5979999999999998
 30
1.764499999999999
 70
    64
  0
VERTEX
  5
72E55
330
72E4A
100
AcDbEntity
  8
0
100
AcDbVertex
100
AcDbPolygonMeshVertex
 10
1.040999999999999
 20
0.5979999999999998
 30
1.577499999999999
 70
    64
  0
VERTEX
  5
72E56
330
72E4A
100
AcDbEntity
  8
0
100
AcDbVertex
100
AcDbPolygonMeshVertex
 10
1.040999999999999
 20
0.4009999999999998
 30
1.577499999999999
 70
    64
  0
VERTEX
  5
72E57
330
72E4A
100
AcDbEntity
  8
0
100
AcDbVertex
100
AcDbPolygonMeshVertex
 10
1.040999999999999
 20
0.5979999999999998
 30
1.764499999999999
 70
    64
  0
VERTEX
  5
72E58
330
72E4A
100
AcDbEntity
  8
0
100
AcDbVertex
100
AcDbPolygonMeshVertex
 10
1.040999999999999
 20
0.5979999999999998
 30
1.764499999999999
 70
    64
  0
VERTEX
  5
72E59
330
72E4A
100
AcDbEntity
  8
0
100
AcDbVertex
100
AcDbPolygonMeshVertex
 10
1.040999999999999
 20
0.4009999999999998
 30
1.764499999999999
 70
    64
  0
VERTEX
  5
72E5A
330
72E4A
100
AcDbEntity
  8
0
100
AcDbVertex
100
AcDbPolygonMeshVertex
 10
0.161
 20
0.5979999999999998
 30
1.764499999999999
 70
    64
  0
VERTEX
  5
72E5B
330
72E4A
100
AcDbEntity
  8
0
100
AcDbVertex
100
AcDbPolygonMeshVertex
 10
0.161
 20
0.5979999999999998
 30
1.764499999999999
 70
    64
  0
VERTEX
  5
72E5C
330
72E4A
100
AcDbEntity
  8
0
100
AcDbVertex
100
AcDbPolygonMeshVertex
 10
0.161
 20
0.4009999999999998
 30
1.764499999999999
 70
    64
  0
SEQEND
  5
72E5D
330
72E4A
100
AcDbEntity
  8
0
  0
POLYLINE
  5
72E5E
330
458D6
100
AcDbEntity
  8
0
100
AcDbPolygonMesh
 66
     1
 10
0.0
 20
0.0
 30
0.0
 70
    16
 71
     6
 72
     3
  0
VERTEX
  5
72E5F
330
72E5E
100
AcDbEntity
  8
0
100
AcDbVertex
100
AcDbPolygonMeshVertex
 10
1.729
 20
0.0
 30
0.187
 70
    64
  0
VERTEX
  5
72E60
330
72E5E
100
AcDbEntity
  8
0
100
AcDbVertex
100
AcDbPolygonMeshVertex
 10
1.729
 20
0.0
 30
0.0
 70
    64
  0
VERTEX
  5
72E61
330
72E5E
100
AcDbEntity
  8
0
100
AcDbVertex
100
AcDbPolygonMeshVertex
 10
1.729
 20
0.0
 30
0.0
 70
    64
  0
VERTEX
  5
72E62
330
72E5E
100
AcDbEntity
  8
0
100
AcDbVertex
100
AcDbPolygonMeshVertex
 10
0.0
 20
0.0
 30
0.187
 70
    64
  0
VERTEX
  5
72E63
330
72E5E
100
AcDbEntity
  8
0
100
AcDbVertex
100
AcDbPolygonMeshVertex
 10
0.0
 20
0.0
 30
0.0
 70
    64
  0
VERTEX
  5
72E64
330
72E5E
100
AcDbEntity
  8
0
100
AcDbVertex
100
AcDbPolygonMeshVertex
 10
0.0
 20
0.0
 30
0.0
 70
    64
  0
VERTEX
  5
72E65
330
72E5E
100
AcDbEntity
  8
0
100
AcDbVertex
100
AcDbPolygonMeshVertex
 10
0.0
 20
0.4009999999999998
 30
0.187
 70
    64
  0
VERTEX
  5
72E66
330
72E5E
100
AcDbEntity
  8
0
100
AcDbVertex
100
AcDbPolygonMeshVertex
 10
0.0
 20
0.4009999999999998
 30
0.0
 70
    64
  0
VERTEX
  5
72E67
330
72E5E
100
AcDbEntity
  8
0
100
AcDbVertex
100
AcDbPolygonMeshVertex
 10
0.0
 20
0.0
 30
0.0
 70
    64
  0
VERTEX
  5
72E68
330
72E5E
100
AcDbEntity
  8
0
100
AcDbVertex
100
AcDbPolygonMeshVertex
 10
1.729
 20
0.4009999999999998
 30
0.187
 70
    64
  0
VERTEX
  5
72E69
330
72E5E
100
AcDbEntity
  8
0
100
AcDbVertex
100
AcDbPolygonMeshVertex
 10
1.729
 20
0.4009999999999998
 30
0.0
 70
    64
  0
VERTEX
  5
72E6A
330
72E5E
100
AcDbEntity
  8
0
100
AcDbVertex
100
AcDbPolygonMeshVertex
 10
1.729
 20
0.0
 30
0.0
 70
    64
  0
VERTEX
  5
72E6B
330
72E5E
100
AcDbEntity
  8
0
100
AcDbVertex
100
AcDbPolygonMeshVertex
 10
1.729
 20
0.4009999999999998
 30
0.187
 70
    64
  0
VERTEX
  5
72E6C
330
72E5E
100
AcDbEntity
  8
0
100
AcDbVertex
100
AcDbPolygonMeshVertex
 10
1.729
 20
0.4009999999999998
 30
0.187
 70
    64
  0
VERTEX
  5
72E6D
330
72E5E
100
AcDbEntity
  8
0
100
AcDbVertex
100
AcDbPolygonMeshVertex
 10
1.729
 20
0.0
 30
0.187
 70
    64
  0
VERTEX
  5
72E6E
330
72E5E
100
AcDbEntity
  8
0
100
AcDbVertex
100
AcDbPolygonMeshVertex
 10
0.0
 20
0.4009999999999998
 30
0.187
 70
    64
  0
VERTEX
  5
72E6F
330
72E5E
100
AcDbEntity
  8
0
100
AcDbVertex
100
AcDbPolygonMeshVertex
 10
0.0
 20
0.4009999999999998
 30
0.187
 70
    64
  0
VERTEX
  5
72E70
330
72E5E
100
AcDbEntity
  8
0
100
AcDbVertex
100
AcDbPolygonMeshVertex
 10
0.0
 20
0.0
 30
0.187
 70
    64
  0
SEQEND
  5
72E71
330
72E5E
100
AcDbEntity
  8
0
  0
LWPOLYLINE
  5
72E72
330
458D6
100
AcDbEntity
  8
0
100
AcDbPolyline
 90
        4
 70
     1
 43
0.0
 38
2.9655
 10
0.9265000000000007
 20
0.6019999999999999
 10
1.1935
 20
0.6019999999999999
 10
1.1935
 20
0.4530000000000003
 10
0.9265000000000007
 20
0.4530000000000003
  0
POLYLINE
  5
72E73
330
458D6
100
AcDbEntity
  8
0
100
AcDbPolygonMesh
 66
     1
 10
0.0
 20
0.0
 30
0.0
 70
    16
 71
     6
 72
     3
  0
VERTEX
  5
72E74
330
72E73
100
AcDbEntity
  8
0
100
AcDbVertex
100
AcDbPolygonMeshVertex
 10
1.245499999999999
 20
0.4009999999999998
 30
3.6395
 70
    64
  0
VERTEX
  5
72E75
330
72E73
100
AcDbEntity
  8
0
100
AcDbVertex
100
AcDbPolygonMeshVertex
 10
1.245499999999999
 20
0.4009999999999998
 30
2.9655
 70
    64
  0
VERTEX
  5
72E76
330
72E73
100
AcDbEntity
  8
0
100
AcDbVertex
100
AcDbPolygonMeshVertex
 10
1.245499999999999
 20
0.4009999999999998
 30
2.9655
 70
    64
  0
VERTEX
  5
72E77
330
72E73
100
AcDbEntity
  8
0
100
AcDbVertex
100
AcDbPolygonMeshVertex
 10
0.8744999999999993
 20
0.4009999999999998
 30
3.6395
 70
    64
  0
VERTEX
  5
72E78
330
72E73
100
AcDbEntity
  8
0
100
AcDbVertex
100
AcDbPolygonMeshVertex
 10
0.8744999999999993
 20
0.4009999999999998
 30
2.9655
 70
    64
  0
VERTEX
  5
72E79
330
72E73
100
AcDbEntity
  8
0
100
AcDbVertex
100
AcDbPolygonMeshVertex
 10
0.8744999999999993
 20
0.4009999999999998
 30
2.9655
 70
    64
  0
VERTEX
  5
72E7A
330
72E73
100
AcDbEntity
  8
0
100
AcDbVertex
100
AcDbPolygonMeshVertex
 10
0.8744999999999993
 20
0.654
 30
3.6395
 70
    64
  0
VERTEX
  5
72E7B
330
72E73
100
AcDbEntity
  8
0
100
AcDbVertex
100
AcDbPolygonMeshVertex
 10
0.8744999999999993
 20
0.654
 30
2.9655
 70
    64
  0
VERTEX
  5
72E7C
330
72E73
100
AcDbEntity
  8
0
100
AcDbVertex
100
AcDbPolygonMeshVertex
 10
0.8744999999999993
 20
0.4009999999999998
 30
2.9655
 70
    64
  0
VERTEX
  5
72E7D
330
72E73
100
AcDbEntity
  8
0
100
AcDbVertex
100
AcDbPolygonMeshVertex
 10
1.245499999999999
 20
0.654
 30
3.6395
 70
    64
  0
VERTEX
  5
72E7E
330
72E73
100
AcDbEntity
  8
0
100
AcDbVertex
100
AcDbPolygonMeshVertex
 10
1.245499999999999
 20
0.654
 30
2.9655
 70
    64
  0
VERTEX
  5
72E7F
330
72E73
100
AcDbEntity
  8
0
100
AcDbVertex
100
AcDbPolygonMeshVertex
 10
1.245499999999999
 20
0.4009999999999998
 30
2.9655
 70
    64
  0
VERTEX
  5
72E80
330
72E73
100
AcDbEntity
  8
0
100
AcDbVertex
100
AcDbPolygonMeshVertex
 10
1.245499999999999
 20
0.654
 30
3.6395
 70
    64
  0
VERTEX
  5
72E81
330
72E73
100
AcDbEntity
  8
0
100
AcDbVertex
100
AcDbPolygonMeshVertex
 10
1.245499999999999
 20
0.654
 30
3.6395
 70
    64
  0
VERTEX
  5
72E82
330
72E73
100
AcDbEntity
  8
0
100
AcDbVertex
100
AcDbPolygonMeshVertex
 10
1.245499999999999
 20
0.4009999999999998
 30
3.6395
 70
    64
  0
VERTEX
  5
72E83
330
72E73
100
AcDbEntity
  8
0
100
AcDbVertex
100
AcDbPolygonMeshVertex
 10
0.8744999999999993
 20
0.654
 30
3.6395
 70
    64
  0
VERTEX
  5
72E84
330
72E73
100
AcDbEntity
  8
0
100
AcDbVertex
100
AcDbPolygonMeshVertex
 10
0.8744999999999993
 20
0.654
 30
3.6395
 70
    64
  0
VERTEX
  5
72E85
330
72E73
100
AcDbEntity
  8
0
100
AcDbVertex
100
AcDbPolygonMeshVertex
 10
0.8744999999999993
 20
0.4009999999999998
 30
3.6395
 70
    64
  0
SEQEND
  5
72E86
330
72E73
100
AcDbEntity
  8
0
  0
LWPOLYLINE
  5
72E87
330
458D6
100
AcDbEntity
  8
0
100
AcDbPolyline
 90
        4
 70
     1
 43
0.0
 38
3.6395
 10
0.9265000000000007
 20
0.6019999999999999
 10
1.1935
 20
0.6019999999999999
 10
1.1935
 20
0.4530000000000003
 10
0.9265000000000007
 20
0.4530000000000003
  0
LINE
  5
72E88
330
458D6
100
AcDbEntity
  8
0
100
AcDbLine
 10
0.8794999999999982
 20
-2.526
 30
3.4185
 11
0.562499999999999
 21
-2.526
 31
3.4185
  0
LINE
  5
72E89
330
458D6
100
AcDbEntity
  8
0
100
AcDbLine
 10
0.8794999999999982
 20
-2.526
 30
3.2185
 11
0.562499999999999
 21
-2.526
 31
3.2185
  0
POLYLINE
  5
72E8A
330
458D6
100
AcDbEntity
  8
0
100
AcDbPolygonMesh
 66
     1
 10
0.0
 20
0.0
 30
0.0
 70
    16
 71
     6
 72
     3
  0
VERTEX
  5
72E8B
330
72E8A
100
AcDbEntity
  8
0
100
AcDbVertex
100
AcDbPolygonMeshVertex
 10
1.612499999999998
 20
-2.526
 30
3.6395
 70
    64
  0
VERTEX
  5
72E8C
330
72E8A
100
AcDbEntity
  8
0
100
AcDbVertex
100
AcDbPolygonMeshVertex
 10
1.612499999999998
 20
-2.526
 30
2.9655
 70
    64
  0
VERTEX
  5
72E8D
330
72E8A
100
AcDbEntity
  8
0
100
AcDbVertex
100
AcDbPolygonMeshVertex
 10
1.612499999999998
 20
-2.526
 30
2.9655
 70
    64
  0
VERTEX
  5
72E8E
330
72E8A
100
AcDbEntity
  8
0
100
AcDbVertex
100
AcDbPolygonMeshVertex
 10
0.5074999999999993
 20
-2.526
 30
3.6395
 70
    64
  0
VERTEX
  5
72E8F
330
72E8A
100
AcDbEntity
  8
0
100
AcDbVertex
100
AcDbPolygonMeshVertex
 10
0.5074999999999993
 20
-2.526
 30
2.9655
 70
    64
  0
VERTEX
  5
72E90
330
72E8A
100
AcDbEntity
  8
0
100
AcDbVertex
100
AcDbPolygonMeshVertex
 10
0.5074999999999993
 20
-2.526
 30
2.9655
 70
    64
  0
VERTEX
  5
72E91
330
72E8A
100
AcDbEntity
  8
0
100
AcDbVertex
100
AcDbPolygonMeshVertex
 10
0.5074999999999993
 20
-2.089
 30
3.6395
 70
    64
  0
VERTEX
  5
72E92
330
72E8A
100
AcDbEntity
  8
0
100
AcDbVertex
100
AcDbPolygonMeshVertex
 10
0.5074999999999993
 20
-2.089
 30
2.9655
 70
    64
  0
VERTEX
  5
72E93
330
72E8A
100
AcDbEntity
  8
0
100
AcDbVertex
100
AcDbPolygonMeshVertex
 10
0.5074999999999993
 20
-2.526
 30
2.9655
 70
    64
  0
VERTEX
  5
72E94
330
72E8A
100
AcDbEntity
  8
0
100
AcDbVertex
100
AcDbPolygonMeshVertex
 10
1.612499999999998
 20
-2.089
 30
3.6395
 70
    64
  0
VERTEX
  5
72E95
330
72E8A
100
AcDbEntity
  8
0
100
AcDbVertex
100
AcDbPolygonMeshVertex
 10
1.612499999999998
 20
-2.089
 30
2.9655
 70
    64
  0
VERTEX
  5
72E96
330
72E8A
100
AcDbEntity
  8
0
100
AcDbVertex
100
AcDbPolygonMeshVertex
 10
1.612499999999998
 20
-2.526
 30
2.9655
 70
    64
  0
VERTEX
  5
72E97
330
72E8A
100
AcDbEntity
  8
0
100
AcDbVertex
100
AcDbPolygonMeshVertex
 10
1.612499999999998
 20
-2.089
 30
3.6395
 70
    64
  0
VERTEX
  5
72E98
330
72E8A
100
AcDbEntity
  8
0
100
AcDbVertex
100
AcDbPolygonMeshVertex
 10
1.612499999999998
 20
-2.089
 30
3.6395
 70
    64
  0
VERTEX
  5
72E99
330
72E8A
100
AcDbEntity
  8
0
100
AcDbVertex
100
AcDbPolygonMeshVertex
 10
1.612499999999998
 20
-2.526
 30
3.6395
 70
    64
  0
VERTEX
  5
72E9A
330
72E8A
100
AcDbEntity
  8
0
100
AcDbVertex
100
AcDbPolygonMeshVertex
 10
0.5074999999999993
 20
-2.089
 30
3.6395
 70
    64
  0
VERTEX
  5
72E9B
330
72E8A
100
AcDbEntity
  8
0
100
AcDbVertex
100
AcDbPolygonMeshVertex
 10
0.5074999999999993
 20
-2.089
 30
3.6395
 70
    64
  0
VERTEX
  5
72E9C
330
72E8A
100
AcDbEntity
  8
0
100
AcDbVertex
100
AcDbPolygonMeshVertex
 10
0.5074999999999993
 20
-2.526
 30
3.6395
 70
    64
  0
SEQEND
  5
72E9D
330
72E8A
100
AcDbEntity
  8
0
  0
LINE
  5
72E9E
330
458D6
100
AcDbEntity
  8
0
100
AcDbLine
 10
0.8794999999999982
 20
-2.526
 30
3.4185
 11
0.8794999999999982
 21
-2.526
 31
3.2185
  0
POINT
  5
72E9F
330
458D6
100
AcDbEntity
  8
SNAP_POINTS
100
AcDbPoint
 10
1.240499999999998
 20
-2.526
 30
3.2185
  0
LINE
  5
72EA0
330
458D6
100
AcDbEntity
  8
0
100
AcDbLine
 10
0.562499999999999
 20
-2.526
 30
3.4185
 11
0.562499999999999
 21
-2.526
 31
3.2185
  0
LINE
  5
72EA1
330
458D6
100
AcDbEntity
  8
0
100
AcDbLine
 10
1.240499999999998
 20
-2.526
 30
3.4185
 11
1.240499999999998
 21
-2.526
 31
3.2185
  0
LINE
  5
72EA2
330
458D6
100
AcDbEntity
  8
0
100
AcDbLine
 10
1.240499999999998
 20
-2.526
 30
3.2185
 11
1.557499999999999
 21
-2.526
 31
3.2185
  0
LINE
  5
72EA3
330
458D6
100
AcDbEntity
  8
0
100
AcDbLine
 10
1.240499999999998
 20
-2.526
 30
3.4185
 11
1.557499999999999
 21
-2.526
 31
3.4185
  0
LINE
  5
72EA4
330
458D6
100
AcDbEntity
  8
0
100
AcDbLine
 10
1.557499999999999
 20
-2.526
 30
3.4185
 11
1.557499999999999
 21
-2.526
 31
3.2185
  0
CIRCLE
  5
72EA5
330
458D6
100
AcDbEntity
  8
0
100
AcDbCircle
 10
1.399
 20
-2.3075
 30
3.6395
 40
0.12
  0
CIRCLE
  5
72EA6
330
458D6
100
AcDbEntity
  8
0
100
AcDbCircle
 10
0.7209999999999973
 20
-2.3075
 30
3.6395
 40
0.12
  0
TEXT
  5
72EA7
330
458D6
100
AcDbEntity
  8
0
100
AcDbText
 39
0.0000001
 10
0.5336413792883209
 20
-2.514570544821606
 30
3.6395
 40
0.0834654981097751
  1
A1
100
AcDbText
  0
TEXT
  5
72EA8
330
458D6
100
AcDbEntity
  8
0
100
AcDbText
 39
0.0000001
 10
1.454764247209924
 20
-2.515412410927452
 30
3.6395
 40
0.0834654981097751
  1
A2
100
AcDbText
  0
POINT
  5
72EA9
330
458D6
100
AcDbEntity
  8
DIMS-MTG-HOLES
100
AcDbPoint
 10
0.1730000000000008
 20
-2.024999999999999
 30
0.0000000000000002
  0
POINT
  5
72EAA
330
458D6
100
AcDbEntity
  8
DIMS-MTG-HOLES
100
AcDbPoint
 10
1.944999999999999
 20
0.3369999999999995
 30
0.0000000000000002
  0
LWPOLYLINE
  5
72EAB
330
458D6
100
AcDbEntity
  8
0
100
AcDbPolyline
 90
        6
 70
     0
 43
0.0
 38
5.4375
 10
0.3913499999999979
 20
-1.732255006722059
 10
0.3913499999999979
 20
-1.848798040231645
 10
0.451349999999998
 20
-1.848798040231645
 10
0.451349999999998
 20
-1.888798040231645
 10
0.3913499999999979
 20
-1.888798040231645
 10
0.3913499999999979
 20
-2.005341073741231
  0
LWPOLYLINE
  5
72EAC
330
458D6
100
AcDbEntity
  8
0
100
AcDbPolyline
 90
        6
 70
     0
 43
0.0
 38
5.4375
 10
0.3513499999999978
 20
-1.732255006722059
 10
0.3513499999999978
 20
-1.848798040231645
 10
0.2913499999999978
 20
-1.848798040231645
 10
0.2913499999999978
 20
-1.888798040231645
 10
0.3513499999999978
 20
-1.888798040231645
 10
0.3513499999999978
 20
-2.005341073741231
  0
LWPOLYLINE
  5
72EAD
330
458D6
100
AcDbEntity
  8
0
100
AcDbPolyline
 90
        6
 70
     0
 43
0.0
 38
5.4375
 10
1.080049999999997
 20
-1.732255006722059
 10
1.080049999999997
 20
-1.848798040231645
 10
1.140049999999997
 20
-1.848798040231645
 10
1.140049999999997
 20
-1.888798040231645
 10
1.080049999999997
 20
-1.888798040231645
 10
1.080049999999997
 20
-2.005341073741231
  0
LWPOLYLINE
  5
72EAE
330
458D6
100
AcDbEntity
  8
0
100
AcDbPolyline
 90
        6
 70
     0
 43
0.0
 38
5.4375
 10
1.040049999999997
 20
-1.732255006722059
 10
1.040049999999997
 20
-1.848798040231645
 10
0.9800499999999976
 20
-1.848798040231645
 10
0.9800499999999976
 20
-1.888798040231645
 10
1.040049999999997
 20
-1.888798040231645
 10
1.040049999999997
 20
-2.005341073741231
  0
LWPOLYLINE
  5
72EAF
330
458D6
100
AcDbEntity
  8
0
100
AcDbPolyline
 90
        6
 70
     0
 43
0.0
 38
5.4375
 10
1.768649999999996
 20
-1.732255006722059
 10
1.768649999999996
 20
-1.848798040231645
 10
1.828649999999997
 20
-1.848798040231645
 10
1.828649999999997
 20
-1.888798040231645
 10
1.768649999999996
 20
-1.888798040231645
 10
1.768649999999996
 20
-2.005341073741231
  0
LWPOLYLINE
  5
72EB0
330
458D6
100
AcDbEntity
  8
0
100
AcDbPolyline
 90
        6
 70
     0
 43
0.0
 38
5.4375
 10
1.728649999999996
 20
-1.732255006722059
 10
1.728649999999996
 20
-1.848798040231645
 10
1.668649999999996
 20
-1.848798040231645
 10
1.668649999999996
 20
-1.888798040231645
 10
1.728649999999996
 20
-1.888798040231645
 10
1.728649999999996
 20
-2.005341073741231
  0
LWPOLYLINE
  5
72EB1
330
458D6
100
AcDbEntity
  8
0
100
AcDbPolyline
 90
        6
 70
     0
 43
0.0
 38
3.6395
 10
0.7409999999999972
 20
-2.189178404338003
 10
0.7409999999999972
 20
-2.2875
 10
0.8009999999999973
 20
-2.2875
 10
0.8009999999999973
 20
-2.3275
 10
0.7409999999999972
 20
-2.3275
 10
0.7409999999999972
 20
-2.425821595661988
  0
LWPOLYLINE
  5
72EB2
330
458D6
100
AcDbEntity
  8
0
100
AcDbPolyline
 90
        6
 70
     0
 43
0.0
 38
3.6395
 10
0.7009999999999972
 20
-2.189178404338012
 10
0.7009999999999972
 20
-2.2875
 10
0.6409999999999972
 20
-2.2875
 10
0.6409999999999972
 20
-2.3275
 10
0.7009999999999972
 20
-2.3275
 10
0.7009999999999972
 20
-2.425821595661996
  0
LWPOLYLINE
  5
72EB3
330
458D6
100
AcDbEntity
  8
0
100
AcDbPolyline
 90
        6
 70
     0
 43
0.0
 38
3.6395
 10
1.419
 20
-2.189178404338003
 10
1.419
 20
-2.2875
 10
1.479
 20
-2.2875
 10
1.479
 20
-2.3275
 10
1.419
 20
-2.3275
 10
1.419
 20
-2.425821595661988
  0
LWPOLYLINE
  5
72EB4
330
458D6
100
AcDbEntity
  8
0
100
AcDbPolyline
 90
        6
 70
     0
 43
0.0
 38
3.6395
 10
1.379
 20
-2.189178404338012
 10
1.379
 20
-2.2875
 10
1.319
 20
-2.2875
 10
1.319
 20
-2.3275
 10
1.379
 20
-2.3275
 10
1.379
 20
-2.425821595661996
  0
LWPOLYLINE
  5
72EB5
330
458D6
100
AcDbEntity
  8
0
100
AcDbPolyline
 90
        6
 70
     0
 43
0.0
 38
5.4375
 10
0.3513499999999978
 20
0.3173410737412312
 10
0.3513499999999978
 20
0.2007980402316449
 10
0.2913499999999978
 20
0.2007980402316449
 10
0.2913499999999978
 20
0.1607980402316449
 10
0.3513499999999978
 20
0.1607980402316449
 10
0.3513499999999978
 20
0.0442550067220586
  0
LWPOLYLINE
  5
72EB6
330
458D6
100
AcDbEntity
  8
0
100
AcDbPolyline
 90
        6
 70
     0
 43
0.0
 38
5.4375
 10
0.3913499999999979
 20
0.3173410737412312
 10
0.3913499999999979
 20
0.2007980402316449
 10
0.451349999999998
 20
0.2007980402316449
 10
0.451349999999998
 20
0.1607980402316449
 10
0.3913499999999979
 20
0.1607980402316449
 10
0.3913499999999979
 20
0.0442550067220586
  0
LWPOLYLINE
  5
72EB7
330
458D6
100
AcDbEntity
  8
0
100
AcDbPolyline
 90
        6
 70
     0
 43
0.0
 38
5.4375
 10
1.040049999999997
 20
0.3173410737412312
 10
1.040049999999997
 20
0.2007980402316449
 10
0.9800499999999976
 20
0.2007980402316449
 10
0.9800499999999976
 20
0.1607980402316449
 10
1.040049999999997
 20
0.1607980402316449
 10
1.040049999999997
 20
0.0442550067220586
  0
LWPOLYLINE
  5
72EB8
330
458D6
100
AcDbEntity
  8
0
100
AcDbPolyline
 90
        6
 70
     0
 43
0.0
 38
5.4375
 10
1.080049999999997
 20
0.3173410737412312
 10
1.080049999999997
 20
0.2007980402316449
 10
1.140049999999997
 20
0.2007980402316449
 10
1.140049999999997
 20
0.1607980402316449
 10
1.080049999999997
 20
0.1607980402316449
 10
1.080049999999997
 20
0.0442550067220586
  0
CIRCLE
  5
72EB9
330
458D6
100
AcDbEntity
  8
0
100
AcDbCircle
 10
1.060049999999997
 20
0.1807980402316449
 30
5.4375
 40
0.138
  0
LWPOLYLINE
  5
72EBA
330
458D6
100
AcDbEntity
  8
0
100
AcDbPolyline
 90
        6
 70
     0
 43
0.0
 38
5.4375
 10
1.728649999999996
 20
0.3173410737412312
 10
1.728649999999996
 20
0.2007980402316449
 10
1.668649999999996
 20
0.2007980402316449
 10
1.668649999999996
 20
0.1607980402316449
 10
1.728649999999996
 20
0.1607980402316449
 10
1.728649999999996
 20
0.0442550067220586
  0
CIRCLE
  5
72EBB
330
458D6
100
AcDbEntity
  8
0
100
AcDbCircle
 10
1.748649999999996
 20
0.1807980402316449
 30
5.4375
 40
0.138
  0
LWPOLYLINE
  5
72EBC
330
458D6
100
AcDbEntity
  8
0
100
AcDbPolyline
 90
        6
 70
     0
 43
0.0
 38
5.4375
 10
1.768649999999996
 20
0.3173410737412312
 10
1.768649999999996
 20
0.2007980402316449
 10
1.828649999999997
 20
0.2007980402316449
 10
1.828649999999997
 20
0.1607980402316449
 10
1.768649999999996
 20
0.1607980402316449
 10
1.768649999999996
 20
0.0442550067220586
  0
DIMENSION
  5
72EBD
330
458D6
100
AcDbEntity
  8
AREA1
100
AcDbDimension
  2
*D0
 10
-0.5746863207874177
 20
-2.526
 30
0.0
 11
-0.5746863207874174
 21
-0.9224744684967074
 31
0.0
 70
   160
 71
     5
 42
-1.0
 73
     0
 74
     0
 75
     0
  3
ABECAD_3D
100
AcDbAlignedDimension
 13
0.8744999999999993
 23
0.654
 33
2.9655
 14
0.5074999999999993
 24
-2.526
 34
2.9655
 50
90.0
100
AcDbRotatedDimension
  0
DIMENSION
  5
72ECB
330
458D6
100
AcDbEntity
  8
AREA1
100
AcDbDimension
  2
*D1
 10
2.119999999999999
 20
1.002265421042018
 30
0.0
 11
1.038326922860847
 21
1.002265421042018
 31
0.0
 70
   160
 71
     5
 42
-1.0
 73
     0
 74
     0
 75
     0
  3
ABECAD_3D
100
AcDbAlignedDimension
 13
-0.0000000000000009
 23
0.5149999999999997
 33
3.218499999999999
 14
2.119999999999999
 24
0.5149999999999997
 34
3.218499999999999
100
AcDbRotatedDimension
  0
LWPOLYLINE
  5
72EE8
330
458D6
100
AcDbEntity
  8
SCALE
100
AcDbPolyline
 90
        4
 70
     1
 43
0.0
 10
0.4825984585758652
 20
-2.632903126302786
 10
1.618227278117837
 20
-2.632903126302786
 10
1.618227278117837
 20
-3.474512693080801
 10
0.4825984585758652
 20
-3.474512693080801
  0
LINE
  5
72EE9
330
458D6
100
AcDbEntity
  8
SCALE
100
AcDbLine
 10
0.5405971228026272
 20
-3.012981445007001
 30
0.0
 11
1.540597122802627
 21
-3.012981445007001
 31
0.0
  0
LINE
  5
72EEA
330
458D6
100
AcDbEntity
  8
SCALE
100
AcDbLine
 10
0.5405971228026272
 20
-3.312981445007001
 30
0.0
 11
0.9342971228026272
 21
-3.312981445007001
 31
0.0
  0
LINE
  5
72EEB
330
458D6
100
AcDbEntity
  8
SCALE
100
AcDbLine
 10
0.5405971228026272
 20
-3.112981445007002
 30
0.0
 11
0.5405971228026272
 21
-2.912981445007001
 31
0.0
  0
TEXT
  5
72EEC
330
458D6
100
AcDbEntity
  8
SCALE
100
AcDbText
 10
0.596573104733102
 20
-3.265296355244159
 30
0.0
 40
0.0625
  1
[10mm]
100
AcDbText
  0
LINE
  5
72EED
330
458D6
100
AcDbEntity
  8
SCALE
100
AcDbLine
 10
0.5405971228026272
 20
-3.412981445007001
 30
0.0
 11
0.5405971228026272
 21
-3.212981445007002
 31
0.0
  0
TEXT
  5
72EEE
330
458D6
100
AcDbEntity
  8
SCALE
100
AcDbText
 10
0.5421273880491531
 20
-2.738104323733388
 30
0.0
 40
0.0625
  1
SCALE:
100
AcDbText
  0
LINE
  5
72EEF
330
458D6
100
AcDbEntity
  8
SCALE
100
AcDbLine
 10
0.9342971228026272
 20
-3.412981445007001
 30
0.0
 11
0.9342971228026272
 21
-3.212981445007002
 31
0.0
  0
TEXT
  5
72EF0
330
458D6
100
AcDbEntity
  8
SCALE
100
AcDbText
 10
0.9038801112865368
 20
-2.9439327496338
 30
0.0
 40
0.0625
  1
1 Inch
100
AcDbText
  0
LINE
  5
72EF1
330
458D6
100
AcDbEntity
  8
SCALE
100
AcDbLine
 10
1.540597122802627
 20
-3.012981445007001
 30
0.0
 11
1.540597122802627
 21
-3.112981445007002
 31
0.0
  0
LINE
  5
72EF2
330
458D6
100
AcDbEntity
  8
SCALE
100
AcDbLine
 10
1.540597122802627
 20
-3.112981445007002
 30
0.0
 11
1.540597122802627
 21
-2.912981445007001
 31
0.0
  0
VIEWPORT
  5
5677D
330
458D3
100
AcDbEntity
 67
     1
  8
0
100
AcDbViewport
 10
5.249999639556163
 20
3.999999883606677
 30
0.0
 40
16.38686186943767
 41
8.992999745766947
 68
     1
 69
     1
 12
5.249999639556163
 22
3.999999883606677
 13
0.0
 23
0.0
 14
0.5
 24
0.5
 15
0.5
 25
0.5
 16
0.0
 26
0.0
 36
1.0
 17
0.0
 27
0.0
 37
0.0
 42
50.0
 43
0.0
 44
0.0
 45
8.992999745766947
 50
0.0
 51
0.0
 72
 20000
 90
    32800
  1

281
     0
 71
     1
 74
     0
110
0.0
120
0.0
130
0.0
111
1.0
121
0.0
131
0.0
112
0.0
122
1.0
132
0.0
 79
     0
146
0.0
170
     0
 61
     5
348
72F9A
292
     1
282
     1
141
0.0
142
0.0
 63
   250
421
  3355443
  0
VIEWPORT
  5
5677F
330
458D3
100
AcDbEntity
 67
     1
  8
AREA1
100
AcDbViewport
 10
5.24999976158142
 20
3.99999976158142
 30
0.0
 40
8.399999618530271
 41
6.399999618530272
 68
     2
 69
     2
 12
-1.017175299537903
 22
0.747812767808223
 13
0.0
 23
0.0
 14
0.25
 24
0.25
 15
0.25
 25
0.25
 16
0.0
 26
0.0
 36
1.0
 17
0.5634438949382106
 27
-0.8801371703728531
 37
1.68649307151727
 42
50.0
 43
0.0
 44
0.0
 45
4.58291448918931
 50
0.0
 51
0.0
 72
 20000
 90
    32800
  1

281
     1
 71
     1
 74
     0
110
0.0
120
0.0
130
0.0
111
1.0
121
0.0
131
0.0
112
0.0
122
1.0
132
0.0
 79
     1
146
0.0
170
     0
 61
     5
348
72F9B
292
     1
282
     1
141
0.0
142
0.0
 63
   250
421
  3355443
  0
ENDSEC
  0
SECTION
  2
OBJECTS
  0
DICTIONARY
  5
458CB
330
0
100
AcDbDictionary
281
     1
  3
ACAD_BACKGROUND
350
72FAA
  3
ACAD_COLOR
350
72FA5
  3
ACAD_GROUP
350
458CC
  3
ACAD_LAYOUT
350
458FB
  3
ACAD_MATERIAL
350
72F90
  3
ACAD_MLINESTYLE
350
458D9
  3
ACAD_PLOTSETTINGS
350
458FC
  3
ACAD_PLOTSTYLENAME
350
458F9
  3
ACAD_TABLESTYLE
350
72FA6
  3
ACAD_VISUALSTYLE
350
72F94
  3
ACADE_WIRETYPE
350
72FBF
  3
ACDBVARIABLEDICTIONARY
350
458E1
  3
ASE_INDEX_DICTIONARY
350
72FB2
  0
DICTIONARY
  5
72FC1
330
458C7
100
AcDbDictionary
280
     1
281
     1
  0
DICTIONARY
  5
72FAF
330
72FAE
100
AcDbDictionary
280
     1
281
     1
  3
ACADE_WIRETYPE
360
72FB0
  0
DICTIONARY
  5
4592C
330
458D6
100
AcDbDictionary
280
     1
281
     1
  3
ACAD_LAYOUTSELFREF
360
72F84
  0
DICTIONARY
  5
4592A
330
458D3
100
AcDbDictionary
280
     1
281
     1
  3
ACAD_LAYOUTSELFREF
360
72F83
  0
DICTIONARY
  5
72FAA
102
{ACAD_REACTORS
330
458CB
102
}
330
458CB
100
AcDbDictionary
281
     1
  0
DICTIONARY
  5
72FA5
102
{ACAD_REACTORS
330
458CB
102
}
330
458CB
100
AcDbDictionary
281
     1
  0
DICTIONARY
  5
458CC
102
{ACAD_REACTORS
330
458CB
102
}
330
458CB
100
AcDbDictionary
281
     1
  0
DICTIONARY
  5
458FB
102
{ACAD_REACTORS
330
458CB
102
}
330
458CB
100
AcDbDictionary
281
     1
  3
Layout1
350
458FE
  3
Model
350
458FD
  0
DICTIONARY
  5
72F90
102
{ACAD_REACTORS
330
458CB
102
}
330
458CB
100
AcDbDictionary
281
     1
  3
ByBlock
350
72F92
  3
ByLayer
350
72F91
  3
Global
350
72F93
  0
DICTIONARY
  5
458D9
102
{ACAD_REACTORS
330
458CB
102
}
330
458CB
100
AcDbDictionary
281
     1
  3
STANDARD
350
458DA
  0
DICTIONARY
  5
458FC
102
{ACAD_REACTORS
330
458CB
102
}
330
458CB
100
AcDbDictionary
281
     1
  0
ACDBDICTIONARYWDFLT
  5
458F9
102
{ACAD_REACTORS
330
458CB
102
}
330
458CB
100
AcDbDictionary
281
     1
  3
Normal
350
458FA
100
AcDbDictionaryWithDefault
340
458FA
  0
DICTIONARY
  5
72FA6
102
{ACAD_REACTORS
330
458CB
102
}
330
458CB
100
AcDbDictionary
281
     1
  3
Standard
350
72FA7
  0
DICTIONARY
  5
72F94
102
{ACAD_REACTORS
330
458CB
102
}
330
458CB
100
AcDbDictionary
281
     1
  3
2dWireframe
350
72F9A
  3
3D Hidden
350
72F9C
  3
3dWireframe
350
72F9B
  3
Basic
350
72F99
  3
Brighten
350
72FA0
  3
ColorChange
350
72FA4
  3
Conceptual
350
72F9D
  3
Dim
350
72F9F
  3
Facepattern
350
72FA3
  3
Flat
350
72F95
  3
FlatWithEdges
350
72F96
  3
Gouraud
350
72F97
  3
GouraudWithEdges
350
72F98
  3
Linepattern
350
72FA2
  3
Realistic
350
72F9E
  3
Thicken
350
72FA1
  0
DICTIONARY
  5
72FBF
102
{ACAD_REACTORS
330
458CB
102
}
330
458CB
100
AcDbDictionary
281
     1
  3
CURRENT_WIRELAY
350
72FC0
  0
DICTIONARY
  5
458E1
102
{ACAD_REACTORS
330
458CB
102
}
330
458CB
100
AcDbDictionary
281
     1
  3
CTABLESTYLE
350
72FB5
  3
DIMADEC
350
458E2
  0
DICTIONARY
  5
72FB2
102
{ACAD_REACTORS
330
458CB
102
}
330
458CB
100
AcDbDictionary
281
     1
  3
ASEBlockHierarchyIndexRecord
350
72FB4
1001
DCO15
1040
1582952641.006
  0
XRECORD
  5
72FB0
102
{ACAD_REACTORS
330
72FAF
102
}
330
72FAF
100
AcDbXrecord
280
     1
  1

  2

  3
WIRE
 90
        0
  0
XRECORD
  5
72F84
102
{ACAD_REACTORS
330
4592C
102
}
330
4592C
100
AcDbXrecord
280
     1
340
458D6
  0
XRECORD
  5
72F83
102
{ACAD_REACTORS
330
4592A
102
}
330
4592A
100
AcDbXrecord
280
     1
340
458D3
  0
LAYOUT
  5
458FE
102
{ACAD_REACTORS
330
458FB
102
}
330
458FB
100
AcDbPlotSettings
  1

  2
none_device
  4
Letter_(8.50_x_11.00_Inches)
  6

 40
6.349999904632568
 41
6.349999904632568
 42
6.350006103515625
 43
6.350006103515625
 44
215.8999938964844
 45
279.3999938964844
 46
0.0
 47
0.0
 48
0.0
 49
0.0
140
0.0
141
0.0
142
1.0
143
1.0
 70
   688
 72
     0
 73
     1
 74
     5
  7
Default R14 pen assignments.ctb
 75
    16
147
1.0
 76
     0
 77
     2
 78
   300
148
0.0
149
0.0
100
AcDbLayout
  1
Layout1
 70
     1
 71
     1
 10
-0.2500002402958907
 20
-0.2499999962453767
 11
10.74999951940821
 21
8.249999763458731
 12
0.0
 22
0.0
 32
0.0
 14
1.049999952316284
 24
0.7999999523162842
 34
0.0
 15
9.449999570846555
 25
7.199999570846556
 35
0.0
146
0.0
 13
0.0
 23
0.0
 33
0.0
 16
1.0
 26
0.0
 36
0.0
 17
0.0
 27
1.0
 37
0.0
 76
     0
330
458D3
331
5677D
  0
LAYOUT
  5
458FD
102
{ACAD_REACTORS
330
458FB
102
}
330
458FB
100
AcDbPlotSettings
  1

  2
HP LaserJet 5000 Series PCL 6
  4

  6

 40
0.0
 41
0.0
 42
0.0
 43
0.0
 44
0.0
 45
0.0
 46
0.0
 47
0.0
 48
0.0
 49
0.0
140
0.0
141
0.0
142
1.0
143
1.0
 70
  1712
 72
     0
 73
     0
 74
     0
  7
Default R14 pen assignments.ctb
 75
     0
147
1.0
 76
     0
 77
     2
 78
   300
148
0.0
149
0.0
100
AcDbLayout
  1
Model
 70
     1
 71
     0
 10
0.0
 20
0.0
 11
12.0
 21
9.0
 12
0.0
 22
0.0
 32
0.0
 14
0.0
 24
0.0
 34
0.0
 15
0.0
 25
0.0
 35
0.0
146
0.0
 13
0.0
 23
0.0
 33
0.0
 16
1.0
 26
0.0
 36
0.0
 17
0.0
 27
1.0
 37
0.0
 76
     0
330
458D6
331
72F5D
  0
MATERIAL
  5
72F92
102
{ACAD_REACTORS
330
72F90
102
}
330
72F90
100
AcDbMaterial
  1
ByBlock
  0
MATERIAL
  5
72F91
102
{ACAD_REACTORS
330
72F90
102
}
330
72F90
100
AcDbMaterial
  1
ByLayer
  0
MATERIAL
  5
72F93
102
{ACAD_REACTORS
330
72F90
102
}
330
72F90
100
AcDbMaterial
  1
Global
  0
MLINESTYLE
  5
458DA
102
{ACAD_REACTORS
330
458D9
102
}
330
458D9
100
AcDbMlineStyle
  2
STANDARD
 70
     0
  3

 62
   256
 51
90.0
 52
90.0
 71
     2
 49
0.5
 62
   256
  6
BYLAYER
 49
-0.5
 62
   256
  6
BYLAYER
  0
ACDBPLACEHOLDER
  5
458FA
102
{ACAD_REACTORS
330
458F9
102
}
330
458F9
  0
TABLESTYLE
  5
72FA7
102
{ACAD_REACTORS
330
72FA6
102
}
330
72FA6
100
AcDbTableStyle
  3
Standard
 70
     0
 71
     0
 40
0.06
 41
0.06
280
     0
281
     0
  7
STANDARD
140
0.18
170
     2
 62
     0
 63
     7
283
     0
 90
      512
 91
        0
  1

274
    -2
284
     1
 64
     0
275
    -2
285
     1
 65
     0
276
    -2
286
     1
 66
     0
277
    -2
287
     1
 67
     0
278
    -2
288
     1
 68
     0
279
    -2
289
     1
 69
     0
  7
STANDARD
140
0.25
170
     5
 62
     0
 63
     7
283
     0
 90
      512
 91
        0
  1

274
    -2
284
     1
 64
     0
275
    -2
285
     1
 65
     0
276
    -2
286
     1
 66
     0
277
    -2
287
     1
 67
     0
278
    -2
288
     1
 68
     0
279
    -2
289
     1
 69
     0
  7
STANDARD
140
0.18
170
     5
 62
     0
 63
     7
283
     0
 90
      512
 91
        0
  1

274
    -2
284
     1
 64
     0
275
    -2
285
     1
 65
     0
276
    -2
286
     1
 66
     0
277
    -2
287
     1
 67
     0
278
    -2
288
     1
 68
     0
279
    -2
289
     1
 69
     0
  0
VISUALSTYLE
  5
72F9A
102
{ACAD_REACTORS
330
72F94
102
}
330
72F94
100
AcDbVisualStyle
  2
2dWireframe
 70
     4
 71
     0
 72
     2
 73
     0
 90
        0
 40
-0.6
 41
-30.0
 62
     5
 63
     7
421
 16777215
 74
     1
 91
        4
 64
     7
 65
   257
 75
     1
175
     1
 42
1.0
 92
        0
 66
   257
 43
1.0
 76
     1
 77
     6
 78
     2
 67
     7
 79
     5
170
     0
171
     0
290
     0
174
     0
 93
        1
 44
0.0
173
     0
291
     0
 45
0.0
  0
VISUALSTYLE
  5
72F9C
102
{ACAD_REACTORS
330
72F94
102
}
330
72F94
100
AcDbVisualStyle
  2
3D Hidden
 70
     6
 71
     1
 72
     2
 73
     2
 90
        0
 40
-0.6
 41
-30.0
 62
     5
 63
     7
421
 16777215
 74
     2
 91
        2
 64
     7
 65
   257
 75
     2
175
     1
 42
40.0
 92
        0
 66
   257
 43
1.0
 76
     1
 77
     6
 78
     2
 67
     7
 79
     3
170
     0
171
     0
290
     0
174
     0
 93
        1
 44
0.0
173
     0
291
     0
 45
0.0
  0
VISUALSTYLE
  5
72F9B
102
{ACAD_REACTORS
330
72F94
102
}
330
72F94
100
AcDbVisualStyle
  2
3dWireframe
 70
     5
 71
     0
 72
     2
 73
     0
 90
        0
 40
-0.6
 41
-30.0
 62
     5
 63
     7
421
 16777215
 74
     1
 91
        4
 64
     7
 65
   257
 75
     1
175
     1
 42
1.0
 92
        0
 66
   257
 43
1.0
 76
     1
 77
     6
 78
     2
 67
     7
 79
     5
170
     0
171
     0
290
     0
174
     0
 93
        1
 44
0.0
173
     0
291
     0
 45
0.0
  0
VISUALSTYLE
  5
72F99
102
{ACAD_REACTORS
330
72F94
102
}
330
72F94
100
AcDbVisualStyle
  2
Basic
 70
     7
 71
     1
 72
     0
 73
     1
 90
        0
 40
-0.6
 41
-30.0
 62
     5
 63
     7
421
 16777215
 74
     0
 91
        4
 64
     7
 65
   257
 75
     1
175
     1
 42
1.0
 92
        8
 66
     7
 43
1.0
 76
     1
 77
     6
 78
     2
 67
     7
 79
     5
170
     0
171
     0
290
     0
174
     0
 93
        1
 44
0.0
173
     0
291
     1
 45
0.0
  0
VISUALSTYLE
  5
72FA0
102
{ACAD_REACTORS
330
72F94
102
}
330
72F94
100
AcDbVisualStyle
  2
Brighten
 70
    12
 71
     2
 72
     2
 73
     0
 90
        0
 40
-0.6
 41
-30.0
 62
     5
 63
     7
421
 16777215
 74
     1
 91
        4
 64
     7
 65
   257
 75
     1
175
     1
 42
1.0
 92
        8
 66
     7
 43
1.0
 76
     1
 77
     6
 78
     2
 67
     7
 79
     5
170
     0
171
     0
290
     0
174
     0
 93
        1
 44
50.0
173
     0
291
     1
 45
0.0
  0
VISUALSTYLE
  5
72FA4
102
{ACAD_REACTORS
330
72F94
102
}
330
72F94
100
AcDbVisualStyle
  2
ColorChange
 70
    16
 71
     2
 72
     2
 73
     3
 90
        0
 40
-0.6
 41
-30.0
 62
     5
 63
     8
421
  8421504
 74
     1
 91
        4
 64
     7
 65
   257
 75
     1
175
     1
 42
1.0
 92
        8
 66
     8
424
  8421504
 43
1.0
 76
     1
 77
     6
 78
     2
 67
     7
 79
     5
170
     0
171
     0
290
     0
174
     0
 93
        1
 44
0.0
173
     0
291
     1
 45
0.0
  0
VISUALSTYLE
  5
72F9D
102
{ACAD_REACTORS
330
72F94
102
}
330
72F94
100
AcDbVisualStyle
  2
Conceptual
 70
     9
 71
     3
 72
     2
 73
     0
 90
        0
 40
-0.6
 41
-30.0
 62
     5
 63
     7
421
 16777215
 74
     2
 91
        2
 64
     7
 65
   257
 75
     1
175
     1
 42
40.0
 92
        8
 66
     7
 43
1.0
 76
     1
 77
     6
 78
     2
 67
     7
 79
     3
170
     0
171
     0
290
     0
174
     0
 93
        1
 44
0.0
173
     0
291
     0
 45
0.0
  0
VISUALSTYLE
  5
72F9F
102
{ACAD_REACTORS
330
72F94
102
}
330
72F94
100
AcDbVisualStyle
  2
Dim
 70
    11
 71
     2
 72
     2
 73
     0
 90
        0
 40
-0.6
 41
-30.0
 62
     5
 63
     7
421
 16777215
 74
     1
 91
        4
 64
     7
 65
   257
 75
     1
175
     1
 42
1.0
 92
        8
 66
     7
 43
1.0
 76
     1
 77
     6
 78
     2
 67
     7
 79
     5
170
     0
171
     0
290
     0
174
     0
 93
        1
 44
-50.0
173
     0
291
     1
 45
0.0
  0
VISUALSTYLE
  5
72FA3
102
{ACAD_REACTORS
330
72F94
102
}
330
72F94
100
AcDbVisualStyle
  2
Facepattern
 70
    15
 71
     2
 72
     2
 73
     0
 90
        0
 40
-0.6
 41
-30.0
 62
     5
 63
     7
421
 16777215
 74
     1
 91
        4
 64
     7
 65
   257
 75
     1
175
     1
 42
1.0
 92
        8
 66
     7
 43
1.0
 76
     1
 77
     6
 78
     2
 67
     7
 79
     5
170
     0
171
     0
290
     0
174
     0
 93
        1
 44
0.0
173
     0
291
     1
 45
0.0
  0
VISUALSTYLE
  5
72F95
102
{ACAD_REACTORS
330
72F94
102
}
330
72F94
100
AcDbVisualStyle
  2
Flat
 70
     0
 71
     2
 72
     1
 73
     1
 90
        2
 40
-0.6
 41
30.0
 62
     5
 63
     7
421
 16777215
 74
     0
 91
        4
 64
     7
 65
   257
 75
     1
175
     1
 42
1.0
 92
        8
 66
     7
 43
1.0
 76
     1
 77
     6
 78
     2
 67
     7
 79
     5
170
     0
171
     0
290
     0
174
     0
 93
       13
 44
0.0
173
     0
291
     1
 45
0.0
  0
VISUALSTYLE
  5
72F96
102
{ACAD_REACTORS
330
72F94
102
}
330
72F94
100
AcDbVisualStyle
  2
FlatWithEdges
 70
     1
 71
     2
 72
     1
 73
     1
 90
        2
 40
-0.6
 41
30.0
 62
     5
 63
     7
421
 16777215
 74
     1
 91
        4
 64
     7
 65
   257
 75
     1
175
     1
 42
1.0
 92
        0
 66
   257
 43
1.0
 76
     1
 77
     6
 78
     2
 67
     7
 79
     5
170
     0
171
     0
290
     0
174
     0
 93
       13
 44
0.0
173
     0
291
     1
 45
0.0
  0
VISUALSTYLE
  5
72F97
102
{ACAD_REACTORS
330
72F94
102
}
330
72F94
100
AcDbVisualStyle
  2
Gouraud
 70
     2
 71
     2
 72
     2
 73
     1
 90
        2
 40
-0.6
 41
30.0
 62
     5
 63
     7
421
 16777215
 74
     0
 91
        4
 64
     7
 65
   257
 75
     1
175
     1
 42
1.0
 92
        0
 66
     7
 43
1.0
 76
     1
 77
     6
 78
     2
 67
     7
 79
     5
170
     0
171
     0
290
     0
174
     0
 93
       13
 44
0.0
173
     0
291
     1
 45
0.0
  0
VISUALSTYLE
  5
72F98
102
{ACAD_REACTORS
330
72F94
102
}
330
72F94
100
AcDbVisualStyle
  2
GouraudWithEdges
 70
     3
 71
     2
 72
     2
 73
     1
 90
        2
 40
-0.6
 41
30.0
 62
     5
 63
     7
421
 16777215
 74
     1
 91
        4
 64
     7
 65
   257
 75
     1
175
     1
 42
1.0
 92
        0
 66
   257
 43
1.0
 76
     1
 77
     6
 78
     2
 67
     7
 79
     5
170
     0
171
     0
290
     0
174
     0
 93
       13
 44
0.0
173
     0
291
     1
 45
0.0
  0
VISUALSTYLE
  5
72FA2
102
{ACAD_REACTORS
330
72F94
102
}
330
72F94
100
AcDbVisualStyle
  2
Linepattern
 70
    14
 71
     2
 72
     2
 73
     0
 90
        0
 40
-0.6
 41
-30.0
 62
     5
 63
     7
421
 16777215
 74
     1
 91
        4
 64
     7
 65
   257
 75
     7
175
     7
 42
1.0
 92
        8
 66
     7
 43
1.0
 76
     1
 77
     6
 78
     2
 67
     7
 79
     5
170
     0
171
     0
290
     0
174
     0
 93
        1
 44
0.0
173
     0
291
     1
 45
0.0
  0
VISUALSTYLE
  5
72F9E
102
{ACAD_REACTORS
330
72F94
102
}
330
72F94
100
AcDbVisualStyle
  2
Realistic
 70
     8
 71
     2
 72
     2
 73
     0
 90
        0
 40
-0.6
 41
-30.0
 62
     5
 63
     7
421
 16777215
 74
     1
 91
        0
 64
     7
 65
   257
 75
     1
175
     1
 42
1.0
 92
        8
 66
     8
424
  7895160
 43
1.0
 76
     1
 77
     6
 78
     2
 67
     7
 79
     5
170
     0
171
     0
290
     0
174
     0
 93
       13
 44
0.0
173
     0
291
     0
 45
0.0
  0
VISUALSTYLE
  5
72FA1
102
{ACAD_REACTORS
330
72F94
102
}
330
72F94
100
AcDbVisualStyle
  2
Thicken
 70
    13
 71
     2
 72
     2
 73
     0
 90
        0
 40
-0.6
 41
-30.0
 62
     5
 63
     7
421
 16777215
 74
     1
 91
        4
 64
     7
 65
   257
 75
     1
175
     1
 42
1.0
 92
       12
 66
     7
 43
1.0
 76
     1
 77
     6
 78
     2
 67
     7
 79
     5
170
     0
171
     0
290
     0
174
     0
 93
        1
 44
0.0
173
     0
291
     1
 45
0.0
  0
XRECORD
  5
72FC0
102
{ACAD_REACTORS
330
72FBF
102
}
330
72FBF
100
AcDbXrecord
280
     1
  1
WIRES
  1
WIRES
  1

290
     0
  0
DICTIONARYVAR
  5
72FB5
102
{ACAD_REACTORS
330
458E1
102
}
330
458E1
100
DictionaryVariables
280
     0
  1
STANDARD
  0
DICTIONARYVAR
  5
458E2
102
{ACAD_REACTORS
330
458E1
102
}
330
458E1
100
DictionaryVariables
280
     0
  1
0
  0
XRECORD
  5
72FB4
102
{ACAD_REACTORS
330
72FB2
102
}
330
72FB2
100
AcDbXrecord
280
     1
  0
ENDSEC
  0
EOF
