  0
SECTION
  2
HEADER
  9
$ACADVER
  1
AC1021
  9
$ACADMAINTVER
 70
     1
  9
$DWGCODEPAGE
  3
ANSI_1252
  9
$LASTSAVEDBY
  1
gdseiver
  9
$INSBASE
 10
0.0
 20
0.0
 30
0.0
  9
$EXTMIN
 10
-0.0000000000000027
 20
-2.526
 30
-0.0000000000000001
  9
$EXTMAX
 10
2.12
 20
0.654
 30
4.109999999999999
  9
$LIMMIN
 10
0.0
 20
0.0
  9
$LIMMAX
 10
12.0
 20
9.0
  9
$ORTHOMODE
 70
     0
  9
$REGENMODE
 70
     1
  9
$FILLMODE
 70
     1
  9
$QTEXTMODE
 70
     0
  9
$MIRRTEXT
 70
     1
  9
$LTSCALE
 40
1.0
  9
$ATTMODE
 70
     1
  9
$TEXTSIZE
 40
0.12
  9
$TRACEWID
 40
0.05
  9
$TEXTSTYLE
  7
STANDARD
  9
$CLAYER
  8
0
  9
$CELTYPE
  6
BYLAYER
  9
$CECOLOR
 62
   256
  9
$CELTSCALE
 40
1.0
  9
$DISPSILH
 70
     0
  9
$DIMSCALE
 40
1.0
  9
$DIMASZ
 40
0.18
  9
$DIMEXO
 40
0.0625
  9
$DIMDLI
 40
0.375
  9
$DIMRND
 40
0.0
  9
$DIMDLE
 40
0.0
  9
$DIMEXE
 40
0.18
  9
$DIMTP
 40
0.0
  9
$DIMTM
 40
0.0
  9
$DIMTXT
 40
0.14
  9
$DIMCEN
 40
0.09
  9
$DIMTSZ
 40
0.0
  9
$DIMTOL
 70
     0
  9
$DIMLIM
 70
     0
  9
$DIMTIH
 70
     0
  9
$DIMTOH
 70
     1
  9
$DIMSE1
 70
     0
  9
$DIMSE2
 70
     0
  9
$DIMTAD
 70
     0
  9
$DIMZIN
 70
     4
  9
$DIMBLK
  1

  9
$DIMASO
 70
     1
  9
$DIMSHO
 70
     1
  9
$DIMPOST
  1

  9
$DIMAPOST
  1

  9
$DIMALT
 70
     1
  9
$DIMALTD
 70
     2
  9
$DIMALTF
 40
25.4
  9
$DIMLFAC
 40
1.0
  9
$DIMTOFL
 70
     0
  9
$DIMTVP
 40
0.0
  9
$DIMTIX
 70
     0
  9
$DIMSOXD
 70
     0
  9
$DIMSAH
 70
     0
  9
$DIMBLK1
  1

  9
$DIMBLK2
  1

  9
$DIMSTYLE
  2
ABECAD_3D
  9
$DIMCLRD
 70
     0
  9
$DIMCLRE
 70
     0
  9
$DIMCLRT
 70
     0
  9
$DIMTFAC
 40
1.5
  9
$DIMGAP
 40
0.09
  9
$DIMJUST
 70
     0
  9
$DIMSD1
 70
     0
  9
$DIMSD2
 70
     0
  9
$DIMTOLJ
 70
     1
  9
$DIMTZIN
 70
     4
  9
$DIMALTZ
 70
     4
  9
$DIMALTTZ
 70
     4
  9
$DIMUPT
 70
     1
  9
$DIMDEC
 70
     6
  9
$DIMTDEC
 70
     6
  9
$DIMALTU
 70
     2
  9
$DIMALTTD
 70
     2
  9
$DIMTXSTY
  7
STANDARD
  9
$DIMAUNIT
 70
     0
  9
$DIMADEC
 70
     0
  9
$DIMALTRND
 40
0.0
  9
$DIMAZIN
 70
     0
  9
$DIMDSEP
 70
    46
  9
$DIMATFIT
 70
     2
  9
$DIMFRAC
 70
     2
  9
$DIMLDRBLK
  1

  9
$DIMLUNIT
 70
     5
  9
$DIMLWD
 70
    -2
  9
$DIMLWE
 70
    -2
  9
$DIMTMOVE
 70
     2
  9
$DIMFXL
 40
1.0
  9
$DIMFXLON
 70
     0
  9
$DIMJOGANG
 40
0.7853981633974483
  9
$DIMTFILL
 70
     0
  9
$DIMTFILLCLR
 70
     0
  9
$DIMARCSYM
 70
     0
  9
$DIMLTYPE
  6

  9
$DIMLTEX1
  6

  9
$DIMLTEX2
  6

  9
$LUNITS
 70
     2
  9
$LUPREC
 70
     4
  9
$SKETCHINC
 40
0.1
  9
$FILLETRAD
 40
0.0
  9
$AUNITS
 70
     0
  9
$AUPREC
 70
     0
  9
$MENU
  1
ACAD
  9
$ELEVATION
 40
0.0
  9
$PELEVATION
 40
0.0
  9
$THICKNESS
 40
0.0
  9
$LIMCHECK
 70
     0
  9
$CHAMFERA
 40
0.0
  9
$CHAMFERB
 40
0.0
  9
$CHAMFERC
 40
0.0
  9
$CHAMFERD
 40
0.0
  9
$SKPOLY
 70
     0
  9
$TDCREATE
 40
2451726.480055787
  9
$TDUCREATE
 40
2451726.688389120
  9
$TDUPDATE
 40
2454229.679330857
  9
$TDUUPDATE
 40
2454229.887664190
  9
$TDINDWG
 40
0.7179308218
  9
$TDUSRTIMER
 40
0.7179308218
  9
$USRTIMER
 70
     1
  9
$ANGBASE
 50
0.0
  9
$ANGDIR
 70
     0
  9
$PDMODE
 70
     3
  9
$PDSIZE
 40
0.09
  9
$PLINEWID
 40
0.0
  9
$SPLFRAME
 70
     1
  9
$SPLINETYPE
 70
     6
  9
$SPLINESEGS
 70
     8
  9
$HANDSEED
  5
6344F
  9
$SURFTAB1
 70
     6
  9
$SURFTAB2
 70
     6
  9
$SURFTYPE
 70
     6
  9
$SURFU
 70
     6
  9
$SURFV
 70
     6
  9
$UCSBASE
  2

  9
$UCSNAME
  2

  9
$UCSORG
 10
0.0
 20
0.0
 30
0.0
  9
$UCSXDIR
 10
1.0
 20
0.0
 30
0.0
  9
$UCSYDIR
 10
0.0
 20
1.0
 30
0.0
  9
$UCSORTHOREF
  2

  9
$UCSORTHOVIEW
 70
     1
  9
$UCSORGTOP
 10
0.0
 20
0.0
 30
0.0
  9
$UCSORGBOTTOM
 10
0.0
 20
0.0
 30
0.0
  9
$UCSORGLEFT
 10
0.0
 20
0.0
 30
0.0
  9
$UCSORGRIGHT
 10
0.0
 20
0.0
 30
0.0
  9
$UCSORGFRONT
 10
0.0
 20
0.0
 30
0.0
  9
$UCSORGBACK
 10
0.0
 20
0.0
 30
0.0
  9
$PUCSBASE
  2

  9
$PUCSNAME
  2

  9
$PUCSORG
 10
0.0
 20
0.0
 30
0.0
  9
$PUCSXDIR
 10
1.0
 20
0.0
 30
0.0
  9
$PUCSYDIR
 10
0.0
 20
1.0
 30
0.0
  9
$PUCSORTHOREF
  2

  9
$PUCSORTHOVIEW
 70
     0
  9
$PUCSORGTOP
 10
0.0
 20
0.0
 30
0.0
  9
$PUCSORGBOTTOM
 10
0.0
 20
0.0
 30
0.0
  9
$PUCSORGLEFT
 10
0.0
 20
0.0
 30
0.0
  9
$PUCSORGRIGHT
 10
0.0
 20
0.0
 30
0.0
  9
$PUCSORGFRONT
 10
0.0
 20
0.0
 30
0.0
  9
$PUCSORGBACK
 10
0.0
 20
0.0
 30
0.0
  9
$USERI1
 70
     0
  9
$USERI2
 70
     0
  9
$USERI3
 70
     0
  9
$USERI4
 70
     0
  9
$USERI5
 70
     0
  9
$USERR1
 40
0.0
  9
$USERR2
 40
0.0
  9
$USERR3
 40
0.0
  9
$USERR4
 40
0.0
  9
$USERR5
 40
0.0
  9
$WORLDVIEW
 70
     1
  9
$SHADEDGE
 70
     3
  9
$SHADEDIF
 70
    70
  9
$TILEMODE
 70
     1
  9
$MAXACTVP
 70
    16
  9
$PINSBASE
 10
0.0
 20
0.0
 30
0.0
  9
$PLIMCHECK
 70
     0
  9
$PEXTMIN
 10
1.049999952316284
 20
0.7999999523162842
 30
0.0
  9
$PEXTMAX
 10
9.449999570846555
 20
7.199999570846556
 30
0.0
  9
$PLIMMIN
 10
-0.2500002402958907
 20
-0.2499999962453767
  9
$PLIMMAX
 10
10.74999951940821
 20
8.249999763458731
  9
$UNITMODE
 70
     0
  9
$VISRETAIN
 70
     0
  9
$PLINEGEN
 70
     0
  9
$PSLTSCALE
 70
     1
  9
$TREEDEPTH
 70
  3020
  9
$CMLSTYLE
  2
STANDARD
  9
$CMLJUST
 70
     0
  9
$CMLSCALE
 40
1.0
  9
$PROXYGRAPHICS
 70
     1
  9
$MEASUREMENT
 70
     0
  9
$CELWEIGHT
370
    -1
  9
$ENDCAPS
280
     0
  9
$JOINSTYLE
280
     0
  9
$LWDISPLAY
290
     0
  9
$INSUNITS
 70
     0
  9
$HYPERLINKBASE
  1

  9
$STYLESHEET
  1

  9
$XEDIT
290
     1
  9
$CEPSNTYPE
380
     0
  9
$PSTYLEMODE
290
     1
  9
$FINGERPRINTGUID
  2
{6E0CF4B8-225E-11D4-A150-00A0CC3303EC}
  9
$VERSIONGUID
  2
{6CBEE364-2BB6-4F51-8507-F5AF01414D5C}
  9
$EXTNAMES
290
     1
  9
$PSVPSCALE
 40
0.0
  9
$OLESTARTUP
290
     0
  9
$SORTENTS
280
   127
  9
$INDEXCTL
280
     0
  9
$HIDETEXT
280
     0
  9
$XCLIPFRAME
290
     0
  9
$HALOGAP
280
     0
  9
$OBSCOLOR
 70
   257
  9
$OBSLTYPE
280
     0
  9
$INTERSECTIONDISPLAY
280
     0
  9
$INTERSECTIONCOLOR
 70
   257
  9
$DIMASSOC
280
     1
  9
$PROJECTNAME
  1

  9
$CAMERADISPLAY
290
     0
  9
$LENSLENGTH
 40
50.0
  9
$CAMERAHEIGHT
 40
0.0
  9
$STEPSPERSEC
 40
2.0
  9
$STEPSIZE
 40
6.0
  9
$3DDWFPREC
 40
2.0
  9
$PSOLWIDTH
 40
0.25
  9
$PSOLHEIGHT
 40
4.0
  9
$LOFTANG1
 40
1.570796326794896
  9
$LOFTANG2
 40
1.570796326794896
  9
$LOFTMAG1
 40
0.0
  9
$LOFTMAG2
 40
0.0
  9
$LOFTPARAM
 70
     7
  9
$LOFTNORMALS
280
     1
  9
$LATITUDE
 40
37.795
  9
$LONGITUDE
 40
-122.394
  9
$NORTHDIRECTION
 40
0.0
  9
$TIMEZONE
 70
 -8000
  9
$LIGHTGLYPHDISPLAY
280
     1
  9
$TILEMODELIGHTSYNCH
280
     1
  9
$CMATERIAL
347
633F9
  9
$SOLIDHIST
280
     1
  9
$SHOWHIST
280
     1
  9
$DWFFRAME
280
     2
  9
$DGNFRAME
280
     0
  9
$REALWORLDSCALE
290
     1
  9
$INTERFERECOLOR
 62
     1
  9
$INTERFEREOBJVS
345
63406
  9
$INTERFEREVPVS
346
63403
  9
$CSHADOW
280
     0
  9
$SHADOWPLANELOCATION
 40
0.0
  0
ENDSEC
  0
SECTION
  2
CLASSES
  0
CLASS
  1
DICTIONARYVAR
  2
AcDbDictionaryVar
  3
ObjectDBX Classes
 90
        0
 91
        2
280
     0
281
     0
  0
CLASS
  1
ACDBDICTIONARYWDFLT
  2
AcDbDictionaryWithDefault
  3
ObjectDBX Classes
 90
        0
 91
        1
280
     0
281
     0
  0
CLASS
  1
MATERIAL
  2
AcDbMaterial
  3
ObjectDBX Classes
 90
     1024
 91
        3
280
     0
281
     0
  0
CLASS
  1
VISUALSTYLE
  2
AcDbVisualStyle
  3
ObjectDBX Classes
 90
     4095
 91
       16
280
     0
281
     0
  0
CLASS
  1
TABLESTYLE
  2
AcDbTableStyle
  3
ObjectDBX Classes
 90
     4095
 91
        1
280
     0
281
     0
  0
CLASS
  1
SOLID_BACKGROUND
  2
AcDbSolidBackground
  3
SCENEOE
 90
     4095
 91
        1
280
     0
281
     0
  0
CLASS
  1
NPOCOLLECTION
  2
AcDbImpNonPersistentObjectsCollection
  3
ObjectDBX Classes
 90
     1153
 91
        1
280
     0
281
     0
  0
CLASS
  1
EXACXREFPANELOBJECT
  2
ExAcXREFPanelObject
  3
EXAC_ESW
 90
     1025
 91
        0
280
     0
281
     0
  0
ENDSEC
  0
SECTION
  2
TABLES
  0
TABLE
  2
VPORT
  5
458C7
102
{ACAD_XDICTIONARY
360
63429
102
}
330
0
100
AcDbSymbolTable
 70
     1
  0
VPORT
  5
633C5
330
458C7
100
AcDbSymbolTableRecord
100
AcDbViewportTableRecord
  2
*Active
 70
     0
 10
0.0
 20
0.0
 11
1.0
 21
1.0
 12
0.4962013856945316
 22
-0.0559213680102686
 13
0.0
 23
0.0
 14
0.25
 24
0.25
 15
0.25
 25
0.25
 16
0.0
 26
0.0
 36
1.0
 17
0.5634438949382106
 27
-0.8801371703728531
 37
1.68649307151727
 40
3.204899838383729
 41
1.421818181818181
 42
50.0
 43
0.0
 44
0.0
 50
0.0
 51
0.0
 71
     0
 72
 20000
 73
     1
 74
     1
 75
     0
 76
     0
 77
     0
 78
     0
281
     1
 65
     1
110
0.0
120
0.0
130
0.0
111
1.0
121
0.0
131
0.0
112
0.0
122
1.0
132
0.0
 79
     0
146
0.0
348
63403
 60
     3
 61
     5
292
     1
282
     1
141
0.0
142
0.0
 63
   250
421
  3355443
  0
ENDTAB
  0
TABLE
  2
LTYPE
  5
458C4
330
0
100
AcDbSymbolTable
 70
     1
  0
LTYPE
  5
458D0
330
458C4
100
AcDbSymbolTableRecord
100
AcDbLinetypeTableRecord
  2
BYBLOCK
 70
     0
  3

 72
    65
 73
     0
 40
0.0
  0
LTYPE
  5
458D1
330
458C4
100
AcDbSymbolTableRecord
100
AcDbLinetypeTableRecord
  2
BYLAYER
 70
     0
  3

 72
    65
 73
     0
 40
0.0
  0
LTYPE
  5
458D2
330
458C4
100
AcDbSymbolTableRecord
100
AcDbLinetypeTableRecord
  2
CONTINUOUS
 70
     0
  3
Solid line
 72
    65
 73
     0
 40
0.0
  0
ENDTAB
  0
TABLE
  2
LAYER
  5
458C1
330
0
100
AcDbSymbolTable
 70
     8
  0
LAYER
  5
458CD
330
458C1
100
AcDbSymbolTableRecord
100
AcDbLayerTableRecord
  2
0
 70
     0
 62
     7
  6
CONTINUOUS
370
    -3
390
458FA
347
633FB
  0
LAYER
  5
458EA
330
458C1
100
AcDbSymbolTableRecord
100
AcDbLayerTableRecord
  2
DIMS-MTG-HOLES
 70
     0
 62
     1
  6
CONTINUOUS
370
    -3
390
458FA
347
633FB
  0
LAYER
  5
458EB
330
458C1
100
AcDbSymbolTableRecord
100
AcDbLayerTableRecord
  2
ATTRIBUTES
 70
     0
 62
     7
  6
CONTINUOUS
370
    -3
390
458FA
347
633FB
  0
LAYER
  5
4593B
330
458C1
100
AcDbSymbolTableRecord
100
AcDbLayerTableRecord
  2
AREA1
 70
     1
 62
     7
  6
CONTINUOUS
290
     0
370
    -3
390
458FA
347
633FB
  0
LAYER
  5
45940
330
458C1
100
AcDbSymbolTableRecord
100
AcDbLayerTableRecord
  2
Defpoints
 70
     1
 62
     7
  6
CONTINUOUS
290
     0
370
    -3
390
458FA
347
633FB
  0
LAYER
  5
45954
330
458C1
100
AcDbSymbolTableRecord
100
AcDbLayerTableRecord
  2
SCALE
 70
     1
 62
     7
  6
CONTINUOUS
370
    -3
390
458FA
347
633FB
  0
LAYER
  5
4D59A
330
458C1
100
AcDbSymbolTableRecord
100
AcDbLayerTableRecord
  2
SNAP_POINTS
 70
     1
 62
     1
  6
CONTINUOUS
370
    -3
390
458FA
347
633FB
  0
LAYER
  5
63416
102
{ACAD_XDICTIONARY
360
63417
102
}
330
458C1
100
AcDbSymbolTableRecord
100
AcDbLayerTableRecord
  2
WIRES
 70
     0
 62
     7
  6
CONTINUOUS
370
    -3
390
458FA
347
633FB
  0
ENDTAB
  0
TABLE
  2
STYLE
  5
458C2
330
0
100
AcDbSymbolTable
 70
     1
  0
STYLE
  5
458CE
330
458C2
100
AcDbSymbolTableRecord
100
AcDbTextStyleTableRecord
  2
STANDARD
 70
     0
 40
0.0
 41
1.0
 50
0.0
 71
     0
 42
0.12
  3
txt
  4

  0
ENDTAB
  0
TABLE
  2
VIEW
  5
458C5
330
0
100
AcDbSymbolTable
 70
     0
  0
ENDTAB
  0
TABLE
  2
UCS
  5
458C6
330
0
100
AcDbSymbolTable
 70
     0
  0
ENDTAB
  0
TABLE
  2
APPID
  5
458C8
330
0
100
AcDbSymbolTable
 70
     3
  0
APPID
  5
458CF
330
458C8
100
AcDbSymbolTableRecord
100
AcDbRegAppTableRecord
  2
ACAD
 70
     0
  0
APPID
  5
5FD5B
330
458C8
100
AcDbSymbolTableRecord
100
AcDbRegAppTableRecord
  2
AVE_RENDER
 70
     0
  0
APPID
  5
6341B
330
458C8
100
AcDbSymbolTableRecord
100
AcDbRegAppTableRecord
  2
DCO15
 70
     0
  0
ENDTAB
  0
TABLE
  2
DIMSTYLE
  5
458C9
330
0
100
AcDbSymbolTable
 70
     1
100
AcDbDimStyleTable
 71
     0
  0
DIMSTYLE
105
458F6
102
{ACAD_REACTORS
330
63325
330
63333
102
}
330
458C9
100
AcDbSymbolTableRecord
100
AcDbDimStyleTableRecord
  2
ABECAD_3D
 70
     0
 43
0.375
 73
     0
 78
     4
140
0.14
146
1.5
170
     1
271
     6
272
     6
276
     2
277
     5
279
     2
284
     4
285
     4
286
     4
288
     1
289
     2
340
458CE
  0
ENDTAB
  0
TABLE
  2
BLOCK_RECORD
  5
458C0
330
0
100
AcDbSymbolTable
 70
     2
  0
BLOCK_RECORD
  5
458D6
102
{ACAD_XDICTIONARY
360
4592C
102
}
330
458C0
100
AcDbSymbolTableRecord
100
AcDbBlockTableRecord
  2
*MODEL_SPACE
340
458FD
 70
     0
280
     1
281
     0
  0
BLOCK_RECORD
  5
458D3
102
{ACAD_XDICTIONARY
360
4592A
102
}
330
458C0
100
AcDbSymbolTableRecord
100
AcDbBlockTableRecord
  2
*PAPER_SPACE
340
458FE
 70
     0
280
     1
281
     0
  0
BLOCK_RECORD
  5
63326
330
458C0
100
AcDbSymbolTableRecord
100
AcDbBlockTableRecord
  2
*D0
340
0
 70
     0
280
     1
281
     0
  0
BLOCK_RECORD
  5
63334
330
458C0
100
AcDbSymbolTableRecord
100
AcDbBlockTableRecord
  2
*D1
340
0
 70
     0
280
     1
281
     0
  0
ENDTAB
  0
ENDSEC
  0
SECTION
  2
BLOCKS
  0
BLOCK
  5
458DF
330
458D6
100
AcDbEntity
  8
0
100
AcDbBlockBegin
  2
*MODEL_SPACE
 70
     0
 10
0.0
 20
0.0
 30
0.0
  3
*MODEL_SPACE
  1

  0
ENDBLK
  5
458E0
330
458D6
100
AcDbEntity
  8
0
100
AcDbBlockEnd
  0
BLOCK
  5
458DD
330
458D3
100
AcDbEntity
 67
     1
  8
0
100
AcDbBlockBegin
  2
*PAPER_SPACE
 70
     0
 10
0.0
 20
0.0
 30
0.0
  3
*PAPER_SPACE
  1

  0
ENDBLK
  5
458DE
330
458D3
100
AcDbEntity
 67
     1
  8
0
100
AcDbBlockEnd
  0
BLOCK
  5
63331
330
63326
100
AcDbEntity
  8
0
100
AcDbBlockBegin
  2
*D0
 70
     1
 10
0.0
 20
0.0
 30
0.0
  3
*D0
  1

  0
LINE
  5
63327
330
63326
100
AcDbEntity
  8
AREA1
 62
     0
370
    -2
100
AcDbLine
 10
0.812
 20
0.654
 30
0.0
 11
-0.6226862281077063
 21
0.6540000000000004
 31
0.0
  0
LINE
  5
63328
330
63326
100
AcDbEntity
  8
AREA1
 62
     0
370
    -2
100
AcDbLine
 10
0.4450000000000002
 20
-2.526
 30
0.0
 11
-0.6226862281077069
 21
-2.526
 31
0.0
  0
LINE
  5
63329
330
63326
100
AcDbEntity
  8
AREA1
 62
     0
370
    -2
100
AcDbLine
 10
-0.4426862281077063
 20
0.4740000000000004
 30
0.0
 11
-0.4426862281077064
 21
-0.0515944680562153
 31
0.0
  0
LINE
  5
6332A
330
63326
100
AcDbEntity
  8
AREA1
 62
     0
370
    -2
100
AcDbLine
 10
-0.4426862281077069
 20
-2.346
 30
0.0
 11
-0.4426862281077069
 21
-1.888261134722882
 31
0.0
  0
MTEXT
  5
6332B
330
63326
100
AcDbEntity
  8
AREA1
 62
     0
100
AcDbMText
 10
-0.4426862281077067
 20
-0.9699278013895487
 30
0.0
 40
0.14
 41
0.0
 46
0.0
 71
     5
 72
     1
  1
\A1;3 3/16 [80.77]
 11
0.0000000000000001
 21
1.0
 31
0.0
 73
     1
 44
1.0
  0
SOLID
  5
6332C
330
63326
100
AcDbEntity
  8
AREA1
 62
     0
100
AcDbTrace
 10
-0.4726862281077064
 20
0.4740000000000004
 30
0.0
 11
-0.4126862281077063
 21
0.4740000000000004
 31
0.0
 12
-0.4426862281077063
 22
0.6540000000000004
 32
0.0
 13
-0.4426862281077063
 23
0.6540000000000004
 33
0.0
  0
SOLID
  5
6332D
330
63326
100
AcDbEntity
  8
AREA1
 62
     0
100
AcDbTrace
 10
-0.472686228107707
 20
-2.346
 30
0.0
 11
-0.412686228107707
 21
-2.346
 31
0.0
 12
-0.442686228107707
 22
-2.526
 32
0.0
 13
-0.442686228107707
 23
-2.526
 33
0.0
  0
POINT
  5
6332E
330
63326
100
AcDbEntity
  8
Defpoints
 62
     0
100
AcDbPoint
 10
0.8745
 20
0.654
 30
1.388
  0
POINT
  5
6332F
330
63326
100
AcDbEntity
  8
Defpoints
 62
     0
100
AcDbPoint
 10
0.5075000000000002
 20
-2.526
 30
1.388
  0
POINT
  5
63330
330
63326
100
AcDbEntity
  8
Defpoints
 62
     0
100
AcDbPoint
 10
-0.442686228107707
 20
-2.526
 30
0.0
  0
ENDBLK
  5
63332
330
63326
100
AcDbEntity
  8
0
100
AcDbBlockEnd
  0
BLOCK
  5
6333F
330
63334
100
AcDbEntity
  8
0
100
AcDbBlockBegin
  2
*D1
 70
     1
 10
0.0
 20
0.0
 30
0.0
  3
*D1
  1

  0
LINE
  5
63335
330
63334
100
AcDbEntity
  8
AREA1
 62
     0
370
    -2
100
AcDbLine
 10
-0.0000000000000001
 20
0.5774999999999997
 30
0.0
 11
0.0
 21
1.1666028428172
 31
0.0
  0
LINE
  5
63336
330
63334
100
AcDbEntity
  8
AREA1
 62
     0
370
    -2
100
AcDbLine
 10
2.12
 20
0.5774999999999997
 30
0.0
 11
2.12
 21
1.1666028428172
 31
0.0
  0
LINE
  5
63337
330
63334
100
AcDbEntity
  8
AREA1
 62
     0
370
    -2
100
AcDbLine
 10
-0.18
 20
0.9866028428172004
 30
0.0
 11
-0.36
 21
0.9866028428172004
 31
0.0
  0
LINE
  5
63338
330
63334
100
AcDbEntity
  8
AREA1
 62
     0
370
    -2
100
AcDbLine
 10
2.3
 20
0.9866028428172004
 30
0.0
 11
2.479999999999999
 21
0.9866028428172004
 31
0.0
  0
MTEXT
  5
63339
330
63334
100
AcDbEntity
  8
AREA1
 62
     0
100
AcDbMText
 10
1.104782692806708
 20
0.9866028428172004
 30
0.0
 40
0.14
 41
0.0
 46
0.0
 71
     5
 72
     1
  1
\A1;2 1/8 [53.85]
 73
     1
 44
1.0
  0
SOLID
  5
6333A
330
63334
100
AcDbEntity
  8
AREA1
 62
     0
100
AcDbTrace
 10
-0.18
 20
1.0166028428172
 30
0.0
 11
-0.18
 21
0.9566028428172003
 31
0.0
 12
-0.0000000000000001
 22
0.9866028428172004
 32
0.0
 13
-0.0000000000000001
 23
0.9866028428172004
 33
0.0
  0
SOLID
  5
6333B
330
63334
100
AcDbEntity
  8
AREA1
 62
     0
100
AcDbTrace
 10
2.3
 20
1.0166028428172
 30
0.0
 11
2.3
 21
0.9566028428172003
 31
0.0
 12
2.12
 22
0.9866028428172004
 32
0.0
 13
2.12
 23
0.9866028428172004
 33
0.0
  0
POINT
  5
6333C
330
63334
100
AcDbEntity
  8
Defpoints
 62
     0
100
AcDbPoint
 10
-0.0000000000000001
 20
0.5149999999999997
 30
1.641
  0
POINT
  5
6333D
330
63334
100
AcDbEntity
  8
Defpoints
 62
     0
100
AcDbPoint
 10
2.12
 20
0.5149999999999997
 30
1.641
  0
POINT
  5
6333E
330
63334
100
AcDbEntity
  8
Defpoints
 62
     0
100
AcDbPoint
 10
2.12
 20
0.9866028428172004
 30
0.0
  0
ENDBLK
  5
63340
330
63334
100
AcDbEntity
  8
0
100
AcDbBlockEnd
  0
ENDSEC
  0
SECTION
  2
ENTITIES
  0
ATTDEF
  5
62FDA
330
458D6
100
AcDbEntity
  8
ATTRIBUTES
100
AcDbText
 10
0.0784846182650742
 20
-0.2461715662756023
 30
0.0000000000000002
 40
0.0805203758744914
  1
SPRECHER+SCHUH
100
AcDbAttributeDefinition
  3
MANUFACTURER NAME?
  2
AC_VND_LABEL
 70
     1
280
     0
  0
ATTDEF
  5
62FDB
330
458D6
100
AcDbEntity
  8
ATTRIBUTES
100
AcDbText
 10
0.0784846182650742
 20
-0.4139223493474602
 30
0.0000000000000002
 40
0.0805203758744914
  1
CA7-43U*00
100
AcDbAttributeDefinition
  3
CATALOG NUMBER?
  2
AC_PART_NO
 70
     1
280
     0
  0
ATTDEF
  5
62FDC
330
458D6
100
AcDbEntity
  8
ATTRIBUTES
100
AcDbText
 10
0.0784846182650742
 20
-0.5816731324193163
 30
0.0000000000000002
 40
0.0805203758744914
  1
IEC AC CONTACTOR; 43A
100
AcDbAttributeDefinition
  3
PART DESCRIPTION?
  2
AC_DESCRIPTION
 70
     1
280
     0
  0
ATTDEF
  5
62FDD
330
458D6
100
AcDbEntity
  8
ATTRIBUTES
100
AcDbText
 10
0.0784846182650742
 20
-0.7494239154911742
 30
0.0000000000000002
 40
0.0805203758744914
  1

100
AcDbAttributeDefinition
  3
DEVICE ID?
  2
DEVICE_ID
 70
     1
280
     0
  0
ATTDEF
  5
62FDE
330
458D6
100
AcDbEntity
  8
ATTRIBUTES
100
AcDbText
 10
0.0784846182650742
 20
-0.9171746985630303
 30
0.0000000000000002
 40
0.0805203758744914
  1

100
AcDbAttributeDefinition
  3
CUSTOMER PART NUMBER?
  2
AC_CPART_NO
 70
     1
280
     0
  0
ATTDEF
  5
62FDF
330
458D6
100
AcDbEntity
  8
ATTRIBUTES
100
AcDbText
 10
0.0784846182650742
 20
-1.084925481634888
 30
0.0000000000000002
 40
0.0805203758744914
  1

100
AcDbAttributeDefinition
  3
CUSTOMER NOTE?
  2
AC_NOTE
 70
     1
280
     0
  0
ATTDEF
  5
62FE0
330
458D6
100
AcDbEntity
  8
ATTRIBUTES
100
AcDbText
 10
0.0784846182650742
 20
-1.252676264706745
 30
0.0000000000000002
 40
0.0805203758744914
  1

100
AcDbAttributeDefinition
  3
FASTENER DATA?
  2
FASTENER
 70
     1
280
     0
  0
ATTDEF
  5
62FE1
330
458D6
100
AcDbEntity
  8
ATTRIBUTES
100
AcDbText
 10
0.0784846182650742
 20
-1.420427047778603
 30
0.0000000000000002
 40
0.0805203758744914
  1
INCH
100
AcDbAttributeDefinition
  3
UNIT OF SCALE?
  2
AC_SCALE_UNIT
 70
     1
280
     0
  0
ATTDEF
  5
62FE2
330
458D6
100
AcDbEntity
  8
ATTRIBUTES
100
AcDbText
 10
0.0784846182650742
 20
-1.58817783085046
 30
0.0000000000000002
 40
0.0805203758744914
  1
0
100
AcDbAttributeDefinition
  3
VIEW CODE?
  2
AC_VIEW_CODE
 70
     1
280
     0
  0
CIRCLE
  5
62FE3
330
458D6
100
AcDbEntity
  8
0
100
AcDbCircle
 10
0.3713499999999986
 20
0.1807980402316449
 30
3.859999999999999
 40
0.138
  0
POLYLINE
  5
62FE4
330
458D6
100
AcDbEntity
  8
0
100
AcDbPolygonMesh
 66
     1
 10
0.0
 20
0.0
 30
0.0
 70
    16
 71
     6
 72
     3
  0
VERTEX
  5
62FE5
330
62FE4
100
AcDbEntity
  8
0
100
AcDbVertex
100
AcDbPolygonMeshVertex
 10
1.4455
 20
-1.5045
 30
4.059999999999998
 70
    64
  0
VERTEX
  5
62FE6
330
62FE4
100
AcDbEntity
  8
0
100
AcDbVertex
100
AcDbPolygonMeshVertex
 10
1.4455
 20
-1.5045
 30
3.859999999999999
 70
    64
  0
VERTEX
  5
62FE7
330
62FE4
100
AcDbEntity
  8
0
100
AcDbVertex
100
AcDbPolygonMeshVertex
 10
1.4455
 20
-1.5045
 30
3.859999999999999
 70
    64
  0
VERTEX
  5
62FE8
330
62FE4
100
AcDbEntity
  8
0
100
AcDbVertex
100
AcDbPolygonMeshVertex
 10
0.6745
 20
-1.5045
 30
4.059999999999998
 70
    64
  0
VERTEX
  5
62FE9
330
62FE4
100
AcDbEntity
  8
0
100
AcDbVertex
100
AcDbPolygonMeshVertex
 10
0.6745
 20
-1.5045
 30
3.859999999999999
 70
    64
  0
VERTEX
  5
62FEA
330
62FE4
100
AcDbEntity
  8
0
100
AcDbVertex
100
AcDbPolygonMeshVertex
 10
0.6745
 20
-1.5045
 30
3.859999999999999
 70
    64
  0
VERTEX
  5
62FEB
330
62FE4
100
AcDbEntity
  8
0
100
AcDbVertex
100
AcDbPolygonMeshVertex
 10
0.6745
 20
-1.2225
 30
4.059999999999998
 70
    64
  0
VERTEX
  5
62FEC
330
62FE4
100
AcDbEntity
  8
0
100
AcDbVertex
100
AcDbPolygonMeshVertex
 10
0.6745
 20
-1.2225
 30
3.859999999999999
 70
    64
  0
VERTEX
  5
62FED
330
62FE4
100
AcDbEntity
  8
0
100
AcDbVertex
100
AcDbPolygonMeshVertex
 10
0.6745
 20
-1.5045
 30
3.859999999999999
 70
    64
  0
VERTEX
  5
62FEE
330
62FE4
100
AcDbEntity
  8
0
100
AcDbVertex
100
AcDbPolygonMeshVertex
 10
1.4455
 20
-1.2225
 30
4.059999999999998
 70
    64
  0
VERTEX
  5
62FEF
330
62FE4
100
AcDbEntity
  8
0
100
AcDbVertex
100
AcDbPolygonMeshVertex
 10
1.4455
 20
-1.2225
 30
3.859999999999999
 70
    64
  0
VERTEX
  5
62FF0
330
62FE4
100
AcDbEntity
  8
0
100
AcDbVertex
100
AcDbPolygonMeshVertex
 10
1.4455
 20
-1.5045
 30
3.859999999999999
 70
    64
  0
VERTEX
  5
62FF1
330
62FE4
100
AcDbEntity
  8
0
100
AcDbVertex
100
AcDbPolygonMeshVertex
 10
1.4455
 20
-1.2225
 30
4.059999999999998
 70
    64
  0
VERTEX
  5
62FF2
330
62FE4
100
AcDbEntity
  8
0
100
AcDbVertex
100
AcDbPolygonMeshVertex
 10
1.4455
 20
-1.2225
 30
4.059999999999998
 70
    64
  0
VERTEX
  5
62FF3
330
62FE4
100
AcDbEntity
  8
0
100
AcDbVertex
100
AcDbPolygonMeshVertex
 10
1.4455
 20
-1.5045
 30
4.059999999999998
 70
    64
  0
VERTEX
  5
62FF4
330
62FE4
100
AcDbEntity
  8
0
100
AcDbVertex
100
AcDbPolygonMeshVertex
 10
0.6745
 20
-1.2225
 30
4.059999999999998
 70
    64
  0
VERTEX
  5
62FF5
330
62FE4
100
AcDbEntity
  8
0
100
AcDbVertex
100
AcDbPolygonMeshVertex
 10
0.6745
 20
-1.2225
 30
4.059999999999998
 70
    64
  0
VERTEX
  5
62FF6
330
62FE4
100
AcDbEntity
  8
0
100
AcDbVertex
100
AcDbPolygonMeshVertex
 10
0.6745
 20
-1.5045
 30
4.059999999999998
 70
    64
  0
SEQEND
  5
62FF7
330
62FE4
100
AcDbEntity
  8
0
  0
POLYLINE
  5
62FF8
330
458D6
100
AcDbEntity
  8
0
100
AcDbPolygonMesh
 66
     1
 10
0.0
 20
0.0
 30
0.0
 70
    16
 71
     6
 72
     3
  0
VERTEX
  5
62FF9
330
62FF8
100
AcDbEntity
  8
0
100
AcDbVertex
100
AcDbPolygonMeshVertex
 10
1.245499999999999
 20
0.654
 30
2.062
 70
    64
  0
VERTEX
  5
62FFA
330
62FF8
100
AcDbEntity
  8
0
100
AcDbVertex
100
AcDbPolygonMeshVertex
 10
1.245499999999999
 20
0.654
 30
1.388
 70
    64
  0
VERTEX
  5
62FFB
330
62FF8
100
AcDbEntity
  8
0
100
AcDbVertex
100
AcDbPolygonMeshVertex
 10
1.245499999999999
 20
0.654
 30
1.388
 70
    64
  0
VERTEX
  5
62FFC
330
62FF8
100
AcDbEntity
  8
0
100
AcDbVertex
100
AcDbPolygonMeshVertex
 10
0.8745
 20
0.654
 30
2.062
 70
    64
  0
VERTEX
  5
62FFD
330
62FF8
100
AcDbEntity
  8
0
100
AcDbVertex
100
AcDbPolygonMeshVertex
 10
0.8745
 20
0.654
 30
1.388
 70
    64
  0
VERTEX
  5
62FFE
330
62FF8
100
AcDbEntity
  8
0
100
AcDbVertex
100
AcDbPolygonMeshVertex
 10
0.8745
 20
0.654
 30
1.388
 70
    64
  0
VERTEX
  5
62FFF
330
62FF8
100
AcDbEntity
  8
0
100
AcDbVertex
100
AcDbPolygonMeshVertex
 10
0.8745
 20
0.4009999999999998
 30
2.062
 70
    64
  0
VERTEX
  5
63000
330
62FF8
100
AcDbEntity
  8
0
100
AcDbVertex
100
AcDbPolygonMeshVertex
 10
0.8745
 20
0.4009999999999998
 30
1.388
 70
    64
  0
VERTEX
  5
63001
330
62FF8
100
AcDbEntity
  8
0
100
AcDbVertex
100
AcDbPolygonMeshVertex
 10
0.8745
 20
0.654
 30
1.388
 70
    64
  0
VERTEX
  5
63002
330
62FF8
100
AcDbEntity
  8
0
100
AcDbVertex
100
AcDbPolygonMeshVertex
 10
1.245499999999999
 20
0.4009999999999998
 30
2.062
 70
    64
  0
VERTEX
  5
63003
330
62FF8
100
AcDbEntity
  8
0
100
AcDbVertex
100
AcDbPolygonMeshVertex
 10
1.245499999999999
 20
0.4009999999999998
 30
1.388
 70
    64
  0
VERTEX
  5
63004
330
62FF8
100
AcDbEntity
  8
0
100
AcDbVertex
100
AcDbPolygonMeshVertex
 10
1.245499999999999
 20
0.654
 30
1.388
 70
    64
  0
VERTEX
  5
63005
330
62FF8
100
AcDbEntity
  8
0
100
AcDbVertex
100
AcDbPolygonMeshVertex
 10
1.245499999999999
 20
0.4009999999999998
 30
2.062
 70
    64
  0
VERTEX
  5
63006
330
62FF8
100
AcDbEntity
  8
0
100
AcDbVertex
100
AcDbPolygonMeshVertex
 10
1.245499999999999
 20
0.4009999999999998
 30
2.062
 70
    64
  0
VERTEX
  5
63007
330
62FF8
100
AcDbEntity
  8
0
100
AcDbVertex
100
AcDbPolygonMeshVertex
 10
1.245499999999999
 20
0.654
 30
2.062
 70
    64
  0
VERTEX
  5
63008
330
62FF8
100
AcDbEntity
  8
0
100
AcDbVertex
100
AcDbPolygonMeshVertex
 10
0.8745
 20
0.4009999999999998
 30
2.062
 70
    64
  0
VERTEX
  5
63009
330
62FF8
100
AcDbEntity
  8
0
100
AcDbVertex
100
AcDbPolygonMeshVertex
 10
0.8745
 20
0.4009999999999998
 30
2.062
 70
    64
  0
VERTEX
  5
6300A
330
62FF8
100
AcDbEntity
  8
0
100
AcDbVertex
100
AcDbPolygonMeshVertex
 10
0.8745
 20
0.654
 30
2.062
 70
    64
  0
SEQEND
  5
6300B
330
62FF8
100
AcDbEntity
  8
0
  0
LWPOLYLINE
  5
6300C
330
458D6
100
AcDbEntity
  8
0
100
AcDbPolyline
 90
        4
 70
     1
 43
0.0
 38
2.062
 10
0.9265000000000005
 20
0.4529999999999999
 10
1.193500000000001
 20
0.4529999999999999
 10
1.193500000000001
 20
0.6019999999999995
 10
0.9265000000000005
 20
0.6019999999999995
  0
POLYLINE
  5
6300D
330
458D6
100
AcDbEntity
  8
0
100
AcDbPolygonMesh
 66
     1
 10
0.0
 20
0.0
 30
0.0
 70
    16
 71
     6
 72
     3
  0
VERTEX
  5
6300E
330
6300D
100
AcDbEntity
  8
0
100
AcDbVertex
100
AcDbPolygonMeshVertex
 10
0.5075000000000002
 20
-2.526
 30
2.062
 70
    64
  0
VERTEX
  5
6300F
330
6300D
100
AcDbEntity
  8
0
100
AcDbVertex
100
AcDbPolygonMeshVertex
 10
0.5075000000000002
 20
-2.526
 30
1.388
 70
    64
  0
VERTEX
  5
63010
330
6300D
100
AcDbEntity
  8
0
100
AcDbVertex
100
AcDbPolygonMeshVertex
 10
0.5075000000000002
 20
-2.526
 30
1.388
 70
    64
  0
VERTEX
  5
63011
330
6300D
100
AcDbEntity
  8
0
100
AcDbVertex
100
AcDbPolygonMeshVertex
 10
1.6125
 20
-2.526
 30
2.062
 70
    64
  0
VERTEX
  5
63012
330
6300D
100
AcDbEntity
  8
0
100
AcDbVertex
100
AcDbPolygonMeshVertex
 10
1.6125
 20
-2.526
 30
1.388
 70
    64
  0
VERTEX
  5
63013
330
6300D
100
AcDbEntity
  8
0
100
AcDbVertex
100
AcDbPolygonMeshVertex
 10
1.6125
 20
-2.526
 30
1.388
 70
    64
  0
VERTEX
  5
63014
330
6300D
100
AcDbEntity
  8
0
100
AcDbVertex
100
AcDbPolygonMeshVertex
 10
1.6125
 20
-2.089
 30
2.062
 70
    64
  0
VERTEX
  5
63015
330
6300D
100
AcDbEntity
  8
0
100
AcDbVertex
100
AcDbPolygonMeshVertex
 10
1.6125
 20
-2.089
 30
1.388
 70
    64
  0
VERTEX
  5
63016
330
6300D
100
AcDbEntity
  8
0
100
AcDbVertex
100
AcDbPolygonMeshVertex
 10
1.6125
 20
-2.526
 30
1.388
 70
    64
  0
VERTEX
  5
63017
330
6300D
100
AcDbEntity
  8
0
100
AcDbVertex
100
AcDbPolygonMeshVertex
 10
0.5075000000000002
 20
-2.089
 30
2.062
 70
    64
  0
VERTEX
  5
63018
330
6300D
100
AcDbEntity
  8
0
100
AcDbVertex
100
AcDbPolygonMeshVertex
 10
0.5075000000000002
 20
-2.089
 30
1.388
 70
    64
  0
VERTEX
  5
63019
330
6300D
100
AcDbEntity
  8
0
100
AcDbVertex
100
AcDbPolygonMeshVertex
 10
0.5075000000000002
 20
-2.526
 30
1.388
 70
    64
  0
VERTEX
  5
6301A
330
6300D
100
AcDbEntity
  8
0
100
AcDbVertex
100
AcDbPolygonMeshVertex
 10
0.5075000000000002
 20
-2.089
 30
2.062
 70
    64
  0
VERTEX
  5
6301B
330
6300D
100
AcDbEntity
  8
0
100
AcDbVertex
100
AcDbPolygonMeshVertex
 10
0.5075000000000002
 20
-2.089
 30
2.062
 70
    64
  0
VERTEX
  5
6301C
330
6300D
100
AcDbEntity
  8
0
100
AcDbVertex
100
AcDbPolygonMeshVertex
 10
0.5075000000000002
 20
-2.526
 30
2.062
 70
    64
  0
VERTEX
  5
6301D
330
6300D
100
AcDbEntity
  8
0
100
AcDbVertex
100
AcDbPolygonMeshVertex
 10
1.6125
 20
-2.089
 30
2.062
 70
    64
  0
VERTEX
  5
6301E
330
6300D
100
AcDbEntity
  8
0
100
AcDbVertex
100
AcDbPolygonMeshVertex
 10
1.6125
 20
-2.089
 30
2.062
 70
    64
  0
VERTEX
  5
6301F
330
6300D
100
AcDbEntity
  8
0
100
AcDbVertex
100
AcDbPolygonMeshVertex
 10
1.6125
 20
-2.526
 30
2.062
 70
    64
  0
SEQEND
  5
63020
330
6300D
100
AcDbEntity
  8
0
  0
LINE
  5
63021
330
458D6
100
AcDbEntity
  8
0
100
AcDbLine
 10
0.9200000000000006
 20
-2.089
 30
2.062
 11
0.9200000000000006
 21
-2.324
 31
2.062
  0
LINE
  5
63022
330
458D6
100
AcDbEntity
  8
0
100
AcDbLine
 10
1.2
 20
-2.324
 30
2.062
 11
0.9200000000000006
 21
-2.324
 31
2.062
  0
LINE
  5
63023
330
458D6
100
AcDbEntity
  8
0
100
AcDbLine
 10
0.8794999999999999
 20
-2.526
 30
1.841
 11
0.5625
 21
-2.526
 31
1.841
  0
LINE
  5
63024
330
458D6
100
AcDbEntity
  8
0
100
AcDbLine
 10
0.8794999999999999
 20
-2.526
 30
1.641
 11
0.5625
 21
-2.526
 31
1.641
  0
LINE
  5
63025
330
458D6
100
AcDbEntity
  8
0
100
AcDbLine
 10
0.8794999999999999
 20
-2.526
 30
1.841
 11
0.8794999999999999
 21
-2.526
 31
1.641
  0
CIRCLE
  5
63026
330
458D6
100
AcDbEntity
  8
0
100
AcDbCircle
 10
0.7209999999999983
 20
-2.3075
 30
2.062
 40
0.12
  0
CIRCLE
  5
63027
330
458D6
100
AcDbEntity
  8
0
100
AcDbCircle
 10
1.399000000000002
 20
-2.3075
 30
2.062
 40
0.12
  0
LINE
  5
63028
330
458D6
100
AcDbEntity
  8
0
100
AcDbLine
 10
1.2405
 20
-2.526
 30
1.641
 11
1.5575
 21
-2.526
 31
1.641
  0
LINE
  5
63029
330
458D6
100
AcDbEntity
  8
0
100
AcDbLine
 10
1.2405
 20
-2.526
 30
1.841
 11
1.5575
 21
-2.526
 31
1.841
  0
LINE
  5
6302A
330
458D6
100
AcDbEntity
  8
0
100
AcDbLine
 10
1.5575
 20
-2.526
 30
1.841
 11
1.5575
 21
-2.526
 31
1.641
  0
LINE
  5
6302B
330
458D6
100
AcDbEntity
  8
0
100
AcDbLine
 10
1.2405
 20
-2.526
 30
1.841
 11
1.2405
 21
-2.526
 31
1.641
  0
POLYLINE
  5
6302C
330
458D6
100
AcDbEntity
  8
0
100
AcDb3dPolyline
 66
     1
 10
0.0
 20
0.0
 30
0.0
 70
     8
  0
VERTEX
  5
6302D
330
6302C
100
AcDbEntity
  8
0
100
AcDbVertex
100
AcDb3dPolylineVertex
 10
2.12
 20
-1.472999999999999
 30
0.187
 70
    32
  0
VERTEX
  5
6302E
330
6302C
100
AcDbEntity
  8
0
100
AcDbVertex
100
AcDb3dPolylineVertex
 10
2.12
 20
-1.472999999999999
 30
1.056999999999999
 70
    32
  0
VERTEX
  5
6302F
330
6302C
100
AcDbEntity
  8
0
100
AcDbVertex
100
AcDb3dPolylineVertex
 10
2.12
 20
-1.628
 30
1.056999999999999
 70
    32
  0
VERTEX
  5
63030
330
6302C
100
AcDbEntity
  8
0
100
AcDbVertex
100
AcDb3dPolylineVertex
 10
2.12
 20
-1.628
 30
0.187
 70
    32
  0
SEQEND
  5
63031
330
6302C
100
AcDbEntity
  8
0
  0
POLYLINE
  5
63032
330
458D6
100
AcDbEntity
  8
0
100
AcDb3dPolyline
 66
     1
 10
0.0
 20
0.0
 30
0.0
 70
     8
  0
VERTEX
  5
63033
330
63032
100
AcDbEntity
  8
0
100
AcDbVertex
100
AcDb3dPolylineVertex
 10
2.12
 20
-0.0940000000000003
 30
0.187
 70
    32
  0
VERTEX
  5
63034
330
63032
100
AcDbEntity
  8
0
100
AcDbVertex
100
AcDb3dPolylineVertex
 10
2.12
 20
-0.0940000000000003
 30
1.056999999999999
 70
    32
  0
VERTEX
  5
63035
330
63032
100
AcDbEntity
  8
0
100
AcDbVertex
100
AcDb3dPolylineVertex
 10
2.12
 20
-0.2490000000000005
 30
1.056999999999999
 70
    32
  0
VERTEX
  5
63036
330
63032
100
AcDbEntity
  8
0
100
AcDbVertex
100
AcDb3dPolylineVertex
 10
2.12
 20
-0.2490000000000005
 30
0.187
 70
    32
  0
SEQEND
  5
63037
330
63032
100
AcDbEntity
  8
0
  0
POLYLINE
  5
63038
330
458D6
100
AcDbEntity
  8
0
100
AcDb3dPolyline
 66
     1
 10
0.0
 20
0.0
 30
0.0
 70
     8
  0
VERTEX
  5
63039
330
63038
100
AcDbEntity
  8
0
100
AcDbVertex
100
AcDb3dPolylineVertex
 10
0.0000000000000008
 20
-0.0940000000000003
 30
0.1870000000000001
 70
    32
  0
VERTEX
  5
6303A
330
63038
100
AcDbEntity
  8
0
100
AcDbVertex
100
AcDb3dPolylineVertex
 10
0.0000000000000008
 20
-0.0940000000000003
 30
1.056999999999999
 70
    32
  0
VERTEX
  5
6303B
330
63038
100
AcDbEntity
  8
0
100
AcDbVertex
100
AcDb3dPolylineVertex
 10
0.0000000000000008
 20
-0.2490000000000005
 30
1.056999999999999
 70
    32
  0
VERTEX
  5
6303C
330
63038
100
AcDbEntity
  8
0
100
AcDbVertex
100
AcDb3dPolylineVertex
 10
0.0000000000000008
 20
-0.2490000000000005
 30
0.1870000000000001
 70
    32
  0
SEQEND
  5
6303D
330
63038
100
AcDbEntity
  8
0
  0
POLYLINE
  5
6303E
330
458D6
100
AcDbEntity
  8
0
100
AcDb3dPolyline
 66
     1
 10
0.0
 20
0.0
 30
0.0
 70
     8
  0
VERTEX
  5
6303F
330
6303E
100
AcDbEntity
  8
0
100
AcDbVertex
100
AcDb3dPolylineVertex
 10
0.0000000000000008
 20
-1.472999999999999
 30
0.1870000000000001
 70
    32
  0
VERTEX
  5
63040
330
6303E
100
AcDbEntity
  8
0
100
AcDbVertex
100
AcDb3dPolylineVertex
 10
0.0000000000000008
 20
-1.472999999999999
 30
1.056999999999999
 70
    32
  0
VERTEX
  5
63041
330
6303E
100
AcDbEntity
  8
0
100
AcDbVertex
100
AcDb3dPolylineVertex
 10
0.0000000000000008
 20
-1.628
 30
1.056999999999999
 70
    32
  0
VERTEX
  5
63042
330
6303E
100
AcDbEntity
  8
0
100
AcDbVertex
100
AcDb3dPolylineVertex
 10
0.0000000000000008
 20
-1.628
 30
0.1870000000000001
 70
    32
  0
SEQEND
  5
63043
330
6303E
100
AcDbEntity
  8
0
  0
POLYLINE
  5
63044
330
458D6
100
AcDbEntity
  8
0
100
AcDbPolygonMesh
 66
     1
 10
0.0
 20
0.0
 30
0.0
 70
    16
 71
     6
 72
     3
  0
VERTEX
  5
63045
330
63044
100
AcDbEntity
  8
0
100
AcDbVertex
100
AcDbPolygonMeshVertex
 10
0.1610000000000008
 20
0.5979999999999999
 30
0.187
 70
    64
  0
VERTEX
  5
63046
330
63044
100
AcDbEntity
  8
0
100
AcDbVertex
100
AcDbPolygonMeshVertex
 10
0.1610000000000008
 20
0.5979999999999999
 30
0.0
 70
    64
  0
VERTEX
  5
63047
330
63044
100
AcDbEntity
  8
0
100
AcDbVertex
100
AcDbPolygonMeshVertex
 10
0.1610000000000008
 20
0.5979999999999999
 30
0.0
 70
    64
  0
VERTEX
  5
63048
330
63044
100
AcDbEntity
  8
0
100
AcDbVertex
100
AcDbPolygonMeshVertex
 10
1.041
 20
0.5979999999999999
 30
0.187
 70
    64
  0
VERTEX
  5
63049
330
63044
100
AcDbEntity
  8
0
100
AcDbVertex
100
AcDbPolygonMeshVertex
 10
1.041
 20
0.5979999999999999
 30
0.0
 70
    64
  0
VERTEX
  5
6304A
330
63044
100
AcDbEntity
  8
0
100
AcDbVertex
100
AcDbPolygonMeshVertex
 10
1.041
 20
0.5979999999999999
 30
0.0
 70
    64
  0
VERTEX
  5
6304B
330
63044
100
AcDbEntity
  8
0
100
AcDbVertex
100
AcDbPolygonMeshVertex
 10
1.041
 20
0.0
 30
0.187
 70
    64
  0
VERTEX
  5
6304C
330
63044
100
AcDbEntity
  8
0
100
AcDbVertex
100
AcDbPolygonMeshVertex
 10
1.041
 20
0.0
 30
0.0
 70
    64
  0
VERTEX
  5
6304D
330
63044
100
AcDbEntity
  8
0
100
AcDbVertex
100
AcDbPolygonMeshVertex
 10
1.041
 20
0.5979999999999999
 30
0.0
 70
    64
  0
VERTEX
  5
6304E
330
63044
100
AcDbEntity
  8
0
100
AcDbVertex
100
AcDbPolygonMeshVertex
 10
0.1610000000000008
 20
0.0
 30
0.187
 70
    64
  0
VERTEX
  5
6304F
330
63044
100
AcDbEntity
  8
0
100
AcDbVertex
100
AcDbPolygonMeshVertex
 10
0.1610000000000008
 20
0.0
 30
0.0
 70
    64
  0
VERTEX
  5
63050
330
63044
100
AcDbEntity
  8
0
100
AcDbVertex
100
AcDbPolygonMeshVertex
 10
0.1610000000000008
 20
0.5979999999999999
 30
0.0
 70
    64
  0
VERTEX
  5
63051
330
63044
100
AcDbEntity
  8
0
100
AcDbVertex
100
AcDbPolygonMeshVertex
 10
0.1610000000000008
 20
0.0
 30
0.187
 70
    64
  0
VERTEX
  5
63052
330
63044
100
AcDbEntity
  8
0
100
AcDbVertex
100
AcDbPolygonMeshVertex
 10
0.1610000000000008
 20
0.0
 30
0.187
 70
    64
  0
VERTEX
  5
63053
330
63044
100
AcDbEntity
  8
0
100
AcDbVertex
100
AcDbPolygonMeshVertex
 10
0.1610000000000008
 20
0.5979999999999999
 30
0.187
 70
    64
  0
VERTEX
  5
63054
330
63044
100
AcDbEntity
  8
0
100
AcDbVertex
100
AcDbPolygonMeshVertex
 10
1.041
 20
0.0
 30
0.187
 70
    64
  0
VERTEX
  5
63055
330
63044
100
AcDbEntity
  8
0
100
AcDbVertex
100
AcDbPolygonMeshVertex
 10
1.041
 20
0.0
 30
0.187
 70
    64
  0
VERTEX
  5
63056
330
63044
100
AcDbEntity
  8
0
100
AcDbVertex
100
AcDbPolygonMeshVertex
 10
1.041
 20
0.5979999999999999
 30
0.187
 70
    64
  0
SEQEND
  5
63057
330
63044
100
AcDbEntity
  8
0
  0
CIRCLE
  5
63058
330
458D6
100
AcDbEntity
  8
0
100
AcDbCircle
 10
1.945
 20
0.3369999999999995
 30
0.3160000000000003
 40
0.086
  0
POLYLINE
  5
63059
330
458D6
100
AcDbEntity
  8
0
100
AcDb3dPolyline
 66
     1
 10
0.0
 20
0.0
 30
0.0
 70
     8
  0
VERTEX
  5
6305A
330
63059
100
AcDbEntity
  8
0
100
AcDbVertex
100
AcDb3dPolylineVertex
 10
0.7063333333333332
 20
0.4009999999999998
 30
0.187
 70
    32
  0
VERTEX
  5
6305B
330
63059
100
AcDbEntity
  8
0
100
AcDbVertex
100
AcDb3dPolylineVertex
 10
0.7063333333333332
 20
0.5359999999999996
 30
0.187
 70
    32
  0
VERTEX
  5
6305C
330
63059
100
AcDbEntity
  8
0
100
AcDbVertex
100
AcDb3dPolylineVertex
 10
0.4956666666666666
 20
0.5359999999999996
 30
0.187
 70
    32
  0
VERTEX
  5
6305D
330
63059
100
AcDbEntity
  8
0
100
AcDbVertex
100
AcDb3dPolylineVertex
 10
0.4956666666666666
 20
0.4009999999999998
 30
0.187
 70
    32
  0
SEQEND
  5
6305E
330
63059
100
AcDbEntity
  8
0
  0
POLYLINE
  5
6305F
330
458D6
100
AcDbEntity
  8
0
100
AcDb3dPolyline
 66
     1
 10
0.0
 20
0.0
 30
0.0
 70
     8
  0
VERTEX
  5
63060
330
6305F
100
AcDbEntity
  8
0
100
AcDbVertex
100
AcDb3dPolylineVertex
 10
0.4336666666666673
 20
0.4009999999999998
 30
0.187
 70
    32
  0
VERTEX
  5
63061
330
6305F
100
AcDbEntity
  8
0
100
AcDbVertex
100
AcDb3dPolylineVertex
 10
0.4336666666666673
 20
0.5359999999999996
 30
0.187
 70
    32
  0
VERTEX
  5
63062
330
6305F
100
AcDbEntity
  8
0
100
AcDbVertex
100
AcDb3dPolylineVertex
 10
0.2230000000000011
 20
0.5359999999999996
 30
0.187
 70
    32
  0
VERTEX
  5
63063
330
6305F
100
AcDbEntity
  8
0
100
AcDbVertex
100
AcDb3dPolylineVertex
 10
0.2230000000000011
 20
0.4009999999999998
 30
0.187
 70
    32
  0
SEQEND
  5
63064
330
6305F
100
AcDbEntity
  8
0
  0
POLYLINE
  5
63065
330
458D6
100
AcDbEntity
  8
0
100
AcDb3dPolyline
 66
     1
 10
0.0
 20
0.0
 30
0.0
 70
     8
  0
VERTEX
  5
63066
330
63065
100
AcDbEntity
  8
0
100
AcDbVertex
100
AcDb3dPolylineVertex
 10
0.978999999999999
 20
0.4009999999999998
 30
0.187
 70
    32
  0
VERTEX
  5
63067
330
63065
100
AcDbEntity
  8
0
100
AcDbVertex
100
AcDb3dPolylineVertex
 10
0.978999999999999
 20
0.5359999999999996
 30
0.187
 70
    32
  0
VERTEX
  5
63068
330
63065
100
AcDbEntity
  8
0
100
AcDbVertex
100
AcDb3dPolylineVertex
 10
0.7683333333333326
 20
0.5359999999999996
 30
0.187
 70
    32
  0
VERTEX
  5
63069
330
63065
100
AcDbEntity
  8
0
100
AcDbVertex
100
AcDb3dPolylineVertex
 10
0.7683333333333326
 20
0.4009999999999998
 30
0.187
 70
    32
  0
SEQEND
  5
6306A
330
63065
100
AcDbEntity
  8
0
  0
POLYLINE
  5
6306B
330
458D6
100
AcDbEntity
  8
0
100
AcDbPolygonMesh
 66
     1
 10
0.0
 20
0.0
 30
0.0
 70
    16
 71
     6
 72
     3
  0
VERTEX
  5
6306C
330
6306B
100
AcDbEntity
  8
0
100
AcDbVertex
100
AcDbPolygonMeshVertex
 10
0.8639999999999997
 20
-0.5675000000000004
 30
4.070999999999999
 70
    64
  0
VERTEX
  5
6306D
330
6306B
100
AcDbEntity
  8
0
100
AcDbVertex
100
AcDbPolygonMeshVertex
 10
0.8639999999999997
 20
-0.5675000000000004
 30
3.893999999999999
 70
    64
  0
VERTEX
  5
6306E
330
6306B
100
AcDbEntity
  8
0
100
AcDbVertex
100
AcDbPolygonMeshVertex
 10
0.8639999999999997
 20
-0.5675000000000004
 30
3.893999999999999
 70
    64
  0
VERTEX
  5
6306F
330
6306B
100
AcDbEntity
  8
0
100
AcDbVertex
100
AcDbPolygonMeshVertex
 10
0.6944999999999996
 20
-0.5675000000000004
 30
4.070999999999999
 70
    64
  0
VERTEX
  5
63070
330
6306B
100
AcDbEntity
  8
0
100
AcDbVertex
100
AcDbPolygonMeshVertex
 10
0.6944999999999996
 20
-0.5675000000000004
 30
3.893999999999999
 70
    64
  0
VERTEX
  5
63071
330
6306B
100
AcDbEntity
  8
0
100
AcDbVertex
100
AcDbPolygonMeshVertex
 10
0.6944999999999996
 20
-0.5675000000000004
 30
3.893999999999999
 70
    64
  0
VERTEX
  5
63072
330
6306B
100
AcDbEntity
  8
0
100
AcDbVertex
100
AcDbPolygonMeshVertex
 10
0.6944999999999996
 20
-0.2145000000000006
 30
4.070999999999999
 70
    64
  0
VERTEX
  5
63073
330
6306B
100
AcDbEntity
  8
0
100
AcDbVertex
100
AcDbPolygonMeshVertex
 10
0.6944999999999996
 20
-0.2145000000000006
 30
3.893999999999999
 70
    64
  0
VERTEX
  5
63074
330
6306B
100
AcDbEntity
  8
0
100
AcDbVertex
100
AcDbPolygonMeshVertex
 10
0.6944999999999996
 20
-0.5675000000000004
 30
3.893999999999999
 70
    64
  0
VERTEX
  5
63075
330
6306B
100
AcDbEntity
  8
0
100
AcDbVertex
100
AcDbPolygonMeshVertex
 10
0.8639999999999997
 20
-0.2145000000000006
 30
4.070999999999999
 70
    64
  0
VERTEX
  5
63076
330
6306B
100
AcDbEntity
  8
0
100
AcDbVertex
100
AcDbPolygonMeshVertex
 10
0.8639999999999997
 20
-0.2145000000000006
 30
3.893999999999999
 70
    64
  0
VERTEX
  5
63077
330
6306B
100
AcDbEntity
  8
0
100
AcDbVertex
100
AcDbPolygonMeshVertex
 10
0.8639999999999997
 20
-0.5675000000000004
 30
3.893999999999999
 70
    64
  0
VERTEX
  5
63078
330
6306B
100
AcDbEntity
  8
0
100
AcDbVertex
100
AcDbPolygonMeshVertex
 10
0.8639999999999997
 20
-0.2145000000000006
 30
4.070999999999999
 70
    64
  0
VERTEX
  5
63079
330
6306B
100
AcDbEntity
  8
0
100
AcDbVertex
100
AcDbPolygonMeshVertex
 10
0.8639999999999997
 20
-0.2145000000000006
 30
4.070999999999999
 70
    64
  0
VERTEX
  5
6307A
330
6306B
100
AcDbEntity
  8
0
100
AcDbVertex
100
AcDbPolygonMeshVertex
 10
0.8639999999999997
 20
-0.5675000000000004
 30
4.070999999999999
 70
    64
  0
VERTEX
  5
6307B
330
6306B
100
AcDbEntity
  8
0
100
AcDbVertex
100
AcDbPolygonMeshVertex
 10
0.6944999999999996
 20
-0.2145000000000006
 30
4.070999999999999
 70
    64
  0
VERTEX
  5
6307C
330
6306B
100
AcDbEntity
  8
0
100
AcDbVertex
100
AcDbPolygonMeshVertex
 10
0.6944999999999996
 20
-0.2145000000000006
 30
4.070999999999999
 70
    64
  0
VERTEX
  5
6307D
330
6306B
100
AcDbEntity
  8
0
100
AcDbVertex
100
AcDbPolygonMeshVertex
 10
0.6944999999999996
 20
-0.5675000000000004
 30
4.070999999999999
 70
    64
  0
SEQEND
  5
6307E
330
6306B
100
AcDbEntity
  8
0
  0
POLYLINE
  5
6307F
330
458D6
100
AcDbEntity
  8
0
100
AcDbPolygonMesh
 66
     1
 10
0.0
 20
0.0
 30
0.0
 70
    16
 71
     6
 72
     3
  0
VERTEX
  5
63080
330
6307F
100
AcDbEntity
  8
0
100
AcDbVertex
100
AcDbPolygonMeshVertex
 10
1.425499999999999
 20
-0.5675000000000004
 30
3.893999999999999
 70
    64
  0
VERTEX
  5
63081
330
6307F
100
AcDbEntity
  8
0
100
AcDbVertex
100
AcDbPolygonMeshVertex
 10
1.425499999999999
 20
-0.5675000000000004
 30
3.859999999999999
 70
    64
  0
VERTEX
  5
63082
330
6307F
100
AcDbEntity
  8
0
100
AcDbVertex
100
AcDbPolygonMeshVertex
 10
1.425499999999999
 20
-0.5675000000000004
 30
3.859999999999999
 70
    64
  0
VERTEX
  5
63083
330
6307F
100
AcDbEntity
  8
0
100
AcDbVertex
100
AcDbPolygonMeshVertex
 10
0.6944999999999996
 20
-0.5675000000000004
 30
3.893999999999999
 70
    64
  0
VERTEX
  5
63084
330
6307F
100
AcDbEntity
  8
0
100
AcDbVertex
100
AcDbPolygonMeshVertex
 10
0.6944999999999996
 20
-0.5675000000000004
 30
3.859999999999999
 70
    64
  0
VERTEX
  5
63085
330
6307F
100
AcDbEntity
  8
0
100
AcDbVertex
100
AcDbPolygonMeshVertex
 10
0.6944999999999996
 20
-0.5675000000000004
 30
3.859999999999999
 70
    64
  0
VERTEX
  5
63086
330
6307F
100
AcDbEntity
  8
0
100
AcDbVertex
100
AcDbPolygonMeshVertex
 10
0.6944999999999996
 20
-0.2145000000000006
 30
3.893999999999999
 70
    64
  0
VERTEX
  5
63087
330
6307F
100
AcDbEntity
  8
0
100
AcDbVertex
100
AcDbPolygonMeshVertex
 10
0.6944999999999996
 20
-0.2145000000000006
 30
3.859999999999999
 70
    64
  0
VERTEX
  5
63088
330
6307F
100
AcDbEntity
  8
0
100
AcDbVertex
100
AcDbPolygonMeshVertex
 10
0.6944999999999996
 20
-0.5675000000000004
 30
3.859999999999999
 70
    64
  0
VERTEX
  5
63089
330
6307F
100
AcDbEntity
  8
0
100
AcDbVertex
100
AcDbPolygonMeshVertex
 10
1.425499999999999
 20
-0.2145000000000006
 30
3.893999999999999
 70
    64
  0
VERTEX
  5
6308A
330
6307F
100
AcDbEntity
  8
0
100
AcDbVertex
100
AcDbPolygonMeshVertex
 10
1.425499999999999
 20
-0.2145000000000006
 30
3.859999999999999
 70
    64
  0
VERTEX
  5
6308B
330
6307F
100
AcDbEntity
  8
0
100
AcDbVertex
100
AcDbPolygonMeshVertex
 10
1.425499999999999
 20
-0.5675000000000004
 30
3.859999999999999
 70
    64
  0
VERTEX
  5
6308C
330
6307F
100
AcDbEntity
  8
0
100
AcDbVertex
100
AcDbPolygonMeshVertex
 10
1.425499999999999
 20
-0.2145000000000006
 30
3.893999999999999
 70
    64
  0
VERTEX
  5
6308D
330
6307F
100
AcDbEntity
  8
0
100
AcDbVertex
100
AcDbPolygonMeshVertex
 10
1.425499999999999
 20
-0.2145000000000006
 30
3.893999999999999
 70
    64
  0
VERTEX
  5
6308E
330
6307F
100
AcDbEntity
  8
0
100
AcDbVertex
100
AcDbPolygonMeshVertex
 10
1.425499999999999
 20
-0.5675000000000004
 30
3.893999999999999
 70
    64
  0
VERTEX
  5
6308F
330
6307F
100
AcDbEntity
  8
0
100
AcDbVertex
100
AcDbPolygonMeshVertex
 10
0.6944999999999996
 20
-0.2145000000000006
 30
3.893999999999999
 70
    64
  0
VERTEX
  5
63090
330
6307F
100
AcDbEntity
  8
0
100
AcDbVertex
100
AcDbPolygonMeshVertex
 10
0.6944999999999996
 20
-0.2145000000000006
 30
3.893999999999999
 70
    64
  0
VERTEX
  5
63091
330
6307F
100
AcDbEntity
  8
0
100
AcDbVertex
100
AcDbPolygonMeshVertex
 10
0.6944999999999996
 20
-0.5675000000000004
 30
3.893999999999999
 70
    64
  0
SEQEND
  5
63092
330
6307F
100
AcDbEntity
  8
0
  0
POLYLINE
  5
63093
330
458D6
100
AcDbEntity
  8
0
100
AcDbPolygonMesh
 66
     1
 10
0.0
 20
0.0
 30
0.0
 70
    16
 71
     6
 72
     3
  0
VERTEX
  5
63094
330
63093
100
AcDbEntity
  8
0
100
AcDbVertex
100
AcDbPolygonMeshVertex
 10
1.425499999999999
 20
-0.5675000000000004
 30
4.070999999999999
 70
    64
  0
VERTEX
  5
63095
330
63093
100
AcDbEntity
  8
0
100
AcDbVertex
100
AcDbPolygonMeshVertex
 10
1.425499999999999
 20
-0.5675000000000004
 30
3.893999999999999
 70
    64
  0
VERTEX
  5
63096
330
63093
100
AcDbEntity
  8
0
100
AcDbVertex
100
AcDbPolygonMeshVertex
 10
1.425499999999999
 20
-0.5675000000000004
 30
3.893999999999999
 70
    64
  0
VERTEX
  5
63097
330
63093
100
AcDbEntity
  8
0
100
AcDbVertex
100
AcDbPolygonMeshVertex
 10
1.255999999999999
 20
-0.5675000000000004
 30
4.070999999999999
 70
    64
  0
VERTEX
  5
63098
330
63093
100
AcDbEntity
  8
0
100
AcDbVertex
100
AcDbPolygonMeshVertex
 10
1.255999999999999
 20
-0.5675000000000004
 30
3.893999999999999
 70
    64
  0
VERTEX
  5
63099
330
63093
100
AcDbEntity
  8
0
100
AcDbVertex
100
AcDbPolygonMeshVertex
 10
1.255999999999999
 20
-0.5675000000000004
 30
3.893999999999999
 70
    64
  0
VERTEX
  5
6309A
330
63093
100
AcDbEntity
  8
0
100
AcDbVertex
100
AcDbPolygonMeshVertex
 10
1.255999999999999
 20
-0.2145000000000006
 30
4.070999999999999
 70
    64
  0
VERTEX
  5
6309B
330
63093
100
AcDbEntity
  8
0
100
AcDbVertex
100
AcDbPolygonMeshVertex
 10
1.255999999999999
 20
-0.2145000000000006
 30
3.893999999999999
 70
    64
  0
VERTEX
  5
6309C
330
63093
100
AcDbEntity
  8
0
100
AcDbVertex
100
AcDbPolygonMeshVertex
 10
1.255999999999999
 20
-0.5675000000000004
 30
3.893999999999999
 70
    64
  0
VERTEX
  5
6309D
330
63093
100
AcDbEntity
  8
0
100
AcDbVertex
100
AcDbPolygonMeshVertex
 10
1.425499999999999
 20
-0.2145000000000006
 30
4.070999999999999
 70
    64
  0
VERTEX
  5
6309E
330
63093
100
AcDbEntity
  8
0
100
AcDbVertex
100
AcDbPolygonMeshVertex
 10
1.425499999999999
 20
-0.2145000000000006
 30
3.893999999999999
 70
    64
  0
VERTEX
  5
6309F
330
63093
100
AcDbEntity
  8
0
100
AcDbVertex
100
AcDbPolygonMeshVertex
 10
1.425499999999999
 20
-0.5675000000000004
 30
3.893999999999999
 70
    64
  0
VERTEX
  5
630A0
330
63093
100
AcDbEntity
  8
0
100
AcDbVertex
100
AcDbPolygonMeshVertex
 10
1.425499999999999
 20
-0.2145000000000006
 30
4.070999999999999
 70
    64
  0
VERTEX
  5
630A1
330
63093
100
AcDbEntity
  8
0
100
AcDbVertex
100
AcDbPolygonMeshVertex
 10
1.425499999999999
 20
-0.2145000000000006
 30
4.070999999999999
 70
    64
  0
VERTEX
  5
630A2
330
63093
100
AcDbEntity
  8
0
100
AcDbVertex
100
AcDbPolygonMeshVertex
 10
1.425499999999999
 20
-0.5675000000000004
 30
4.070999999999999
 70
    64
  0
VERTEX
  5
630A3
330
63093
100
AcDbEntity
  8
0
100
AcDbVertex
100
AcDbPolygonMeshVertex
 10
1.255999999999999
 20
-0.2145000000000006
 30
4.070999999999999
 70
    64
  0
VERTEX
  5
630A4
330
63093
100
AcDbEntity
  8
0
100
AcDbVertex
100
AcDbPolygonMeshVertex
 10
1.255999999999999
 20
-0.2145000000000006
 30
4.070999999999999
 70
    64
  0
VERTEX
  5
630A5
330
63093
100
AcDbEntity
  8
0
100
AcDbVertex
100
AcDbPolygonMeshVertex
 10
1.255999999999999
 20
-0.5675000000000004
 30
4.070999999999999
 70
    64
  0
SEQEND
  5
630A6
330
63093
100
AcDbEntity
  8
0
  0
POLYLINE
  5
630A7
330
458D6
100
AcDbEntity
  8
0
100
AcDbPolygonMesh
 66
     1
 10
0.0
 20
0.0
 30
0.0
 70
    16
 71
     6
 72
     3
  0
VERTEX
  5
630A8
330
630A7
100
AcDbEntity
  8
0
100
AcDbVertex
100
AcDbPolygonMeshVertex
 10
0.9574999999999993
 20
-1.022499999999999
 30
4.109999999999999
 70
    64
  0
VERTEX
  5
630A9
330
630A7
100
AcDbEntity
  8
0
100
AcDbVertex
100
AcDbPolygonMeshVertex
 10
0.9574999999999993
 20
-1.022499999999999
 30
3.894
 70
    64
  0
VERTEX
  5
630AA
330
630A7
100
AcDbEntity
  8
0
100
AcDbVertex
100
AcDbPolygonMeshVertex
 10
0.9574999999999993
 20
-1.022499999999999
 30
3.894
 70
    64
  0
VERTEX
  5
630AB
330
630A7
100
AcDbEntity
  8
0
100
AcDbVertex
100
AcDbPolygonMeshVertex
 10
0.8224999999999996
 20
-1.022499999999999
 30
4.109999999999999
 70
    64
  0
VERTEX
  5
630AC
330
630A7
100
AcDbEntity
  8
0
100
AcDbVertex
100
AcDbPolygonMeshVertex
 10
0.8224999999999996
 20
-1.022499999999999
 30
3.894
 70
    64
  0
VERTEX
  5
630AD
330
630A7
100
AcDbEntity
  8
0
100
AcDbVertex
100
AcDbPolygonMeshVertex
 10
0.8224999999999996
 20
-1.022499999999999
 30
3.894
 70
    64
  0
VERTEX
  5
630AE
330
630A7
100
AcDbEntity
  8
0
100
AcDbVertex
100
AcDbPolygonMeshVertex
 10
0.8224999999999996
 20
-0.6774999999999998
 30
4.109999999999999
 70
    64
  0
VERTEX
  5
630AF
330
630A7
100
AcDbEntity
  8
0
100
AcDbVertex
100
AcDbPolygonMeshVertex
 10
0.8224999999999996
 20
-0.6774999999999998
 30
3.894
 70
    64
  0
VERTEX
  5
630B0
330
630A7
100
AcDbEntity
  8
0
100
AcDbVertex
100
AcDbPolygonMeshVertex
 10
0.8224999999999996
 20
-1.022499999999999
 30
3.894
 70
    64
  0
VERTEX
  5
630B1
330
630A7
100
AcDbEntity
  8
0
100
AcDbVertex
100
AcDbPolygonMeshVertex
 10
0.9574999999999993
 20
-0.6774999999999998
 30
4.109999999999999
 70
    64
  0
VERTEX
  5
630B2
330
630A7
100
AcDbEntity
  8
0
100
AcDbVertex
100
AcDbPolygonMeshVertex
 10
0.9574999999999993
 20
-0.6774999999999998
 30
3.894
 70
    64
  0
VERTEX
  5
630B3
330
630A7
100
AcDbEntity
  8
0
100
AcDbVertex
100
AcDbPolygonMeshVertex
 10
0.9574999999999993
 20
-1.022499999999999
 30
3.894
 70
    64
  0
VERTEX
  5
630B4
330
630A7
100
AcDbEntity
  8
0
100
AcDbVertex
100
AcDbPolygonMeshVertex
 10
0.9574999999999993
 20
-0.6774999999999998
 30
4.109999999999999
 70
    64
  0
VERTEX
  5
630B5
330
630A7
100
AcDbEntity
  8
0
100
AcDbVertex
100
AcDbPolygonMeshVertex
 10
0.9574999999999993
 20
-0.6774999999999998
 30
4.109999999999999
 70
    64
  0
VERTEX
  5
630B6
330
630A7
100
AcDbEntity
  8
0
100
AcDbVertex
100
AcDbPolygonMeshVertex
 10
0.9574999999999993
 20
-1.022499999999999
 30
4.109999999999999
 70
    64
  0
VERTEX
  5
630B7
330
630A7
100
AcDbEntity
  8
0
100
AcDbVertex
100
AcDbPolygonMeshVertex
 10
0.8224999999999996
 20
-0.6774999999999998
 30
4.109999999999999
 70
    64
  0
VERTEX
  5
630B8
330
630A7
100
AcDbEntity
  8
0
100
AcDbVertex
100
AcDbPolygonMeshVertex
 10
0.8224999999999996
 20
-0.6774999999999998
 30
4.109999999999999
 70
    64
  0
VERTEX
  5
630B9
330
630A7
100
AcDbEntity
  8
0
100
AcDbVertex
100
AcDbPolygonMeshVertex
 10
0.8224999999999996
 20
-1.022499999999999
 30
4.109999999999999
 70
    64
  0
SEQEND
  5
630BA
330
630A7
100
AcDbEntity
  8
0
  0
POLYLINE
  5
630BB
330
458D6
100
AcDbEntity
  8
0
100
AcDbPolygonMesh
 66
     1
 10
0.0
 20
0.0
 30
0.0
 70
    16
 71
     6
 72
     3
  0
VERTEX
  5
630BC
330
630BB
100
AcDbEntity
  8
0
100
AcDbVertex
100
AcDbPolygonMeshVertex
 10
1.297499999999999
 20
-1.022499999999999
 30
3.894
 70
    64
  0
VERTEX
  5
630BD
330
630BB
100
AcDbEntity
  8
0
100
AcDbVertex
100
AcDbPolygonMeshVertex
 10
1.297499999999999
 20
-1.022499999999999
 30
3.859999999999999
 70
    64
  0
VERTEX
  5
630BE
330
630BB
100
AcDbEntity
  8
0
100
AcDbVertex
100
AcDbPolygonMeshVertex
 10
1.297499999999999
 20
-1.022499999999999
 30
3.859999999999999
 70
    64
  0
VERTEX
  5
630BF
330
630BB
100
AcDbEntity
  8
0
100
AcDbVertex
100
AcDbPolygonMeshVertex
 10
0.8224999999999996
 20
-1.022499999999999
 30
3.894
 70
    64
  0
VERTEX
  5
630C0
330
630BB
100
AcDbEntity
  8
0
100
AcDbVertex
100
AcDbPolygonMeshVertex
 10
0.8224999999999996
 20
-1.022499999999999
 30
3.859999999999999
 70
    64
  0
VERTEX
  5
630C1
330
630BB
100
AcDbEntity
  8
0
100
AcDbVertex
100
AcDbPolygonMeshVertex
 10
0.8224999999999996
 20
-1.022499999999999
 30
3.859999999999999
 70
    64
  0
VERTEX
  5
630C2
330
630BB
100
AcDbEntity
  8
0
100
AcDbVertex
100
AcDbPolygonMeshVertex
 10
0.8224999999999996
 20
-0.6774999999999998
 30
3.894
 70
    64
  0
VERTEX
  5
630C3
330
630BB
100
AcDbEntity
  8
0
100
AcDbVertex
100
AcDbPolygonMeshVertex
 10
0.8224999999999996
 20
-0.6774999999999998
 30
3.859999999999999
 70
    64
  0
VERTEX
  5
630C4
330
630BB
100
AcDbEntity
  8
0
100
AcDbVertex
100
AcDbPolygonMeshVertex
 10
0.8224999999999996
 20
-1.022499999999999
 30
3.859999999999999
 70
    64
  0
VERTEX
  5
630C5
330
630BB
100
AcDbEntity
  8
0
100
AcDbVertex
100
AcDbPolygonMeshVertex
 10
1.297499999999999
 20
-0.6774999999999998
 30
3.894
 70
    64
  0
VERTEX
  5
630C6
330
630BB
100
AcDbEntity
  8
0
100
AcDbVertex
100
AcDbPolygonMeshVertex
 10
1.297499999999999
 20
-0.6774999999999998
 30
3.859999999999999
 70
    64
  0
VERTEX
  5
630C7
330
630BB
100
AcDbEntity
  8
0
100
AcDbVertex
100
AcDbPolygonMeshVertex
 10
1.297499999999999
 20
-1.022499999999999
 30
3.859999999999999
 70
    64
  0
VERTEX
  5
630C8
330
630BB
100
AcDbEntity
  8
0
100
AcDbVertex
100
AcDbPolygonMeshVertex
 10
1.297499999999999
 20
-0.6774999999999998
 30
3.894
 70
    64
  0
VERTEX
  5
630C9
330
630BB
100
AcDbEntity
  8
0
100
AcDbVertex
100
AcDbPolygonMeshVertex
 10
1.297499999999999
 20
-0.6774999999999998
 30
3.894
 70
    64
  0
VERTEX
  5
630CA
330
630BB
100
AcDbEntity
  8
0
100
AcDbVertex
100
AcDbPolygonMeshVertex
 10
1.297499999999999
 20
-1.022499999999999
 30
3.894
 70
    64
  0
VERTEX
  5
630CB
330
630BB
100
AcDbEntity
  8
0
100
AcDbVertex
100
AcDbPolygonMeshVertex
 10
0.8224999999999996
 20
-0.6774999999999998
 30
3.894
 70
    64
  0
VERTEX
  5
630CC
330
630BB
100
AcDbEntity
  8
0
100
AcDbVertex
100
AcDbPolygonMeshVertex
 10
0.8224999999999996
 20
-0.6774999999999998
 30
3.894
 70
    64
  0
VERTEX
  5
630CD
330
630BB
100
AcDbEntity
  8
0
100
AcDbVertex
100
AcDbPolygonMeshVertex
 10
0.8224999999999996
 20
-1.022499999999999
 30
3.894
 70
    64
  0
SEQEND
  5
630CE
330
630BB
100
AcDbEntity
  8
0
  0
POLYLINE
  5
630CF
330
458D6
100
AcDbEntity
  8
0
100
AcDbPolygonMesh
 66
     1
 10
0.0
 20
0.0
 30
0.0
 70
    16
 71
     6
 72
     3
  0
VERTEX
  5
630D0
330
630CF
100
AcDbEntity
  8
0
100
AcDbVertex
100
AcDbPolygonMeshVertex
 10
1.297499999999999
 20
-1.022499999999999
 30
4.109999999999999
 70
    64
  0
VERTEX
  5
630D1
330
630CF
100
AcDbEntity
  8
0
100
AcDbVertex
100
AcDbPolygonMeshVertex
 10
1.297499999999999
 20
-1.022499999999999
 30
3.894
 70
    64
  0
VERTEX
  5
630D2
330
630CF
100
AcDbEntity
  8
0
100
AcDbVertex
100
AcDbPolygonMeshVertex
 10
1.297499999999999
 20
-1.022499999999999
 30
3.894
 70
    64
  0
VERTEX
  5
630D3
330
630CF
100
AcDbEntity
  8
0
100
AcDbVertex
100
AcDbPolygonMeshVertex
 10
1.162499999999999
 20
-1.022499999999999
 30
4.109999999999999
 70
    64
  0
VERTEX
  5
630D4
330
630CF
100
AcDbEntity
  8
0
100
AcDbVertex
100
AcDbPolygonMeshVertex
 10
1.162499999999999
 20
-1.022499999999999
 30
3.894
 70
    64
  0
VERTEX
  5
630D5
330
630CF
100
AcDbEntity
  8
0
100
AcDbVertex
100
AcDbPolygonMeshVertex
 10
1.162499999999999
 20
-1.022499999999999
 30
3.894
 70
    64
  0
VERTEX
  5
630D6
330
630CF
100
AcDbEntity
  8
0
100
AcDbVertex
100
AcDbPolygonMeshVertex
 10
1.162499999999999
 20
-0.6774999999999998
 30
4.109999999999999
 70
    64
  0
VERTEX
  5
630D7
330
630CF
100
AcDbEntity
  8
0
100
AcDbVertex
100
AcDbPolygonMeshVertex
 10
1.162499999999999
 20
-0.6774999999999998
 30
3.894
 70
    64
  0
VERTEX
  5
630D8
330
630CF
100
AcDbEntity
  8
0
100
AcDbVertex
100
AcDbPolygonMeshVertex
 10
1.162499999999999
 20
-1.022499999999999
 30
3.894
 70
    64
  0
VERTEX
  5
630D9
330
630CF
100
AcDbEntity
  8
0
100
AcDbVertex
100
AcDbPolygonMeshVertex
 10
1.297499999999999
 20
-0.6774999999999998
 30
4.109999999999999
 70
    64
  0
VERTEX
  5
630DA
330
630CF
100
AcDbEntity
  8
0
100
AcDbVertex
100
AcDbPolygonMeshVertex
 10
1.297499999999999
 20
-0.6774999999999998
 30
3.894
 70
    64
  0
VERTEX
  5
630DB
330
630CF
100
AcDbEntity
  8
0
100
AcDbVertex
100
AcDbPolygonMeshVertex
 10
1.297499999999999
 20
-1.022499999999999
 30
3.894
 70
    64
  0
VERTEX
  5
630DC
330
630CF
100
AcDbEntity
  8
0
100
AcDbVertex
100
AcDbPolygonMeshVertex
 10
1.297499999999999
 20
-0.6774999999999998
 30
4.109999999999999
 70
    64
  0
VERTEX
  5
630DD
330
630CF
100
AcDbEntity
  8
0
100
AcDbVertex
100
AcDbPolygonMeshVertex
 10
1.297499999999999
 20
-0.6774999999999998
 30
4.109999999999999
 70
    64
  0
VERTEX
  5
630DE
330
630CF
100
AcDbEntity
  8
0
100
AcDbVertex
100
AcDbPolygonMeshVertex
 10
1.297499999999999
 20
-1.022499999999999
 30
4.109999999999999
 70
    64
  0
VERTEX
  5
630DF
330
630CF
100
AcDbEntity
  8
0
100
AcDbVertex
100
AcDbPolygonMeshVertex
 10
1.162499999999999
 20
-0.6774999999999998
 30
4.109999999999999
 70
    64
  0
VERTEX
  5
630E0
330
630CF
100
AcDbEntity
  8
0
100
AcDbVertex
100
AcDbPolygonMeshVertex
 10
1.162499999999999
 20
-0.6774999999999998
 30
4.109999999999999
 70
    64
  0
VERTEX
  5
630E1
330
630CF
100
AcDbEntity
  8
0
100
AcDbVertex
100
AcDbPolygonMeshVertex
 10
1.162499999999999
 20
-1.022499999999999
 30
4.109999999999999
 70
    64
  0
SEQEND
  5
630E2
330
630CF
100
AcDbEntity
  8
0
  0
TEXT
  5
630E3
330
458D6
100
AcDbEntity
  8
0
100
AcDbText
 10
0.113229793273815
 20
0.2811155340969122
 30
3.859999999999999
 40
0.0834654981097751
  1
1
100
AcDbText
  0
TEXT
  5
630E4
330
458D6
100
AcDbEntity
  8
0
100
AcDbText
 10
0.5691308389222813
 20
0.2802736679910658
 30
3.859999999999999
 40
0.0834654981097751
  1
L1
100
AcDbText
  0
TEXT
  5
630E5
330
458D6
100
AcDbEntity
  8
0
100
AcDbText
 10
0.8427030777100588
 20
0.2794318018852193
 30
3.859999999999999
 40
0.0834654981097751
  1
3
100
AcDbText
  0
TEXT
  5
630E6
330
458D6
100
AcDbEntity
  8
0
100
AcDbText
 10
1.226609268925798
 20
0.2808433009258362
 30
3.859999999999999
 40
0.0834654981097751
  1
L2
100
AcDbText
  0
TEXT
  5
630E7
330
458D6
100
AcDbEntity
  8
0
100
AcDbText
 10
1.534201536158614
 20
0.2822547999664535
 30
3.859999999999999
 40
0.0834654981097751
  1
5
100
AcDbText
  0
TEXT
  5
630E8
330
458D6
100
AcDbEntity
  8
0
100
AcDbText
 10
1.917518723896797
 20
0.2842550160273163
 30
3.859999999999999
 40
0.0834654981097751
  1
L3
100
AcDbText
  0
TEXT
  5
630E9
330
458D6
100
AcDbEntity
  8
0
100
AcDbText
 10
0.1062098804149548
 20
-2.064187320954868
 30
3.859999999999999
 40
0.0834654981097751
  1
2
100
AcDbText
  0
TEXT
  5
630EA
330
458D6
100
AcDbEntity
  8
0
100
AcDbText
 10
0.5673196778400635
 20
-2.062775821914252
 30
3.859999999999999
 40
0.0834654981097751
  1
T1
100
AcDbText
  0
TEXT
  5
630EB
330
458D6
100
AcDbEntity
  8
0
100
AcDbText
 10
0.843257203340422
 20
-2.060775605853388
 30
3.859999999999999
 40
0.0834654981097751
  1
4
100
AcDbText
  0
TEXT
  5
630EC
330
458D6
100
AcDbEntity
  8
0
100
AcDbText
 10
1.227641572907645
 20
-2.062206188979481
 30
3.859999999999999
 40
0.0834654981097751
  1
T2
100
AcDbText
  0
TEXT
  5
630ED
330
458D6
100
AcDbEntity
  8
0
100
AcDbText
 10
1.53907781255704
 20
-2.063048055085327
 30
3.859999999999999
 40
0.0834654981097751
  1
6
100
AcDbText
  0
TEXT
  5
630EE
330
458D6
100
AcDbEntity
  8
0
100
AcDbText
 10
1.917186248518579
 20
-2.06163655604471
 30
3.859999999999999
 40
0.0834654981097751
  1
T3
100
AcDbText
  0
CIRCLE
  5
630EF
330
458D6
100
AcDbEntity
  8
0
100
AcDbCircle
 10
1.945
 20
0.3369999999999995
 30
0.0000000000000002
 40
0.086
  0
POLYLINE
  5
630F0
330
458D6
100
AcDbEntity
  8
0
100
AcDb3dPolyline
 66
     1
 10
0.0
 20
0.0
 30
0.0
 70
     8
  0
VERTEX
  5
630F1
330
630F0
100
AcDbEntity
  8
0
100
AcDbVertex
100
AcDb3dPolylineVertex
 10
0.978999999999999
 20
0.4009999999999998
 30
-0.0000000000000001
 70
    32
  0
VERTEX
  5
630F2
330
630F0
100
AcDbEntity
  8
0
100
AcDbVertex
100
AcDb3dPolylineVertex
 10
0.978999999999999
 20
0.5359999999999996
 30
0.0
 70
    32
  0
VERTEX
  5
630F3
330
630F0
100
AcDbEntity
  8
0
100
AcDbVertex
100
AcDb3dPolylineVertex
 10
0.7683333333333326
 20
0.5359999999999996
 30
0.0
 70
    32
  0
VERTEX
  5
630F4
330
630F0
100
AcDbEntity
  8
0
100
AcDbVertex
100
AcDb3dPolylineVertex
 10
0.7683333333333326
 20
0.4009999999999998
 30
-0.0000000000000001
 70
    32
  0
SEQEND
  5
630F5
330
630F0
100
AcDbEntity
  8
0
  0
POLYLINE
  5
630F6
330
458D6
100
AcDbEntity
  8
0
100
AcDb3dPolyline
 66
     1
 10
0.0
 20
0.0
 30
0.0
 70
     8
  0
VERTEX
  5
630F7
330
630F6
100
AcDbEntity
  8
0
100
AcDbVertex
100
AcDb3dPolylineVertex
 10
0.7063333333333332
 20
0.4009999999999998
 30
-0.0000000000000001
 70
    32
  0
VERTEX
  5
630F8
330
630F6
100
AcDbEntity
  8
0
100
AcDbVertex
100
AcDb3dPolylineVertex
 10
0.7063333333333332
 20
0.5359999999999996
 30
0.0
 70
    32
  0
VERTEX
  5
630F9
330
630F6
100
AcDbEntity
  8
0
100
AcDbVertex
100
AcDb3dPolylineVertex
 10
0.4956666666666666
 20
0.5359999999999996
 30
0.0
 70
    32
  0
VERTEX
  5
630FA
330
630F6
100
AcDbEntity
  8
0
100
AcDbVertex
100
AcDb3dPolylineVertex
 10
0.4956666666666666
 20
0.4009999999999998
 30
-0.0000000000000001
 70
    32
  0
SEQEND
  5
630FB
330
630F6
100
AcDbEntity
  8
0
  0
POLYLINE
  5
630FC
330
458D6
100
AcDbEntity
  8
0
100
AcDb3dPolyline
 66
     1
 10
0.0
 20
0.0
 30
0.0
 70
     8
  0
VERTEX
  5
630FD
330
630FC
100
AcDbEntity
  8
0
100
AcDbVertex
100
AcDb3dPolylineVertex
 10
0.4336666666666673
 20
0.4009999999999998
 30
-0.0000000000000001
 70
    32
  0
VERTEX
  5
630FE
330
630FC
100
AcDbEntity
  8
0
100
AcDbVertex
100
AcDb3dPolylineVertex
 10
0.4336666666666673
 20
0.5359999999999996
 30
0.0
 70
    32
  0
VERTEX
  5
630FF
330
630FC
100
AcDbEntity
  8
0
100
AcDbVertex
100
AcDb3dPolylineVertex
 10
0.2230000000000011
 20
0.5359999999999996
 30
0.0
 70
    32
  0
VERTEX
  5
63100
330
630FC
100
AcDbEntity
  8
0
100
AcDbVertex
100
AcDb3dPolylineVertex
 10
0.2230000000000011
 20
0.4009999999999998
 30
-0.0000000000000001
 70
    32
  0
SEQEND
  5
63101
330
630FC
100
AcDbEntity
  8
0
  0
LINE
  5
63102
330
458D6
100
AcDbEntity
  8
0
100
AcDbLine
 10
0.978999999999999
 20
0.4009999999999998
 30
-0.0000000000000001
 11
0.7683333333333335
 21
0.4009999999999998
 31
-0.0000000000000001
  0
LINE
  5
63103
330
458D6
100
AcDbEntity
  8
0
100
AcDbLine
 10
0.7063333333333332
 20
0.4009999999999998
 30
-0.0000000000000001
 11
0.4956666666666675
 21
0.4009999999999998
 31
-0.0000000000000001
  0
LINE
  5
63104
330
458D6
100
AcDbEntity
  8
0
100
AcDbLine
 10
0.4336666666666673
 20
0.4009999999999998
 30
-0.0000000000000001
 11
0.2230000000000015
 21
0.4009999999999998
 31
-0.0000000000000001
  0
POLYLINE
  5
63105
330
458D6
100
AcDbEntity
  8
0
100
AcDbPolygonMesh
 66
     1
 10
0.0
 20
0.0
 30
0.0
 70
    16
 71
     6
 72
     3
  0
VERTEX
  5
63106
330
63105
100
AcDbEntity
  8
0
100
AcDbVertex
100
AcDbPolygonMeshVertex
 10
0.3910000000000008
 20
-1.806
 30
1.318
 70
    64
  0
VERTEX
  5
63107
330
63105
100
AcDbEntity
  8
0
100
AcDbVertex
100
AcDbPolygonMeshVertex
 10
0.3910000000000008
 20
-1.806
 30
0.187
 70
    64
  0
VERTEX
  5
63108
330
63105
100
AcDbEntity
  8
0
100
AcDbVertex
100
AcDbPolygonMeshVertex
 10
0.3910000000000008
 20
-1.806
 30
0.187
 70
    64
  0
VERTEX
  5
63109
330
63105
100
AcDbEntity
  8
0
100
AcDbVertex
100
AcDbPolygonMeshVertex
 10
0.0000000000000008
 20
-1.806
 30
1.318
 70
    64
  0
VERTEX
  5
6310A
330
63105
100
AcDbEntity
  8
0
100
AcDbVertex
100
AcDbPolygonMeshVertex
 10
0.0000000000000008
 20
-1.806
 30
0.187
 70
    64
  0
VERTEX
  5
6310B
330
63105
100
AcDbEntity
  8
0
100
AcDbVertex
100
AcDbPolygonMeshVertex
 10
0.0000000000000008
 20
-1.806
 30
0.187
 70
    64
  0
VERTEX
  5
6310C
330
63105
100
AcDbEntity
  8
0
100
AcDbVertex
100
AcDbPolygonMeshVertex
 10
0.0000000000000008
 20
0.4009999999999998
 30
1.318
 70
    64
  0
VERTEX
  5
6310D
330
63105
100
AcDbEntity
  8
0
100
AcDbVertex
100
AcDbPolygonMeshVertex
 10
0.0000000000000008
 20
0.4009999999999998
 30
0.187
 70
    64
  0
VERTEX
  5
6310E
330
63105
100
AcDbEntity
  8
0
100
AcDbVertex
100
AcDbPolygonMeshVertex
 10
0.0000000000000008
 20
-1.806
 30
0.187
 70
    64
  0
VERTEX
  5
6310F
330
63105
100
AcDbEntity
  8
0
100
AcDbVertex
100
AcDbPolygonMeshVertex
 10
0.3910000000000008
 20
0.4009999999999998
 30
1.318
 70
    64
  0
VERTEX
  5
63110
330
63105
100
AcDbEntity
  8
0
100
AcDbVertex
100
AcDbPolygonMeshVertex
 10
0.3910000000000008
 20
0.4009999999999998
 30
0.187
 70
    64
  0
VERTEX
  5
63111
330
63105
100
AcDbEntity
  8
0
100
AcDbVertex
100
AcDbPolygonMeshVertex
 10
0.3910000000000008
 20
-1.806
 30
0.187
 70
    64
  0
VERTEX
  5
63112
330
63105
100
AcDbEntity
  8
0
100
AcDbVertex
100
AcDbPolygonMeshVertex
 10
0.3910000000000008
 20
0.4009999999999998
 30
1.318
 70
    64
  0
VERTEX
  5
63113
330
63105
100
AcDbEntity
  8
0
100
AcDbVertex
100
AcDbPolygonMeshVertex
 10
0.3910000000000008
 20
0.4009999999999998
 30
1.318
 70
    64
  0
VERTEX
  5
63114
330
63105
100
AcDbEntity
  8
0
100
AcDbVertex
100
AcDbPolygonMeshVertex
 10
0.3910000000000008
 20
-1.806
 30
1.318
 70
    64
  0
VERTEX
  5
63115
330
63105
100
AcDbEntity
  8
0
100
AcDbVertex
100
AcDbPolygonMeshVertex
 10
0.0000000000000008
 20
0.4009999999999998
 30
1.318
 70
    64
  0
VERTEX
  5
63116
330
63105
100
AcDbEntity
  8
0
100
AcDbVertex
100
AcDbPolygonMeshVertex
 10
0.0000000000000008
 20
0.4009999999999998
 30
1.318
 70
    64
  0
VERTEX
  5
63117
330
63105
100
AcDbEntity
  8
0
100
AcDbVertex
100
AcDbPolygonMeshVertex
 10
0.0000000000000008
 20
-1.806
 30
1.318
 70
    64
  0
SEQEND
  5
63118
330
63105
100
AcDbEntity
  8
0
  0
POLYLINE
  5
63119
330
458D6
100
AcDbEntity
  8
0
100
AcDbPolygonMesh
 66
     1
 10
0.0
 20
0.0
 30
0.0
 70
    16
 71
     6
 72
     3
  0
VERTEX
  5
6311A
330
63119
100
AcDbEntity
  8
0
100
AcDbVertex
100
AcDbPolygonMeshVertex
 10
2.12
 20
-2.089
 30
1.318
 70
    64
  0
VERTEX
  5
6311B
330
63119
100
AcDbEntity
  8
0
100
AcDbVertex
100
AcDbPolygonMeshVertex
 10
2.12
 20
-2.089
 30
0.187
 70
    64
  0
VERTEX
  5
6311C
330
63119
100
AcDbEntity
  8
0
100
AcDbVertex
100
AcDbPolygonMeshVertex
 10
2.12
 20
-2.089
 30
0.187
 70
    64
  0
VERTEX
  5
6311D
330
63119
100
AcDbEntity
  8
0
100
AcDbVertex
100
AcDbPolygonMeshVertex
 10
1.729
 20
-2.089
 30
1.318
 70
    64
  0
VERTEX
  5
6311E
330
63119
100
AcDbEntity
  8
0
100
AcDbVertex
100
AcDbPolygonMeshVertex
 10
1.729
 20
-2.089
 30
0.187
 70
    64
  0
VERTEX
  5
6311F
330
63119
100
AcDbEntity
  8
0
100
AcDbVertex
100
AcDbPolygonMeshVertex
 10
1.729
 20
-2.089
 30
0.187
 70
    64
  0
VERTEX
  5
63120
330
63119
100
AcDbEntity
  8
0
100
AcDbVertex
100
AcDbPolygonMeshVertex
 10
1.729
 20
0.1179999999999994
 30
1.318
 70
    64
  0
VERTEX
  5
63121
330
63119
100
AcDbEntity
  8
0
100
AcDbVertex
100
AcDbPolygonMeshVertex
 10
1.729
 20
0.1179999999999994
 30
0.187
 70
    64
  0
VERTEX
  5
63122
330
63119
100
AcDbEntity
  8
0
100
AcDbVertex
100
AcDbPolygonMeshVertex
 10
1.729
 20
-2.089
 30
0.187
 70
    64
  0
VERTEX
  5
63123
330
63119
100
AcDbEntity
  8
0
100
AcDbVertex
100
AcDbPolygonMeshVertex
 10
2.12
 20
0.1179999999999994
 30
1.318
 70
    64
  0
VERTEX
  5
63124
330
63119
100
AcDbEntity
  8
0
100
AcDbVertex
100
AcDbPolygonMeshVertex
 10
2.12
 20
0.1179999999999994
 30
0.187
 70
    64
  0
VERTEX
  5
63125
330
63119
100
AcDbEntity
  8
0
100
AcDbVertex
100
AcDbPolygonMeshVertex
 10
2.12
 20
-2.089
 30
0.187
 70
    64
  0
VERTEX
  5
63126
330
63119
100
AcDbEntity
  8
0
100
AcDbVertex
100
AcDbPolygonMeshVertex
 10
2.12
 20
0.1179999999999994
 30
1.318
 70
    64
  0
VERTEX
  5
63127
330
63119
100
AcDbEntity
  8
0
100
AcDbVertex
100
AcDbPolygonMeshVertex
 10
2.12
 20
0.1179999999999994
 30
1.318
 70
    64
  0
VERTEX
  5
63128
330
63119
100
AcDbEntity
  8
0
100
AcDbVertex
100
AcDbPolygonMeshVertex
 10
2.12
 20
-2.089
 30
1.318
 70
    64
  0
VERTEX
  5
63129
330
63119
100
AcDbEntity
  8
0
100
AcDbVertex
100
AcDbPolygonMeshVertex
 10
1.729
 20
0.1179999999999994
 30
1.318
 70
    64
  0
VERTEX
  5
6312A
330
63119
100
AcDbEntity
  8
0
100
AcDbVertex
100
AcDbPolygonMeshVertex
 10
1.729
 20
0.1179999999999994
 30
1.318
 70
    64
  0
VERTEX
  5
6312B
330
63119
100
AcDbEntity
  8
0
100
AcDbVertex
100
AcDbPolygonMeshVertex
 10
1.729
 20
-2.089
 30
1.318
 70
    64
  0
SEQEND
  5
6312C
330
63119
100
AcDbEntity
  8
0
  0
POLYLINE
  5
6312D
330
458D6
100
AcDbEntity
  8
0
100
AcDbPolygonMesh
 66
     1
 10
0.0
 20
0.0
 30
0.0
 70
    16
 71
     6
 72
     3
  0
VERTEX
  5
6312E
330
6312D
100
AcDbEntity
  8
0
100
AcDbVertex
100
AcDbPolygonMeshVertex
 10
1.729
 20
-2.089
 30
1.318
 70
    64
  0
VERTEX
  5
6312F
330
6312D
100
AcDbEntity
  8
0
100
AcDbVertex
100
AcDbPolygonMeshVertex
 10
1.729
 20
-2.089
 30
0.187
 70
    64
  0
VERTEX
  5
63130
330
6312D
100
AcDbEntity
  8
0
100
AcDbVertex
100
AcDbPolygonMeshVertex
 10
1.729
 20
-2.089
 30
0.187
 70
    64
  0
VERTEX
  5
63131
330
6312D
100
AcDbEntity
  8
0
100
AcDbVertex
100
AcDbPolygonMeshVertex
 10
0.3910000000000008
 20
-2.089
 30
1.318
 70
    64
  0
VERTEX
  5
63132
330
6312D
100
AcDbEntity
  8
0
100
AcDbVertex
100
AcDbPolygonMeshVertex
 10
0.3910000000000008
 20
-2.089
 30
0.187
 70
    64
  0
VERTEX
  5
63133
330
6312D
100
AcDbEntity
  8
0
100
AcDbVertex
100
AcDbPolygonMeshVertex
 10
0.3910000000000008
 20
-2.089
 30
0.187
 70
    64
  0
VERTEX
  5
63134
330
6312D
100
AcDbEntity
  8
0
100
AcDbVertex
100
AcDbPolygonMeshVertex
 10
0.3910000000000008
 20
0.4009999999999998
 30
1.318
 70
    64
  0
VERTEX
  5
63135
330
6312D
100
AcDbEntity
  8
0
100
AcDbVertex
100
AcDbPolygonMeshVertex
 10
0.3910000000000008
 20
0.4009999999999998
 30
0.187
 70
    64
  0
VERTEX
  5
63136
330
6312D
100
AcDbEntity
  8
0
100
AcDbVertex
100
AcDbPolygonMeshVertex
 10
0.3910000000000008
 20
-2.089
 30
0.187
 70
    64
  0
VERTEX
  5
63137
330
6312D
100
AcDbEntity
  8
0
100
AcDbVertex
100
AcDbPolygonMeshVertex
 10
1.729
 20
0.4009999999999998
 30
1.318
 70
    64
  0
VERTEX
  5
63138
330
6312D
100
AcDbEntity
  8
0
100
AcDbVertex
100
AcDbPolygonMeshVertex
 10
1.729
 20
0.4009999999999998
 30
0.187
 70
    64
  0
VERTEX
  5
63139
330
6312D
100
AcDbEntity
  8
0
100
AcDbVertex
100
AcDbPolygonMeshVertex
 10
1.729
 20
-2.089
 30
0.187
 70
    64
  0
VERTEX
  5
6313A
330
6312D
100
AcDbEntity
  8
0
100
AcDbVertex
100
AcDbPolygonMeshVertex
 10
1.729
 20
0.4009999999999998
 30
1.318
 70
    64
  0
VERTEX
  5
6313B
330
6312D
100
AcDbEntity
  8
0
100
AcDbVertex
100
AcDbPolygonMeshVertex
 10
1.729
 20
0.4009999999999998
 30
1.318
 70
    64
  0
VERTEX
  5
6313C
330
6312D
100
AcDbEntity
  8
0
100
AcDbVertex
100
AcDbPolygonMeshVertex
 10
1.729
 20
-2.089
 30
1.318
 70
    64
  0
VERTEX
  5
6313D
330
6312D
100
AcDbEntity
  8
0
100
AcDbVertex
100
AcDbPolygonMeshVertex
 10
0.3910000000000008
 20
0.4009999999999998
 30
1.318
 70
    64
  0
VERTEX
  5
6313E
330
6312D
100
AcDbEntity
  8
0
100
AcDbVertex
100
AcDbPolygonMeshVertex
 10
0.3910000000000008
 20
0.4009999999999998
 30
1.318
 70
    64
  0
VERTEX
  5
6313F
330
6312D
100
AcDbEntity
  8
0
100
AcDbVertex
100
AcDbPolygonMeshVertex
 10
0.3910000000000008
 20
-2.089
 30
1.318
 70
    64
  0
SEQEND
  5
63140
330
6312D
100
AcDbEntity
  8
0
  0
LWPOLYLINE
  5
63141
330
458D6
100
AcDbEntity
  8
0
100
AcDbPolyline
 90
        4
 70
     1
 43
0.0
 38
1.388
 10
0.9265000000000005
 20
0.4529999999999999
 10
1.193500000000001
 20
0.4529999999999999
 10
1.193500000000001
 20
0.6019999999999995
 10
0.9265000000000005
 20
0.6019999999999995
  0
LINE
  5
63142
330
458D6
100
AcDbEntity
  8
0
100
AcDbLine
 10
1.2
 20
-2.089
 30
2.062
 11
1.2
 21
-2.324
 31
2.062
  0
LINE
  5
63143
330
458D6
100
AcDbEntity
  8
0
100
AcDbLine
 10
0.5625
 20
-2.526
 30
1.841
 11
0.5625
 21
-2.526
 31
1.641
  0
LINE
  5
63144
330
458D6
100
AcDbEntity
  8
0
100
AcDbLine
 10
0.3600000000000011
 20
0.5979999999999999
 30
0.187
 11
0.1610000000000008
 21
0.5979999999999999
 31
0.187
  0
POLYLINE
  5
63145
330
458D6
100
AcDbEntity
  8
0
100
AcDbPolygonMesh
 66
     1
 10
0.0
 20
0.0
 30
0.0
 70
    16
 71
     6
 72
     3
  0
VERTEX
  5
63146
330
63145
100
AcDbEntity
  8
0
100
AcDbVertex
100
AcDbPolygonMeshVertex
 10
1.959000000000001
 20
-2.286
 30
0.187
 70
    64
  0
VERTEX
  5
63147
330
63145
100
AcDbEntity
  8
0
100
AcDbVertex
100
AcDbPolygonMeshVertex
 10
1.959000000000001
 20
-2.286
 30
0.0
 70
    64
  0
VERTEX
  5
63148
330
63145
100
AcDbEntity
  8
0
100
AcDbVertex
100
AcDbPolygonMeshVertex
 10
1.959000000000001
 20
-2.286
 30
0.0
 70
    64
  0
VERTEX
  5
63149
330
63145
100
AcDbEntity
  8
0
100
AcDbVertex
100
AcDbPolygonMeshVertex
 10
1.079000000000001
 20
-2.286
 30
0.187
 70
    64
  0
VERTEX
  5
6314A
330
63145
100
AcDbEntity
  8
0
100
AcDbVertex
100
AcDbPolygonMeshVertex
 10
1.079000000000001
 20
-2.286
 30
0.0
 70
    64
  0
VERTEX
  5
6314B
330
63145
100
AcDbEntity
  8
0
100
AcDbVertex
100
AcDbPolygonMeshVertex
 10
1.079000000000001
 20
-2.286
 30
0.0
 70
    64
  0
VERTEX
  5
6314C
330
63145
100
AcDbEntity
  8
0
100
AcDbVertex
100
AcDbPolygonMeshVertex
 10
1.079000000000001
 20
-1.688
 30
0.187
 70
    64
  0
VERTEX
  5
6314D
330
63145
100
AcDbEntity
  8
0
100
AcDbVertex
100
AcDbPolygonMeshVertex
 10
1.079000000000001
 20
-1.688
 30
0.0
 70
    64
  0
VERTEX
  5
6314E
330
63145
100
AcDbEntity
  8
0
100
AcDbVertex
100
AcDbPolygonMeshVertex
 10
1.079000000000001
 20
-2.286
 30
0.0
 70
    64
  0
VERTEX
  5
6314F
330
63145
100
AcDbEntity
  8
0
100
AcDbVertex
100
AcDbPolygonMeshVertex
 10
1.959000000000001
 20
-1.688
 30
0.187
 70
    64
  0
VERTEX
  5
63150
330
63145
100
AcDbEntity
  8
0
100
AcDbVertex
100
AcDbPolygonMeshVertex
 10
1.959000000000001
 20
-1.688
 30
0.0
 70
    64
  0
VERTEX
  5
63151
330
63145
100
AcDbEntity
  8
0
100
AcDbVertex
100
AcDbPolygonMeshVertex
 10
1.959000000000001
 20
-2.286
 30
0.0
 70
    64
  0
VERTEX
  5
63152
330
63145
100
AcDbEntity
  8
0
100
AcDbVertex
100
AcDbPolygonMeshVertex
 10
1.959000000000001
 20
-1.688
 30
0.187
 70
    64
  0
VERTEX
  5
63153
330
63145
100
AcDbEntity
  8
0
100
AcDbVertex
100
AcDbPolygonMeshVertex
 10
1.959000000000001
 20
-1.688
 30
0.187
 70
    64
  0
VERTEX
  5
63154
330
63145
100
AcDbEntity
  8
0
100
AcDbVertex
100
AcDbPolygonMeshVertex
 10
1.959000000000001
 20
-2.286
 30
0.187
 70
    64
  0
VERTEX
  5
63155
330
63145
100
AcDbEntity
  8
0
100
AcDbVertex
100
AcDbPolygonMeshVertex
 10
1.079000000000001
 20
-1.688
 30
0.187
 70
    64
  0
VERTEX
  5
63156
330
63145
100
AcDbEntity
  8
0
100
AcDbVertex
100
AcDbPolygonMeshVertex
 10
1.079000000000001
 20
-1.688
 30
0.187
 70
    64
  0
VERTEX
  5
63157
330
63145
100
AcDbEntity
  8
0
100
AcDbVertex
100
AcDbPolygonMeshVertex
 10
1.079000000000001
 20
-2.286
 30
0.187
 70
    64
  0
SEQEND
  5
63158
330
63145
100
AcDbEntity
  8
0
  0
POLYLINE
  5
63159
330
458D6
100
AcDbEntity
  8
0
100
AcDb3dPolyline
 66
     1
 10
0.0
 20
0.0
 30
0.0
 70
     8
  0
VERTEX
  5
6315A
330
63159
100
AcDbEntity
  8
0
100
AcDbVertex
100
AcDb3dPolylineVertex
 10
1.686333333333334
 20
-2.089
 30
-0.0000000000000001
 70
    32
  0
VERTEX
  5
6315B
330
63159
100
AcDbEntity
  8
0
100
AcDbVertex
100
AcDb3dPolylineVertex
 10
1.686333333333334
 20
-2.224
 30
0.0
 70
    32
  0
VERTEX
  5
6315C
330
63159
100
AcDbEntity
  8
0
100
AcDbVertex
100
AcDb3dPolylineVertex
 10
1.897
 20
-2.224
 30
0.0
 70
    32
  0
VERTEX
  5
6315D
330
63159
100
AcDbEntity
  8
0
100
AcDbVertex
100
AcDb3dPolylineVertex
 10
1.897
 20
-2.089
 30
-0.0000000000000001
 70
    32
  0
SEQEND
  5
6315E
330
63159
100
AcDbEntity
  8
0
  0
POLYLINE
  5
6315F
330
458D6
100
AcDbEntity
  8
0
100
AcDb3dPolyline
 66
     1
 10
0.0
 20
0.0
 30
0.0
 70
     8
  0
VERTEX
  5
63160
330
6315F
100
AcDbEntity
  8
0
100
AcDbVertex
100
AcDb3dPolylineVertex
 10
1.686333333333334
 20
-2.089
 30
0.187
 70
    32
  0
VERTEX
  5
63161
330
6315F
100
AcDbEntity
  8
0
100
AcDbVertex
100
AcDb3dPolylineVertex
 10
1.686333333333334
 20
-2.224
 30
0.187
 70
    32
  0
VERTEX
  5
63162
330
6315F
100
AcDbEntity
  8
0
100
AcDbVertex
100
AcDb3dPolylineVertex
 10
1.897
 20
-2.224
 30
0.187
 70
    32
  0
VERTEX
  5
63163
330
6315F
100
AcDbEntity
  8
0
100
AcDbVertex
100
AcDb3dPolylineVertex
 10
1.897
 20
-2.089
 30
0.187
 70
    32
  0
SEQEND
  5
63164
330
6315F
100
AcDbEntity
  8
0
  0
LINE
  5
63165
330
458D6
100
AcDbEntity
  8
0
100
AcDbLine
 10
1.76
 20
-2.286
 30
0.187
 11
1.959000000000001
 21
-2.286
 31
0.187
  0
POLYLINE
  5
63166
330
458D6
100
AcDbEntity
  8
0
100
AcDb3dPolyline
 66
     1
 10
0.0
 20
0.0
 30
0.0
 70
     8
  0
VERTEX
  5
63167
330
63166
100
AcDbEntity
  8
0
100
AcDbVertex
100
AcDb3dPolylineVertex
 10
1.413666666666668
 20
-2.089
 30
-0.0000000000000001
 70
    32
  0
VERTEX
  5
63168
330
63166
100
AcDbEntity
  8
0
100
AcDbVertex
100
AcDb3dPolylineVertex
 10
1.413666666666668
 20
-2.224
 30
0.0
 70
    32
  0
VERTEX
  5
63169
330
63166
100
AcDbEntity
  8
0
100
AcDbVertex
100
AcDb3dPolylineVertex
 10
1.624333333333335
 20
-2.224
 30
0.0
 70
    32
  0
VERTEX
  5
6316A
330
63166
100
AcDbEntity
  8
0
100
AcDbVertex
100
AcDb3dPolylineVertex
 10
1.624333333333335
 20
-2.089
 30
-0.0000000000000001
 70
    32
  0
SEQEND
  5
6316B
330
63166
100
AcDbEntity
  8
0
  0
POLYLINE
  5
6316C
330
458D6
100
AcDbEntity
  8
0
100
AcDb3dPolyline
 66
     1
 10
0.0
 20
0.0
 30
0.0
 70
     8
  0
VERTEX
  5
6316D
330
6316C
100
AcDbEntity
  8
0
100
AcDbVertex
100
AcDb3dPolylineVertex
 10
1.413666666666668
 20
-2.089
 30
0.187
 70
    32
  0
VERTEX
  5
6316E
330
6316C
100
AcDbEntity
  8
0
100
AcDbVertex
100
AcDb3dPolylineVertex
 10
1.413666666666668
 20
-2.224
 30
0.187
 70
    32
  0
VERTEX
  5
6316F
330
6316C
100
AcDbEntity
  8
0
100
AcDbVertex
100
AcDb3dPolylineVertex
 10
1.624333333333335
 20
-2.224
 30
0.187
 70
    32
  0
VERTEX
  5
63170
330
6316C
100
AcDbEntity
  8
0
100
AcDbVertex
100
AcDb3dPolylineVertex
 10
1.624333333333335
 20
-2.089
 30
0.187
 70
    32
  0
SEQEND
  5
63171
330
6316C
100
AcDbEntity
  8
0
  0
LINE
  5
63172
330
458D6
100
AcDbEntity
  8
0
100
AcDbLine
 10
1.686333333333334
 20
-2.089
 30
-0.0000000000000001
 11
1.897
 21
-2.089
 31
-0.0000000000000001
  0
LINE
  5
63173
330
458D6
100
AcDbEntity
  8
0
100
AcDbLine
 10
1.413666666666668
 20
-2.089
 30
-0.0000000000000001
 11
1.624333333333334
 21
-2.089
 31
-0.0000000000000001
  0
POLYLINE
  5
63174
330
458D6
100
AcDbEntity
  8
0
100
AcDb3dPolyline
 66
     1
 10
0.0
 20
0.0
 30
0.0
 70
     8
  0
VERTEX
  5
63175
330
63174
100
AcDbEntity
  8
0
100
AcDbVertex
100
AcDb3dPolylineVertex
 10
1.141000000000002
 20
-2.089
 30
-0.0000000000000001
 70
    32
  0
VERTEX
  5
63176
330
63174
100
AcDbEntity
  8
0
100
AcDbVertex
100
AcDb3dPolylineVertex
 10
1.141000000000002
 20
-2.224
 30
0.0
 70
    32
  0
VERTEX
  5
63177
330
63174
100
AcDbEntity
  8
0
100
AcDbVertex
100
AcDb3dPolylineVertex
 10
1.351666666666669
 20
-2.224
 30
0.0
 70
    32
  0
VERTEX
  5
63178
330
63174
100
AcDbEntity
  8
0
100
AcDbVertex
100
AcDb3dPolylineVertex
 10
1.351666666666669
 20
-2.089
 30
-0.0000000000000001
 70
    32
  0
SEQEND
  5
63179
330
63174
100
AcDbEntity
  8
0
  0
POLYLINE
  5
6317A
330
458D6
100
AcDbEntity
  8
0
100
AcDb3dPolyline
 66
     1
 10
0.0
 20
0.0
 30
0.0
 70
     8
  0
VERTEX
  5
6317B
330
6317A
100
AcDbEntity
  8
0
100
AcDbVertex
100
AcDb3dPolylineVertex
 10
1.141000000000002
 20
-2.089
 30
0.187
 70
    32
  0
VERTEX
  5
6317C
330
6317A
100
AcDbEntity
  8
0
100
AcDbVertex
100
AcDb3dPolylineVertex
 10
1.141000000000002
 20
-2.224
 30
0.187
 70
    32
  0
VERTEX
  5
6317D
330
6317A
100
AcDbEntity
  8
0
100
AcDbVertex
100
AcDb3dPolylineVertex
 10
1.351666666666669
 20
-2.224
 30
0.187
 70
    32
  0
VERTEX
  5
6317E
330
6317A
100
AcDbEntity
  8
0
100
AcDbVertex
100
AcDb3dPolylineVertex
 10
1.351666666666669
 20
-2.089
 30
0.187
 70
    32
  0
SEQEND
  5
6317F
330
6317A
100
AcDbEntity
  8
0
  0
LINE
  5
63180
330
458D6
100
AcDbEntity
  8
0
100
AcDbLine
 10
1.141000000000002
 20
-2.089
 30
-0.0000000000000001
 11
1.351666666666668
 21
-2.089
 31
-0.0000000000000001
  0
CIRCLE
  5
63181
330
458D6
100
AcDbEntity
  8
0
100
AcDbCircle
 10
0.1730000000000016
 20
-2.024999999999999
 30
0.0000000000000002
 40
0.086
  0
CIRCLE
  5
63182
330
458D6
100
AcDbEntity
  8
0
100
AcDbCircle
 10
0.1730000000000016
 20
-2.024999999999999
 30
0.3160000000000003
 40
0.086
  0
POLYLINE
  5
63183
330
458D6
100
AcDbEntity
  8
0
100
AcDbPolygonMesh
 66
     1
 10
0.0
 20
0.0
 30
0.0
 70
    16
 71
     6
 72
     3
  0
VERTEX
  5
63184
330
63183
100
AcDbEntity
  8
0
100
AcDbVertex
100
AcDbPolygonMeshVertex
 10
0.6887000000000007
 20
0.5149999999999997
 30
3.058999999999999
 70
    64
  0
VERTEX
  5
63185
330
63183
100
AcDbEntity
  8
0
100
AcDbVertex
100
AcDbPolygonMeshVertex
 10
0.6887000000000007
 20
0.5149999999999997
 30
2.446999999999999
 70
    64
  0
VERTEX
  5
63186
330
63183
100
AcDbEntity
  8
0
100
AcDbVertex
100
AcDbPolygonMeshVertex
 10
0.6887000000000007
 20
0.5149999999999997
 30
2.446999999999999
 70
    64
  0
VERTEX
  5
63187
330
63183
100
AcDbEntity
  8
0
100
AcDbVertex
100
AcDbPolygonMeshVertex
 10
0.742700000000001
 20
0.5149999999999997
 30
3.058999999999999
 70
    64
  0
VERTEX
  5
63188
330
63183
100
AcDbEntity
  8
0
100
AcDbVertex
100
AcDbPolygonMeshVertex
 10
0.742700000000001
 20
0.5149999999999997
 30
2.446999999999999
 70
    64
  0
VERTEX
  5
63189
330
63183
100
AcDbEntity
  8
0
100
AcDbVertex
100
AcDbPolygonMeshVertex
 10
0.742700000000001
 20
0.5149999999999997
 30
2.446999999999999
 70
    64
  0
VERTEX
  5
6318A
330
63183
100
AcDbEntity
  8
0
100
AcDbVertex
100
AcDbPolygonMeshVertex
 10
0.742700000000001
 20
0.4009999999999998
 30
3.058999999999999
 70
    64
  0
VERTEX
  5
6318B
330
63183
100
AcDbEntity
  8
0
100
AcDbVertex
100
AcDbPolygonMeshVertex
 10
0.742700000000001
 20
0.4009999999999998
 30
2.446999999999999
 70
    64
  0
VERTEX
  5
6318C
330
63183
100
AcDbEntity
  8
0
100
AcDbVertex
100
AcDbPolygonMeshVertex
 10
0.742700000000001
 20
0.5149999999999997
 30
2.446999999999999
 70
    64
  0
VERTEX
  5
6318D
330
63183
100
AcDbEntity
  8
0
100
AcDbVertex
100
AcDbPolygonMeshVertex
 10
0.6887000000000007
 20
0.4009999999999998
 30
3.058999999999999
 70
    64
  0
VERTEX
  5
6318E
330
63183
100
AcDbEntity
  8
0
100
AcDbVertex
100
AcDbPolygonMeshVertex
 10
0.6887000000000007
 20
0.4009999999999998
 30
2.446999999999999
 70
    64
  0
VERTEX
  5
6318F
330
63183
100
AcDbEntity
  8
0
100
AcDbVertex
100
AcDbPolygonMeshVertex
 10
0.6887000000000007
 20
0.5149999999999997
 30
2.446999999999999
 70
    64
  0
VERTEX
  5
63190
330
63183
100
AcDbEntity
  8
0
100
AcDbVertex
100
AcDbPolygonMeshVertex
 10
0.6887000000000007
 20
0.4009999999999998
 30
3.058999999999999
 70
    64
  0
VERTEX
  5
63191
330
63183
100
AcDbEntity
  8
0
100
AcDbVertex
100
AcDbPolygonMeshVertex
 10
0.6887000000000007
 20
0.4009999999999998
 30
3.058999999999999
 70
    64
  0
VERTEX
  5
63192
330
63183
100
AcDbEntity
  8
0
100
AcDbVertex
100
AcDbPolygonMeshVertex
 10
0.6887000000000007
 20
0.5149999999999997
 30
3.058999999999999
 70
    64
  0
VERTEX
  5
63193
330
63183
100
AcDbEntity
  8
0
100
AcDbVertex
100
AcDbPolygonMeshVertex
 10
0.742700000000001
 20
0.4009999999999998
 30
3.058999999999999
 70
    64
  0
VERTEX
  5
63194
330
63183
100
AcDbEntity
  8
0
100
AcDbVertex
100
AcDbPolygonMeshVertex
 10
0.742700000000001
 20
0.4009999999999998
 30
3.058999999999999
 70
    64
  0
VERTEX
  5
63195
330
63183
100
AcDbEntity
  8
0
100
AcDbVertex
100
AcDbPolygonMeshVertex
 10
0.742700000000001
 20
0.5149999999999997
 30
3.058999999999999
 70
    64
  0
SEQEND
  5
63196
330
63183
100
AcDbEntity
  8
0
  0
POLYLINE
  5
63197
330
458D6
100
AcDbEntity
  8
0
100
AcDbPolygonMesh
 66
     1
 10
0.0
 20
0.0
 30
0.0
 70
    16
 71
     6
 72
     3
  0
VERTEX
  5
63198
330
63197
100
AcDbEntity
  8
0
100
AcDbVertex
100
AcDbPolygonMeshVertex
 10
1.4313
 20
0.5149999999999997
 30
3.058999999999999
 70
    64
  0
VERTEX
  5
63199
330
63197
100
AcDbEntity
  8
0
100
AcDbVertex
100
AcDbPolygonMeshVertex
 10
1.4313
 20
0.5149999999999997
 30
2.446999999999999
 70
    64
  0
VERTEX
  5
6319A
330
63197
100
AcDbEntity
  8
0
100
AcDbVertex
100
AcDbPolygonMeshVertex
 10
1.4313
 20
0.5149999999999997
 30
2.446999999999999
 70
    64
  0
VERTEX
  5
6319B
330
63197
100
AcDbEntity
  8
0
100
AcDbVertex
100
AcDbPolygonMeshVertex
 10
1.377299999999999
 20
0.5149999999999997
 30
3.058999999999999
 70
    64
  0
VERTEX
  5
6319C
330
63197
100
AcDbEntity
  8
0
100
AcDbVertex
100
AcDbPolygonMeshVertex
 10
1.377299999999999
 20
0.5149999999999997
 30
2.446999999999999
 70
    64
  0
VERTEX
  5
6319D
330
63197
100
AcDbEntity
  8
0
100
AcDbVertex
100
AcDbPolygonMeshVertex
 10
1.377299999999999
 20
0.5149999999999997
 30
2.446999999999999
 70
    64
  0
VERTEX
  5
6319E
330
63197
100
AcDbEntity
  8
0
100
AcDbVertex
100
AcDbPolygonMeshVertex
 10
1.377299999999999
 20
0.4009999999999998
 30
3.058999999999999
 70
    64
  0
VERTEX
  5
6319F
330
63197
100
AcDbEntity
  8
0
100
AcDbVertex
100
AcDbPolygonMeshVertex
 10
1.377299999999999
 20
0.4009999999999998
 30
2.446999999999999
 70
    64
  0
VERTEX
  5
631A0
330
63197
100
AcDbEntity
  8
0
100
AcDbVertex
100
AcDbPolygonMeshVertex
 10
1.377299999999999
 20
0.5149999999999997
 30
2.446999999999999
 70
    64
  0
VERTEX
  5
631A1
330
63197
100
AcDbEntity
  8
0
100
AcDbVertex
100
AcDbPolygonMeshVertex
 10
1.4313
 20
0.4009999999999998
 30
3.058999999999999
 70
    64
  0
VERTEX
  5
631A2
330
63197
100
AcDbEntity
  8
0
100
AcDbVertex
100
AcDbPolygonMeshVertex
 10
1.4313
 20
0.4009999999999998
 30
2.446999999999999
 70
    64
  0
VERTEX
  5
631A3
330
63197
100
AcDbEntity
  8
0
100
AcDbVertex
100
AcDbPolygonMeshVertex
 10
1.4313
 20
0.5149999999999997
 30
2.446999999999999
 70
    64
  0
VERTEX
  5
631A4
330
63197
100
AcDbEntity
  8
0
100
AcDbVertex
100
AcDbPolygonMeshVertex
 10
1.4313
 20
0.4009999999999998
 30
3.058999999999999
 70
    64
  0
VERTEX
  5
631A5
330
63197
100
AcDbEntity
  8
0
100
AcDbVertex
100
AcDbPolygonMeshVertex
 10
1.4313
 20
0.4009999999999998
 30
3.058999999999999
 70
    64
  0
VERTEX
  5
631A6
330
63197
100
AcDbEntity
  8
0
100
AcDbVertex
100
AcDbPolygonMeshVertex
 10
1.4313
 20
0.5149999999999997
 30
3.058999999999999
 70
    64
  0
VERTEX
  5
631A7
330
63197
100
AcDbEntity
  8
0
100
AcDbVertex
100
AcDbPolygonMeshVertex
 10
1.377299999999999
 20
0.4009999999999998
 30
3.058999999999999
 70
    64
  0
VERTEX
  5
631A8
330
63197
100
AcDbEntity
  8
0
100
AcDbVertex
100
AcDbPolygonMeshVertex
 10
1.377299999999999
 20
0.4009999999999998
 30
3.058999999999999
 70
    64
  0
VERTEX
  5
631A9
330
63197
100
AcDbEntity
  8
0
100
AcDbVertex
100
AcDbPolygonMeshVertex
 10
1.377299999999999
 20
0.5149999999999997
 30
3.058999999999999
 70
    64
  0
SEQEND
  5
631AA
330
63197
100
AcDbEntity
  8
0
  0
LINE
  5
631AB
330
458D6
100
AcDbEntity
  8
0
100
AcDbLine
 10
0.2363500000000006
 20
0.4009999999999998
 30
2.997999999999999
 11
0.5063500000000002
 21
0.4009999999999998
 31
2.997999999999999
  0
LINE
  5
631AC
330
458D6
100
AcDbEntity
  8
0
100
AcDbLine
 10
0.2363500000000006
 20
0.4009999999999998
 30
2.327999999999999
 11
0.5063500000000002
 21
0.4009999999999998
 31
2.327999999999999
  0
LINE
  5
631AD
330
458D6
100
AcDbEntity
  8
0
100
AcDbLine
 10
0.2363500000000006
 20
0.4009999999999998
 30
2.725999999999999
 11
0.5063500000000002
 21
0.4009999999999998
 31
2.725999999999999
  0
LINE
  5
631AE
330
458D6
100
AcDbEntity
  8
0
100
AcDbLine
 10
0.2363500000000006
 20
0.4009999999999998
 30
2.621999999999999
 11
0.5063500000000002
 21
0.4009999999999998
 31
2.621999999999999
  0
LINE
  5
631AF
330
458D6
100
AcDbEntity
  8
0
100
AcDbLine
 10
0.5683500000000005
 20
0.4010000000000003
 30
2.36846065259117
 11
0.5683499999999988
 21
0.4009999999999998
 31
3.058999999999999
  0
LINE
  5
631B0
330
458D6
100
AcDbEntity
  8
0
100
AcDbLine
 10
0.1743500000000004
 20
0.4009999999999993
 30
2.387499999999999
 11
0.174349999999999
 21
0.4009999999999989
 31
3.058999999999999
  0
LINE
  5
631B1
330
458D6
100
AcDbEntity
  8
0
100
AcDbLine
 10
0.2363500000000006
 20
0.4009999999999998
 30
2.997999999999999
 11
0.2363500000000006
 21
0.4009999999999998
 31
2.725999999999999
  0
LINE
  5
631B2
330
458D6
100
AcDbEntity
  8
0
100
AcDbLine
 10
0.5063500000000002
 20
0.4009999999999998
 30
2.997999999999999
 11
0.5063500000000002
 21
0.4009999999999998
 31
2.725999999999999
  0
LINE
  5
631B3
330
458D6
100
AcDbEntity
  8
0
100
AcDbLine
 10
0.2363500000000011
 20
0.4009999999999998
 30
2.621999999999999
 11
0.2363500000000006
 21
0.4009999999999998
 31
2.446999999999999
  0
LINE
  5
631B4
330
458D6
100
AcDbEntity
  8
0
100
AcDbLine
 10
0.1743499999999999
 20
0.4009999999999998
 30
2.446999999999999
 11
0.2363500000000006
 21
0.4009999999999998
 31
2.446999999999999
  0
LINE
  5
631B5
330
458D6
100
AcDbEntity
  8
0
100
AcDbLine
 10
0.5063500000000002
 20
0.4009999999999998
 30
2.327999999999999
 11
0.5683500000000005
 21
0.4009999999999998
 31
2.36846065259117
  0
LINE
  5
631B6
330
458D6
100
AcDbEntity
  8
0
100
AcDbLine
 10
0.5683500000000005
 20
0.4009999999999998
 30
2.447
 11
0.5063500000000002
 21
0.4009999999999998
 31
2.446999999999999
  0
LINE
  5
631B7
330
458D6
100
AcDbEntity
  8
0
100
AcDbLine
 10
0.5063500000000002
 20
0.4009999999999998
 30
2.621999999999999
 11
0.5063500000000002
 21
0.4009999999999998
 31
2.446999999999999
  0
LINE
  5
631B8
330
458D6
100
AcDbEntity
  8
0
100
AcDbLine
 10
0.2363500000000006
 20
0.4009999999999998
 30
2.327999999999999
 11
0.1743500000000008
 21
0.4009999999999994
 31
2.387499999999999
  0
LINE
  5
631B9
330
458D6
100
AcDbEntity
  8
0
100
AcDbLine
 10
0.174349999999999
 20
0.4009999999999989
 30
3.058999999999999
 11
0.5683499999999988
 21
0.4009999999999998
 31
3.058999999999999
210
0.0
220
-1.0
230
0.0
  0
LINE
  5
631BA
330
458D6
100
AcDbEntity
  8
0
100
AcDbLine
 10
0.863050000000001
 20
0.4009999999999993
 30
2.387499999999999
 11
0.8630499999999992
 21
0.4009999999999989
 31
3.058999999999999
  0
LINE
  5
631BB
330
458D6
100
AcDbEntity
  8
0
100
AcDbLine
 10
1.257050000000001
 20
0.4010000000000002
 30
2.36846065259117
 11
1.257049999999999
 21
0.4009999999999998
 31
3.058999999999999
  0
LINE
  5
631BC
330
458D6
100
AcDbEntity
  8
0
100
AcDbLine
 10
0.9250500000000013
 20
0.4009999999999998
 30
2.327999999999999
 11
1.195050000000001
 21
0.4009999999999998
 31
2.327999999999999
  0
LINE
  5
631BD
330
458D6
100
AcDbEntity
  8
0
100
AcDbLine
 10
0.9250500000000013
 20
0.4009999999999998
 30
2.621999999999999
 11
1.195050000000001
 21
0.4009999999999998
 31
2.621999999999999
  0
LINE
  5
631BE
330
458D6
100
AcDbEntity
  8
0
100
AcDbLine
 10
0.9250500000000013
 20
0.4009999999999998
 30
2.327999999999999
 11
0.863050000000001
 21
0.4009999999999993
 31
2.387499999999999
  0
LINE
  5
631BF
330
458D6
100
AcDbEntity
  8
0
100
AcDbLine
 10
0.9250500000000021
 20
0.4009999999999998
 30
2.621999999999999
 11
0.9250500000000013
 21
0.4009999999999998
 31
2.446999999999999
  0
LINE
  5
631C0
330
458D6
100
AcDbEntity
  8
0
100
AcDbLine
 10
0.863050000000001
 20
0.4009999999999998
 30
2.446999999999999
 11
0.9250500000000013
 21
0.4009999999999998
 31
2.446999999999999
  0
LINE
  5
631C1
330
458D6
100
AcDbEntity
  8
0
100
AcDbLine
 10
1.195050000000001
 20
0.4009999999999998
 30
2.327999999999999
 11
1.257050000000001
 21
0.4009999999999998
 31
2.36846065259117
  0
LINE
  5
631C2
330
458D6
100
AcDbEntity
  8
0
100
AcDbLine
 10
1.195050000000001
 20
0.4009999999999998
 30
2.621999999999999
 11
1.195050000000001
 21
0.4009999999999998
 31
2.446999999999999
  0
LINE
  5
631C3
330
458D6
100
AcDbEntity
  8
0
100
AcDbLine
 10
1.257050000000001
 20
0.4009999999999998
 30
2.447
 11
1.195050000000001
 21
0.4009999999999998
 31
2.446999999999999
  0
LINE
  5
631C4
330
458D6
100
AcDbEntity
  8
0
100
AcDbLine
 10
0.8630499999999992
 20
0.4009999999999989
 30
3.058999999999999
 11
1.257049999999999
 21
0.4009999999999998
 31
3.058999999999999
210
0.0
220
-1.0
230
0.0
  0
LINE
  5
631C5
330
458D6
100
AcDbEntity
  8
0
100
AcDbLine
 10
0.9250500000000013
 20
0.4009999999999998
 30
2.997999999999999
 11
1.195050000000001
 21
0.4009999999999998
 31
2.997999999999999
  0
LINE
  5
631C6
330
458D6
100
AcDbEntity
  8
0
100
AcDbLine
 10
0.9250500000000013
 20
0.4009999999999998
 30
2.725999999999999
 11
1.195050000000001
 21
0.4009999999999998
 31
2.725999999999999
  0
LINE
  5
631C7
330
458D6
100
AcDbEntity
  8
0
100
AcDbLine
 10
0.9250500000000013
 20
0.4009999999999998
 30
2.997999999999999
 11
0.9250500000000013
 21
0.4009999999999998
 31
2.725999999999999
  0
LINE
  5
631C8
330
458D6
100
AcDbEntity
  8
0
100
AcDbLine
 10
1.195050000000001
 20
0.4009999999999998
 30
2.997999999999999
 11
1.195050000000001
 21
0.4009999999999998
 31
2.725999999999999
  0
LINE
  5
631C9
330
458D6
100
AcDbEntity
  8
0
100
AcDbLine
 10
1.94565
 20
0.4010000000000002
 30
2.36846065259117
 11
1.945649999999998
 21
0.4009999999999998
 31
3.058999999999999
  0
LINE
  5
631CA
330
458D6
100
AcDbEntity
  8
0
100
AcDbLine
 10
1.55165
 20
0.4009999999999993
 30
2.387499999999999
 11
1.551649999999998
 21
0.4009999999999989
 31
3.058999999999999
  0
LINE
  5
631CB
330
458D6
100
AcDbEntity
  8
0
100
AcDbLine
 10
1.61365
 20
0.4009999999999998
 30
2.621999999999999
 11
1.88365
 21
0.4009999999999998
 31
2.621999999999999
  0
LINE
  5
631CC
330
458D6
100
AcDbEntity
  8
0
100
AcDbLine
 10
1.61365
 20
0.4009999999999998
 30
2.327999999999999
 11
1.88365
 21
0.4009999999999998
 31
2.327999999999999
  0
LINE
  5
631CD
330
458D6
100
AcDbEntity
  8
0
100
AcDbLine
 10
1.61365
 20
0.4009999999999998
 30
2.327999999999999
 11
1.55165
 21
0.4009999999999993
 31
2.387499999999999
  0
LINE
  5
631CE
330
458D6
100
AcDbEntity
  8
0
100
AcDbLine
 10
1.613650000000001
 20
0.4009999999999998
 30
2.621999999999999
 11
1.61365
 21
0.4009999999999998
 31
2.446999999999999
  0
LINE
  5
631CF
330
458D6
100
AcDbEntity
  8
0
100
AcDbLine
 10
1.55165
 20
0.4009999999999998
 30
2.446999999999999
 11
1.61365
 21
0.4009999999999998
 31
2.446999999999999
  0
LINE
  5
631D0
330
458D6
100
AcDbEntity
  8
0
100
AcDbLine
 10
1.88365
 20
0.4009999999999998
 30
2.327999999999999
 11
1.94565
 21
0.4009999999999998
 31
2.36846065259117
  0
LINE
  5
631D1
330
458D6
100
AcDbEntity
  8
0
100
AcDbLine
 10
1.88365
 20
0.4009999999999998
 30
2.621999999999999
 11
1.88365
 21
0.4009999999999998
 31
2.446999999999999
  0
LINE
  5
631D2
330
458D6
100
AcDbEntity
  8
0
100
AcDbLine
 10
1.94565
 20
0.4009999999999998
 30
2.447
 11
1.88365
 21
0.4009999999999998
 31
2.446999999999999
  0
LINE
  5
631D3
330
458D6
100
AcDbEntity
  8
0
100
AcDbLine
 10
1.61365
 20
0.4009999999999998
 30
2.725999999999999
 11
1.88365
 21
0.4009999999999998
 31
2.725999999999999
  0
LINE
  5
631D4
330
458D6
100
AcDbEntity
  8
0
100
AcDbLine
 10
1.61365
 20
0.4009999999999998
 30
2.997999999999999
 11
1.88365
 21
0.4009999999999998
 31
2.997999999999999
  0
LINE
  5
631D5
330
458D6
100
AcDbEntity
  8
0
100
AcDbLine
 10
1.61365
 20
0.4009999999999998
 30
2.997999999999999
 11
1.61365
 21
0.4009999999999998
 31
2.725999999999999
  0
LINE
  5
631D6
330
458D6
100
AcDbEntity
  8
0
100
AcDbLine
 10
1.88365
 20
0.4009999999999998
 30
2.997999999999999
 11
1.88365
 21
0.4009999999999998
 31
2.725999999999999
  0
LINE
  5
631D7
330
458D6
100
AcDbEntity
  8
0
100
AcDbLine
 10
1.551649999999998
 20
0.4009999999999989
 30
3.058999999999999
 11
1.945649999999998
 21
0.4009999999999998
 31
3.058999999999999
210
0.0
220
-1.0
230
0.0
  0
POLYLINE
  5
631D8
330
458D6
100
AcDbEntity
  8
0
100
AcDbPolygonMesh
 66
     1
 10
0.0
 20
0.0
 30
0.0
 70
    16
 71
     6
 72
     3
  0
VERTEX
  5
631D9
330
631D8
100
AcDbEntity
  8
0
100
AcDbVertex
100
AcDbPolygonMeshVertex
 10
2.065999999999999
 20
0.5149999999999997
 30
3.058999999999999
 70
    64
  0
VERTEX
  5
631DA
330
631D8
100
AcDbEntity
  8
0
100
AcDbVertex
100
AcDbPolygonMeshVertex
 10
2.065999999999999
 20
0.5149999999999997
 30
1.641
 70
    64
  0
VERTEX
  5
631DB
330
631D8
100
AcDbEntity
  8
0
100
AcDbVertex
100
AcDbPolygonMeshVertex
 10
2.065999999999999
 20
0.5149999999999997
 30
1.641
 70
    64
  0
VERTEX
  5
631DC
330
631D8
100
AcDbEntity
  8
0
100
AcDbVertex
100
AcDbPolygonMeshVertex
 10
2.12
 20
0.5149999999999997
 30
3.058999999999999
 70
    64
  0
VERTEX
  5
631DD
330
631D8
100
AcDbEntity
  8
0
100
AcDbVertex
100
AcDbPolygonMeshVertex
 10
2.12
 20
0.5149999999999997
 30
1.641
 70
    64
  0
VERTEX
  5
631DE
330
631D8
100
AcDbEntity
  8
0
100
AcDbVertex
100
AcDbPolygonMeshVertex
 10
2.12
 20
0.5149999999999997
 30
1.641
 70
    64
  0
VERTEX
  5
631DF
330
631D8
100
AcDbEntity
  8
0
100
AcDbVertex
100
AcDbPolygonMeshVertex
 10
2.12
 20
0.4009999999999998
 30
3.058999999999999
 70
    64
  0
VERTEX
  5
631E0
330
631D8
100
AcDbEntity
  8
0
100
AcDbVertex
100
AcDbPolygonMeshVertex
 10
2.12
 20
0.4009999999999998
 30
1.641
 70
    64
  0
VERTEX
  5
631E1
330
631D8
100
AcDbEntity
  8
0
100
AcDbVertex
100
AcDbPolygonMeshVertex
 10
2.12
 20
0.5149999999999997
 30
1.641
 70
    64
  0
VERTEX
  5
631E2
330
631D8
100
AcDbEntity
  8
0
100
AcDbVertex
100
AcDbPolygonMeshVertex
 10
2.065999999999999
 20
0.4009999999999998
 30
3.058999999999999
 70
    64
  0
VERTEX
  5
631E3
330
631D8
100
AcDbEntity
  8
0
100
AcDbVertex
100
AcDbPolygonMeshVertex
 10
2.065999999999999
 20
0.4009999999999998
 30
1.641
 70
    64
  0
VERTEX
  5
631E4
330
631D8
100
AcDbEntity
  8
0
100
AcDbVertex
100
AcDbPolygonMeshVertex
 10
2.065999999999999
 20
0.5149999999999997
 30
1.641
 70
    64
  0
VERTEX
  5
631E5
330
631D8
100
AcDbEntity
  8
0
100
AcDbVertex
100
AcDbPolygonMeshVertex
 10
2.065999999999999
 20
0.4009999999999998
 30
3.058999999999999
 70
    64
  0
VERTEX
  5
631E6
330
631D8
100
AcDbEntity
  8
0
100
AcDbVertex
100
AcDbPolygonMeshVertex
 10
2.065999999999999
 20
0.4009999999999998
 30
3.058999999999999
 70
    64
  0
VERTEX
  5
631E7
330
631D8
100
AcDbEntity
  8
0
100
AcDbVertex
100
AcDbPolygonMeshVertex
 10
2.065999999999999
 20
0.5149999999999997
 30
3.058999999999999
 70
    64
  0
VERTEX
  5
631E8
330
631D8
100
AcDbEntity
  8
0
100
AcDbVertex
100
AcDbPolygonMeshVertex
 10
2.12
 20
0.4009999999999998
 30
3.058999999999999
 70
    64
  0
VERTEX
  5
631E9
330
631D8
100
AcDbEntity
  8
0
100
AcDbVertex
100
AcDbPolygonMeshVertex
 10
2.12
 20
0.4009999999999998
 30
3.058999999999999
 70
    64
  0
VERTEX
  5
631EA
330
631D8
100
AcDbEntity
  8
0
100
AcDbVertex
100
AcDbPolygonMeshVertex
 10
2.12
 20
0.5149999999999997
 30
3.058999999999999
 70
    64
  0
SEQEND
  5
631EB
330
631D8
100
AcDbEntity
  8
0
  0
POLYLINE
  5
631EC
330
458D6
100
AcDbEntity
  8
0
100
AcDbPolygonMesh
 66
     1
 10
0.0
 20
0.0
 30
0.0
 70
    16
 71
     6
 72
     3
  0
VERTEX
  5
631ED
330
631EC
100
AcDbEntity
  8
0
100
AcDbVertex
100
AcDbPolygonMeshVertex
 10
-0.0000000000000001
 20
0.5149999999999997
 30
3.058999999999999
 70
    64
  0
VERTEX
  5
631EE
330
631EC
100
AcDbEntity
  8
0
100
AcDbVertex
100
AcDbPolygonMeshVertex
 10
-0.0000000000000001
 20
0.5149999999999997
 30
1.641
 70
    64
  0
VERTEX
  5
631EF
330
631EC
100
AcDbEntity
  8
0
100
AcDbVertex
100
AcDbPolygonMeshVertex
 10
-0.0000000000000001
 20
0.5149999999999997
 30
1.641
 70
    64
  0
VERTEX
  5
631F0
330
631EC
100
AcDbEntity
  8
0
100
AcDbVertex
100
AcDbPolygonMeshVertex
 10
0.0540000000000002
 20
0.5149999999999997
 30
3.058999999999999
 70
    64
  0
VERTEX
  5
631F1
330
631EC
100
AcDbEntity
  8
0
100
AcDbVertex
100
AcDbPolygonMeshVertex
 10
0.0540000000000002
 20
0.5149999999999997
 30
1.641
 70
    64
  0
VERTEX
  5
631F2
330
631EC
100
AcDbEntity
  8
0
100
AcDbVertex
100
AcDbPolygonMeshVertex
 10
0.0540000000000002
 20
0.5149999999999997
 30
1.641
 70
    64
  0
VERTEX
  5
631F3
330
631EC
100
AcDbEntity
  8
0
100
AcDbVertex
100
AcDbPolygonMeshVertex
 10
0.0540000000000002
 20
0.4009999999999998
 30
3.058999999999999
 70
    64
  0
VERTEX
  5
631F4
330
631EC
100
AcDbEntity
  8
0
100
AcDbVertex
100
AcDbPolygonMeshVertex
 10
0.0540000000000002
 20
0.4009999999999998
 30
1.641
 70
    64
  0
VERTEX
  5
631F5
330
631EC
100
AcDbEntity
  8
0
100
AcDbVertex
100
AcDbPolygonMeshVertex
 10
0.0540000000000002
 20
0.5149999999999997
 30
1.641
 70
    64
  0
VERTEX
  5
631F6
330
631EC
100
AcDbEntity
  8
0
100
AcDbVertex
100
AcDbPolygonMeshVertex
 10
-0.0000000000000001
 20
0.4009999999999998
 30
3.058999999999999
 70
    64
  0
VERTEX
  5
631F7
330
631EC
100
AcDbEntity
  8
0
100
AcDbVertex
100
AcDbPolygonMeshVertex
 10
-0.0000000000000001
 20
0.4009999999999998
 30
1.641
 70
    64
  0
VERTEX
  5
631F8
330
631EC
100
AcDbEntity
  8
0
100
AcDbVertex
100
AcDbPolygonMeshVertex
 10
-0.0000000000000001
 20
0.5149999999999997
 30
1.641
 70
    64
  0
VERTEX
  5
631F9
330
631EC
100
AcDbEntity
  8
0
100
AcDbVertex
100
AcDbPolygonMeshVertex
 10
-0.0000000000000001
 20
0.4009999999999998
 30
3.058999999999999
 70
    64
  0
VERTEX
  5
631FA
330
631EC
100
AcDbEntity
  8
0
100
AcDbVertex
100
AcDbPolygonMeshVertex
 10
-0.0000000000000001
 20
0.4009999999999998
 30
3.058999999999999
 70
    64
  0
VERTEX
  5
631FB
330
631EC
100
AcDbEntity
  8
0
100
AcDbVertex
100
AcDbPolygonMeshVertex
 10
-0.0000000000000001
 20
0.5149999999999997
 30
3.058999999999999
 70
    64
  0
VERTEX
  5
631FC
330
631EC
100
AcDbEntity
  8
0
100
AcDbVertex
100
AcDbPolygonMeshVertex
 10
0.0540000000000002
 20
0.4009999999999998
 30
3.058999999999999
 70
    64
  0
VERTEX
  5
631FD
330
631EC
100
AcDbEntity
  8
0
100
AcDbVertex
100
AcDbPolygonMeshVertex
 10
0.0540000000000002
 20
0.4009999999999998
 30
3.058999999999999
 70
    64
  0
VERTEX
  5
631FE
330
631EC
100
AcDbEntity
  8
0
100
AcDbVertex
100
AcDbPolygonMeshVertex
 10
0.0540000000000002
 20
0.5149999999999997
 30
3.058999999999999
 70
    64
  0
SEQEND
  5
631FF
330
631EC
100
AcDbEntity
  8
0
  0
LINE
  5
63200
330
458D6
100
AcDbEntity
  8
0
100
AcDbLine
 10
1.551649999999998
 20
-2.088999999999999
 30
3.058999999999999
 11
1.945649999999998
 21
-2.089
 31
3.058999999999999
210
0.0
220
1.0
230
0.0
  0
LINE
  5
63201
330
458D6
100
AcDbEntity
  8
0
100
AcDbLine
 10
1.55165
 20
-2.089
 30
2.446999999999999
 11
1.61365
 21
-2.089
 31
2.446999999999999
  0
LINE
  5
63202
330
458D6
100
AcDbEntity
  8
0
100
AcDbLine
 10
1.55165
 20
-2.088999999999999
 30
2.387499999999999
 11
1.551649999999998
 21
-2.088999999999999
 31
3.058999999999999
  0
LINE
  5
63203
330
458D6
100
AcDbEntity
  8
0
100
AcDbLine
 10
1.257050000000001
 20
-2.089
 30
2.36846065259117
 11
1.257049999999999
 21
-2.089
 31
3.058999999999999
  0
LINE
  5
63204
330
458D6
100
AcDbEntity
  8
0
100
AcDbLine
 10
0.863050000000001
 20
-2.088999999999999
 30
2.387499999999999
 11
0.8630499999999992
 21
-2.088999999999999
 31
3.058999999999999
  0
LINE
  5
63205
330
458D6
100
AcDbEntity
  8
0
100
AcDbLine
 10
0.1743500000000004
 20
-2.088999999999999
 30
2.387499999999999
 11
0.174349999999999
 21
-2.088999999999999
 31
3.058999999999999
  0
LINE
  5
63206
330
458D6
100
AcDbEntity
  8
0
100
AcDbLine
 10
0.5683500000000005
 20
-2.089
 30
2.36846065259117
 11
0.5683499999999988
 21
-2.089
 31
3.058999999999999
  0
POLYLINE
  5
63207
330
458D6
100
AcDbEntity
  8
0
100
AcDbPolygonMesh
 66
     1
 10
0.0
 20
0.0
 30
0.0
 70
    16
 71
     6
 72
     3
  0
VERTEX
  5
63208
330
63207
100
AcDbEntity
  8
0
100
AcDbVertex
100
AcDbPolygonMeshVertex
 10
1.4313
 20
-2.203
 30
3.058999999999999
 70
    64
  0
VERTEX
  5
63209
330
63207
100
AcDbEntity
  8
0
100
AcDbVertex
100
AcDbPolygonMeshVertex
 10
1.4313
 20
-2.203
 30
2.446999999999999
 70
    64
  0
VERTEX
  5
6320A
330
63207
100
AcDbEntity
  8
0
100
AcDbVertex
100
AcDbPolygonMeshVertex
 10
1.4313
 20
-2.203
 30
2.446999999999999
 70
    64
  0
VERTEX
  5
6320B
330
63207
100
AcDbEntity
  8
0
100
AcDbVertex
100
AcDbPolygonMeshVertex
 10
1.377299999999999
 20
-2.203
 30
3.058999999999999
 70
    64
  0
VERTEX
  5
6320C
330
63207
100
AcDbEntity
  8
0
100
AcDbVertex
100
AcDbPolygonMeshVertex
 10
1.377299999999999
 20
-2.203
 30
2.446999999999999
 70
    64
  0
VERTEX
  5
6320D
330
63207
100
AcDbEntity
  8
0
100
AcDbVertex
100
AcDbPolygonMeshVertex
 10
1.377299999999999
 20
-2.203
 30
2.446999999999999
 70
    64
  0
VERTEX
  5
6320E
330
63207
100
AcDbEntity
  8
0
100
AcDbVertex
100
AcDbPolygonMeshVertex
 10
1.377299999999999
 20
-2.089
 30
3.058999999999999
 70
    64
  0
VERTEX
  5
6320F
330
63207
100
AcDbEntity
  8
0
100
AcDbVertex
100
AcDbPolygonMeshVertex
 10
1.377299999999999
 20
-2.089
 30
2.446999999999999
 70
    64
  0
VERTEX
  5
63210
330
63207
100
AcDbEntity
  8
0
100
AcDbVertex
100
AcDbPolygonMeshVertex
 10
1.377299999999999
 20
-2.203
 30
2.446999999999999
 70
    64
  0
VERTEX
  5
63211
330
63207
100
AcDbEntity
  8
0
100
AcDbVertex
100
AcDbPolygonMeshVertex
 10
1.4313
 20
-2.089
 30
3.058999999999999
 70
    64
  0
VERTEX
  5
63212
330
63207
100
AcDbEntity
  8
0
100
AcDbVertex
100
AcDbPolygonMeshVertex
 10
1.4313
 20
-2.089
 30
2.446999999999999
 70
    64
  0
VERTEX
  5
63213
330
63207
100
AcDbEntity
  8
0
100
AcDbVertex
100
AcDbPolygonMeshVertex
 10
1.4313
 20
-2.203
 30
2.446999999999999
 70
    64
  0
VERTEX
  5
63214
330
63207
100
AcDbEntity
  8
0
100
AcDbVertex
100
AcDbPolygonMeshVertex
 10
1.4313
 20
-2.089
 30
3.058999999999999
 70
    64
  0
VERTEX
  5
63215
330
63207
100
AcDbEntity
  8
0
100
AcDbVertex
100
AcDbPolygonMeshVertex
 10
1.4313
 20
-2.089
 30
3.058999999999999
 70
    64
  0
VERTEX
  5
63216
330
63207
100
AcDbEntity
  8
0
100
AcDbVertex
100
AcDbPolygonMeshVertex
 10
1.4313
 20
-2.203
 30
3.058999999999999
 70
    64
  0
VERTEX
  5
63217
330
63207
100
AcDbEntity
  8
0
100
AcDbVertex
100
AcDbPolygonMeshVertex
 10
1.377299999999999
 20
-2.089
 30
3.058999999999999
 70
    64
  0
VERTEX
  5
63218
330
63207
100
AcDbEntity
  8
0
100
AcDbVertex
100
AcDbPolygonMeshVertex
 10
1.377299999999999
 20
-2.089
 30
3.058999999999999
 70
    64
  0
VERTEX
  5
63219
330
63207
100
AcDbEntity
  8
0
100
AcDbVertex
100
AcDbPolygonMeshVertex
 10
1.377299999999999
 20
-2.203
 30
3.058999999999999
 70
    64
  0
SEQEND
  5
6321A
330
63207
100
AcDbEntity
  8
0
  0
POLYLINE
  5
6321B
330
458D6
100
AcDbEntity
  8
0
100
AcDbPolygonMesh
 66
     1
 10
0.0
 20
0.0
 30
0.0
 70
    16
 71
     6
 72
     3
  0
VERTEX
  5
6321C
330
6321B
100
AcDbEntity
  8
0
100
AcDbVertex
100
AcDbPolygonMeshVertex
 10
0.6887000000000007
 20
-2.203
 30
3.058999999999999
 70
    64
  0
VERTEX
  5
6321D
330
6321B
100
AcDbEntity
  8
0
100
AcDbVertex
100
AcDbPolygonMeshVertex
 10
0.6887000000000007
 20
-2.203
 30
2.446999999999999
 70
    64
  0
VERTEX
  5
6321E
330
6321B
100
AcDbEntity
  8
0
100
AcDbVertex
100
AcDbPolygonMeshVertex
 10
0.6887000000000007
 20
-2.203
 30
2.446999999999999
 70
    64
  0
VERTEX
  5
6321F
330
6321B
100
AcDbEntity
  8
0
100
AcDbVertex
100
AcDbPolygonMeshVertex
 10
0.742700000000001
 20
-2.203
 30
3.058999999999999
 70
    64
  0
VERTEX
  5
63220
330
6321B
100
AcDbEntity
  8
0
100
AcDbVertex
100
AcDbPolygonMeshVertex
 10
0.742700000000001
 20
-2.203
 30
2.446999999999999
 70
    64
  0
VERTEX
  5
63221
330
6321B
100
AcDbEntity
  8
0
100
AcDbVertex
100
AcDbPolygonMeshVertex
 10
0.742700000000001
 20
-2.203
 30
2.446999999999999
 70
    64
  0
VERTEX
  5
63222
330
6321B
100
AcDbEntity
  8
0
100
AcDbVertex
100
AcDbPolygonMeshVertex
 10
0.742700000000001
 20
-2.089
 30
3.058999999999999
 70
    64
  0
VERTEX
  5
63223
330
6321B
100
AcDbEntity
  8
0
100
AcDbVertex
100
AcDbPolygonMeshVertex
 10
0.742700000000001
 20
-2.089
 30
2.446999999999999
 70
    64
  0
VERTEX
  5
63224
330
6321B
100
AcDbEntity
  8
0
100
AcDbVertex
100
AcDbPolygonMeshVertex
 10
0.742700000000001
 20
-2.203
 30
2.446999999999999
 70
    64
  0
VERTEX
  5
63225
330
6321B
100
AcDbEntity
  8
0
100
AcDbVertex
100
AcDbPolygonMeshVertex
 10
0.6887000000000007
 20
-2.089
 30
3.058999999999999
 70
    64
  0
VERTEX
  5
63226
330
6321B
100
AcDbEntity
  8
0
100
AcDbVertex
100
AcDbPolygonMeshVertex
 10
0.6887000000000007
 20
-2.089
 30
2.446999999999999
 70
    64
  0
VERTEX
  5
63227
330
6321B
100
AcDbEntity
  8
0
100
AcDbVertex
100
AcDbPolygonMeshVertex
 10
0.6887000000000007
 20
-2.203
 30
2.446999999999999
 70
    64
  0
VERTEX
  5
63228
330
6321B
100
AcDbEntity
  8
0
100
AcDbVertex
100
AcDbPolygonMeshVertex
 10
0.6887000000000007
 20
-2.089
 30
3.058999999999999
 70
    64
  0
VERTEX
  5
63229
330
6321B
100
AcDbEntity
  8
0
100
AcDbVertex
100
AcDbPolygonMeshVertex
 10
0.6887000000000007
 20
-2.089
 30
3.058999999999999
 70
    64
  0
VERTEX
  5
6322A
330
6321B
100
AcDbEntity
  8
0
100
AcDbVertex
100
AcDbPolygonMeshVertex
 10
0.6887000000000007
 20
-2.203
 30
3.058999999999999
 70
    64
  0
VERTEX
  5
6322B
330
6321B
100
AcDbEntity
  8
0
100
AcDbVertex
100
AcDbPolygonMeshVertex
 10
0.742700000000001
 20
-2.089
 30
3.058999999999999
 70
    64
  0
VERTEX
  5
6322C
330
6321B
100
AcDbEntity
  8
0
100
AcDbVertex
100
AcDbPolygonMeshVertex
 10
0.742700000000001
 20
-2.089
 30
3.058999999999999
 70
    64
  0
VERTEX
  5
6322D
330
6321B
100
AcDbEntity
  8
0
100
AcDbVertex
100
AcDbPolygonMeshVertex
 10
0.742700000000001
 20
-2.203
 30
3.058999999999999
 70
    64
  0
SEQEND
  5
6322E
330
6321B
100
AcDbEntity
  8
0
  0
LINE
  5
6322F
330
458D6
100
AcDbEntity
  8
0
100
AcDbLine
 10
0.2363500000000006
 20
-2.089
 30
2.327999999999999
 11
0.5063500000000002
 21
-2.089
 31
2.327999999999999
  0
LINE
  5
63230
330
458D6
100
AcDbEntity
  8
0
100
AcDbLine
 10
0.2363500000000006
 20
-2.089
 30
2.621999999999999
 11
0.5063500000000002
 21
-2.089
 31
2.621999999999999
  0
LINE
  5
63231
330
458D6
100
AcDbEntity
  8
0
100
AcDbLine
 10
0.2363500000000006
 20
-2.089
 30
2.327999999999999
 11
0.1743500000000008
 21
-2.088999999999999
 31
2.387499999999999
  0
LINE
  5
63232
330
458D6
100
AcDbEntity
  8
0
100
AcDbLine
 10
0.2363500000000011
 20
-2.089
 30
2.621999999999999
 11
0.2363500000000006
 21
-2.089
 31
2.446999999999999
  0
LINE
  5
63233
330
458D6
100
AcDbEntity
  8
0
100
AcDbLine
 10
0.1743499999999999
 20
-2.089
 30
2.446999999999999
 11
0.2363500000000006
 21
-2.089
 31
2.446999999999999
  0
LINE
  5
63234
330
458D6
100
AcDbEntity
  8
0
100
AcDbLine
 10
0.9250500000000013
 20
-2.089
 30
2.621999999999999
 11
1.195050000000001
 21
-2.089
 31
2.621999999999999
  0
LINE
  5
63235
330
458D6
100
AcDbEntity
  8
0
100
AcDbLine
 10
0.9250500000000013
 20
-2.089
 30
2.327999999999999
 11
1.195050000000001
 21
-2.089
 31
2.327999999999999
  0
LINE
  5
63236
330
458D6
100
AcDbEntity
  8
0
100
AcDbLine
 10
0.5063500000000002
 20
-2.089
 30
2.327999999999999
 11
0.5683500000000005
 21
-2.089
 31
2.36846065259117
  0
LINE
  5
63237
330
458D6
100
AcDbEntity
  8
0
100
AcDbLine
 10
0.9250500000000013
 20
-2.089
 30
2.327999999999999
 11
0.863050000000001
 21
-2.088999999999999
 31
2.387499999999999
  0
LINE
  5
63238
330
458D6
100
AcDbEntity
  8
0
100
AcDbLine
 10
0.5063500000000002
 20
-2.089
 30
2.621999999999999
 11
0.5063500000000002
 21
-2.089
 31
2.446999999999999
  0
LINE
  5
63239
330
458D6
100
AcDbEntity
  8
0
100
AcDbLine
 10
0.5683500000000005
 20
-2.089
 30
2.447
 11
0.5063500000000002
 21
-2.089
 31
2.446999999999999
  0
LINE
  5
6323A
330
458D6
100
AcDbEntity
  8
0
100
AcDbLine
 10
0.9250500000000021
 20
-2.089
 30
2.621999999999999
 11
0.9250500000000013
 21
-2.089
 31
2.446999999999999
  0
LINE
  5
6323B
330
458D6
100
AcDbEntity
  8
0
100
AcDbLine
 10
0.863050000000001
 20
-2.089
 30
2.446999999999999
 11
0.9250500000000013
 21
-2.089
 31
2.446999999999999
  0
LINE
  5
6323C
330
458D6
100
AcDbEntity
  8
0
100
AcDbLine
 10
1.195050000000001
 20
-2.089
 30
2.327999999999999
 11
1.257050000000001
 21
-2.089
 31
2.36846065259117
  0
LINE
  5
6323D
330
458D6
100
AcDbEntity
  8
0
100
AcDbLine
 10
1.195050000000001
 20
-2.089
 30
2.621999999999999
 11
1.195050000000001
 21
-2.089
 31
2.446999999999999
  0
LINE
  5
6323E
330
458D6
100
AcDbEntity
  8
0
100
AcDbLine
 10
1.257050000000001
 20
-2.089
 30
2.447
 11
1.195050000000001
 21
-2.089
 31
2.446999999999999
  0
LINE
  5
6323F
330
458D6
100
AcDbEntity
  8
0
100
AcDbLine
 10
0.174349999999999
 20
-2.088999999999999
 30
3.058999999999999
 11
0.5683499999999988
 21
-2.089
 31
3.058999999999999
210
0.0
220
1.0
230
0.0
  0
LINE
  5
63240
330
458D6
100
AcDbEntity
  8
0
100
AcDbLine
 10
0.2363500000000006
 20
-2.089
 30
2.997999999999999
 11
0.5063500000000002
 21
-2.089
 31
2.997999999999999
  0
LINE
  5
63241
330
458D6
100
AcDbEntity
  8
0
100
AcDbLine
 10
0.2363500000000006
 20
-2.089
 30
2.725999999999999
 11
0.5063500000000002
 21
-2.089
 31
2.725999999999999
  0
LINE
  5
63242
330
458D6
100
AcDbEntity
  8
0
100
AcDbLine
 10
0.2363500000000006
 20
-2.089
 30
2.997999999999999
 11
0.2363500000000006
 21
-2.089
 31
2.725999999999999
  0
LINE
  5
63243
330
458D6
100
AcDbEntity
  8
0
100
AcDbLine
 10
0.9250500000000013
 20
-2.089
 30
2.725999999999999
 11
1.195050000000001
 21
-2.089
 31
2.725999999999999
  0
LINE
  5
63244
330
458D6
100
AcDbEntity
  8
0
100
AcDbLine
 10
0.9250500000000013
 20
-2.089
 30
2.997999999999999
 11
1.195050000000001
 21
-2.089
 31
2.997999999999999
  0
LINE
  5
63245
330
458D6
100
AcDbEntity
  8
0
100
AcDbLine
 10
0.9250500000000013
 20
-2.089
 30
2.997999999999999
 11
0.9250500000000013
 21
-2.089
 31
2.725999999999999
  0
LINE
  5
63246
330
458D6
100
AcDbEntity
  8
0
100
AcDbLine
 10
0.5063500000000002
 20
-2.089
 30
2.997999999999999
 11
0.5063500000000002
 21
-2.089
 31
2.725999999999999
  0
LINE
  5
63247
330
458D6
100
AcDbEntity
  8
0
100
AcDbLine
 10
1.195050000000001
 20
-2.089
 30
2.997999999999999
 11
1.195050000000001
 21
-2.089
 31
2.725999999999999
  0
LINE
  5
63248
330
458D6
100
AcDbEntity
  8
0
100
AcDbLine
 10
0.8630499999999992
 20
-2.088999999999999
 30
3.058999999999999
 11
1.257049999999999
 21
-2.089
 31
3.058999999999999
210
0.0
220
1.0
230
0.0
  0
LINE
  5
63249
330
458D6
100
AcDbEntity
  8
0
100
AcDbLine
 10
1.61365
 20
-2.089
 30
2.621999999999999
 11
1.88365
 21
-2.089
 31
2.621999999999999
  0
LINE
  5
6324A
330
458D6
100
AcDbEntity
  8
0
100
AcDbLine
 10
1.613650000000001
 20
-2.089
 30
2.621999999999999
 11
1.61365
 21
-2.089
 31
2.446999999999999
  0
LINE
  5
6324B
330
458D6
100
AcDbEntity
  8
0
100
AcDbLine
 10
1.88365
 20
-2.089
 30
2.997999999999999
 11
1.88365
 21
-2.089
 31
2.725999999999999
  0
LINE
  5
6324C
330
458D6
100
AcDbEntity
  8
0
100
AcDbLine
 10
1.61365
 20
-2.089
 30
2.997999999999999
 11
1.61365
 21
-2.089
 31
2.725999999999999
  0
LINE
  5
6324D
330
458D6
100
AcDbEntity
  8
0
100
AcDbLine
 10
1.61365
 20
-2.089
 30
2.725999999999999
 11
1.88365
 21
-2.089
 31
2.725999999999999
  0
LINE
  5
6324E
330
458D6
100
AcDbEntity
  8
0
100
AcDbLine
 10
1.61365
 20
-2.089
 30
2.997999999999999
 11
1.88365
 21
-2.089
 31
2.997999999999999
  0
POLYLINE
  5
6324F
330
458D6
100
AcDbEntity
  8
0
100
AcDbPolygonMesh
 66
     1
 10
0.0
 20
0.0
 30
0.0
 70
    16
 71
     6
 72
     3
  0
VERTEX
  5
63250
330
6324F
100
AcDbEntity
  8
0
100
AcDbVertex
100
AcDbPolygonMeshVertex
 10
-0.0000000000000001
 20
-2.203
 30
3.058999999999999
 70
    64
  0
VERTEX
  5
63251
330
6324F
100
AcDbEntity
  8
0
100
AcDbVertex
100
AcDbPolygonMeshVertex
 10
-0.0000000000000001
 20
-2.203
 30
1.641
 70
    64
  0
VERTEX
  5
63252
330
6324F
100
AcDbEntity
  8
0
100
AcDbVertex
100
AcDbPolygonMeshVertex
 10
-0.0000000000000001
 20
-2.203
 30
1.641
 70
    64
  0
VERTEX
  5
63253
330
6324F
100
AcDbEntity
  8
0
100
AcDbVertex
100
AcDbPolygonMeshVertex
 10
0.0540000000000002
 20
-2.203
 30
3.058999999999999
 70
    64
  0
VERTEX
  5
63254
330
6324F
100
AcDbEntity
  8
0
100
AcDbVertex
100
AcDbPolygonMeshVertex
 10
0.0540000000000002
 20
-2.203
 30
1.641
 70
    64
  0
VERTEX
  5
63255
330
6324F
100
AcDbEntity
  8
0
100
AcDbVertex
100
AcDbPolygonMeshVertex
 10
0.0540000000000002
 20
-2.203
 30
1.641
 70
    64
  0
VERTEX
  5
63256
330
6324F
100
AcDbEntity
  8
0
100
AcDbVertex
100
AcDbPolygonMeshVertex
 10
0.0540000000000002
 20
-2.089
 30
3.058999999999999
 70
    64
  0
VERTEX
  5
63257
330
6324F
100
AcDbEntity
  8
0
100
AcDbVertex
100
AcDbPolygonMeshVertex
 10
0.0540000000000002
 20
-2.089
 30
1.641
 70
    64
  0
VERTEX
  5
63258
330
6324F
100
AcDbEntity
  8
0
100
AcDbVertex
100
AcDbPolygonMeshVertex
 10
0.0540000000000002
 20
-2.203
 30
1.641
 70
    64
  0
VERTEX
  5
63259
330
6324F
100
AcDbEntity
  8
0
100
AcDbVertex
100
AcDbPolygonMeshVertex
 10
-0.0000000000000001
 20
-2.089
 30
3.058999999999999
 70
    64
  0
VERTEX
  5
6325A
330
6324F
100
AcDbEntity
  8
0
100
AcDbVertex
100
AcDbPolygonMeshVertex
 10
-0.0000000000000001
 20
-2.089
 30
1.641
 70
    64
  0
VERTEX
  5
6325B
330
6324F
100
AcDbEntity
  8
0
100
AcDbVertex
100
AcDbPolygonMeshVertex
 10
-0.0000000000000001
 20
-2.203
 30
1.641
 70
    64
  0
VERTEX
  5
6325C
330
6324F
100
AcDbEntity
  8
0
100
AcDbVertex
100
AcDbPolygonMeshVertex
 10
-0.0000000000000001
 20
-2.089
 30
3.058999999999999
 70
    64
  0
VERTEX
  5
6325D
330
6324F
100
AcDbEntity
  8
0
100
AcDbVertex
100
AcDbPolygonMeshVertex
 10
-0.0000000000000001
 20
-2.089
 30
3.058999999999999
 70
    64
  0
VERTEX
  5
6325E
330
6324F
100
AcDbEntity
  8
0
100
AcDbVertex
100
AcDbPolygonMeshVertex
 10
-0.0000000000000001
 20
-2.203
 30
3.058999999999999
 70
    64
  0
VERTEX
  5
6325F
330
6324F
100
AcDbEntity
  8
0
100
AcDbVertex
100
AcDbPolygonMeshVertex
 10
0.0540000000000002
 20
-2.089
 30
3.058999999999999
 70
    64
  0
VERTEX
  5
63260
330
6324F
100
AcDbEntity
  8
0
100
AcDbVertex
100
AcDbPolygonMeshVertex
 10
0.0540000000000002
 20
-2.089
 30
3.058999999999999
 70
    64
  0
VERTEX
  5
63261
330
6324F
100
AcDbEntity
  8
0
100
AcDbVertex
100
AcDbPolygonMeshVertex
 10
0.0540000000000002
 20
-2.203
 30
3.058999999999999
 70
    64
  0
SEQEND
  5
63262
330
6324F
100
AcDbEntity
  8
0
  0
LINE
  5
63263
330
458D6
100
AcDbEntity
  8
0
100
AcDbLine
 10
1.61365
 20
-2.089
 30
2.327999999999999
 11
1.55165
 21
-2.088999999999999
 31
2.387499999999999
  0
POLYLINE
  5
63264
330
458D6
100
AcDbEntity
  8
0
100
AcDbPolygonMesh
 66
     1
 10
0.0
 20
0.0
 30
0.0
 70
    16
 71
     6
 72
     3
  0
VERTEX
  5
63265
330
63264
100
AcDbEntity
  8
0
100
AcDbVertex
100
AcDbPolygonMeshVertex
 10
2.065999999999999
 20
-2.203
 30
3.058999999999999
 70
    64
  0
VERTEX
  5
63266
330
63264
100
AcDbEntity
  8
0
100
AcDbVertex
100
AcDbPolygonMeshVertex
 10
2.065999999999999
 20
-2.203
 30
1.641
 70
    64
  0
VERTEX
  5
63267
330
63264
100
AcDbEntity
  8
0
100
AcDbVertex
100
AcDbPolygonMeshVertex
 10
2.065999999999999
 20
-2.203
 30
1.641
 70
    64
  0
VERTEX
  5
63268
330
63264
100
AcDbEntity
  8
0
100
AcDbVertex
100
AcDbPolygonMeshVertex
 10
2.12
 20
-2.203
 30
3.058999999999999
 70
    64
  0
VERTEX
  5
63269
330
63264
100
AcDbEntity
  8
0
100
AcDbVertex
100
AcDbPolygonMeshVertex
 10
2.12
 20
-2.203
 30
1.641
 70
    64
  0
VERTEX
  5
6326A
330
63264
100
AcDbEntity
  8
0
100
AcDbVertex
100
AcDbPolygonMeshVertex
 10
2.12
 20
-2.203
 30
1.641
 70
    64
  0
VERTEX
  5
6326B
330
63264
100
AcDbEntity
  8
0
100
AcDbVertex
100
AcDbPolygonMeshVertex
 10
2.12
 20
-2.089
 30
3.058999999999999
 70
    64
  0
VERTEX
  5
6326C
330
63264
100
AcDbEntity
  8
0
100
AcDbVertex
100
AcDbPolygonMeshVertex
 10
2.12
 20
-2.089
 30
1.641
 70
    64
  0
VERTEX
  5
6326D
330
63264
100
AcDbEntity
  8
0
100
AcDbVertex
100
AcDbPolygonMeshVertex
 10
2.12
 20
-2.203
 30
1.641
 70
    64
  0
VERTEX
  5
6326E
330
63264
100
AcDbEntity
  8
0
100
AcDbVertex
100
AcDbPolygonMeshVertex
 10
2.065999999999999
 20
-2.089
 30
3.058999999999999
 70
    64
  0
VERTEX
  5
6326F
330
63264
100
AcDbEntity
  8
0
100
AcDbVertex
100
AcDbPolygonMeshVertex
 10
2.065999999999999
 20
-2.089
 30
1.641
 70
    64
  0
VERTEX
  5
63270
330
63264
100
AcDbEntity
  8
0
100
AcDbVertex
100
AcDbPolygonMeshVertex
 10
2.065999999999999
 20
-2.203
 30
1.641
 70
    64
  0
VERTEX
  5
63271
330
63264
100
AcDbEntity
  8
0
100
AcDbVertex
100
AcDbPolygonMeshVertex
 10
2.065999999999999
 20
-2.089
 30
3.058999999999999
 70
    64
  0
VERTEX
  5
63272
330
63264
100
AcDbEntity
  8
0
100
AcDbVertex
100
AcDbPolygonMeshVertex
 10
2.065999999999999
 20
-2.089
 30
3.058999999999999
 70
    64
  0
VERTEX
  5
63273
330
63264
100
AcDbEntity
  8
0
100
AcDbVertex
100
AcDbPolygonMeshVertex
 10
2.065999999999999
 20
-2.203
 30
3.058999999999999
 70
    64
  0
VERTEX
  5
63274
330
63264
100
AcDbEntity
  8
0
100
AcDbVertex
100
AcDbPolygonMeshVertex
 10
2.12
 20
-2.089
 30
3.058999999999999
 70
    64
  0
VERTEX
  5
63275
330
63264
100
AcDbEntity
  8
0
100
AcDbVertex
100
AcDbPolygonMeshVertex
 10
2.12
 20
-2.089
 30
3.058999999999999
 70
    64
  0
VERTEX
  5
63276
330
63264
100
AcDbEntity
  8
0
100
AcDbVertex
100
AcDbPolygonMeshVertex
 10
2.12
 20
-2.203
 30
3.058999999999999
 70
    64
  0
SEQEND
  5
63277
330
63264
100
AcDbEntity
  8
0
  0
LINE
  5
63278
330
458D6
100
AcDbEntity
  8
0
100
AcDbLine
 10
1.94565
 20
-2.089
 30
2.36846065259117
 11
1.945649999999998
 21
-2.089
 31
3.058999999999999
  0
LINE
  5
63279
330
458D6
100
AcDbEntity
  8
0
100
AcDbLine
 10
1.61365
 20
-2.089
 30
2.327999999999999
 11
1.88365
 21
-2.089
 31
2.327999999999999
  0
LINE
  5
6327A
330
458D6
100
AcDbEntity
  8
0
100
AcDbLine
 10
1.88365
 20
-2.089
 30
2.327999999999999
 11
1.94565
 21
-2.089
 31
2.36846065259117
  0
LINE
  5
6327B
330
458D6
100
AcDbEntity
  8
0
100
AcDbLine
 10
1.88365
 20
-2.089
 30
2.621999999999999
 11
1.88365
 21
-2.089
 31
2.446999999999999
  0
LINE
  5
6327C
330
458D6
100
AcDbEntity
  8
0
100
AcDbLine
 10
1.94565
 20
-2.089
 30
2.447
 11
1.88365
 21
-2.089
 31
2.446999999999999
  0
LINE
  5
6327D
330
458D6
100
AcDbEntity
  8
0
100
AcDbLine
 10
0.6477233916966378
 20
-2.089
 30
-0.0000000000000001
 11
0.8583900583633042
 21
-2.089
 31
-0.0000000000000001
  0
POLYLINE
  5
6327E
330
458D6
100
AcDbEntity
  8
0
100
AcDb3dPolyline
 66
     1
 10
0.0
 20
0.0
 30
0.0
 70
     8
  0
VERTEX
  5
6327F
330
6327E
100
AcDbEntity
  8
0
100
AcDbVertex
100
AcDb3dPolylineVertex
 10
0.6477233916966378
 20
-2.089
 30
-0.0000000000000001
 70
    32
  0
VERTEX
  5
63280
330
6327E
100
AcDbEntity
  8
0
100
AcDbVertex
100
AcDb3dPolylineVertex
 10
0.6477233916966378
 20
-2.224
 30
0.0
 70
    32
  0
VERTEX
  5
63281
330
6327E
100
AcDbEntity
  8
0
100
AcDbVertex
100
AcDb3dPolylineVertex
 10
0.8583900583633042
 20
-2.224
 30
0.0
 70
    32
  0
VERTEX
  5
63282
330
6327E
100
AcDbEntity
  8
0
100
AcDbVertex
100
AcDb3dPolylineVertex
 10
0.8583900583633042
 20
-2.089
 30
-0.0000000000000001
 70
    32
  0
SEQEND
  5
63283
330
6327E
100
AcDbEntity
  8
0
  0
POLYLINE
  5
63284
330
458D6
100
AcDbEntity
  8
0
100
AcDb3dPolyline
 66
     1
 10
0.0
 20
0.0
 30
0.0
 70
     8
  0
VERTEX
  5
63285
330
63284
100
AcDbEntity
  8
0
100
AcDbVertex
100
AcDb3dPolylineVertex
 10
0.6477233916966378
 20
-2.089
 30
0.187
 70
    32
  0
VERTEX
  5
63286
330
63284
100
AcDbEntity
  8
0
100
AcDbVertex
100
AcDb3dPolylineVertex
 10
0.6477233916966378
 20
-2.224
 30
0.187
 70
    32
  0
VERTEX
  5
63287
330
63284
100
AcDbEntity
  8
0
100
AcDbVertex
100
AcDb3dPolylineVertex
 10
0.8583900583633042
 20
-2.224
 30
0.187
 70
    32
  0
VERTEX
  5
63288
330
63284
100
AcDbEntity
  8
0
100
AcDbVertex
100
AcDb3dPolylineVertex
 10
0.8583900583633042
 20
-2.089
 30
0.187
 70
    32
  0
SEQEND
  5
63289
330
63284
100
AcDbEntity
  8
0
  0
POLYLINE
  5
6328A
330
458D6
100
AcDbEntity
  8
0
100
AcDbPolygonMesh
 66
     1
 10
0.0
 20
0.0
 30
0.0
 70
    16
 71
     6
 72
     3
  0
VERTEX
  5
6328B
330
6328A
100
AcDbEntity
  8
0
100
AcDbVertex
100
AcDbPolygonMeshVertex
 10
0.9203900583633036
 20
-2.286
 30
0.187
 70
    64
  0
VERTEX
  5
6328C
330
6328A
100
AcDbEntity
  8
0
100
AcDbVertex
100
AcDbPolygonMeshVertex
 10
0.9203900583633036
 20
-2.286
 30
0.0
 70
    64
  0
VERTEX
  5
6328D
330
6328A
100
AcDbEntity
  8
0
100
AcDbVertex
100
AcDbPolygonMeshVertex
 10
0.9203900583633036
 20
-2.286
 30
0.0
 70
    64
  0
VERTEX
  5
6328E
330
6328A
100
AcDbEntity
  8
0
100
AcDbVertex
100
AcDbPolygonMeshVertex
 10
0.3130567250299706
 20
-2.286
 30
0.187
 70
    64
  0
VERTEX
  5
6328F
330
6328A
100
AcDbEntity
  8
0
100
AcDbVertex
100
AcDbPolygonMeshVertex
 10
0.3130567250299706
 20
-2.286
 30
0.0
 70
    64
  0
VERTEX
  5
63290
330
6328A
100
AcDbEntity
  8
0
100
AcDbVertex
100
AcDbPolygonMeshVertex
 10
0.3130567250299706
 20
-2.286
 30
0.0
 70
    64
  0
VERTEX
  5
63291
330
6328A
100
AcDbEntity
  8
0
100
AcDbVertex
100
AcDbPolygonMeshVertex
 10
0.3130567250299706
 20
-2.224
 30
0.187
 70
    64
  0
VERTEX
  5
63292
330
6328A
100
AcDbEntity
  8
0
100
AcDbVertex
100
AcDbPolygonMeshVertex
 10
0.3130567250299706
 20
-2.224
 30
0.0
 70
    64
  0
VERTEX
  5
63293
330
6328A
100
AcDbEntity
  8
0
100
AcDbVertex
100
AcDbPolygonMeshVertex
 10
0.3130567250299706
 20
-2.286
 30
0.0
 70
    64
  0
VERTEX
  5
63294
330
6328A
100
AcDbEntity
  8
0
100
AcDbVertex
100
AcDbPolygonMeshVertex
 10
0.9203900583633036
 20
-2.224
 30
0.187
 70
    64
  0
VERTEX
  5
63295
330
6328A
100
AcDbEntity
  8
0
100
AcDbVertex
100
AcDbPolygonMeshVertex
 10
0.9203900583633036
 20
-2.224
 30
0.0
 70
    64
  0
VERTEX
  5
63296
330
6328A
100
AcDbEntity
  8
0
100
AcDbVertex
100
AcDbPolygonMeshVertex
 10
0.9203900583633036
 20
-2.286
 30
0.0
 70
    64
  0
VERTEX
  5
63297
330
6328A
100
AcDbEntity
  8
0
100
AcDbVertex
100
AcDbPolygonMeshVertex
 10
0.9203900583633036
 20
-2.224
 30
0.187
 70
    64
  0
VERTEX
  5
63298
330
6328A
100
AcDbEntity
  8
0
100
AcDbVertex
100
AcDbPolygonMeshVertex
 10
0.9203900583633036
 20
-2.224
 30
0.187
 70
    64
  0
VERTEX
  5
63299
330
6328A
100
AcDbEntity
  8
0
100
AcDbVertex
100
AcDbPolygonMeshVertex
 10
0.9203900583633036
 20
-2.286
 30
0.187
 70
    64
  0
VERTEX
  5
6329A
330
6328A
100
AcDbEntity
  8
0
100
AcDbVertex
100
AcDbPolygonMeshVertex
 10
0.3130567250299706
 20
-2.224
 30
0.187
 70
    64
  0
VERTEX
  5
6329B
330
6328A
100
AcDbEntity
  8
0
100
AcDbVertex
100
AcDbPolygonMeshVertex
 10
0.3130567250299706
 20
-2.224
 30
0.187
 70
    64
  0
VERTEX
  5
6329C
330
6328A
100
AcDbEntity
  8
0
100
AcDbVertex
100
AcDbPolygonMeshVertex
 10
0.3130567250299706
 20
-2.286
 30
0.187
 70
    64
  0
SEQEND
  5
6329D
330
6328A
100
AcDbEntity
  8
0
  0
LINE
  5
6329E
330
458D6
100
AcDbEntity
  8
0
100
AcDbLine
 10
0.1962766083033633
 20
-1.954
 30
0.187
 11
0.1962766083033633
 21
-1.954
 31
0.187
  0
POLYLINE
  5
6329F
330
458D6
100
AcDbEntity
  8
0
100
AcDbPolygonMesh
 66
     1
 10
0.0
 20
0.0
 30
0.0
 70
    16
 71
     6
 72
     3
  0
VERTEX
  5
632A0
330
6329F
100
AcDbEntity
  8
0
100
AcDbVertex
100
AcDbPolygonMeshVertex
 10
0.9203900583633036
 20
-2.224
 30
0.187
 70
    64
  0
VERTEX
  5
632A1
330
6329F
100
AcDbEntity
  8
0
100
AcDbVertex
100
AcDbPolygonMeshVertex
 10
0.9203900583633036
 20
-2.224
 30
0.0
 70
    64
  0
VERTEX
  5
632A2
330
6329F
100
AcDbEntity
  8
0
100
AcDbVertex
100
AcDbPolygonMeshVertex
 10
0.9203900583633036
 20
-2.224
 30
0.0
 70
    64
  0
VERTEX
  5
632A3
330
6329F
100
AcDbEntity
  8
0
100
AcDbVertex
100
AcDbPolygonMeshVertex
 10
0.5857233916966384
 20
-2.224
 30
0.187
 70
    64
  0
VERTEX
  5
632A4
330
6329F
100
AcDbEntity
  8
0
100
AcDbVertex
100
AcDbPolygonMeshVertex
 10
0.5857233916966384
 20
-2.224
 30
0.0
 70
    64
  0
VERTEX
  5
632A5
330
6329F
100
AcDbEntity
  8
0
100
AcDbVertex
100
AcDbPolygonMeshVertex
 10
0.5857233916966384
 20
-2.224
 30
0.0
 70
    64
  0
VERTEX
  5
632A6
330
6329F
100
AcDbEntity
  8
0
100
AcDbVertex
100
AcDbPolygonMeshVertex
 10
0.5857233916966384
 20
-2.027000000000001
 30
0.187
 70
    64
  0
VERTEX
  5
632A7
330
6329F
100
AcDbEntity
  8
0
100
AcDbVertex
100
AcDbPolygonMeshVertex
 10
0.5857233916966384
 20
-2.027000000000001
 30
0.0
 70
    64
  0
VERTEX
  5
632A8
330
6329F
100
AcDbEntity
  8
0
100
AcDbVertex
100
AcDbPolygonMeshVertex
 10
0.5857233916966384
 20
-2.224
 30
0.0
 70
    64
  0
VERTEX
  5
632A9
330
6329F
100
AcDbEntity
  8
0
100
AcDbVertex
100
AcDbPolygonMeshVertex
 10
0.9203900583633036
 20
-2.027000000000001
 30
0.187
 70
    64
  0
VERTEX
  5
632AA
330
6329F
100
AcDbEntity
  8
0
100
AcDbVertex
100
AcDbPolygonMeshVertex
 10
0.9203900583633036
 20
-2.027000000000001
 30
0.0
 70
    64
  0
VERTEX
  5
632AB
330
6329F
100
AcDbEntity
  8
0
100
AcDbVertex
100
AcDbPolygonMeshVertex
 10
0.9203900583633036
 20
-2.224
 30
0.0
 70
    64
  0
VERTEX
  5
632AC
330
6329F
100
AcDbEntity
  8
0
100
AcDbVertex
100
AcDbPolygonMeshVertex
 10
0.9203900583633036
 20
-2.027000000000001
 30
0.187
 70
    64
  0
VERTEX
  5
632AD
330
6329F
100
AcDbEntity
  8
0
100
AcDbVertex
100
AcDbPolygonMeshVertex
 10
0.9203900583633036
 20
-2.027000000000001
 30
0.187
 70
    64
  0
VERTEX
  5
632AE
330
6329F
100
AcDbEntity
  8
0
100
AcDbVertex
100
AcDbPolygonMeshVertex
 10
0.9203900583633036
 20
-2.224
 30
0.187
 70
    64
  0
VERTEX
  5
632AF
330
6329F
100
AcDbEntity
  8
0
100
AcDbVertex
100
AcDbPolygonMeshVertex
 10
0.5857233916966384
 20
-2.027000000000001
 30
0.187
 70
    64
  0
VERTEX
  5
632B0
330
6329F
100
AcDbEntity
  8
0
100
AcDbVertex
100
AcDbPolygonMeshVertex
 10
0.5857233916966384
 20
-2.027000000000001
 30
0.187
 70
    64
  0
VERTEX
  5
632B1
330
6329F
100
AcDbEntity
  8
0
100
AcDbVertex
100
AcDbPolygonMeshVertex
 10
0.5857233916966384
 20
-2.224
 30
0.187
 70
    64
  0
SEQEND
  5
632B2
330
6329F
100
AcDbEntity
  8
0
  0
LINE
  5
632B3
330
458D6
100
AcDbEntity
  8
0
100
AcDbLine
 10
0.6477233916966378
 20
-2.089
 30
0.187
 11
0.8583900583633042
 21
-2.089
 31
0.187
  0
CIRCLE
  5
632B4
330
458D6
100
AcDbEntity
  8
0
100
AcDbCircle
 10
1.060049999999998
 20
0.1807980402316449
 30
3.859999999999999
 40
0.138
  0
CIRCLE
  5
632B5
330
458D6
100
AcDbEntity
  8
0
100
AcDbCircle
 10
1.748649999999997
 20
0.1807980402316449
 30
3.859999999999999
 40
0.138
  0
CIRCLE
  5
632B6
330
458D6
100
AcDbEntity
  8
0
100
AcDbCircle
 10
0.3713499999999986
 20
-1.868798040231645
 30
3.859999999999999
 40
0.138
  0
TEXT
  5
632B7
330
458D6
100
AcDbEntity
  8
0
100
AcDbText
 39
0.0000001
 10
0.5336413792883218
 20
-2.430654145257843
 30
2.062
 40
0.0834654981097751
  1
A1
 50
180.0
 71
     2
100
AcDbText
  0
TEXT
  5
632B8
330
458D6
100
AcDbEntity
  8
0
100
AcDbText
 39
0.0000001
 10
1.454764247209924
 20
-2.429812279151997
 30
2.062
 40
0.0834654981097751
  1
A2
 50
180.0
 71
     2
100
AcDbText
  0
POLYLINE
  5
632B9
330
458D6
100
AcDbEntity
  8
0
100
AcDb3dPolyline
 66
     1
 10
0.0
 20
0.0
 30
0.0
 70
     8
  0
VERTEX
  5
632BA
330
632B9
100
AcDbEntity
  8
0
100
AcDbVertex
100
AcDb3dPolylineVertex
 10
-0.0000000000000027
 20
-0.7610000000000002
 30
1.592
 70
    32
  0
VERTEX
  5
632BB
330
632B9
100
AcDbEntity
  8
0
100
AcDbVertex
100
AcDb3dPolylineVertex
 10
-0.0000000000000027
 20
-0.7610000000000002
 30
2.165
 70
    32
  0
VERTEX
  5
632BC
330
632B9
100
AcDbEntity
  8
0
100
AcDbVertex
100
AcDb3dPolylineVertex
 10
-0.0000000000000027
 20
-0.9269999999999999
 30
2.165
 70
    32
  0
VERTEX
  5
632BD
330
632B9
100
AcDbEntity
  8
0
100
AcDbVertex
100
AcDb3dPolylineVertex
 10
-0.0000000000000027
 20
-0.9270000000000004
 30
1.592
 70
    32
  0
VERTEX
  5
632BE
330
632B9
100
AcDbEntity
  8
0
100
AcDbVertex
100
AcDb3dPolylineVertex
 10
-0.0000000000000027
 20
-0.7610000000000002
 30
1.592
 70
    32
  0
SEQEND
  5
632BF
330
632B9
100
AcDbEntity
  8
0
  0
LINE
  5
632C0
330
458D6
100
AcDbEntity
  8
0
100
AcDbLine
 10
-0.0000000000000027
 20
-0.9270000000000003
 30
1.8785
 11
-0.0000000000000027
 21
-0.7610000000000002
 31
1.8785
  0
LINE
  5
632C1
330
458D6
100
AcDbEntity
  8
0
100
AcDbLine
 10
-0.0000000000000027
 20
-0.9270000000000004
 30
2.0685
 11
-0.0000000000000027
 21
-0.7610000000000002
 31
2.0685
  0
POLYLINE
  5
632C2
330
458D6
100
AcDbEntity
  8
0
100
AcDb3dPolyline
 66
     1
 10
0.0
 20
0.0
 30
0.0
 70
     8
  0
VERTEX
  5
632C3
330
632C2
100
AcDbEntity
  8
0
100
AcDbVertex
100
AcDb3dPolylineVertex
 10
2.119999999999997
 20
-0.7610000000000002
 30
1.591999999999999
 70
    32
  0
VERTEX
  5
632C4
330
632C2
100
AcDbEntity
  8
0
100
AcDbVertex
100
AcDb3dPolylineVertex
 10
2.119999999999997
 20
-0.7610000000000002
 30
2.165
 70
    32
  0
VERTEX
  5
632C5
330
632C2
100
AcDbEntity
  8
0
100
AcDbVertex
100
AcDb3dPolylineVertex
 10
2.119999999999997
 20
-0.9269999999999999
 30
2.165
 70
    32
  0
VERTEX
  5
632C6
330
632C2
100
AcDbEntity
  8
0
100
AcDbVertex
100
AcDb3dPolylineVertex
 10
2.119999999999997
 20
-0.9270000000000004
 30
1.591999999999999
 70
    32
  0
VERTEX
  5
632C7
330
632C2
100
AcDbEntity
  8
0
100
AcDbVertex
100
AcDb3dPolylineVertex
 10
2.119999999999997
 20
-0.7610000000000002
 30
1.591999999999999
 70
    32
  0
SEQEND
  5
632C8
330
632C2
100
AcDbEntity
  8
0
  0
LINE
  5
632C9
330
458D6
100
AcDbEntity
  8
0
100
AcDbLine
 10
2.119999999999997
 20
-0.9270000000000003
 30
1.8785
 11
2.119999999999997
 21
-0.7610000000000002
 31
1.8785
  0
LINE
  5
632CA
330
458D6
100
AcDbEntity
  8
0
100
AcDbLine
 10
2.119999999999997
 20
-0.9270000000000004
 30
2.0685
 11
2.119999999999997
 21
-0.7610000000000002
 31
2.0685
  0
POLYLINE
  5
632CB
330
458D6
100
AcDbEntity
  8
0
100
AcDbPolygonMesh
 66
     1
 10
0.0
 20
0.0
 30
0.0
 70
    16
 71
     6
 72
     3
  0
VERTEX
  5
632CC
330
632CB
100
AcDbEntity
  8
0
100
AcDbVertex
100
AcDbPolygonMeshVertex
 10
0.3910000000000008
 20
-2.172
 30
0.3160000000000003
 70
    64
  0
VERTEX
  5
632CD
330
632CB
100
AcDbEntity
  8
0
100
AcDbVertex
100
AcDbPolygonMeshVertex
 10
0.3910000000000008
 20
-2.172
 30
0.0000000000000002
 70
    64
  0
VERTEX
  5
632CE
330
632CB
100
AcDbEntity
  8
0
100
AcDbVertex
100
AcDbPolygonMeshVertex
 10
0.3910000000000008
 20
-2.172
 30
0.0000000000000002
 70
    64
  0
VERTEX
  5
632CF
330
632CB
100
AcDbEntity
  8
0
100
AcDbVertex
100
AcDbPolygonMeshVertex
 10
0.0000000000000008
 20
-2.172
 30
0.3160000000000003
 70
    64
  0
VERTEX
  5
632D0
330
632CB
100
AcDbEntity
  8
0
100
AcDbVertex
100
AcDbPolygonMeshVertex
 10
0.0000000000000008
 20
-2.172
 30
0.0000000000000002
 70
    64
  0
VERTEX
  5
632D1
330
632CB
100
AcDbEntity
  8
0
100
AcDbVertex
100
AcDbPolygonMeshVertex
 10
0.0000000000000008
 20
-2.172
 30
0.0000000000000002
 70
    64
  0
VERTEX
  5
632D2
330
632CB
100
AcDbEntity
  8
0
100
AcDbVertex
100
AcDbPolygonMeshVertex
 10
0.0000000000000008
 20
-1.806
 30
0.3160000000000003
 70
    64
  0
VERTEX
  5
632D3
330
632CB
100
AcDbEntity
  8
0
100
AcDbVertex
100
AcDbPolygonMeshVertex
 10
0.0000000000000008
 20
-1.806
 30
0.0000000000000002
 70
    64
  0
VERTEX
  5
632D4
330
632CB
100
AcDbEntity
  8
0
100
AcDbVertex
100
AcDbPolygonMeshVertex
 10
0.0000000000000008
 20
-2.172
 30
0.0000000000000002
 70
    64
  0
VERTEX
  5
632D5
330
632CB
100
AcDbEntity
  8
0
100
AcDbVertex
100
AcDbPolygonMeshVertex
 10
0.3910000000000008
 20
-1.806
 30
0.3160000000000003
 70
    64
  0
VERTEX
  5
632D6
330
632CB
100
AcDbEntity
  8
0
100
AcDbVertex
100
AcDbPolygonMeshVertex
 10
0.3910000000000008
 20
-1.806
 30
0.0000000000000002
 70
    64
  0
VERTEX
  5
632D7
330
632CB
100
AcDbEntity
  8
0
100
AcDbVertex
100
AcDbPolygonMeshVertex
 10
0.3910000000000008
 20
-2.172
 30
0.0000000000000002
 70
    64
  0
VERTEX
  5
632D8
330
632CB
100
AcDbEntity
  8
0
100
AcDbVertex
100
AcDbPolygonMeshVertex
 10
0.3910000000000008
 20
-1.806
 30
0.3160000000000003
 70
    64
  0
VERTEX
  5
632D9
330
632CB
100
AcDbEntity
  8
0
100
AcDbVertex
100
AcDbPolygonMeshVertex
 10
0.3910000000000008
 20
-1.806
 30
0.3160000000000003
 70
    64
  0
VERTEX
  5
632DA
330
632CB
100
AcDbEntity
  8
0
100
AcDbVertex
100
AcDbPolygonMeshVertex
 10
0.3910000000000008
 20
-2.172
 30
0.3160000000000003
 70
    64
  0
VERTEX
  5
632DB
330
632CB
100
AcDbEntity
  8
0
100
AcDbVertex
100
AcDbPolygonMeshVertex
 10
0.0000000000000008
 20
-1.806
 30
0.3160000000000003
 70
    64
  0
VERTEX
  5
632DC
330
632CB
100
AcDbEntity
  8
0
100
AcDbVertex
100
AcDbPolygonMeshVertex
 10
0.0000000000000008
 20
-1.806
 30
0.3160000000000003
 70
    64
  0
VERTEX
  5
632DD
330
632CB
100
AcDbEntity
  8
0
100
AcDbVertex
100
AcDbPolygonMeshVertex
 10
0.0000000000000008
 20
-2.172
 30
0.3160000000000003
 70
    64
  0
SEQEND
  5
632DE
330
632CB
100
AcDbEntity
  8
0
  0
POLYLINE
  5
632DF
330
458D6
100
AcDbEntity
  8
0
100
AcDbPolygonMesh
 66
     1
 10
0.0
 20
0.0
 30
0.0
 70
    16
 71
     6
 72
     3
  0
VERTEX
  5
632E0
330
632DF
100
AcDbEntity
  8
0
100
AcDbVertex
100
AcDbPolygonMeshVertex
 10
2.12
 20
0.1179999999999994
 30
0.3160000000000003
 70
    64
  0
VERTEX
  5
632E1
330
632DF
100
AcDbEntity
  8
0
100
AcDbVertex
100
AcDbPolygonMeshVertex
 10
2.12
 20
0.1179999999999994
 30
0.0000000000000002
 70
    64
  0
VERTEX
  5
632E2
330
632DF
100
AcDbEntity
  8
0
100
AcDbVertex
100
AcDbPolygonMeshVertex
 10
2.12
 20
0.1179999999999994
 30
0.0000000000000002
 70
    64
  0
VERTEX
  5
632E3
330
632DF
100
AcDbEntity
  8
0
100
AcDbVertex
100
AcDbPolygonMeshVertex
 10
1.729
 20
0.1179999999999994
 30
0.3160000000000003
 70
    64
  0
VERTEX
  5
632E4
330
632DF
100
AcDbEntity
  8
0
100
AcDbVertex
100
AcDbPolygonMeshVertex
 10
1.729
 20
0.1179999999999994
 30
0.0000000000000002
 70
    64
  0
VERTEX
  5
632E5
330
632DF
100
AcDbEntity
  8
0
100
AcDbVertex
100
AcDbPolygonMeshVertex
 10
1.729
 20
0.1179999999999994
 30
0.0000000000000002
 70
    64
  0
VERTEX
  5
632E6
330
632DF
100
AcDbEntity
  8
0
100
AcDbVertex
100
AcDbPolygonMeshVertex
 10
1.729
 20
0.4839999999999995
 30
0.3160000000000003
 70
    64
  0
VERTEX
  5
632E7
330
632DF
100
AcDbEntity
  8
0
100
AcDbVertex
100
AcDbPolygonMeshVertex
 10
1.729
 20
0.4839999999999995
 30
0.0000000000000002
 70
    64
  0
VERTEX
  5
632E8
330
632DF
100
AcDbEntity
  8
0
100
AcDbVertex
100
AcDbPolygonMeshVertex
 10
1.729
 20
0.1179999999999994
 30
0.0000000000000002
 70
    64
  0
VERTEX
  5
632E9
330
632DF
100
AcDbEntity
  8
0
100
AcDbVertex
100
AcDbPolygonMeshVertex
 10
2.12
 20
0.4839999999999995
 30
0.3160000000000003
 70
    64
  0
VERTEX
  5
632EA
330
632DF
100
AcDbEntity
  8
0
100
AcDbVertex
100
AcDbPolygonMeshVertex
 10
2.12
 20
0.4839999999999995
 30
0.0000000000000002
 70
    64
  0
VERTEX
  5
632EB
330
632DF
100
AcDbEntity
  8
0
100
AcDbVertex
100
AcDbPolygonMeshVertex
 10
2.12
 20
0.1179999999999994
 30
0.0000000000000002
 70
    64
  0
VERTEX
  5
632EC
330
632DF
100
AcDbEntity
  8
0
100
AcDbVertex
100
AcDbPolygonMeshVertex
 10
2.12
 20
0.4839999999999995
 30
0.3160000000000003
 70
    64
  0
VERTEX
  5
632ED
330
632DF
100
AcDbEntity
  8
0
100
AcDbVertex
100
AcDbPolygonMeshVertex
 10
2.12
 20
0.4839999999999995
 30
0.3160000000000003
 70
    64
  0
VERTEX
  5
632EE
330
632DF
100
AcDbEntity
  8
0
100
AcDbVertex
100
AcDbPolygonMeshVertex
 10
2.12
 20
0.1179999999999994
 30
0.3160000000000003
 70
    64
  0
VERTEX
  5
632EF
330
632DF
100
AcDbEntity
  8
0
100
AcDbVertex
100
AcDbPolygonMeshVertex
 10
1.729
 20
0.4839999999999995
 30
0.3160000000000003
 70
    64
  0
VERTEX
  5
632F0
330
632DF
100
AcDbEntity
  8
0
100
AcDbVertex
100
AcDbPolygonMeshVertex
 10
1.729
 20
0.4839999999999995
 30
0.3160000000000003
 70
    64
  0
VERTEX
  5
632F1
330
632DF
100
AcDbEntity
  8
0
100
AcDbVertex
100
AcDbPolygonMeshVertex
 10
1.729
 20
0.1179999999999994
 30
0.3160000000000003
 70
    64
  0
SEQEND
  5
632F2
330
632DF
100
AcDbEntity
  8
0
  0
POLYLINE
  5
632F3
330
458D6
100
AcDbEntity
  8
0
100
AcDbPolygonMesh
 66
     1
 10
0.0
 20
0.0
 30
0.0
 70
    16
 71
     6
 72
     3
  0
VERTEX
  5
632F4
330
632F3
100
AcDbEntity
  8
0
100
AcDbVertex
100
AcDbPolygonMeshVertex
 10
2.12
 20
-2.089
 30
3.859999999999999
 70
    64
  0
VERTEX
  5
632F5
330
632F3
100
AcDbEntity
  8
0
100
AcDbVertex
100
AcDbPolygonMeshVertex
 10
2.12
 20
-2.089
 30
1.318
 70
    64
  0
VERTEX
  5
632F6
330
632F3
100
AcDbEntity
  8
0
100
AcDbVertex
100
AcDbPolygonMeshVertex
 10
2.12
 20
-2.089
 30
1.318
 70
    64
  0
VERTEX
  5
632F7
330
632F3
100
AcDbEntity
  8
0
100
AcDbVertex
100
AcDbPolygonMeshVertex
 10
0.0000000000000008
 20
-2.089
 30
3.859999999999999
 70
    64
  0
VERTEX
  5
632F8
330
632F3
100
AcDbEntity
  8
0
100
AcDbVertex
100
AcDbPolygonMeshVertex
 10
0.0000000000000008
 20
-2.089
 30
1.318
 70
    64
  0
VERTEX
  5
632F9
330
632F3
100
AcDbEntity
  8
0
100
AcDbVertex
100
AcDbPolygonMeshVertex
 10
0.0000000000000008
 20
-2.089
 30
1.318
 70
    64
  0
VERTEX
  5
632FA
330
632F3
100
AcDbEntity
  8
0
100
AcDbVertex
100
AcDbPolygonMeshVertex
 10
0.0000000000000008
 20
0.4009999999999998
 30
3.859999999999999
 70
    64
  0
VERTEX
  5
632FB
330
632F3
100
AcDbEntity
  8
0
100
AcDbVertex
100
AcDbPolygonMeshVertex
 10
0.0000000000000008
 20
0.4009999999999998
 30
1.318
 70
    64
  0
VERTEX
  5
632FC
330
632F3
100
AcDbEntity
  8
0
100
AcDbVertex
100
AcDbPolygonMeshVertex
 10
0.0000000000000008
 20
-2.089
 30
1.318
 70
    64
  0
VERTEX
  5
632FD
330
632F3
100
AcDbEntity
  8
0
100
AcDbVertex
100
AcDbPolygonMeshVertex
 10
2.12
 20
0.4009999999999998
 30
3.859999999999999
 70
    64
  0
VERTEX
  5
632FE
330
632F3
100
AcDbEntity
  8
0
100
AcDbVertex
100
AcDbPolygonMeshVertex
 10
2.12
 20
0.4009999999999998
 30
1.318
 70
    64
  0
VERTEX
  5
632FF
330
632F3
100
AcDbEntity
  8
0
100
AcDbVertex
100
AcDbPolygonMeshVertex
 10
2.12
 20
-2.089
 30
1.318
 70
    64
  0
VERTEX
  5
63300
330
632F3
100
AcDbEntity
  8
0
100
AcDbVertex
100
AcDbPolygonMeshVertex
 10
2.12
 20
0.4009999999999998
 30
3.859999999999999
 70
    64
  0
VERTEX
  5
63301
330
632F3
100
AcDbEntity
  8
0
100
AcDbVertex
100
AcDbPolygonMeshVertex
 10
2.12
 20
0.4009999999999998
 30
3.859999999999999
 70
    64
  0
VERTEX
  5
63302
330
632F3
100
AcDbEntity
  8
0
100
AcDbVertex
100
AcDbPolygonMeshVertex
 10
2.12
 20
-2.089
 30
3.859999999999999
 70
    64
  0
VERTEX
  5
63303
330
632F3
100
AcDbEntity
  8
0
100
AcDbVertex
100
AcDbPolygonMeshVertex
 10
0.0000000000000008
 20
0.4009999999999998
 30
3.859999999999999
 70
    64
  0
VERTEX
  5
63304
330
632F3
100
AcDbEntity
  8
0
100
AcDbVertex
100
AcDbPolygonMeshVertex
 10
0.0000000000000008
 20
0.4009999999999998
 30
3.859999999999999
 70
    64
  0
VERTEX
  5
63305
330
632F3
100
AcDbEntity
  8
0
100
AcDbVertex
100
AcDbPolygonMeshVertex
 10
0.0000000000000008
 20
-2.089
 30
3.859999999999999
 70
    64
  0
SEQEND
  5
63306
330
632F3
100
AcDbEntity
  8
0
  0
3DFACE
  5
63307
330
458D6
100
AcDbEntity
  8
0
100
AcDbFace
 10
2.12
 20
-2.089
 30
1.318
 11
2.12
 21
-2.089
 31
1.318
 12
0.0000000000000008
 22
-2.089
 32
1.318
 13
0.0000000000000008
 23
-2.089
 33
1.318
  0
3DFACE
  5
63308
330
458D6
100
AcDbEntity
  8
0
100
AcDbFace
 10
0.0000000000000008
 20
-2.089
 30
1.318
 11
0.0000000000000008
 21
-2.089
 31
1.318
 12
0.0000000000000008
 22
-2.089
 32
1.318
 13
0.0000000000000008
 23
0.4009999999999998
 33
1.318
  0
3DFACE
  5
63309
330
458D6
100
AcDbEntity
  8
0
100
AcDbFace
 10
0.0000000000000008
 20
0.4009999999999998
 30
1.318
 11
0.0000000000000008
 21
-2.089
 31
1.318
 12
2.12
 22
-2.089
 32
1.318
 13
2.12
 23
0.4009999999999998
 33
1.318
  0
3DFACE
  5
6330A
330
458D6
100
AcDbEntity
  8
0
100
AcDbFace
 10
2.12
 20
0.4009999999999998
 30
3.859999999999999
 11
2.12
 21
0.4009999999999998
 31
3.859999999999999
 12
0.0000000000000008
 22
0.4009999999999998
 32
3.859999999999999
 13
0.0000000000000008
 23
0.4009999999999998
 33
3.859999999999999
  0
3DFACE
  5
6330B
330
458D6
100
AcDbEntity
  8
0
100
AcDbFace
 10
2.12
 20
0.4009999999999998
 30
3.859999999999999
 11
2.12
 21
-2.089
 31
3.859999999999999
 12
0.0000000000000008
 22
-2.089
 32
3.859999999999999
 13
0.0000000000000008
 23
0.4009999999999998
 33
3.859999999999999
  0
POINT
  5
6330C
330
458D6
100
AcDbEntity
  8
SNAP_POINTS
100
AcDbPoint
 10
0.0
 20
0.0
 30
0.0
  0
POINT
  5
6330D
330
458D6
100
AcDbEntity
  8
SNAP_POINTS
100
AcDbPoint
 10
-0.0000000000000027
 20
-0.8939999999999999
 30
2.0685
  0
POINT
  5
6330E
330
458D6
100
AcDbEntity
  8
SNAP_POINTS
100
AcDbPoint
 10
2.119999999999997
 20
-0.7940000000000001
 30
2.0685
  0
POINT
  5
6330F
330
458D6
100
AcDbEntity
  8
SNAP_POINTS
100
AcDbPoint
 10
1.059999999999999
 20
-0.8499999999999998
 30
3.894
  0
POINT
  5
63310
330
458D6
100
AcDbEntity
  8
SNAP_POINTS
100
AcDbPoint
 10
1.2405
 20
-2.526
 30
1.641
  0
POINT
  5
63311
330
458D6
100
AcDbEntity
  8
DIMS-MTG-HOLES
100
AcDbPoint
 10
0.1730000000000016
 20
-2.024999999999999
 30
0.0000000000000002
  0
POINT
  5
63312
330
458D6
100
AcDbEntity
  8
DIMS-MTG-HOLES
100
AcDbPoint
 10
1.945
 20
0.3369999999999995
 30
0.0000000000000002
  0
LWPOLYLINE
  5
63313
330
458D6
100
AcDbEntity
  8
0
100
AcDbPolyline
 90
        6
 70
     0
 43
0.0
 38
3.859999999999999
 10
1.728649999999997
 20
0.3173410737412321
 10
1.728649999999997
 20
0.2007980402316452
 10
1.668649999999997
 20
0.2007980402316454
 10
1.668649999999997
 20
0.1607980402316451
 10
1.728649999999997
 20
0.1607980402316456
 10
1.728649999999997
 20
0.0442550067220587
  0
LWPOLYLINE
  5
63314
330
458D6
100
AcDbEntity
  8
0
100
AcDbPolyline
 90
        6
 70
     0
 43
0.0
 38
3.859999999999999
 10
1.768649999999997
 20
0.3173410737412321
 10
1.768649999999997
 20
0.2007980402316452
 10
1.828649999999997
 20
0.2007980402316454
 10
1.828649999999997
 20
0.1607980402316451
 10
1.768649999999997
 20
0.1607980402316456
 10
1.768649999999997
 20
0.0442550067220587
  0
LWPOLYLINE
  5
63315
330
458D6
100
AcDbEntity
  8
0
100
AcDbPolyline
 90
        6
 70
     0
 43
0.0
 38
3.859999999999999
 10
1.080049999999998
 20
0.3173410737412321
 10
1.080049999999998
 20
0.2007980402316452
 10
1.140049999999998
 20
0.2007980402316454
 10
1.140049999999998
 20
0.1607980402316451
 10
1.080049999999998
 20
0.1607980402316456
 10
1.080049999999998
 20
0.0442550067220587
  0
LWPOLYLINE
  5
63316
330
458D6
100
AcDbEntity
  8
0
100
AcDbPolyline
 90
        6
 70
     0
 43
0.0
 38
3.859999999999999
 10
1.040049999999998
 20
0.3173410737412321
 10
1.040049999999998
 20
0.2007980402316452
 10
0.9800499999999985
 20
0.2007980402316454
 10
0.9800499999999985
 20
0.1607980402316451
 10
1.040049999999998
 20
0.1607980402316456
 10
1.040049999999998
 20
0.0442550067220587
  0
LWPOLYLINE
  5
63317
330
458D6
100
AcDbEntity
  8
0
100
AcDbPolyline
 90
        6
 70
     0
 43
0.0
 38
3.859999999999999
 10
0.3913499999999988
 20
0.3173410737412321
 10
0.3913499999999988
 20
0.2007980402316452
 10
0.4513499999999988
 20
0.2007980402316454
 10
0.4513499999999988
 20
0.1607980402316451
 10
0.3913499999999988
 20
0.1607980402316456
 10
0.3913499999999988
 20
0.0442550067220587
  0
LWPOLYLINE
  5
63318
330
458D6
100
AcDbEntity
  8
0
100
AcDbPolyline
 90
        6
 70
     0
 43
0.0
 38
3.859999999999999
 10
0.3513499999999987
 20
0.3173410737412321
 10
0.3513499999999987
 20
0.2007980402316452
 10
0.2913499999999987
 20
0.2007980402316454
 10
0.2913499999999987
 20
0.1607980402316451
 10
0.3513499999999987
 20
0.1607980402316456
 10
0.3513499999999987
 20
0.0442550067220587
  0
LWPOLYLINE
  5
63319
330
458D6
100
AcDbEntity
  8
0
100
AcDbPolyline
 90
        6
 70
     0
 43
0.0
 38
3.859999999999999
 10
1.040049999999998
 20
-1.732255006722058
 10
1.040049999999998
 20
-1.848798040231645
 10
0.9800499999999985
 20
-1.848798040231645
 10
0.9800499999999985
 20
-1.888798040231645
 10
1.040049999999998
 20
-1.888798040231644
 10
1.040049999999998
 20
-2.005341073741231
  0
CIRCLE
  5
6331A
330
458D6
100
AcDbEntity
  8
0
100
AcDbCircle
 10
1.060049999999998
 20
-1.868798040231645
 30
3.859999999999999
 40
0.138
  0
LWPOLYLINE
  5
6331B
330
458D6
100
AcDbEntity
  8
0
100
AcDbPolyline
 90
        6
 70
     0
 43
0.0
 38
3.859999999999999
 10
1.080049999999998
 20
-1.732255006722058
 10
1.080049999999998
 20
-1.848798040231645
 10
1.140049999999998
 20
-1.848798040231645
 10
1.140049999999998
 20
-1.888798040231645
 10
1.080049999999998
 20
-1.888798040231644
 10
1.080049999999998
 20
-2.005341073741231
  0
LWPOLYLINE
  5
6331C
330
458D6
100
AcDbEntity
  8
0
100
AcDbPolyline
 90
        6
 70
     0
 43
0.0
 38
3.859999999999999
 10
1.728649999999997
 20
-1.732255006722058
 10
1.728649999999997
 20
-1.848798040231645
 10
1.668649999999997
 20
-1.848798040231645
 10
1.668649999999997
 20
-1.888798040231645
 10
1.728649999999997
 20
-1.888798040231644
 10
1.728649999999997
 20
-2.005341073741231
  0
CIRCLE
  5
6331D
330
458D6
100
AcDbEntity
  8
0
100
AcDbCircle
 10
1.748649999999997
 20
-1.868798040231645
 30
3.859999999999999
 40
0.138
  0
LWPOLYLINE
  5
6331E
330
458D6
100
AcDbEntity
  8
0
100
AcDbPolyline
 90
        6
 70
     0
 43
0.0
 38
3.859999999999999
 10
1.768649999999997
 20
-1.732255006722058
 10
1.768649999999997
 20
-1.848798040231645
 10
1.828649999999997
 20
-1.848798040231645
 10
1.828649999999997
 20
-1.888798040231645
 10
1.768649999999997
 20
-1.888798040231644
 10
1.768649999999997
 20
-2.005341073741231
  0
LWPOLYLINE
  5
6331F
330
458D6
100
AcDbEntity
  8
0
100
AcDbPolyline
 90
        6
 70
     0
 43
0.0
 38
3.859999999999999
 10
0.3913499999999988
 20
-1.732255006722058
 10
0.3913499999999988
 20
-1.848798040231645
 10
0.4513499999999988
 20
-1.848798040231645
 10
0.4513499999999988
 20
-1.888798040231645
 10
0.3913499999999988
 20
-1.888798040231644
 10
0.3913499999999988
 20
-2.005341073741231
  0
LWPOLYLINE
  5
63320
330
458D6
100
AcDbEntity
  8
0
100
AcDbPolyline
 90
        6
 70
     0
 43
0.0
 38
3.859999999999999
 10
0.3513499999999987
 20
-1.732255006722058
 10
0.3513499999999987
 20
-1.848798040231645
 10
0.2913499999999987
 20
-1.848798040231645
 10
0.2913499999999987
 20
-1.888798040231645
 10
0.3513499999999987
 20
-1.888798040231644
 10
0.3513499999999987
 20
-2.005341073741231
  0
LWPOLYLINE
  5
63321
330
458D6
100
AcDbEntity
  8
0
100
AcDbPolyline
 90
        6
 70
     0
 43
0.0
 38
2.062
 10
0.7409999999999983
 20
-2.189178404338003
 10
0.7409999999999983
 20
-2.287499999999999
 10
0.8009999999999982
 20
-2.287499999999999
 10
0.8009999999999982
 20
-2.327499999999999
 10
0.7409999999999983
 20
-2.327499999999999
 10
0.7409999999999983
 20
-2.425821595661988
  0
LWPOLYLINE
  5
63322
330
458D6
100
AcDbEntity
  8
0
100
AcDbPolyline
 90
        6
 70
     0
 43
0.0
 38
2.062
 10
0.7009999999999982
 20
-2.189178404338012
 10
0.7009999999999982
 20
-2.287499999999999
 10
0.6409999999999982
 20
-2.287499999999999
 10
0.6409999999999982
 20
-2.327499999999999
 10
0.7009999999999982
 20
-2.327499999999999
 10
0.7009999999999982
 20
-2.425821595661996
  0
LWPOLYLINE
  5
63323
330
458D6
100
AcDbEntity
  8
0
100
AcDbPolyline
 90
        6
 70
     0
 43
0.0
 38
2.062
 10
1.419000000000002
 20
-2.189178404338003
 10
1.419000000000002
 20
-2.287499999999999
 10
1.479000000000002
 20
-2.287499999999999
 10
1.479000000000002
 20
-2.327499999999999
 10
1.419000000000002
 20
-2.327499999999999
 10
1.419000000000002
 20
-2.425821595661988
  0
LWPOLYLINE
  5
63324
330
458D6
100
AcDbEntity
  8
0
100
AcDbPolyline
 90
        6
 70
     0
 43
0.0
 38
2.062
 10
1.379000000000002
 20
-2.189178404338012
 10
1.379000000000002
 20
-2.287499999999999
 10
1.319000000000002
 20
-2.287499999999999
 10
1.319000000000002
 20
-2.327499999999999
 10
1.379000000000002
 20
-2.327499999999999
 10
1.379000000000002
 20
-2.425821595661996
  0
DIMENSION
  5
63325
330
458D6
100
AcDbEntity
  8
AREA1
100
AcDbDimension
  2
*D0
 10
-0.442686228107707
 20
-2.526
 30
0.0
 11
-0.4426862281077067
 21
-0.9699278013895487
 31
0.0
 70
   160
 71
     5
 42
-1.0
 73
     0
 74
     0
 75
     0
  3
ABECAD_3D
100
AcDbAlignedDimension
 13
0.8745
 23
0.654
 33
1.388
 14
0.5075000000000002
 24
-2.526
 34
1.388
 50
90.0
100
AcDbRotatedDimension
  0
DIMENSION
  5
63333
330
458D6
100
AcDbEntity
  8
AREA1
100
AcDbDimension
  2
*D1
 10
2.12
 20
0.9866028428172004
 30
0.0
 11
1.104782692806708
 21
0.9866028428172004
 31
0.0
 70
   160
 71
     5
 42
-1.0
 73
     0
 74
     0
 75
     0
  3
ABECAD_3D
100
AcDbAlignedDimension
 13
-0.0000000000000001
 23
0.5149999999999997
 33
1.641
 14
2.12
 24
0.5149999999999997
 34
1.641
100
AcDbRotatedDimension
  0
LWPOLYLINE
  5
63350
330
458D6
100
AcDbEntity
  8
SCALE
100
AcDbPolyline
 90
        4
 70
     1
 43
0.0
 10
0.4831996747447965
 20
-2.679996852752723
 10
1.618828494286769
 20
-2.679996852752723
 10
1.618828494286769
 20
-3.521606419530738
 10
0.4831996747447965
 20
-3.521606419530738
  0
LINE
  5
63351
330
458D6
100
AcDbEntity
  8
SCALE
100
AcDbLine
 10
0.5411983389715585
 20
-3.060075171456938
 30
0.0
 11
1.541198338971558
 21
-3.060075171456938
 31
0.0
  0
LINE
  5
63352
330
458D6
100
AcDbEntity
  8
SCALE
100
AcDbLine
 10
0.5411983389715585
 20
-3.360075171456938
 30
0.0
 11
0.9348983389715584
 21
-3.360075171456938
 31
0.0
  0
LINE
  5
63353
330
458D6
100
AcDbEntity
  8
SCALE
100
AcDbLine
 10
0.5411983389715585
 20
-3.160075171456939
 30
0.0
 11
0.5411983389715585
 21
-2.960075171456938
 31
0.0
  0
TEXT
  5
63354
330
458D6
100
AcDbEntity
  8
SCALE
100
AcDbText
 10
0.5971743209020333
 20
-3.312390081694096
 30
0.0
 40
0.0625
  1
[10mm]
100
AcDbText
  0
LINE
  5
63355
330
458D6
100
AcDbEntity
  8
SCALE
100
AcDbLine
 10
0.5411983389715585
 20
-3.460075171456938
 30
0.0
 11
0.5411983389715585
 21
-3.260075171456938
 31
0.0
  0
TEXT
  5
63356
330
458D6
100
AcDbEntity
  8
SCALE
100
AcDbText
 10
0.5427286042180844
 20
-2.785198050183325
 30
0.0
 40
0.0625
  1
SCALE:
100
AcDbText
  0
LINE
  5
63357
330
458D6
100
AcDbEntity
  8
SCALE
100
AcDbLine
 10
0.9348983389715584
 20
-3.460075171456938
 30
0.0
 11
0.9348983389715584
 21
-3.260075171456938
 31
0.0
  0
TEXT
  5
63358
330
458D6
100
AcDbEntity
  8
SCALE
100
AcDbText
 10
0.904481327455468
 20
-2.991026476083737
 30
0.0
 40
0.0625
  1
1 Inch
100
AcDbText
  0
LINE
  5
63359
330
458D6
100
AcDbEntity
  8
SCALE
100
AcDbLine
 10
1.541198338971558
 20
-3.060075171456938
 30
0.0
 11
1.541198338971558
 21
-3.160075171456939
 31
0.0
  0
LINE
  5
6335A
330
458D6
100
AcDbEntity
  8
SCALE
100
AcDbLine
 10
1.541198338971558
 20
-3.160075171456939
 30
0.0
 11
1.541198338971558
 21
-2.960075171456938
 31
0.0
  0
VIEWPORT
  5
5677D
330
458D3
100
AcDbEntity
 67
     1
  8
0
100
AcDbViewport
 10
5.249999639556163
 20
3.999999883606677
 30
0.0
 40
16.38686186943767
 41
8.992999745766947
 68
     1
 69
     1
 12
5.249999639556163
 22
3.999999883606677
 13
0.0
 23
0.0
 14
0.5
 24
0.5
 15
0.5
 25
0.5
 16
0.0
 26
0.0
 36
1.0
 17
0.0
 27
0.0
 37
0.0
 42
50.0
 43
0.0
 44
0.0
 45
8.992999745766947
 50
0.0
 51
0.0
 72
 20000
 90
    32800
  1

281
     0
 71
     1
 74
     0
110
0.0
120
0.0
130
0.0
111
1.0
121
0.0
131
0.0
112
0.0
122
1.0
132
0.0
 79
     0
146
0.0
170
     0
 61
     5
348
63402
292
     1
282
     1
141
0.0
142
0.0
 63
   250
421
  3355443
  0
VIEWPORT
  5
5677F
330
458D3
100
AcDbEntity
 67
     1
  8
AREA1
100
AcDbViewport
 10
5.24999976158142
 20
3.99999976158142
 30
0.0
 40
8.399999618530271
 41
6.399999618530272
 68
     2
 69
     2
 12
-1.017175299537903
 22
0.747812767808223
 13
0.0
 23
0.0
 14
0.25
 24
0.25
 15
0.25
 25
0.25
 16
0.0
 26
0.0
 36
1.0
 17
0.5634438949382106
 27
-0.8801371703728531
 37
1.68649307151727
 42
50.0
 43
0.0
 44
0.0
 45
4.58291448918931
 50
0.0
 51
0.0
 72
 20000
 90
    32800
  1

281
     1
 71
     1
 74
     0
110
0.0
120
0.0
130
0.0
111
1.0
121
0.0
131
0.0
112
0.0
122
1.0
132
0.0
 79
     1
146
0.0
170
     0
 61
     5
348
63403
292
     1
282
     1
141
0.0
142
0.0
 63
   250
421
  3355443
  0
ENDSEC
  0
SECTION
  2
OBJECTS
  0
DICTIONARY
  5
458CB
330
0
100
AcDbDictionary
281
     1
  3
ACAD_BACKGROUND
350
63412
  3
ACAD_COLOR
350
6340D
  3
ACAD_GROUP
350
458CC
  3
ACAD_LAYOUT
350
458FB
  3
ACAD_MATERIAL
350
633F8
  3
ACAD_MLINESTYLE
350
458D9
  3
ACAD_PLOTSETTINGS
350
458FC
  3
ACAD_PLOTSTYLENAME
350
458F9
  3
ACAD_TABLESTYLE
350
6340E
  3
ACAD_VISUALSTYLE
350
633FC
  3
ACADE_WIRETYPE
350
63427
  3
ACDBVARIABLEDICTIONARY
350
458E1
  3
ASE_INDEX_DICTIONARY
350
6341A
  0
DICTIONARY
  5
63429
330
458C7
100
AcDbDictionary
280
     1
281
     1
  0
DICTIONARY
  5
63417
330
63416
100
AcDbDictionary
280
     1
281
     1
  3
ACADE_WIRETYPE
360
63418
  0
DICTIONARY
  5
4592C
330
458D6
100
AcDbDictionary
280
     1
281
     1
  3
ACAD_LAYOUTSELFREF
360
633EC
  0
DICTIONARY
  5
4592A
330
458D3
100
AcDbDictionary
280
     1
281
     1
  3
ACAD_LAYOUTSELFREF
360
633EB
  0
DICTIONARY
  5
63412
102
{ACAD_REACTORS
330
458CB
102
}
330
458CB
100
AcDbDictionary
281
     1
  0
DICTIONARY
  5
6340D
102
{ACAD_REACTORS
330
458CB
102
}
330
458CB
100
AcDbDictionary
281
     1
  0
DICTIONARY
  5
458CC
102
{ACAD_REACTORS
330
458CB
102
}
330
458CB
100
AcDbDictionary
281
     1
  0
DICTIONARY
  5
458FB
102
{ACAD_REACTORS
330
458CB
102
}
330
458CB
100
AcDbDictionary
281
     1
  3
Layout1
350
458FE
  3
Model
350
458FD
  0
DICTIONARY
  5
633F8
102
{ACAD_REACTORS
330
458CB
102
}
330
458CB
100
AcDbDictionary
281
     1
  3
ByBlock
350
633FA
  3
ByLayer
350
633F9
  3
Global
350
633FB
  0
DICTIONARY
  5
458D9
102
{ACAD_REACTORS
330
458CB
102
}
330
458CB
100
AcDbDictionary
281
     1
  3
STANDARD
350
458DA
  0
DICTIONARY
  5
458FC
102
{ACAD_REACTORS
330
458CB
102
}
330
458CB
100
AcDbDictionary
281
     1
  0
ACDBDICTIONARYWDFLT
  5
458F9
102
{ACAD_REACTORS
330
458CB
102
}
330
458CB
100
AcDbDictionary
281
     1
  3
Normal
350
458FA
100
AcDbDictionaryWithDefault
340
458FA
  0
DICTIONARY
  5
6340E
102
{ACAD_REACTORS
330
458CB
102
}
330
458CB
100
AcDbDictionary
281
     1
  3
Standard
350
6340F
  0
DICTIONARY
  5
633FC
102
{ACAD_REACTORS
330
458CB
102
}
330
458CB
100
AcDbDictionary
281
     1
  3
2dWireframe
350
63402
  3
3D Hidden
350
63404
  3
3dWireframe
350
63403
  3
Basic
350
63401
  3
Brighten
350
63408
  3
ColorChange
350
6340C
  3
Conceptual
350
63405
  3
Dim
350
63407
  3
Facepattern
350
6340B
  3
Flat
350
633FD
  3
FlatWithEdges
350
633FE
  3
Gouraud
350
633FF
  3
GouraudWithEdges
350
63400
  3
Linepattern
350
6340A
  3
Realistic
350
63406
  3
Thicken
350
63409
  0
DICTIONARY
  5
63427
102
{ACAD_REACTORS
330
458CB
102
}
330
458CB
100
AcDbDictionary
281
     1
  3
CURRENT_WIRELAY
350
63428
  0
DICTIONARY
  5
458E1
102
{ACAD_REACTORS
330
458CB
102
}
330
458CB
100
AcDbDictionary
281
     1
  3
CTABLESTYLE
350
6341D
  3
DIMADEC
350
458E2
  0
DICTIONARY
  5
6341A
102
{ACAD_REACTORS
330
458CB
102
}
330
458CB
100
AcDbDictionary
281
     1
  3
ASEBlockHierarchyIndexRecord
350
6341C
1001
DCO15
1040
1582951375.656
  0
XRECORD
  5
63418
102
{ACAD_REACTORS
330
63417
102
}
330
63417
100
AcDbXrecord
280
     1
  1

  2

  3
WIRE
 90
        0
  0
XRECORD
  5
633EC
102
{ACAD_REACTORS
330
4592C
102
}
330
4592C
100
AcDbXrecord
280
     1
340
458D6
  0
XRECORD
  5
633EB
102
{ACAD_REACTORS
330
4592A
102
}
330
4592A
100
AcDbXrecord
280
     1
340
458D3
  0
LAYOUT
  5
458FE
102
{ACAD_REACTORS
330
458FB
102
}
330
458FB
100
AcDbPlotSettings
  1

  2
none_device
  4
Letter_(8.50_x_11.00_Inches)
  6

 40
6.349999904632568
 41
6.349999904632568
 42
6.350006103515625
 43
6.350006103515625
 44
215.8999938964844
 45
279.3999938964844
 46
0.0
 47
0.0
 48
0.0
 49
0.0
140
0.0
141
0.0
142
1.0
143
1.0
 70
   688
 72
     0
 73
     1
 74
     5
  7
Default R14 pen assignments.ctb
 75
    16
147
1.0
 76
     0
 77
     2
 78
   300
148
0.0
149
0.0
100
AcDbLayout
  1
Layout1
 70
     1
 71
     1
 10
-0.2500002402958907
 20
-0.2499999962453767
 11
10.74999951940821
 21
8.249999763458731
 12
0.0
 22
0.0
 32
0.0
 14
1.049999952316284
 24
0.7999999523162842
 34
0.0
 15
9.449999570846555
 25
7.199999570846556
 35
0.0
146
0.0
 13
0.0
 23
0.0
 33
0.0
 16
1.0
 26
0.0
 36
0.0
 17
0.0
 27
1.0
 37
0.0
 76
     0
330
458D3
331
5677D
  0
LAYOUT
  5
458FD
102
{ACAD_REACTORS
330
458FB
102
}
330
458FB
100
AcDbPlotSettings
  1

  2
HP LaserJet 5000 Series PCL 6
  4

  6

 40
0.0
 41
0.0
 42
0.0
 43
0.0
 44
0.0
 45
0.0
 46
0.0
 47
0.0
 48
0.0
 49
0.0
140
0.0
141
0.0
142
1.0
143
1.0
 70
  1712
 72
     0
 73
     0
 74
     0
  7
Default R14 pen assignments.ctb
 75
     0
147
1.0
 76
     0
 77
     2
 78
   300
148
0.0
149
0.0
100
AcDbLayout
  1
Model
 70
     1
 71
     0
 10
0.0
 20
0.0
 11
12.0
 21
9.0
 12
0.0
 22
0.0
 32
0.0
 14
0.0
 24
0.0
 34
0.0
 15
0.0
 25
0.0
 35
0.0
146
0.0
 13
0.0
 23
0.0
 33
0.0
 16
1.0
 26
0.0
 36
0.0
 17
0.0
 27
1.0
 37
0.0
 76
     0
330
458D6
331
633C5
  0
MATERIAL
  5
633FA
102
{ACAD_REACTORS
330
633F8
102
}
330
633F8
100
AcDbMaterial
  1
ByBlock
  0
MATERIAL
  5
633F9
102
{ACAD_REACTORS
330
633F8
102
}
330
633F8
100
AcDbMaterial
  1
ByLayer
  0
MATERIAL
  5
633FB
102
{ACAD_REACTORS
330
633F8
102
}
330
633F8
100
AcDbMaterial
  1
Global
  0
MLINESTYLE
  5
458DA
102
{ACAD_REACTORS
330
458D9
102
}
330
458D9
100
AcDbMlineStyle
  2
STANDARD
 70
     0
  3

 62
   256
 51
90.0
 52
90.0
 71
     2
 49
0.5
 62
   256
  6
BYLAYER
 49
-0.5
 62
   256
  6
BYLAYER
  0
ACDBPLACEHOLDER
  5
458FA
102
{ACAD_REACTORS
330
458F9
102
}
330
458F9
  0
TABLESTYLE
  5
6340F
102
{ACAD_REACTORS
330
6340E
102
}
330
6340E
100
AcDbTableStyle
  3
Standard
 70
     0
 71
     0
 40
0.06
 41
0.06
280
     0
281
     0
  7
STANDARD
140
0.18
170
     2
 62
     0
 63
     7
283
     0
 90
      512
 91
        0
  1

274
    -2
284
     1
 64
     0
275
    -2
285
     1
 65
     0
276
    -2
286
     1
 66
     0
277
    -2
287
     1
 67
     0
278
    -2
288
     1
 68
     0
279
    -2
289
     1
 69
     0
  7
STANDARD
140
0.25
170
     5
 62
     0
 63
     7
283
     0
 90
      512
 91
        0
  1

274
    -2
284
     1
 64
     0
275
    -2
285
     1
 65
     0
276
    -2
286
     1
 66
     0
277
    -2
287
     1
 67
     0
278
    -2
288
     1
 68
     0
279
    -2
289
     1
 69
     0
  7
STANDARD
140
0.18
170
     5
 62
     0
 63
     7
283
     0
 90
      512
 91
        0
  1

274
    -2
284
     1
 64
     0
275
    -2
285
     1
 65
     0
276
    -2
286
     1
 66
     0
277
    -2
287
     1
 67
     0
278
    -2
288
     1
 68
     0
279
    -2
289
     1
 69
     0
  0
VISUALSTYLE
  5
63402
102
{ACAD_REACTORS
330
633FC
102
}
330
633FC
100
AcDbVisualStyle
  2
2dWireframe
 70
     4
 71
     0
 72
     2
 73
     0
 90
        0
 40
-0.6
 41
-30.0
 62
     5
 63
     7
421
 16777215
 74
     1
 91
        4
 64
     7
 65
   257
 75
     1
175
     1
 42
1.0
 92
        0
 66
   257
 43
1.0
 76
     1
 77
     6
 78
     2
 67
     7
 79
     5
170
     0
171
     0
290
     0
174
     0
 93
        1
 44
0.0
173
     0
291
     0
 45
0.0
  0
VISUALSTYLE
  5
63404
102
{ACAD_REACTORS
330
633FC
102
}
330
633FC
100
AcDbVisualStyle
  2
3D Hidden
 70
     6
 71
     1
 72
     2
 73
     2
 90
        0
 40
-0.6
 41
-30.0
 62
     5
 63
     7
421
 16777215
 74
     2
 91
        2
 64
     7
 65
   257
 75
     2
175
     1
 42
40.0
 92
        0
 66
   257
 43
1.0
 76
     1
 77
     6
 78
     2
 67
     7
 79
     3
170
     0
171
     0
290
     0
174
     0
 93
        1
 44
0.0
173
     0
291
     0
 45
0.0
  0
VISUALSTYLE
  5
63403
102
{ACAD_REACTORS
330
633FC
102
}
330
633FC
100
AcDbVisualStyle
  2
3dWireframe
 70
     5
 71
     0
 72
     2
 73
     0
 90
        0
 40
-0.6
 41
-30.0
 62
     5
 63
     7
421
 16777215
 74
     1
 91
        4
 64
     7
 65
   257
 75
     1
175
     1
 42
1.0
 92
        0
 66
   257
 43
1.0
 76
     1
 77
     6
 78
     2
 67
     7
 79
     5
170
     0
171
     0
290
     0
174
     0
 93
        1
 44
0.0
173
     0
291
     0
 45
0.0
  0
VISUALSTYLE
  5
63401
102
{ACAD_REACTORS
330
633FC
102
}
330
633FC
100
AcDbVisualStyle
  2
Basic
 70
     7
 71
     1
 72
     0
 73
     1
 90
        0
 40
-0.6
 41
-30.0
 62
     5
 63
     7
421
 16777215
 74
     0
 91
        4
 64
     7
 65
   257
 75
     1
175
     1
 42
1.0
 92
        8
 66
     7
 43
1.0
 76
     1
 77
     6
 78
     2
 67
     7
 79
     5
170
     0
171
     0
290
     0
174
     0
 93
        1
 44
0.0
173
     0
291
     1
 45
0.0
  0
VISUALSTYLE
  5
63408
102
{ACAD_REACTORS
330
633FC
102
}
330
633FC
100
AcDbVisualStyle
  2
Brighten
 70
    12
 71
     2
 72
     2
 73
     0
 90
        0
 40
-0.6
 41
-30.0
 62
     5
 63
     7
421
 16777215
 74
     1
 91
        4
 64
     7
 65
   257
 75
     1
175
     1
 42
1.0
 92
        8
 66
     7
 43
1.0
 76
     1
 77
     6
 78
     2
 67
     7
 79
     5
170
     0
171
     0
290
     0
174
     0
 93
        1
 44
50.0
173
     0
291
     1
 45
0.0
  0
VISUALSTYLE
  5
6340C
102
{ACAD_REACTORS
330
633FC
102
}
330
633FC
100
AcDbVisualStyle
  2
ColorChange
 70
    16
 71
     2
 72
     2
 73
     3
 90
        0
 40
-0.6
 41
-30.0
 62
     5
 63
     8
421
  8421504
 74
     1
 91
        4
 64
     7
 65
   257
 75
     1
175
     1
 42
1.0
 92
        8
 66
     8
424
  8421504
 43
1.0
 76
     1
 77
     6
 78
     2
 67
     7
 79
     5
170
     0
171
     0
290
     0
174
     0
 93
        1
 44
0.0
173
     0
291
     1
 45
0.0
  0
VISUALSTYLE
  5
63405
102
{ACAD_REACTORS
330
633FC
102
}
330
633FC
100
AcDbVisualStyle
  2
Conceptual
 70
     9
 71
     3
 72
     2
 73
     0
 90
        0
 40
-0.6
 41
-30.0
 62
     5
 63
     7
421
 16777215
 74
     2
 91
        2
 64
     7
 65
   257
 75
     1
175
     1
 42
40.0
 92
        8
 66
     7
 43
1.0
 76
     1
 77
     6
 78
     2
 67
     7
 79
     3
170
     0
171
     0
290
     0
174
     0
 93
        1
 44
0.0
173
     0
291
     0
 45
0.0
  0
VISUALSTYLE
  5
63407
102
{ACAD_REACTORS
330
633FC
102
}
330
633FC
100
AcDbVisualStyle
  2
Dim
 70
    11
 71
     2
 72
     2
 73
     0
 90
        0
 40
-0.6
 41
-30.0
 62
     5
 63
     7
421
 16777215
 74
     1
 91
        4
 64
     7
 65
   257
 75
     1
175
     1
 42
1.0
 92
        8
 66
     7
 43
1.0
 76
     1
 77
     6
 78
     2
 67
     7
 79
     5
170
     0
171
     0
290
     0
174
     0
 93
        1
 44
-50.0
173
     0
291
     1
 45
0.0
  0
VISUALSTYLE
  5
6340B
102
{ACAD_REACTORS
330
633FC
102
}
330
633FC
100
AcDbVisualStyle
  2
Facepattern
 70
    15
 71
     2
 72
     2
 73
     0
 90
        0
 40
-0.6
 41
-30.0
 62
     5
 63
     7
421
 16777215
 74
     1
 91
        4
 64
     7
 65
   257
 75
     1
175
     1
 42
1.0
 92
        8
 66
     7
 43
1.0
 76
     1
 77
     6
 78
     2
 67
     7
 79
     5
170
     0
171
     0
290
     0
174
     0
 93
        1
 44
0.0
173
     0
291
     1
 45
0.0
  0
VISUALSTYLE
  5
633FD
102
{ACAD_REACTORS
330
633FC
102
}
330
633FC
100
AcDbVisualStyle
  2
Flat
 70
     0
 71
     2
 72
     1
 73
     1
 90
        2
 40
-0.6
 41
30.0
 62
     5
 63
     7
421
 16777215
 74
     0
 91
        4
 64
     7
 65
   257
 75
     1
175
     1
 42
1.0
 92
        8
 66
     7
 43
1.0
 76
     1
 77
     6
 78
     2
 67
     7
 79
     5
170
     0
171
     0
290
     0
174
     0
 93
       13
 44
0.0
173
     0
291
     1
 45
0.0
  0
VISUALSTYLE
  5
633FE
102
{ACAD_REACTORS
330
633FC
102
}
330
633FC
100
AcDbVisualStyle
  2
FlatWithEdges
 70
     1
 71
     2
 72
     1
 73
     1
 90
        2
 40
-0.6
 41
30.0
 62
     5
 63
     7
421
 16777215
 74
     1
 91
        4
 64
     7
 65
   257
 75
     1
175
     1
 42
1.0
 92
        0
 66
   257
 43
1.0
 76
     1
 77
     6
 78
     2
 67
     7
 79
     5
170
     0
171
     0
290
     0
174
     0
 93
       13
 44
0.0
173
     0
291
     1
 45
0.0
  0
VISUALSTYLE
  5
633FF
102
{ACAD_REACTORS
330
633FC
102
}
330
633FC
100
AcDbVisualStyle
  2
Gouraud
 70
     2
 71
     2
 72
     2
 73
     1
 90
        2
 40
-0.6
 41
30.0
 62
     5
 63
     7
421
 16777215
 74
     0
 91
        4
 64
     7
 65
   257
 75
     1
175
     1
 42
1.0
 92
        0
 66
     7
 43
1.0
 76
     1
 77
     6
 78
     2
 67
     7
 79
     5
170
     0
171
     0
290
     0
174
     0
 93
       13
 44
0.0
173
     0
291
     1
 45
0.0
  0
VISUALSTYLE
  5
63400
102
{ACAD_REACTORS
330
633FC
102
}
330
633FC
100
AcDbVisualStyle
  2
GouraudWithEdges
 70
     3
 71
     2
 72
     2
 73
     1
 90
        2
 40
-0.6
 41
30.0
 62
     5
 63
     7
421
 16777215
 74
     1
 91
        4
 64
     7
 65
   257
 75
     1
175
     1
 42
1.0
 92
        0
 66
   257
 43
1.0
 76
     1
 77
     6
 78
     2
 67
     7
 79
     5
170
     0
171
     0
290
     0
174
     0
 93
       13
 44
0.0
173
     0
291
     1
 45
0.0
  0
VISUALSTYLE
  5
6340A
102
{ACAD_REACTORS
330
633FC
102
}
330
633FC
100
AcDbVisualStyle
  2
Linepattern
 70
    14
 71
     2
 72
     2
 73
     0
 90
        0
 40
-0.6
 41
-30.0
 62
     5
 63
     7
421
 16777215
 74
     1
 91
        4
 64
     7
 65
   257
 75
     7
175
     7
 42
1.0
 92
        8
 66
     7
 43
1.0
 76
     1
 77
     6
 78
     2
 67
     7
 79
     5
170
     0
171
     0
290
     0
174
     0
 93
        1
 44
0.0
173
     0
291
     1
 45
0.0
  0
VISUALSTYLE
  5
63406
102
{ACAD_REACTORS
330
633FC
102
}
330
633FC
100
AcDbVisualStyle
  2
Realistic
 70
     8
 71
     2
 72
     2
 73
     0
 90
        0
 40
-0.6
 41
-30.0
 62
     5
 63
     7
421
 16777215
 74
     1
 91
        0
 64
     7
 65
   257
 75
     1
175
     1
 42
1.0
 92
        8
 66
     8
424
  7895160
 43
1.0
 76
     1
 77
     6
 78
     2
 67
     7
 79
     5
170
     0
171
     0
290
     0
174
     0
 93
       13
 44
0.0
173
     0
291
     0
 45
0.0
  0
VISUALSTYLE
  5
63409
102
{ACAD_REACTORS
330
633FC
102
}
330
633FC
100
AcDbVisualStyle
  2
Thicken
 70
    13
 71
     2
 72
     2
 73
     0
 90
        0
 40
-0.6
 41
-30.0
 62
     5
 63
     7
421
 16777215
 74
     1
 91
        4
 64
     7
 65
   257
 75
     1
175
     1
 42
1.0
 92
       12
 66
     7
 43
1.0
 76
     1
 77
     6
 78
     2
 67
     7
 79
     5
170
     0
171
     0
290
     0
174
     0
 93
        1
 44
0.0
173
     0
291
     1
 45
0.0
  0
XRECORD
  5
63428
102
{ACAD_REACTORS
330
63427
102
}
330
63427
100
AcDbXrecord
280
     1
  1
WIRES
  1
WIRES
  1

290
     0
  0
DICTIONARYVAR
  5
6341D
102
{ACAD_REACTORS
330
458E1
102
}
330
458E1
100
DictionaryVariables
280
     0
  1
STANDARD
  0
DICTIONARYVAR
  5
458E2
102
{ACAD_REACTORS
330
458E1
102
}
330
458E1
100
DictionaryVariables
280
     0
  1
0
  0
XRECORD
  5
6341C
102
{ACAD_REACTORS
330
6341A
102
}
330
6341A
100
AcDbXrecord
280
     1
  0
ENDSEC
  0
EOF
