  0
SECTION
  2
HEADER
  9
$ACADVER
  1
AC1021
  9
$ACADMAINTVER
 70
     1
  9
$DWGCODEPAGE
  3
ANSI_1252
  9
$LASTSAVEDBY
  1
gdseiver
  9
$INSBASE
 10
0.0
 20
0.0
 30
0.0
  9
$EXTMIN
 10
-0.0000000000000035
 20
-2.526
 30
-0.0000000000000003
  9
$EXTMAX
 10
1.760139196705554
 20
0.654
 30
5.5815
  9
$LIMMIN
 10
0.0
 20
0.0
  9
$LIMMAX
 10
12.0
 20
9.0
  9
$ORTHOMODE
 70
     0
  9
$REGENMODE
 70
     1
  9
$FILLMODE
 70
     1
  9
$QTEXTMODE
 70
     0
  9
$MIRRTEXT
 70
     1
  9
$LTSCALE
 40
1.0
  9
$ATTMODE
 70
     1
  9
$TEXTSIZE
 40
0.12
  9
$TRACEWID
 40
0.05
  9
$TEXTSTYLE
  7
STANDARD
  9
$CLAYER
  8
0
  9
$CELTYPE
  6
BYLAYER
  9
$CECOLOR
 62
   256
  9
$CELTSCALE
 40
1.0
  9
$DISPSILH
 70
     0
  9
$DIMSCALE
 40
1.0
  9
$DIMASZ
 40
0.125
  9
$DIMEXO
 40
0.0625
  9
$DIMDLI
 40
0.375
  9
$DIMRND
 40
0.0
  9
$DIMDLE
 40
0.0
  9
$DIMEXE
 40
0.1
  9
$DIMTP
 40
0.0
  9
$DIMTM
 40
0.0
  9
$DIMTXT
 40
0.125
  9
$DIMCEN
 40
0.09
  9
$DIMTSZ
 40
0.0
  9
$DIMTOL
 70
     0
  9
$DIMLIM
 70
     0
  9
$DIMTIH
 70
     0
  9
$DIMTOH
 70
     1
  9
$DIMSE1
 70
     0
  9
$DIMSE2
 70
     0
  9
$DIMTAD
 70
     0
  9
$DIMZIN
 70
     4
  9
$DIMBLK
  1

  9
$DIMASO
 70
     1
  9
$DIMSHO
 70
     1
  9
$DIMPOST
  1

  9
$DIMAPOST
  1

  9
$DIMALT
 70
     1
  9
$DIMALTD
 70
     2
  9
$DIMALTF
 40
25.4
  9
$DIMLFAC
 40
1.0
  9
$DIMTOFL
 70
     0
  9
$DIMTVP
 40
0.0
  9
$DIMTIX
 70
     0
  9
$DIMSOXD
 70
     0
  9
$DIMSAH
 70
     0
  9
$DIMBLK1
  1

  9
$DIMBLK2
  1

  9
$DIMSTYLE
  2
ABECAD_3D
  9
$DIMCLRD
 70
     0
  9
$DIMCLRE
 70
     0
  9
$DIMCLRT
 70
     0
  9
$DIMTFAC
 40
1.5
  9
$DIMGAP
 40
0.09
  9
$DIMJUST
 70
     0
  9
$DIMSD1
 70
     0
  9
$DIMSD2
 70
     0
  9
$DIMTOLJ
 70
     1
  9
$DIMTZIN
 70
     4
  9
$DIMALTZ
 70
     4
  9
$DIMALTTZ
 70
     4
  9
$DIMUPT
 70
     1
  9
$DIMDEC
 70
     6
  9
$DIMTDEC
 70
     6
  9
$DIMALTU
 70
     2
  9
$DIMALTTD
 70
     2
  9
$DIMTXSTY
  7
STANDARD
  9
$DIMAUNIT
 70
     0
  9
$DIMADEC
 70
     0
  9
$DIMALTRND
 40
0.0
  9
$DIMAZIN
 70
     0
  9
$DIMDSEP
 70
    46
  9
$DIMATFIT
 70
     2
  9
$DIMFRAC
 70
     2
  9
$DIMLDRBLK
  1

  9
$DIMLUNIT
 70
     5
  9
$DIMLWD
 70
    -2
  9
$DIMLWE
 70
    -2
  9
$DIMTMOVE
 70
     2
  9
$DIMFXL
 40
1.0
  9
$DIMFXLON
 70
     0
  9
$DIMJOGANG
 40
0.7853981633974483
  9
$DIMTFILL
 70
     0
  9
$DIMTFILLCLR
 70
     0
  9
$DIMARCSYM
 70
     0
  9
$DIMLTYPE
  6

  9
$DIMLTEX1
  6

  9
$DIMLTEX2
  6

  9
$LUNITS
 70
     2
  9
$LUPREC
 70
     4
  9
$SKETCHINC
 40
0.1
  9
$FILLETRAD
 40
0.0
  9
$AUNITS
 70
     0
  9
$AUPREC
 70
     0
  9
$MENU
  1
ACAD
  9
$ELEVATION
 40
0.0
  9
$PELEVATION
 40
0.0
  9
$THICKNESS
 40
0.0
  9
$LIMCHECK
 70
     0
  9
$CHAMFERA
 40
0.0
  9
$CHAMFERB
 40
0.0
  9
$CHAMFERC
 40
0.0
  9
$CHAMFERD
 40
0.0
  9
$SKPOLY
 70
     0
  9
$TDCREATE
 40
2451726.480055787
  9
$TDUCREATE
 40
2451726.688389120
  9
$TDUPDATE
 40
2454229.679398900
  9
$TDUUPDATE
 40
2454229.887732234
  9
$TDINDWG
 40
0.9129215972
  9
$TDUSRTIMER
 40
0.9129215972
  9
$USRTIMER
 70
     1
  9
$ANGBASE
 50
0.0
  9
$ANGDIR
 70
     0
  9
$PDMODE
 70
     3
  9
$PDSIZE
 40
0.09
  9
$PLINEWID
 40
0.0
  9
$SPLFRAME
 70
     1
  9
$SPLINETYPE
 70
     6
  9
$SPLINESEGS
 70
     8
  9
$HANDSEED
  5
728BC
  9
$SURFTAB1
 70
     6
  9
$SURFTAB2
 70
     6
  9
$SURFTYPE
 70
     6
  9
$SURFU
 70
     6
  9
$SURFV
 70
     6
  9
$UCSBASE
  2

  9
$UCSNAME
  2

  9
$UCSORG
 10
0.0
 20
0.0
 30
0.0
  9
$UCSXDIR
 10
1.0
 20
0.0
 30
0.0
  9
$UCSYDIR
 10
0.0
 20
1.0
 30
0.0
  9
$UCSORTHOREF
  2

  9
$UCSORTHOVIEW
 70
     1
  9
$UCSORGTOP
 10
0.0
 20
0.0
 30
0.0
  9
$UCSORGBOTTOM
 10
0.0
 20
0.0
 30
0.0
  9
$UCSORGLEFT
 10
0.0
 20
0.0
 30
0.0
  9
$UCSORGRIGHT
 10
0.0
 20
0.0
 30
0.0
  9
$UCSORGFRONT
 10
0.0
 20
0.0
 30
0.0
  9
$UCSORGBACK
 10
0.0
 20
0.0
 30
0.0
  9
$PUCSBASE
  2

  9
$PUCSNAME
  2

  9
$PUCSORG
 10
0.0
 20
0.0
 30
0.0
  9
$PUCSXDIR
 10
1.0
 20
0.0
 30
0.0
  9
$PUCSYDIR
 10
0.0
 20
1.0
 30
0.0
  9
$PUCSORTHOREF
  2

  9
$PUCSORTHOVIEW
 70
     0
  9
$PUCSORGTOP
 10
0.0
 20
0.0
 30
0.0
  9
$PUCSORGBOTTOM
 10
0.0
 20
0.0
 30
0.0
  9
$PUCSORGLEFT
 10
0.0
 20
0.0
 30
0.0
  9
$PUCSORGRIGHT
 10
0.0
 20
0.0
 30
0.0
  9
$PUCSORGFRONT
 10
0.0
 20
0.0
 30
0.0
  9
$PUCSORGBACK
 10
0.0
 20
0.0
 30
0.0
  9
$USERI1
 70
     0
  9
$USERI2
 70
     0
  9
$USERI3
 70
     0
  9
$USERI4
 70
     0
  9
$USERI5
 70
     0
  9
$USERR1
 40
0.0
  9
$USERR2
 40
0.0
  9
$USERR3
 40
0.0
  9
$USERR4
 40
0.0
  9
$USERR5
 40
0.0
  9
$WORLDVIEW
 70
     1
  9
$SHADEDGE
 70
     3
  9
$SHADEDIF
 70
    70
  9
$TILEMODE
 70
     1
  9
$MAXACTVP
 70
    16
  9
$PINSBASE
 10
0.0
 20
0.0
 30
0.0
  9
$PLIMCHECK
 70
     0
  9
$PEXTMIN
 10
1.049999952316284
 20
0.7999999523162842
 30
0.0
  9
$PEXTMAX
 10
9.449999570846555
 20
7.199999570846556
 30
0.0
  9
$PLIMMIN
 10
-0.2500002402958907
 20
-0.2499999962453767
  9
$PLIMMAX
 10
10.74999951940821
 20
8.249999763458731
  9
$UNITMODE
 70
     0
  9
$VISRETAIN
 70
     0
  9
$PLINEGEN
 70
     0
  9
$PSLTSCALE
 70
     1
  9
$TREEDEPTH
 70
  3020
  9
$CMLSTYLE
  2
STANDARD
  9
$CMLJUST
 70
     0
  9
$CMLSCALE
 40
1.0
  9
$PROXYGRAPHICS
 70
     1
  9
$MEASUREMENT
 70
     0
  9
$CELWEIGHT
370
    -1
  9
$ENDCAPS
280
     0
  9
$JOINSTYLE
280
     0
  9
$LWDISPLAY
290
     0
  9
$INSUNITS
 70
     0
  9
$HYPERLINKBASE
  1

  9
$STYLESHEET
  1

  9
$XEDIT
290
     1
  9
$CEPSNTYPE
380
     0
  9
$PSTYLEMODE
290
     1
  9
$FINGERPRINTGUID
  2
{6E0CF4B8-225E-11D4-A150-00A0CC3303EC}
  9
$VERSIONGUID
  2
{18D15E05-2DDD-4ED0-8857-9B2CF39D1B5C}
  9
$EXTNAMES
290
     1
  9
$PSVPSCALE
 40
0.0
  9
$OLESTARTUP
290
     0
  9
$SORTENTS
280
   127
  9
$INDEXCTL
280
     0
  9
$HIDETEXT
280
     0
  9
$XCLIPFRAME
290
     0
  9
$HALOGAP
280
     0
  9
$OBSCOLOR
 70
   257
  9
$OBSLTYPE
280
     0
  9
$INTERSECTIONDISPLAY
280
     0
  9
$INTERSECTIONCOLOR
 70
   257
  9
$DIMASSOC
280
     1
  9
$PROJECTNAME
  1

  9
$CAMERADISPLAY
290
     0
  9
$LENSLENGTH
 40
50.0
  9
$CAMERAHEIGHT
 40
0.0
  9
$STEPSPERSEC
 40
2.0
  9
$STEPSIZE
 40
6.0
  9
$3DDWFPREC
 40
2.0
  9
$PSOLWIDTH
 40
0.25
  9
$PSOLHEIGHT
 40
4.0
  9
$LOFTANG1
 40
1.570796326794896
  9
$LOFTANG2
 40
1.570796326794896
  9
$LOFTMAG1
 40
0.0
  9
$LOFTMAG2
 40
0.0
  9
$LOFTPARAM
 70
     7
  9
$LOFTNORMALS
280
     1
  9
$LATITUDE
 40
37.795
  9
$LONGITUDE
 40
-122.394
  9
$NORTHDIRECTION
 40
0.0
  9
$TIMEZONE
 70
 -8000
  9
$LIGHTGLYPHDISPLAY
280
     1
  9
$TILEMODELIGHTSYNCH
280
     1
  9
$CMATERIAL
347
72866
  9
$SOLIDHIST
280
     1
  9
$SHOWHIST
280
     1
  9
$DWFFRAME
280
     2
  9
$DGNFRAME
280
     0
  9
$REALWORLDSCALE
290
     1
  9
$INTERFERECOLOR
 62
     1
  9
$INTERFEREOBJVS
345
72873
  9
$INTERFEREVPVS
346
72870
  9
$CSHADOW
280
     0
  9
$SHADOWPLANELOCATION
 40
0.0
  0
ENDSEC
  0
SECTION
  2
CLASSES
  0
CLASS
  1
DICTIONARYVAR
  2
AcDbDictionaryVar
  3
ObjectDBX Classes
 90
        0
 91
        2
280
     0
281
     0
  0
CLASS
  1
ACDBDICTIONARYWDFLT
  2
AcDbDictionaryWithDefault
  3
ObjectDBX Classes
 90
        0
 91
        1
280
     0
281
     0
  0
CLASS
  1
MATERIAL
  2
AcDbMaterial
  3
ObjectDBX Classes
 90
     1024
 91
        3
280
     0
281
     0
  0
CLASS
  1
VISUALSTYLE
  2
AcDbVisualStyle
  3
ObjectDBX Classes
 90
     4095
 91
       16
280
     0
281
     0
  0
CLASS
  1
TABLESTYLE
  2
AcDbTableStyle
  3
ObjectDBX Classes
 90
     4095
 91
        1
280
     0
281
     0
  0
CLASS
  1
SOLID_BACKGROUND
  2
AcDbSolidBackground
  3
SCENEOE
 90
     4095
 91
        1
280
     0
281
     0
  0
CLASS
  1
NPOCOLLECTION
  2
AcDbImpNonPersistentObjectsCollection
  3
ObjectDBX Classes
 90
     1153
 91
        1
280
     0
281
     0
  0
CLASS
  1
EXACXREFPANELOBJECT
  2
ExAcXREFPanelObject
  3
EXAC_ESW
 90
     1025
 91
        0
280
     0
281
     0
  0
ENDSEC
  0
SECTION
  2
TABLES
  0
TABLE
  2
VPORT
  5
458C7
102
{ACAD_XDICTIONARY
360
72896
102
}
330
0
100
AcDbSymbolTable
 70
     1
  0
VPORT
  5
72832
330
458C7
100
AcDbSymbolTableRecord
100
AcDbViewportTableRecord
  2
*Active
 70
     0
 10
0.0
 20
0.0
 11
1.0
 21
1.0
 12
0.3164541726993195
 22
-0.0555927410853414
 13
0.0
 23
0.0
 14
0.25
 24
0.25
 15
0.25
 25
0.25
 16
0.0
 26
0.0
 36
1.0
 17
0.5634438949382106
 27
-0.8801371703728531
 37
1.68649307151727
 40
3.205633275988128
 41
1.421818181818181
 42
50.0
 43
0.0
 44
0.0
 50
0.0
 51
0.0
 71
     0
 72
 20000
 73
     1
 74
     1
 75
     0
 76
     0
 77
     0
 78
     0
281
     1
 65
     1
110
0.0
120
0.0
130
0.0
111
1.0
121
0.0
131
0.0
112
0.0
122
1.0
132
0.0
 79
     0
146
0.0
348
72870
 60
     3
 61
     5
292
     1
282
     1
141
0.0
142
0.0
 63
   250
421
  3355443
  0
ENDTAB
  0
TABLE
  2
LTYPE
  5
458C4
330
0
100
AcDbSymbolTable
 70
     1
  0
LTYPE
  5
458D0
330
458C4
100
AcDbSymbolTableRecord
100
AcDbLinetypeTableRecord
  2
BYBLOCK
 70
     0
  3

 72
    65
 73
     0
 40
0.0
  0
LTYPE
  5
458D1
330
458C4
100
AcDbSymbolTableRecord
100
AcDbLinetypeTableRecord
  2
BYLAYER
 70
     0
  3

 72
    65
 73
     0
 40
0.0
  0
LTYPE
  5
458D2
330
458C4
100
AcDbSymbolTableRecord
100
AcDbLinetypeTableRecord
  2
CONTINUOUS
 70
     0
  3
Solid line
 72
    65
 73
     0
 40
0.0
  0
ENDTAB
  0
TABLE
  2
LAYER
  5
458C1
330
0
100
AcDbSymbolTable
 70
     8
  0
LAYER
  5
458CD
330
458C1
100
AcDbSymbolTableRecord
100
AcDbLayerTableRecord
  2
0
 70
     0
 62
     7
  6
CONTINUOUS
370
    -3
390
458FA
347
72868
  0
LAYER
  5
458EA
330
458C1
100
AcDbSymbolTableRecord
100
AcDbLayerTableRecord
  2
DIMS-MTG-HOLES
 70
     0
 62
     1
  6
CONTINUOUS
370
    -3
390
458FA
347
72868
  0
LAYER
  5
458EB
330
458C1
100
AcDbSymbolTableRecord
100
AcDbLayerTableRecord
  2
ATTRIBUTES
 70
     0
 62
     7
  6
CONTINUOUS
370
    -3
390
458FA
347
72868
  0
LAYER
  5
4593B
330
458C1
100
AcDbSymbolTableRecord
100
AcDbLayerTableRecord
  2
AREA1
 70
     1
 62
     7
  6
CONTINUOUS
290
     0
370
    -3
390
458FA
347
72868
  0
LAYER
  5
45940
330
458C1
100
AcDbSymbolTableRecord
100
AcDbLayerTableRecord
  2
Defpoints
 70
     1
 62
     7
  6
CONTINUOUS
290
     0
370
    -3
390
458FA
347
72868
  0
LAYER
  5
45954
330
458C1
100
AcDbSymbolTableRecord
100
AcDbLayerTableRecord
  2
SCALE
 70
     1
 62
     7
  6
CONTINUOUS
370
    -3
390
458FA
347
72868
  0
LAYER
  5
4D59A
330
458C1
100
AcDbSymbolTableRecord
100
AcDbLayerTableRecord
  2
SNAP_POINTS
 70
     1
 62
     1
  6
CONTINUOUS
370
    -3
390
458FA
347
72868
  0
LAYER
  5
72883
102
{ACAD_XDICTIONARY
360
72884
102
}
330
458C1
100
AcDbSymbolTableRecord
100
AcDbLayerTableRecord
  2
WIRES
 70
     0
 62
     7
  6
CONTINUOUS
370
    -3
390
458FA
347
72868
  0
ENDTAB
  0
TABLE
  2
STYLE
  5
458C2
330
0
100
AcDbSymbolTable
 70
     1
  0
STYLE
  5
458CE
330
458C2
100
AcDbSymbolTableRecord
100
AcDbTextStyleTableRecord
  2
STANDARD
 70
     0
 40
0.0
 41
1.0
 50
0.0
 71
     0
 42
0.12
  3
txt
  4

  0
ENDTAB
  0
TABLE
  2
VIEW
  5
458C5
330
0
100
AcDbSymbolTable
 70
     0
  0
ENDTAB
  0
TABLE
  2
UCS
  5
458C6
330
0
100
AcDbSymbolTable
 70
     0
  0
ENDTAB
  0
TABLE
  2
APPID
  5
458C8
330
0
100
AcDbSymbolTable
 70
     3
  0
APPID
  5
458CF
330
458C8
100
AcDbSymbolTableRecord
100
AcDbRegAppTableRecord
  2
ACAD
 70
     0
  0
APPID
  5
5FD5B
330
458C8
100
AcDbSymbolTableRecord
100
AcDbRegAppTableRecord
  2
AVE_RENDER
 70
     0
  0
APPID
  5
72888
330
458C8
100
AcDbSymbolTableRecord
100
AcDbRegAppTableRecord
  2
DCO15
 70
     0
  0
ENDTAB
  0
TABLE
  2
DIMSTYLE
  5
458C9
330
0
100
AcDbSymbolTable
 70
     1
100
AcDbDimStyleTable
 71
     0
  0
DIMSTYLE
105
458F6
102
{ACAD_REACTORS
330
7278A
330
72798
102
}
330
458C9
100
AcDbSymbolTableRecord
100
AcDbDimStyleTableRecord
  2
ABECAD_3D
 70
     0
 41
0.125
 43
0.375
 44
0.1
 73
     0
 78
     4
140
0.125
146
1.5
170
     1
271
     6
272
     6
276
     2
277
     5
279
     2
284
     4
285
     4
286
     4
288
     1
289
     2
340
458CE
  0
ENDTAB
  0
TABLE
  2
BLOCK_RECORD
  5
458C0
330
0
100
AcDbSymbolTable
 70
     2
  0
BLOCK_RECORD
  5
458D6
102
{ACAD_XDICTIONARY
360
4592C
102
}
330
458C0
100
AcDbSymbolTableRecord
100
AcDbBlockTableRecord
  2
*MODEL_SPACE
340
458FD
 70
     0
280
     1
281
     0
  0
BLOCK_RECORD
  5
458D3
102
{ACAD_XDICTIONARY
360
4592A
102
}
330
458C0
100
AcDbSymbolTableRecord
100
AcDbBlockTableRecord
  2
*PAPER_SPACE
340
458FE
 70
     0
280
     1
281
     0
  0
BLOCK_RECORD
  5
7278B
330
458C0
100
AcDbSymbolTableRecord
100
AcDbBlockTableRecord
  2
*D0
340
0
 70
     0
280
     1
281
     0
  0
BLOCK_RECORD
  5
72799
330
458C0
100
AcDbSymbolTableRecord
100
AcDbBlockTableRecord
  2
*D1
340
0
 70
     0
280
     1
281
     0
  0
ENDTAB
  0
ENDSEC
  0
SECTION
  2
BLOCKS
  0
BLOCK
  5
458DF
330
458D6
100
AcDbEntity
  8
0
100
AcDbBlockBegin
  2
*MODEL_SPACE
 70
     0
 10
0.0
 20
0.0
 30
0.0
  3
*MODEL_SPACE
  1

  0
ENDBLK
  5
458E0
330
458D6
100
AcDbEntity
  8
0
100
AcDbBlockEnd
  0
BLOCK
  5
458DD
330
458D3
100
AcDbEntity
 67
     1
  8
0
100
AcDbBlockBegin
  2
*PAPER_SPACE
 70
     0
 10
0.0
 20
0.0
 30
0.0
  3
*PAPER_SPACE
  1

  0
ENDBLK
  5
458DE
330
458D3
100
AcDbEntity
 67
     1
  8
0
100
AcDbBlockEnd
  0
BLOCK
  5
72796
330
7278B
100
AcDbEntity
  8
0
100
AcDbBlockBegin
  2
*D0
 70
     1
 10
0.0
 20
0.0
 30
0.0
  3
*D0
  1

  0
LINE
  5
7278C
330
7278B
100
AcDbEntity
  8
AREA1
 62
     0
370
    -2
100
AcDbLine
 10
0.6319999999999997
 20
0.654
 30
0.0
 11
-0.5673233275482814
 21
0.6540000000000003
 31
0.0
  0
LINE
  5
7278D
330
7278B
100
AcDbEntity
  8
AREA1
 62
     0
370
    -2
100
AcDbLine
 10
0.2649999999999992
 20
-2.526
 30
0.0
 11
-0.5673233275482821
 21
-2.526
 31
0.0
  0
LINE
  5
7278E
330
7278B
100
AcDbEntity
  8
AREA1
 62
     0
370
    -2
100
AcDbLine
 10
-0.4673233275482814
 20
0.5290000000000003
 30
0.0
 11
-0.4673233275482816
 21
-0.1876164018393554
 31
0.0
  0
LINE
  5
7278F
330
7278B
100
AcDbEntity
  8
AREA1
 62
     0
370
    -2
100
AcDbLine
 10
-0.4673233275482822
 20
-2.401
 30
0.0
 11
-0.467323327548282
 21
-1.846783068506022
 31
0.0
  0
MTEXT
  5
72790
330
7278B
100
AcDbEntity
  8
AREA1
 62
     0
100
AcDbMText
 10
-0.4673233275482818
 20
-1.017199735172688
 30
0.0
 40
0.125
 41
0.0
 46
0.0
 71
     5
 72
     1
  1
\A1;3 3/16 [80.77]
 11
0.0000000000000001
 21
1.0
 31
0.0
 73
     1
 44
1.0
  0
SOLID
  5
72791
330
7278B
100
AcDbEntity
  8
AREA1
 62
     0
100
AcDbTrace
 10
-0.4881566608816148
 20
0.5290000000000003
 30
0.0
 11
-0.4464899942149481
 21
0.5290000000000003
 31
0.0
 12
-0.4673233275482814
 22
0.6540000000000003
 32
0.0
 13
-0.4673233275482814
 23
0.6540000000000003
 33
0.0
  0
SOLID
  5
72792
330
7278B
100
AcDbEntity
  8
AREA1
 62
     0
100
AcDbTrace
 10
-0.4881566608816155
 20
-2.401
 30
0.0
 11
-0.4464899942149489
 21
-2.401
 31
0.0
 12
-0.4673233275482822
 22
-2.526
 32
0.0
 13
-0.4673233275482822
 23
-2.526
 33
0.0
  0
POINT
  5
72793
330
7278B
100
AcDbEntity
  8
Defpoints
 62
     0
100
AcDbPoint
 10
0.6944999999999997
 20
0.654
 30
2.856099999999999
  0
POINT
  5
72794
330
7278B
100
AcDbEntity
  8
Defpoints
 62
     0
100
AcDbPoint
 10
0.3274999999999992
 20
-2.526
 30
2.856099999999999
  0
POINT
  5
72795
330
7278B
100
AcDbEntity
  8
Defpoints
 62
     0
100
AcDbPoint
 10
-0.4673233275482822
 20
-2.526
 30
0.0
  0
ENDBLK
  5
72797
330
7278B
100
AcDbEntity
  8
0
100
AcDbBlockEnd
  0
BLOCK
  5
727A3
330
72799
100
AcDbEntity
  8
0
100
AcDbBlockBegin
  2
*D1
 70
     1
 10
0.0
 20
0.0
 30
0.0
  3
*D1
  1

  0
LINE
  5
727A5
330
72799
100
AcDbEntity
  8
AREA1
 62
     0
370
    -2
100
AcDbLine
 10
0.0
 20
0.6604999999999999
 30
0.0
 11
0.0
 21
1.054950342746071
 31
0.0
  0
LINE
  5
727A6
330
72799
100
AcDbEntity
  8
AREA1
 62
     0
370
    -2
100
AcDbLine
 10
1.759999999999996
 20
0.5884999999999998
 30
0.0
 11
1.759999999999996
 21
1.054950342746071
 31
0.0
  0
LINE
  5
727A7
330
72799
100
AcDbEntity
  8
AREA1
 62
     0
370
    -2
100
AcDbLine
 10
0.125
 20
0.9549503427460717
 30
0.0
 11
1.634999999999996
 21
0.9549503427460717
 31
0.0
  0
MTEXT
  5
727A8
330
72799
100
AcDbEntity
  8
AREA1
 62
     0
100
AcDbMText
 10
0.8822390417000679
 20
1.220961280313451
 30
0.0
 40
0.125
 41
0.0
 46
0.0
 71
     5
 72
     1
  1
\A1;1 49/64 [44.70]
 73
     1
 44
1.0
  0
SOLID
  5
727A9
330
72799
100
AcDbEntity
  8
AREA1
 62
     0
100
AcDbTrace
 10
0.125
 20
0.9757836760794051
 30
0.0
 11
0.125
 21
0.9341170094127383
 31
0.0
 12
0.0
 22
0.9549503427460717
 32
0.0
 13
0.0
 23
0.9549503427460717
 33
0.0
  0
SOLID
  5
727AA
330
72799
100
AcDbEntity
  8
AREA1
 62
     0
100
AcDbTrace
 10
1.634999999999996
 20
0.9757836760794051
 30
0.0
 11
1.634999999999996
 21
0.9341170094127383
 31
0.0
 12
1.759999999999996
 22
0.9549503427460717
 32
0.0
 13
1.759999999999996
 23
0.9549503427460717
 33
0.0
  0
POINT
  5
727AB
330
72799
100
AcDbEntity
  8
Defpoints
 62
     0
100
AcDbPoint
 10
0.0
 20
0.5979999999999999
 30
0.0
  0
POINT
  5
727AC
330
72799
100
AcDbEntity
  8
Defpoints
 62
     0
100
AcDbPoint
 10
1.759999999999996
 20
0.5259999999999998
 30
3.120099999999999
  0
POINT
  5
727AD
330
72799
100
AcDbEntity
  8
Defpoints
 62
     0
100
AcDbPoint
 10
1.759999999999996
 20
0.9549503427460717
 30
0.0
  0
ENDBLK
  5
727A4
330
72799
100
AcDbEntity
  8
0
100
AcDbBlockEnd
  0
ENDSEC
  0
SECTION
  2
ENTITIES
  0
ATTDEF
  5
72385
330
458D6
100
AcDbEntity
  8
ATTRIBUTES
100
AcDbText
 10
0.0984979619675901
 20
-0.1788256642508905
 30
0.0
 40
0.0805203758744914
  1
SPRECHER+SCHUH
100
AcDbAttributeDefinition
  3
MANUFACTURER NAME?
  2
AC_VND_LABEL
 70
     1
280
     0
  0
ATTDEF
  5
72386
330
458D6
100
AcDbEntity
  8
ATTRIBUTES
100
AcDbText
 10
0.0984979619675901
 20
-0.3465764473227475
 30
0.0
 40
0.0805203758744914
  1
CA7-30DU, -37DU
100
AcDbAttributeDefinition
  3
CATALOG NUMBER?
  2
AC_PART_NO
 70
     1
280
     0
  0
ATTDEF
  5
72387
330
458D6
100
AcDbEntity
  8
ATTRIBUTES
100
AcDbText
 10
0.0984979619675901
 20
-0.5143272303946045
 30
0.0
 40
0.0805203758744914
  1
IEC DC CONTACTOR, 30A-37A
100
AcDbAttributeDefinition
  3
PART DESCRIPTION?
  2
AC_DESCRIPTION
 70
     1
280
     0
  0
ATTDEF
  5
72388
330
458D6
100
AcDbEntity
  8
ATTRIBUTES
100
AcDbText
 10
0.0984979619675901
 20
-0.6820780134664615
 30
0.0
 40
0.0805203758744914
  1

100
AcDbAttributeDefinition
  3
DEVICE ID?
  2
DEVICE_ID
 70
     1
280
     0
  0
ATTDEF
  5
72389
330
458D6
100
AcDbEntity
  8
ATTRIBUTES
100
AcDbText
 10
0.0984979619675901
 20
-0.8498287965383184
 30
0.0
 40
0.0805203758744914
  1

100
AcDbAttributeDefinition
  3
CUSTOMER PART NUMBER?
  2
AC_CPART_NO
 70
     1
280
     0
  0
ATTDEF
  5
7238A
330
458D6
100
AcDbEntity
  8
ATTRIBUTES
100
AcDbText
 10
0.0984979619675901
 20
-1.017579579610176
 30
0.0
 40
0.0805203758744914
  1

100
AcDbAttributeDefinition
  3
CUSTOMER NOTE?
  2
AC_NOTE
 70
     1
280
     0
  0
ATTDEF
  5
7238B
330
458D6
100
AcDbEntity
  8
ATTRIBUTES
100
AcDbText
 10
0.0984979619675901
 20
-1.185330362682033
 30
0.0
 40
0.0805203758744914
  1

100
AcDbAttributeDefinition
  3
FASTENER DATA?
  2
FASTENER
 70
     1
280
     0
  0
ATTDEF
  5
7238C
330
458D6
100
AcDbEntity
  8
ATTRIBUTES
100
AcDbText
 10
0.0984979619675901
 20
-1.35308114575389
 30
0.0
 40
0.0805203758744914
  1
INCH
100
AcDbAttributeDefinition
  3
UNIT OF SCALE?
  2
AC_SCALE_UNIT
 70
     1
280
     0
  0
ATTDEF
  5
7238D
330
458D6
100
AcDbEntity
  8
ATTRIBUTES
100
AcDbText
 10
0.0984979619675901
 20
-1.520831928825747
 30
0.0
 40
0.0805203758744914
  1
0
100
AcDbAttributeDefinition
  3
VIEW CODE?
  2
AC_VIEW_CODE
 70
     1
280
     0
  0
POLYLINE
  5
7238E
330
458D6
100
AcDbEntity
  8
0
100
AcDbPolygonMesh
 66
     1
 10
0.0
 20
0.0
 30
0.0
 70
    16
 71
     6
 72
     3
  0
VERTEX
  5
7238F
330
7238E
100
AcDbEntity
  8
0
100
AcDbVertex
100
AcDbPolygonMeshVertex
 10
0.3910000000000001
 20
-1.806
 30
1.318
 70
    64
  0
VERTEX
  5
72390
330
7238E
100
AcDbEntity
  8
0
100
AcDbVertex
100
AcDbPolygonMeshVertex
 10
0.3910000000000001
 20
-1.806
 30
0.187
 70
    64
  0
VERTEX
  5
72391
330
7238E
100
AcDbEntity
  8
0
100
AcDbVertex
100
AcDbPolygonMeshVertex
 10
0.3910000000000001
 20
-1.806
 30
0.187
 70
    64
  0
VERTEX
  5
72392
330
7238E
100
AcDbEntity
  8
0
100
AcDbVertex
100
AcDbPolygonMeshVertex
 10
0.0000000000000001
 20
-1.806
 30
1.318
 70
    64
  0
VERTEX
  5
72393
330
7238E
100
AcDbEntity
  8
0
100
AcDbVertex
100
AcDbPolygonMeshVertex
 10
0.0000000000000001
 20
-1.806
 30
0.187
 70
    64
  0
VERTEX
  5
72394
330
7238E
100
AcDbEntity
  8
0
100
AcDbVertex
100
AcDbPolygonMeshVertex
 10
0.0000000000000001
 20
-1.806
 30
0.187
 70
    64
  0
VERTEX
  5
72395
330
7238E
100
AcDbEntity
  8
0
100
AcDbVertex
100
AcDbPolygonMeshVertex
 10
0.0000000000000001
 20
0.4009999999999998
 30
1.318
 70
    64
  0
VERTEX
  5
72396
330
7238E
100
AcDbEntity
  8
0
100
AcDbVertex
100
AcDbPolygonMeshVertex
 10
0.0000000000000001
 20
0.4009999999999998
 30
0.187
 70
    64
  0
VERTEX
  5
72397
330
7238E
100
AcDbEntity
  8
0
100
AcDbVertex
100
AcDbPolygonMeshVertex
 10
0.0000000000000001
 20
-1.806
 30
0.187
 70
    64
  0
VERTEX
  5
72398
330
7238E
100
AcDbEntity
  8
0
100
AcDbVertex
100
AcDbPolygonMeshVertex
 10
0.3910000000000001
 20
0.4009999999999998
 30
1.318
 70
    64
  0
VERTEX
  5
72399
330
7238E
100
AcDbEntity
  8
0
100
AcDbVertex
100
AcDbPolygonMeshVertex
 10
0.3910000000000001
 20
0.4009999999999998
 30
0.187
 70
    64
  0
VERTEX
  5
7239A
330
7238E
100
AcDbEntity
  8
0
100
AcDbVertex
100
AcDbPolygonMeshVertex
 10
0.3910000000000001
 20
-1.806
 30
0.187
 70
    64
  0
VERTEX
  5
7239B
330
7238E
100
AcDbEntity
  8
0
100
AcDbVertex
100
AcDbPolygonMeshVertex
 10
0.3910000000000001
 20
0.4009999999999998
 30
1.318
 70
    64
  0
VERTEX
  5
7239C
330
7238E
100
AcDbEntity
  8
0
100
AcDbVertex
100
AcDbPolygonMeshVertex
 10
0.3910000000000001
 20
0.4009999999999998
 30
1.318
 70
    64
  0
VERTEX
  5
7239D
330
7238E
100
AcDbEntity
  8
0
100
AcDbVertex
100
AcDbPolygonMeshVertex
 10
0.3910000000000001
 20
-1.806
 30
1.318
 70
    64
  0
VERTEX
  5
7239E
330
7238E
100
AcDbEntity
  8
0
100
AcDbVertex
100
AcDbPolygonMeshVertex
 10
0.0000000000000001
 20
0.4009999999999998
 30
1.318
 70
    64
  0
VERTEX
  5
7239F
330
7238E
100
AcDbEntity
  8
0
100
AcDbVertex
100
AcDbPolygonMeshVertex
 10
0.0000000000000001
 20
0.4009999999999998
 30
1.318
 70
    64
  0
VERTEX
  5
723A0
330
7238E
100
AcDbEntity
  8
0
100
AcDbVertex
100
AcDbPolygonMeshVertex
 10
0.0000000000000001
 20
-1.806
 30
1.318
 70
    64
  0
SEQEND
  5
723A1
330
7238E
100
AcDbEntity
  8
0
  0
POLYLINE
  5
723A2
330
458D6
100
AcDbEntity
  8
0
100
AcDbPolygonMesh
 66
     1
 10
0.0
 20
0.0
 30
0.0
 70
    16
 71
     6
 72
     3
  0
VERTEX
  5
723A3
330
723A2
100
AcDbEntity
  8
0
100
AcDbVertex
100
AcDbPolygonMeshVertex
 10
1.759999999999999
 20
-2.089
 30
1.318
 70
    64
  0
VERTEX
  5
723A4
330
723A2
100
AcDbEntity
  8
0
100
AcDbVertex
100
AcDbPolygonMeshVertex
 10
1.759999999999999
 20
-2.089
 30
0.187
 70
    64
  0
VERTEX
  5
723A5
330
723A2
100
AcDbEntity
  8
0
100
AcDbVertex
100
AcDbPolygonMeshVertex
 10
1.759999999999999
 20
-2.089
 30
0.187
 70
    64
  0
VERTEX
  5
723A6
330
723A2
100
AcDbEntity
  8
0
100
AcDbVertex
100
AcDbPolygonMeshVertex
 10
1.368999999999999
 20
-2.089
 30
1.318
 70
    64
  0
VERTEX
  5
723A7
330
723A2
100
AcDbEntity
  8
0
100
AcDbVertex
100
AcDbPolygonMeshVertex
 10
1.368999999999999
 20
-2.089
 30
0.187
 70
    64
  0
VERTEX
  5
723A8
330
723A2
100
AcDbEntity
  8
0
100
AcDbVertex
100
AcDbPolygonMeshVertex
 10
1.368999999999999
 20
-2.089
 30
0.187
 70
    64
  0
VERTEX
  5
723A9
330
723A2
100
AcDbEntity
  8
0
100
AcDbVertex
100
AcDbPolygonMeshVertex
 10
1.368999999999999
 20
0.1179999999999994
 30
1.318
 70
    64
  0
VERTEX
  5
723AA
330
723A2
100
AcDbEntity
  8
0
100
AcDbVertex
100
AcDbPolygonMeshVertex
 10
1.368999999999999
 20
0.1179999999999994
 30
0.187
 70
    64
  0
VERTEX
  5
723AB
330
723A2
100
AcDbEntity
  8
0
100
AcDbVertex
100
AcDbPolygonMeshVertex
 10
1.368999999999999
 20
-2.089
 30
0.187
 70
    64
  0
VERTEX
  5
723AC
330
723A2
100
AcDbEntity
  8
0
100
AcDbVertex
100
AcDbPolygonMeshVertex
 10
1.759999999999999
 20
0.1179999999999994
 30
1.318
 70
    64
  0
VERTEX
  5
723AD
330
723A2
100
AcDbEntity
  8
0
100
AcDbVertex
100
AcDbPolygonMeshVertex
 10
1.759999999999999
 20
0.1179999999999994
 30
0.187
 70
    64
  0
VERTEX
  5
723AE
330
723A2
100
AcDbEntity
  8
0
100
AcDbVertex
100
AcDbPolygonMeshVertex
 10
1.759999999999999
 20
-2.089
 30
0.187
 70
    64
  0
VERTEX
  5
723AF
330
723A2
100
AcDbEntity
  8
0
100
AcDbVertex
100
AcDbPolygonMeshVertex
 10
1.759999999999999
 20
0.1179999999999994
 30
1.318
 70
    64
  0
VERTEX
  5
723B0
330
723A2
100
AcDbEntity
  8
0
100
AcDbVertex
100
AcDbPolygonMeshVertex
 10
1.759999999999999
 20
0.1179999999999994
 30
1.318
 70
    64
  0
VERTEX
  5
723B1
330
723A2
100
AcDbEntity
  8
0
100
AcDbVertex
100
AcDbPolygonMeshVertex
 10
1.759999999999999
 20
-2.089
 30
1.318
 70
    64
  0
VERTEX
  5
723B2
330
723A2
100
AcDbEntity
  8
0
100
AcDbVertex
100
AcDbPolygonMeshVertex
 10
1.368999999999999
 20
0.1179999999999994
 30
1.318
 70
    64
  0
VERTEX
  5
723B3
330
723A2
100
AcDbEntity
  8
0
100
AcDbVertex
100
AcDbPolygonMeshVertex
 10
1.368999999999999
 20
0.1179999999999994
 30
1.318
 70
    64
  0
VERTEX
  5
723B4
330
723A2
100
AcDbEntity
  8
0
100
AcDbVertex
100
AcDbPolygonMeshVertex
 10
1.368999999999999
 20
-2.089
 30
1.318
 70
    64
  0
SEQEND
  5
723B5
330
723A2
100
AcDbEntity
  8
0
  0
POLYLINE
  5
723B6
330
458D6
100
AcDbEntity
  8
0
100
AcDbPolygonMesh
 66
     1
 10
0.0
 20
0.0
 30
0.0
 70
    16
 71
     6
 72
     3
  0
VERTEX
  5
723B7
330
723B6
100
AcDbEntity
  8
0
100
AcDbVertex
100
AcDbPolygonMeshVertex
 10
1.368999999999999
 20
-2.089
 30
1.318
 70
    64
  0
VERTEX
  5
723B8
330
723B6
100
AcDbEntity
  8
0
100
AcDbVertex
100
AcDbPolygonMeshVertex
 10
1.368999999999999
 20
-2.089
 30
0.187
 70
    64
  0
VERTEX
  5
723B9
330
723B6
100
AcDbEntity
  8
0
100
AcDbVertex
100
AcDbPolygonMeshVertex
 10
1.368999999999999
 20
-2.089
 30
0.187
 70
    64
  0
VERTEX
  5
723BA
330
723B6
100
AcDbEntity
  8
0
100
AcDbVertex
100
AcDbPolygonMeshVertex
 10
0.3910000000000001
 20
-2.089
 30
1.318
 70
    64
  0
VERTEX
  5
723BB
330
723B6
100
AcDbEntity
  8
0
100
AcDbVertex
100
AcDbPolygonMeshVertex
 10
0.3910000000000001
 20
-2.089
 30
0.187
 70
    64
  0
VERTEX
  5
723BC
330
723B6
100
AcDbEntity
  8
0
100
AcDbVertex
100
AcDbPolygonMeshVertex
 10
0.3910000000000001
 20
-2.089
 30
0.187
 70
    64
  0
VERTEX
  5
723BD
330
723B6
100
AcDbEntity
  8
0
100
AcDbVertex
100
AcDbPolygonMeshVertex
 10
0.3910000000000001
 20
0.4009999999999998
 30
1.318
 70
    64
  0
VERTEX
  5
723BE
330
723B6
100
AcDbEntity
  8
0
100
AcDbVertex
100
AcDbPolygonMeshVertex
 10
0.3910000000000001
 20
0.4009999999999998
 30
0.187
 70
    64
  0
VERTEX
  5
723BF
330
723B6
100
AcDbEntity
  8
0
100
AcDbVertex
100
AcDbPolygonMeshVertex
 10
0.3910000000000001
 20
-2.089
 30
0.187
 70
    64
  0
VERTEX
  5
723C0
330
723B6
100
AcDbEntity
  8
0
100
AcDbVertex
100
AcDbPolygonMeshVertex
 10
1.368999999999999
 20
0.4009999999999998
 30
1.318
 70
    64
  0
VERTEX
  5
723C1
330
723B6
100
AcDbEntity
  8
0
100
AcDbVertex
100
AcDbPolygonMeshVertex
 10
1.368999999999999
 20
0.4009999999999998
 30
0.187
 70
    64
  0
VERTEX
  5
723C2
330
723B6
100
AcDbEntity
  8
0
100
AcDbVertex
100
AcDbPolygonMeshVertex
 10
1.368999999999999
 20
-2.089
 30
0.187
 70
    64
  0
VERTEX
  5
723C3
330
723B6
100
AcDbEntity
  8
0
100
AcDbVertex
100
AcDbPolygonMeshVertex
 10
1.368999999999999
 20
0.4009999999999998
 30
1.318
 70
    64
  0
VERTEX
  5
723C4
330
723B6
100
AcDbEntity
  8
0
100
AcDbVertex
100
AcDbPolygonMeshVertex
 10
1.368999999999999
 20
0.4009999999999998
 30
1.318
 70
    64
  0
VERTEX
  5
723C5
330
723B6
100
AcDbEntity
  8
0
100
AcDbVertex
100
AcDbPolygonMeshVertex
 10
1.368999999999999
 20
-2.089
 30
1.318
 70
    64
  0
VERTEX
  5
723C6
330
723B6
100
AcDbEntity
  8
0
100
AcDbVertex
100
AcDbPolygonMeshVertex
 10
0.3910000000000001
 20
0.4009999999999998
 30
1.318
 70
    64
  0
VERTEX
  5
723C7
330
723B6
100
AcDbEntity
  8
0
100
AcDbVertex
100
AcDbPolygonMeshVertex
 10
0.3910000000000001
 20
0.4009999999999998
 30
1.318
 70
    64
  0
VERTEX
  5
723C8
330
723B6
100
AcDbEntity
  8
0
100
AcDbVertex
100
AcDbPolygonMeshVertex
 10
0.3910000000000001
 20
-2.089
 30
1.318
 70
    64
  0
SEQEND
  5
723C9
330
723B6
100
AcDbEntity
  8
0
  0
LINE
  5
723CA
330
458D6
100
AcDbEntity
  8
0
100
AcDbLine
 10
1.58083333333333
 20
-2.089
 30
3.7721
 11
1.58083333333333
 21
-2.089
 31
4.491099999999999
  0
LINE
  5
723CB
330
458D6
100
AcDbEntity
  8
0
100
AcDbLine
 10
1.315833333333331
 20
-2.089
 30
3.7721
 11
1.315833333333331
 21
-2.089
 31
4.491099999999999
  0
LINE
  5
723CC
330
458D6
100
AcDbEntity
  8
0
100
AcDbLine
 10
1.58083333333333
 20
-2.089
 30
4.491099999999999
 11
1.315833333333331
 21
-2.089
 31
4.491099999999999
  0
LINE
  5
723CD
330
458D6
100
AcDbEntity
  8
0
100
AcDbLine
 10
1.315833333333331
 20
-2.089
 30
3.7721
 11
1.58083333333333
 21
-2.089
 31
3.7721
  0
POLYLINE
  5
723CE
330
458D6
100
AcDbEntity
  8
0
100
AcDbPolygonMesh
 66
     1
 10
0.0
 20
0.0
 30
0.0
 70
    16
 71
     6
 72
     3
  0
VERTEX
  5
723CF
330
723CE
100
AcDbEntity
  8
0
100
AcDbVertex
100
AcDbPolygonMeshVertex
 10
0.623333333333334
 20
-2.214
 30
4.491099999999999
 70
    64
  0
VERTEX
  5
723D0
330
723CE
100
AcDbEntity
  8
0
100
AcDbVertex
100
AcDbPolygonMeshVertex
 10
0.623333333333334
 20
-2.214
 30
3.7721
 70
    64
  0
VERTEX
  5
723D1
330
723CE
100
AcDbEntity
  8
0
100
AcDbVertex
100
AcDbPolygonMeshVertex
 10
0.623333333333334
 20
-2.214
 30
3.7721
 70
    64
  0
VERTEX
  5
723D2
330
723CE
100
AcDbEntity
  8
0
100
AcDbVertex
100
AcDbPolygonMeshVertex
 10
0.5683333333333343
 20
-2.214
 30
4.491099999999999
 70
    64
  0
VERTEX
  5
723D3
330
723CE
100
AcDbEntity
  8
0
100
AcDbVertex
100
AcDbPolygonMeshVertex
 10
0.5683333333333343
 20
-2.214
 30
3.7721
 70
    64
  0
VERTEX
  5
723D4
330
723CE
100
AcDbEntity
  8
0
100
AcDbVertex
100
AcDbPolygonMeshVertex
 10
0.5683333333333343
 20
-2.214
 30
3.7721
 70
    64
  0
VERTEX
  5
723D5
330
723CE
100
AcDbEntity
  8
0
100
AcDbVertex
100
AcDbPolygonMeshVertex
 10
0.5683333333333343
 20
-2.089
 30
4.491099999999999
 70
    64
  0
VERTEX
  5
723D6
330
723CE
100
AcDbEntity
  8
0
100
AcDbVertex
100
AcDbPolygonMeshVertex
 10
0.5683333333333343
 20
-2.089
 30
3.7721
 70
    64
  0
VERTEX
  5
723D7
330
723CE
100
AcDbEntity
  8
0
100
AcDbVertex
100
AcDbPolygonMeshVertex
 10
0.5683333333333343
 20
-2.214
 30
3.7721
 70
    64
  0
VERTEX
  5
723D8
330
723CE
100
AcDbEntity
  8
0
100
AcDbVertex
100
AcDbPolygonMeshVertex
 10
0.623333333333334
 20
-2.089
 30
4.491099999999999
 70
    64
  0
VERTEX
  5
723D9
330
723CE
100
AcDbEntity
  8
0
100
AcDbVertex
100
AcDbPolygonMeshVertex
 10
0.623333333333334
 20
-2.089
 30
3.7721
 70
    64
  0
VERTEX
  5
723DA
330
723CE
100
AcDbEntity
  8
0
100
AcDbVertex
100
AcDbPolygonMeshVertex
 10
0.623333333333334
 20
-2.214
 30
3.7721
 70
    64
  0
VERTEX
  5
723DB
330
723CE
100
AcDbEntity
  8
0
100
AcDbVertex
100
AcDbPolygonMeshVertex
 10
0.623333333333334
 20
-2.089
 30
4.491099999999999
 70
    64
  0
VERTEX
  5
723DC
330
723CE
100
AcDbEntity
  8
0
100
AcDbVertex
100
AcDbPolygonMeshVertex
 10
0.623333333333334
 20
-2.089
 30
4.491099999999999
 70
    64
  0
VERTEX
  5
723DD
330
723CE
100
AcDbEntity
  8
0
100
AcDbVertex
100
AcDbPolygonMeshVertex
 10
0.623333333333334
 20
-2.214
 30
4.491099999999999
 70
    64
  0
VERTEX
  5
723DE
330
723CE
100
AcDbEntity
  8
0
100
AcDbVertex
100
AcDbPolygonMeshVertex
 10
0.5683333333333343
 20
-2.089
 30
4.491099999999999
 70
    64
  0
VERTEX
  5
723DF
330
723CE
100
AcDbEntity
  8
0
100
AcDbVertex
100
AcDbPolygonMeshVertex
 10
0.5683333333333343
 20
-2.089
 30
4.491099999999999
 70
    64
  0
VERTEX
  5
723E0
330
723CE
100
AcDbEntity
  8
0
100
AcDbVertex
100
AcDbPolygonMeshVertex
 10
0.5683333333333343
 20
-2.214
 30
4.491099999999999
 70
    64
  0
SEQEND
  5
723E1
330
723CE
100
AcDbEntity
  8
0
  0
POLYLINE
  5
723E2
330
458D6
100
AcDbEntity
  8
0
100
AcDbPolygonMesh
 66
     1
 10
0.0
 20
0.0
 30
0.0
 70
    16
 71
     6
 72
     3
  0
VERTEX
  5
723E3
330
723E2
100
AcDbEntity
  8
0
100
AcDbVertex
100
AcDbPolygonMeshVertex
 10
1.191666666666665
 20
-2.214
 30
4.491099999999999
 70
    64
  0
VERTEX
  5
723E4
330
723E2
100
AcDbEntity
  8
0
100
AcDbVertex
100
AcDbPolygonMeshVertex
 10
1.191666666666665
 20
-2.214
 30
3.7721
 70
    64
  0
VERTEX
  5
723E5
330
723E2
100
AcDbEntity
  8
0
100
AcDbVertex
100
AcDbPolygonMeshVertex
 10
1.191666666666665
 20
-2.214
 30
3.7721
 70
    64
  0
VERTEX
  5
723E6
330
723E2
100
AcDbEntity
  8
0
100
AcDbVertex
100
AcDbPolygonMeshVertex
 10
1.136666666666665
 20
-2.214
 30
4.491099999999999
 70
    64
  0
VERTEX
  5
723E7
330
723E2
100
AcDbEntity
  8
0
100
AcDbVertex
100
AcDbPolygonMeshVertex
 10
1.136666666666665
 20
-2.214
 30
3.7721
 70
    64
  0
VERTEX
  5
723E8
330
723E2
100
AcDbEntity
  8
0
100
AcDbVertex
100
AcDbPolygonMeshVertex
 10
1.136666666666665
 20
-2.214
 30
3.7721
 70
    64
  0
VERTEX
  5
723E9
330
723E2
100
AcDbEntity
  8
0
100
AcDbVertex
100
AcDbPolygonMeshVertex
 10
1.136666666666665
 20
-2.089
 30
4.491099999999999
 70
    64
  0
VERTEX
  5
723EA
330
723E2
100
AcDbEntity
  8
0
100
AcDbVertex
100
AcDbPolygonMeshVertex
 10
1.136666666666665
 20
-2.089
 30
3.7721
 70
    64
  0
VERTEX
  5
723EB
330
723E2
100
AcDbEntity
  8
0
100
AcDbVertex
100
AcDbPolygonMeshVertex
 10
1.136666666666665
 20
-2.214
 30
3.7721
 70
    64
  0
VERTEX
  5
723EC
330
723E2
100
AcDbEntity
  8
0
100
AcDbVertex
100
AcDbPolygonMeshVertex
 10
1.191666666666665
 20
-2.089
 30
4.491099999999999
 70
    64
  0
VERTEX
  5
723ED
330
723E2
100
AcDbEntity
  8
0
100
AcDbVertex
100
AcDbPolygonMeshVertex
 10
1.191666666666665
 20
-2.089
 30
3.7721
 70
    64
  0
VERTEX
  5
723EE
330
723E2
100
AcDbEntity
  8
0
100
AcDbVertex
100
AcDbPolygonMeshVertex
 10
1.191666666666665
 20
-2.214
 30
3.7721
 70
    64
  0
VERTEX
  5
723EF
330
723E2
100
AcDbEntity
  8
0
100
AcDbVertex
100
AcDbPolygonMeshVertex
 10
1.191666666666665
 20
-2.089
 30
4.491099999999999
 70
    64
  0
VERTEX
  5
723F0
330
723E2
100
AcDbEntity
  8
0
100
AcDbVertex
100
AcDbPolygonMeshVertex
 10
1.191666666666665
 20
-2.089
 30
4.491099999999999
 70
    64
  0
VERTEX
  5
723F1
330
723E2
100
AcDbEntity
  8
0
100
AcDbVertex
100
AcDbPolygonMeshVertex
 10
1.191666666666665
 20
-2.214
 30
4.491099999999999
 70
    64
  0
VERTEX
  5
723F2
330
723E2
100
AcDbEntity
  8
0
100
AcDbVertex
100
AcDbPolygonMeshVertex
 10
1.136666666666665
 20
-2.089
 30
4.491099999999999
 70
    64
  0
VERTEX
  5
723F3
330
723E2
100
AcDbEntity
  8
0
100
AcDbVertex
100
AcDbPolygonMeshVertex
 10
1.136666666666665
 20
-2.089
 30
4.491099999999999
 70
    64
  0
VERTEX
  5
723F4
330
723E2
100
AcDbEntity
  8
0
100
AcDbVertex
100
AcDbPolygonMeshVertex
 10
1.136666666666665
 20
-2.214
 30
4.491099999999999
 70
    64
  0
SEQEND
  5
723F5
330
723E2
100
AcDbEntity
  8
0
  0
LINE
  5
723F6
330
458D6
100
AcDbEntity
  8
0
100
AcDbLine
 10
1.58083333333333
 20
-2.089
 30
4.131599999999999
 11
1.315833333333331
 21
-2.089
 31
4.131599999999999
  0
POLYLINE
  5
723F7
330
458D6
100
AcDbEntity
  8
0
100
AcDbPolygonMesh
 66
     1
 10
0.0
 20
0.0
 30
0.0
 70
    16
 71
     6
 72
     3
  0
VERTEX
  5
723F8
330
723F7
100
AcDbEntity
  8
0
100
AcDbVertex
100
AcDbPolygonMeshVertex
 10
1.759999999999996
 20
-2.214
 30
4.491099999999999
 70
    64
  0
VERTEX
  5
723F9
330
723F7
100
AcDbEntity
  8
0
100
AcDbVertex
100
AcDbPolygonMeshVertex
 10
1.759999999999996
 20
-2.214
 30
3.120099999999999
 70
    64
  0
VERTEX
  5
723FA
330
723F7
100
AcDbEntity
  8
0
100
AcDbVertex
100
AcDbPolygonMeshVertex
 10
1.759999999999996
 20
-2.214
 30
3.120099999999999
 70
    64
  0
VERTEX
  5
723FB
330
723F7
100
AcDbEntity
  8
0
100
AcDbVertex
100
AcDbPolygonMeshVertex
 10
1.704999999999996
 20
-2.214
 30
4.491099999999999
 70
    64
  0
VERTEX
  5
723FC
330
723F7
100
AcDbEntity
  8
0
100
AcDbVertex
100
AcDbPolygonMeshVertex
 10
1.704999999999996
 20
-2.214
 30
3.120099999999999
 70
    64
  0
VERTEX
  5
723FD
330
723F7
100
AcDbEntity
  8
0
100
AcDbVertex
100
AcDbPolygonMeshVertex
 10
1.704999999999996
 20
-2.214
 30
3.120099999999999
 70
    64
  0
VERTEX
  5
723FE
330
723F7
100
AcDbEntity
  8
0
100
AcDbVertex
100
AcDbPolygonMeshVertex
 10
1.704999999999996
 20
-2.089
 30
4.491099999999999
 70
    64
  0
VERTEX
  5
723FF
330
723F7
100
AcDbEntity
  8
0
100
AcDbVertex
100
AcDbPolygonMeshVertex
 10
1.704999999999996
 20
-2.089
 30
3.120099999999999
 70
    64
  0
VERTEX
  5
72400
330
723F7
100
AcDbEntity
  8
0
100
AcDbVertex
100
AcDbPolygonMeshVertex
 10
1.704999999999996
 20
-2.214
 30
3.120099999999999
 70
    64
  0
VERTEX
  5
72401
330
723F7
100
AcDbEntity
  8
0
100
AcDbVertex
100
AcDbPolygonMeshVertex
 10
1.759999999999996
 20
-2.089
 30
4.491099999999999
 70
    64
  0
VERTEX
  5
72402
330
723F7
100
AcDbEntity
  8
0
100
AcDbVertex
100
AcDbPolygonMeshVertex
 10
1.759999999999996
 20
-2.089
 30
3.120099999999999
 70
    64
  0
VERTEX
  5
72403
330
723F7
100
AcDbEntity
  8
0
100
AcDbVertex
100
AcDbPolygonMeshVertex
 10
1.759999999999996
 20
-2.214
 30
3.120099999999999
 70
    64
  0
VERTEX
  5
72404
330
723F7
100
AcDbEntity
  8
0
100
AcDbVertex
100
AcDbPolygonMeshVertex
 10
1.759999999999996
 20
-2.089
 30
4.491099999999999
 70
    64
  0
VERTEX
  5
72405
330
723F7
100
AcDbEntity
  8
0
100
AcDbVertex
100
AcDbPolygonMeshVertex
 10
1.759999999999996
 20
-2.089
 30
4.491099999999999
 70
    64
  0
VERTEX
  5
72406
330
723F7
100
AcDbEntity
  8
0
100
AcDbVertex
100
AcDbPolygonMeshVertex
 10
1.759999999999996
 20
-2.214
 30
4.491099999999999
 70
    64
  0
VERTEX
  5
72407
330
723F7
100
AcDbEntity
  8
0
100
AcDbVertex
100
AcDbPolygonMeshVertex
 10
1.704999999999996
 20
-2.089
 30
4.491099999999999
 70
    64
  0
VERTEX
  5
72408
330
723F7
100
AcDbEntity
  8
0
100
AcDbVertex
100
AcDbPolygonMeshVertex
 10
1.704999999999996
 20
-2.089
 30
4.491099999999999
 70
    64
  0
VERTEX
  5
72409
330
723F7
100
AcDbEntity
  8
0
100
AcDbVertex
100
AcDbPolygonMeshVertex
 10
1.704999999999996
 20
-2.214
 30
4.491099999999999
 70
    64
  0
SEQEND
  5
7240A
330
723F7
100
AcDbEntity
  8
0
  0
POLYLINE
  5
7240B
330
458D6
100
AcDbEntity
  8
0
100
AcDbPolygonMesh
 66
     1
 10
0.0
 20
0.0
 30
0.0
 70
    16
 71
     6
 72
     3
  0
VERTEX
  5
7240C
330
7240B
100
AcDbEntity
  8
0
100
AcDbVertex
100
AcDbPolygonMeshVertex
 10
0.0000000000000036
 20
-2.214
 30
4.491099999999999
 70
    64
  0
VERTEX
  5
7240D
330
7240B
100
AcDbEntity
  8
0
100
AcDbVertex
100
AcDbPolygonMeshVertex
 10
0.0000000000000036
 20
-2.214
 30
3.120099999999999
 70
    64
  0
VERTEX
  5
7240E
330
7240B
100
AcDbEntity
  8
0
100
AcDbVertex
100
AcDbPolygonMeshVertex
 10
0.0000000000000036
 20
-2.214
 30
3.120099999999999
 70
    64
  0
VERTEX
  5
7240F
330
7240B
100
AcDbEntity
  8
0
100
AcDbVertex
100
AcDbPolygonMeshVertex
 10
0.0550000000000033
 20
-2.214
 30
4.491099999999999
 70
    64
  0
VERTEX
  5
72410
330
7240B
100
AcDbEntity
  8
0
100
AcDbVertex
100
AcDbPolygonMeshVertex
 10
0.0550000000000033
 20
-2.214
 30
3.120099999999999
 70
    64
  0
VERTEX
  5
72411
330
7240B
100
AcDbEntity
  8
0
100
AcDbVertex
100
AcDbPolygonMeshVertex
 10
0.0550000000000033
 20
-2.214
 30
3.120099999999999
 70
    64
  0
VERTEX
  5
72412
330
7240B
100
AcDbEntity
  8
0
100
AcDbVertex
100
AcDbPolygonMeshVertex
 10
0.0550000000000033
 20
-2.089
 30
4.491099999999999
 70
    64
  0
VERTEX
  5
72413
330
7240B
100
AcDbEntity
  8
0
100
AcDbVertex
100
AcDbPolygonMeshVertex
 10
0.0550000000000033
 20
-2.089
 30
3.120099999999999
 70
    64
  0
VERTEX
  5
72414
330
7240B
100
AcDbEntity
  8
0
100
AcDbVertex
100
AcDbPolygonMeshVertex
 10
0.0550000000000033
 20
-2.214
 30
3.120099999999999
 70
    64
  0
VERTEX
  5
72415
330
7240B
100
AcDbEntity
  8
0
100
AcDbVertex
100
AcDbPolygonMeshVertex
 10
0.0000000000000036
 20
-2.089
 30
4.491099999999999
 70
    64
  0
VERTEX
  5
72416
330
7240B
100
AcDbEntity
  8
0
100
AcDbVertex
100
AcDbPolygonMeshVertex
 10
0.0000000000000036
 20
-2.089
 30
3.120099999999999
 70
    64
  0
VERTEX
  5
72417
330
7240B
100
AcDbEntity
  8
0
100
AcDbVertex
100
AcDbPolygonMeshVertex
 10
0.0000000000000036
 20
-2.214
 30
3.120099999999999
 70
    64
  0
VERTEX
  5
72418
330
7240B
100
AcDbEntity
  8
0
100
AcDbVertex
100
AcDbPolygonMeshVertex
 10
0.0000000000000036
 20
-2.089
 30
4.491099999999999
 70
    64
  0
VERTEX
  5
72419
330
7240B
100
AcDbEntity
  8
0
100
AcDbVertex
100
AcDbPolygonMeshVertex
 10
0.0000000000000036
 20
-2.089
 30
4.491099999999999
 70
    64
  0
VERTEX
  5
7241A
330
7240B
100
AcDbEntity
  8
0
100
AcDbVertex
100
AcDbPolygonMeshVertex
 10
0.0000000000000036
 20
-2.214
 30
4.491099999999999
 70
    64
  0
VERTEX
  5
7241B
330
7240B
100
AcDbEntity
  8
0
100
AcDbVertex
100
AcDbPolygonMeshVertex
 10
0.0550000000000033
 20
-2.089
 30
4.491099999999999
 70
    64
  0
VERTEX
  5
7241C
330
7240B
100
AcDbEntity
  8
0
100
AcDbVertex
100
AcDbPolygonMeshVertex
 10
0.0550000000000033
 20
-2.089
 30
4.491099999999999
 70
    64
  0
VERTEX
  5
7241D
330
7240B
100
AcDbEntity
  8
0
100
AcDbVertex
100
AcDbPolygonMeshVertex
 10
0.0550000000000033
 20
-2.214
 30
4.491099999999999
 70
    64
  0
SEQEND
  5
7241E
330
7240B
100
AcDbEntity
  8
0
  0
LINE
  5
7241F
330
458D6
100
AcDbEntity
  8
0
100
AcDbLine
 10
0.7475000000000005
 20
-2.089
 30
3.7721
 11
0.7475000000000005
 21
-2.089
 31
4.491099999999999
  0
LINE
  5
72420
330
458D6
100
AcDbEntity
  8
0
100
AcDbLine
 10
1.0125
 20
-2.089
 30
3.7721
 11
1.0125
 21
-2.089
 31
4.491099999999999
  0
LINE
  5
72421
330
458D6
100
AcDbEntity
  8
0
100
AcDbLine
 10
1.0125
 20
-2.089
 30
4.131599999999999
 11
0.7475000000000005
 21
-2.089
 31
4.131599999999999
  0
LINE
  5
72422
330
458D6
100
AcDbEntity
  8
0
100
AcDbLine
 10
1.0125
 20
-2.089
 30
4.491099999999999
 11
0.7475000000000005
 21
-2.089
 31
4.491099999999999
  0
LINE
  5
72423
330
458D6
100
AcDbEntity
  8
0
100
AcDbLine
 10
0.7475000000000005
 20
-2.089
 30
3.7721
 11
1.0125
 21
-2.089
 31
3.7721
  0
LINE
  5
72424
330
458D6
100
AcDbEntity
  8
0
100
AcDbLine
 10
0.179166666666669
 20
-2.119
 30
3.7721
 11
0.179166666666669
 21
-2.119
 31
4.491099999999999
  0
LINE
  5
72425
330
458D6
100
AcDbEntity
  8
0
100
AcDbLine
 10
0.4441666666666687
 20
-2.089
 30
3.7721
 11
0.4441666666666687
 21
-2.089
 31
4.491099999999999
  0
LINE
  5
72426
330
458D6
100
AcDbEntity
  8
0
100
AcDbLine
 10
0.179166666666669
 20
-2.089
 30
3.7721
 11
0.4441666666666687
 21
-2.089
 31
3.7721
  0
LINE
  5
72427
330
458D6
100
AcDbEntity
  8
0
100
AcDbLine
 10
0.4441666666666687
 20
-2.089
 30
4.131599999999999
 11
0.179166666666669
 21
-2.089
 31
4.131599999999999
  0
LINE
  5
72428
330
458D6
100
AcDbEntity
  8
0
100
AcDbLine
 10
0.4441666666666687
 20
-2.089
 30
4.491099999999999
 11
0.179166666666669
 21
-2.089
 31
4.491099999999999
  0
POLYLINE
  5
72429
330
458D6
100
AcDbEntity
  8
0
100
AcDbPolygonMesh
 66
     1
 10
0.0
 20
0.0
 30
0.0
 70
    16
 71
     6
 72
     3
  0
VERTEX
  5
7242A
330
72429
100
AcDbEntity
  8
0
100
AcDbVertex
100
AcDbPolygonMeshVertex
 10
1.759999999999996
 20
0.5259999999999998
 30
4.491099999999999
 70
    64
  0
VERTEX
  5
7242B
330
72429
100
AcDbEntity
  8
0
100
AcDbVertex
100
AcDbPolygonMeshVertex
 10
1.759999999999996
 20
0.5259999999999998
 30
3.120099999999999
 70
    64
  0
VERTEX
  5
7242C
330
72429
100
AcDbEntity
  8
0
100
AcDbVertex
100
AcDbPolygonMeshVertex
 10
1.759999999999996
 20
0.5259999999999998
 30
3.120099999999999
 70
    64
  0
VERTEX
  5
7242D
330
72429
100
AcDbEntity
  8
0
100
AcDbVertex
100
AcDbPolygonMeshVertex
 10
1.704999999999996
 20
0.5259999999999998
 30
4.491099999999999
 70
    64
  0
VERTEX
  5
7242E
330
72429
100
AcDbEntity
  8
0
100
AcDbVertex
100
AcDbPolygonMeshVertex
 10
1.704999999999996
 20
0.5259999999999998
 30
3.120099999999999
 70
    64
  0
VERTEX
  5
7242F
330
72429
100
AcDbEntity
  8
0
100
AcDbVertex
100
AcDbPolygonMeshVertex
 10
1.704999999999996
 20
0.5259999999999998
 30
3.120099999999999
 70
    64
  0
VERTEX
  5
72430
330
72429
100
AcDbEntity
  8
0
100
AcDbVertex
100
AcDbPolygonMeshVertex
 10
1.704999999999996
 20
0.4009999999999998
 30
4.491099999999999
 70
    64
  0
VERTEX
  5
72431
330
72429
100
AcDbEntity
  8
0
100
AcDbVertex
100
AcDbPolygonMeshVertex
 10
1.704999999999996
 20
0.4009999999999998
 30
3.120099999999999
 70
    64
  0
VERTEX
  5
72432
330
72429
100
AcDbEntity
  8
0
100
AcDbVertex
100
AcDbPolygonMeshVertex
 10
1.704999999999996
 20
0.5259999999999998
 30
3.120099999999999
 70
    64
  0
VERTEX
  5
72433
330
72429
100
AcDbEntity
  8
0
100
AcDbVertex
100
AcDbPolygonMeshVertex
 10
1.759999999999996
 20
0.4009999999999998
 30
4.491099999999999
 70
    64
  0
VERTEX
  5
72434
330
72429
100
AcDbEntity
  8
0
100
AcDbVertex
100
AcDbPolygonMeshVertex
 10
1.759999999999996
 20
0.4009999999999998
 30
3.120099999999999
 70
    64
  0
VERTEX
  5
72435
330
72429
100
AcDbEntity
  8
0
100
AcDbVertex
100
AcDbPolygonMeshVertex
 10
1.759999999999996
 20
0.5259999999999998
 30
3.120099999999999
 70
    64
  0
VERTEX
  5
72436
330
72429
100
AcDbEntity
  8
0
100
AcDbVertex
100
AcDbPolygonMeshVertex
 10
1.759999999999996
 20
0.4009999999999998
 30
4.491099999999999
 70
    64
  0
VERTEX
  5
72437
330
72429
100
AcDbEntity
  8
0
100
AcDbVertex
100
AcDbPolygonMeshVertex
 10
1.759999999999996
 20
0.4009999999999998
 30
4.491099999999999
 70
    64
  0
VERTEX
  5
72438
330
72429
100
AcDbEntity
  8
0
100
AcDbVertex
100
AcDbPolygonMeshVertex
 10
1.759999999999996
 20
0.5259999999999998
 30
4.491099999999999
 70
    64
  0
VERTEX
  5
72439
330
72429
100
AcDbEntity
  8
0
100
AcDbVertex
100
AcDbPolygonMeshVertex
 10
1.704999999999996
 20
0.4009999999999998
 30
4.491099999999999
 70
    64
  0
VERTEX
  5
7243A
330
72429
100
AcDbEntity
  8
0
100
AcDbVertex
100
AcDbPolygonMeshVertex
 10
1.704999999999996
 20
0.4009999999999998
 30
4.491099999999999
 70
    64
  0
VERTEX
  5
7243B
330
72429
100
AcDbEntity
  8
0
100
AcDbVertex
100
AcDbPolygonMeshVertex
 10
1.704999999999996
 20
0.5259999999999998
 30
4.491099999999999
 70
    64
  0
SEQEND
  5
7243C
330
72429
100
AcDbEntity
  8
0
  0
POLYLINE
  5
7243D
330
458D6
100
AcDbEntity
  8
0
100
AcDbPolygonMesh
 66
     1
 10
0.0
 20
0.0
 30
0.0
 70
    16
 71
     6
 72
     3
  0
VERTEX
  5
7243E
330
7243D
100
AcDbEntity
  8
0
100
AcDbVertex
100
AcDbPolygonMeshVertex
 10
1.191666666666665
 20
0.5259999999999998
 30
4.491099999999999
 70
    64
  0
VERTEX
  5
7243F
330
7243D
100
AcDbEntity
  8
0
100
AcDbVertex
100
AcDbPolygonMeshVertex
 10
1.191666666666665
 20
0.5259999999999998
 30
3.7721
 70
    64
  0
VERTEX
  5
72440
330
7243D
100
AcDbEntity
  8
0
100
AcDbVertex
100
AcDbPolygonMeshVertex
 10
1.191666666666665
 20
0.5259999999999998
 30
3.7721
 70
    64
  0
VERTEX
  5
72441
330
7243D
100
AcDbEntity
  8
0
100
AcDbVertex
100
AcDbPolygonMeshVertex
 10
1.136666666666665
 20
0.5259999999999998
 30
4.491099999999999
 70
    64
  0
VERTEX
  5
72442
330
7243D
100
AcDbEntity
  8
0
100
AcDbVertex
100
AcDbPolygonMeshVertex
 10
1.136666666666665
 20
0.5259999999999998
 30
3.7721
 70
    64
  0
VERTEX
  5
72443
330
7243D
100
AcDbEntity
  8
0
100
AcDbVertex
100
AcDbPolygonMeshVertex
 10
1.136666666666665
 20
0.5259999999999998
 30
3.7721
 70
    64
  0
VERTEX
  5
72444
330
7243D
100
AcDbEntity
  8
0
100
AcDbVertex
100
AcDbPolygonMeshVertex
 10
1.136666666666665
 20
0.4009999999999998
 30
4.491099999999999
 70
    64
  0
VERTEX
  5
72445
330
7243D
100
AcDbEntity
  8
0
100
AcDbVertex
100
AcDbPolygonMeshVertex
 10
1.136666666666665
 20
0.4009999999999998
 30
3.7721
 70
    64
  0
VERTEX
  5
72446
330
7243D
100
AcDbEntity
  8
0
100
AcDbVertex
100
AcDbPolygonMeshVertex
 10
1.136666666666665
 20
0.5259999999999998
 30
3.7721
 70
    64
  0
VERTEX
  5
72447
330
7243D
100
AcDbEntity
  8
0
100
AcDbVertex
100
AcDbPolygonMeshVertex
 10
1.191666666666665
 20
0.4009999999999998
 30
4.491099999999999
 70
    64
  0
VERTEX
  5
72448
330
7243D
100
AcDbEntity
  8
0
100
AcDbVertex
100
AcDbPolygonMeshVertex
 10
1.191666666666665
 20
0.4009999999999998
 30
3.7721
 70
    64
  0
VERTEX
  5
72449
330
7243D
100
AcDbEntity
  8
0
100
AcDbVertex
100
AcDbPolygonMeshVertex
 10
1.191666666666665
 20
0.5259999999999998
 30
3.7721
 70
    64
  0
VERTEX
  5
7244A
330
7243D
100
AcDbEntity
  8
0
100
AcDbVertex
100
AcDbPolygonMeshVertex
 10
1.191666666666665
 20
0.4009999999999998
 30
4.491099999999999
 70
    64
  0
VERTEX
  5
7244B
330
7243D
100
AcDbEntity
  8
0
100
AcDbVertex
100
AcDbPolygonMeshVertex
 10
1.191666666666665
 20
0.4009999999999998
 30
4.491099999999999
 70
    64
  0
VERTEX
  5
7244C
330
7243D
100
AcDbEntity
  8
0
100
AcDbVertex
100
AcDbPolygonMeshVertex
 10
1.191666666666665
 20
0.5259999999999998
 30
4.491099999999999
 70
    64
  0
VERTEX
  5
7244D
330
7243D
100
AcDbEntity
  8
0
100
AcDbVertex
100
AcDbPolygonMeshVertex
 10
1.136666666666665
 20
0.4009999999999998
 30
4.491099999999999
 70
    64
  0
VERTEX
  5
7244E
330
7243D
100
AcDbEntity
  8
0
100
AcDbVertex
100
AcDbPolygonMeshVertex
 10
1.136666666666665
 20
0.4009999999999998
 30
4.491099999999999
 70
    64
  0
VERTEX
  5
7244F
330
7243D
100
AcDbEntity
  8
0
100
AcDbVertex
100
AcDbPolygonMeshVertex
 10
1.136666666666665
 20
0.5259999999999998
 30
4.491099999999999
 70
    64
  0
SEQEND
  5
72450
330
7243D
100
AcDbEntity
  8
0
  0
LINE
  5
72451
330
458D6
100
AcDbEntity
  8
0
100
AcDbLine
 10
1.0125
 20
0.4009999999999998
 30
3.7721
 11
1.0125
 21
0.4009999999999998
 31
4.491099999999999
  0
LINE
  5
72452
330
458D6
100
AcDbEntity
  8
0
100
AcDbLine
 10
1.315833333333331
 20
0.4009999999999998
 30
3.7721
 11
1.315833333333331
 21
0.4009999999999998
 31
4.491099999999999
  0
LINE
  5
72453
330
458D6
100
AcDbEntity
  8
0
100
AcDbLine
 10
1.58083333333333
 20
0.4009999999999998
 30
3.7721
 11
1.58083333333333
 21
0.4009999999999998
 31
4.491099999999999
  0
LINE
  5
72454
330
458D6
100
AcDbEntity
  8
0
100
AcDbLine
 10
1.315833333333331
 20
0.4009999999999998
 30
3.7721
 11
1.58083333333333
 21
0.4009999999999998
 31
3.7721
  0
LINE
  5
72455
330
458D6
100
AcDbEntity
  8
0
100
AcDbLine
 10
1.58083333333333
 20
0.4009999999999998
 30
4.131599999999999
 11
1.315833333333331
 21
0.4009999999999998
 31
4.131599999999999
  0
LINE
  5
72456
330
458D6
100
AcDbEntity
  8
0
100
AcDbLine
 10
1.58083333333333
 20
0.4009999999999998
 30
4.491099999999999
 11
1.315833333333331
 21
0.4009999999999998
 31
4.491099999999999
  0
LINE
  5
72457
330
458D6
100
AcDbEntity
  8
0
100
AcDbLine
 10
0.7475000000000005
 20
0.4009999999999998
 30
3.7721
 11
0.7475000000000005
 21
0.4009999999999998
 31
4.491099999999999
  0
LINE
  5
72458
330
458D6
100
AcDbEntity
  8
0
100
AcDbLine
 10
0.7475000000000005
 20
0.4009999999999998
 30
3.7721
 11
1.0125
 21
0.4009999999999998
 31
3.7721
  0
LINE
  5
72459
330
458D6
100
AcDbEntity
  8
0
100
AcDbLine
 10
1.0125
 20
0.4009999999999998
 30
4.131599999999999
 11
0.7475000000000005
 21
0.4009999999999998
 31
4.131599999999999
  0
LINE
  5
7245A
330
458D6
100
AcDbEntity
  8
0
100
AcDbLine
 10
0.4441666666666687
 20
0.4009999999999998
 30
4.131599999999999
 11
0.179166666666669
 21
0.4009999999999998
 31
4.131599999999999
  0
LINE
  5
7245B
330
458D6
100
AcDbEntity
  8
0
100
AcDbLine
 10
1.0125
 20
0.4009999999999998
 30
4.491099999999999
 11
0.7475000000000005
 21
0.4009999999999998
 31
4.491099999999999
  0
LINE
  5
7245C
330
458D6
100
AcDbEntity
  8
0
100
AcDbLine
 10
0.4441666666666687
 20
0.4009999999999998
 30
4.491099999999999
 11
0.179166666666669
 21
0.4009999999999998
 31
4.491099999999999
  0
POLYLINE
  5
7245D
330
458D6
100
AcDbEntity
  8
0
100
AcDbPolygonMesh
 66
     1
 10
0.0
 20
0.0
 30
0.0
 70
    16
 71
     6
 72
     3
  0
VERTEX
  5
7245E
330
7245D
100
AcDbEntity
  8
0
100
AcDbVertex
100
AcDbPolygonMeshVertex
 10
0.623333333333334
 20
0.5259999999999998
 30
4.491099999999999
 70
    64
  0
VERTEX
  5
7245F
330
7245D
100
AcDbEntity
  8
0
100
AcDbVertex
100
AcDbPolygonMeshVertex
 10
0.623333333333334
 20
0.5259999999999998
 30
3.7721
 70
    64
  0
VERTEX
  5
72460
330
7245D
100
AcDbEntity
  8
0
100
AcDbVertex
100
AcDbPolygonMeshVertex
 10
0.623333333333334
 20
0.5259999999999998
 30
3.7721
 70
    64
  0
VERTEX
  5
72461
330
7245D
100
AcDbEntity
  8
0
100
AcDbVertex
100
AcDbPolygonMeshVertex
 10
0.5683333333333343
 20
0.5259999999999998
 30
4.491099999999999
 70
    64
  0
VERTEX
  5
72462
330
7245D
100
AcDbEntity
  8
0
100
AcDbVertex
100
AcDbPolygonMeshVertex
 10
0.5683333333333343
 20
0.5259999999999998
 30
3.7721
 70
    64
  0
VERTEX
  5
72463
330
7245D
100
AcDbEntity
  8
0
100
AcDbVertex
100
AcDbPolygonMeshVertex
 10
0.5683333333333343
 20
0.5259999999999998
 30
3.7721
 70
    64
  0
VERTEX
  5
72464
330
7245D
100
AcDbEntity
  8
0
100
AcDbVertex
100
AcDbPolygonMeshVertex
 10
0.5683333333333343
 20
0.4009999999999998
 30
4.491099999999999
 70
    64
  0
VERTEX
  5
72465
330
7245D
100
AcDbEntity
  8
0
100
AcDbVertex
100
AcDbPolygonMeshVertex
 10
0.5683333333333343
 20
0.4009999999999998
 30
3.7721
 70
    64
  0
VERTEX
  5
72466
330
7245D
100
AcDbEntity
  8
0
100
AcDbVertex
100
AcDbPolygonMeshVertex
 10
0.5683333333333343
 20
0.5259999999999998
 30
3.7721
 70
    64
  0
VERTEX
  5
72467
330
7245D
100
AcDbEntity
  8
0
100
AcDbVertex
100
AcDbPolygonMeshVertex
 10
0.623333333333334
 20
0.4009999999999998
 30
4.491099999999999
 70
    64
  0
VERTEX
  5
72468
330
7245D
100
AcDbEntity
  8
0
100
AcDbVertex
100
AcDbPolygonMeshVertex
 10
0.623333333333334
 20
0.4009999999999998
 30
3.7721
 70
    64
  0
VERTEX
  5
72469
330
7245D
100
AcDbEntity
  8
0
100
AcDbVertex
100
AcDbPolygonMeshVertex
 10
0.623333333333334
 20
0.5259999999999998
 30
3.7721
 70
    64
  0
VERTEX
  5
7246A
330
7245D
100
AcDbEntity
  8
0
100
AcDbVertex
100
AcDbPolygonMeshVertex
 10
0.623333333333334
 20
0.4009999999999998
 30
4.491099999999999
 70
    64
  0
VERTEX
  5
7246B
330
7245D
100
AcDbEntity
  8
0
100
AcDbVertex
100
AcDbPolygonMeshVertex
 10
0.623333333333334
 20
0.4009999999999998
 30
4.491099999999999
 70
    64
  0
VERTEX
  5
7246C
330
7245D
100
AcDbEntity
  8
0
100
AcDbVertex
100
AcDbPolygonMeshVertex
 10
0.623333333333334
 20
0.5259999999999998
 30
4.491099999999999
 70
    64
  0
VERTEX
  5
7246D
330
7245D
100
AcDbEntity
  8
0
100
AcDbVertex
100
AcDbPolygonMeshVertex
 10
0.5683333333333343
 20
0.4009999999999998
 30
4.491099999999999
 70
    64
  0
VERTEX
  5
7246E
330
7245D
100
AcDbEntity
  8
0
100
AcDbVertex
100
AcDbPolygonMeshVertex
 10
0.5683333333333343
 20
0.4009999999999998
 30
4.491099999999999
 70
    64
  0
VERTEX
  5
7246F
330
7245D
100
AcDbEntity
  8
0
100
AcDbVertex
100
AcDbPolygonMeshVertex
 10
0.5683333333333343
 20
0.5259999999999998
 30
4.491099999999999
 70
    64
  0
SEQEND
  5
72470
330
7245D
100
AcDbEntity
  8
0
  0
LINE
  5
72471
330
458D6
100
AcDbEntity
  8
0
100
AcDbLine
 10
0.4441666666666687
 20
0.4009999999999998
 30
3.7721
 11
0.4441666666666687
 21
0.4009999999999998
 31
4.491099999999999
  0
LINE
  5
72472
330
458D6
100
AcDbEntity
  8
0
100
AcDbLine
 10
0.179166666666669
 20
0.4009999999999998
 30
3.7721
 11
0.179166666666669
 21
0.4009999999999998
 31
4.491099999999999
  0
LINE
  5
72473
330
458D6
100
AcDbEntity
  8
0
100
AcDbLine
 10
0.179166666666669
 20
0.4009999999999998
 30
3.7721
 11
0.4441666666666687
 21
0.4009999999999998
 31
3.7721
  0
POLYLINE
  5
72474
330
458D6
100
AcDbEntity
  8
0
100
AcDbPolygonMesh
 66
     1
 10
0.0
 20
0.0
 30
0.0
 70
    16
 71
     6
 72
     3
  0
VERTEX
  5
72475
330
72474
100
AcDbEntity
  8
0
100
AcDbVertex
100
AcDbPolygonMeshVertex
 10
0.0000000000000036
 20
0.5259999999999998
 30
4.491099999999999
 70
    64
  0
VERTEX
  5
72476
330
72474
100
AcDbEntity
  8
0
100
AcDbVertex
100
AcDbPolygonMeshVertex
 10
0.0000000000000036
 20
0.5259999999999998
 30
3.120099999999999
 70
    64
  0
VERTEX
  5
72477
330
72474
100
AcDbEntity
  8
0
100
AcDbVertex
100
AcDbPolygonMeshVertex
 10
0.0000000000000036
 20
0.5259999999999998
 30
3.120099999999999
 70
    64
  0
VERTEX
  5
72478
330
72474
100
AcDbEntity
  8
0
100
AcDbVertex
100
AcDbPolygonMeshVertex
 10
0.0550000000000033
 20
0.5259999999999998
 30
4.491099999999999
 70
    64
  0
VERTEX
  5
72479
330
72474
100
AcDbEntity
  8
0
100
AcDbVertex
100
AcDbPolygonMeshVertex
 10
0.0550000000000033
 20
0.5259999999999998
 30
3.120099999999999
 70
    64
  0
VERTEX
  5
7247A
330
72474
100
AcDbEntity
  8
0
100
AcDbVertex
100
AcDbPolygonMeshVertex
 10
0.0550000000000033
 20
0.5259999999999998
 30
3.120099999999999
 70
    64
  0
VERTEX
  5
7247B
330
72474
100
AcDbEntity
  8
0
100
AcDbVertex
100
AcDbPolygonMeshVertex
 10
0.0550000000000033
 20
0.4009999999999998
 30
4.491099999999999
 70
    64
  0
VERTEX
  5
7247C
330
72474
100
AcDbEntity
  8
0
100
AcDbVertex
100
AcDbPolygonMeshVertex
 10
0.0550000000000033
 20
0.4009999999999998
 30
3.120099999999999
 70
    64
  0
VERTEX
  5
7247D
330
72474
100
AcDbEntity
  8
0
100
AcDbVertex
100
AcDbPolygonMeshVertex
 10
0.0550000000000033
 20
0.5259999999999998
 30
3.120099999999999
 70
    64
  0
VERTEX
  5
7247E
330
72474
100
AcDbEntity
  8
0
100
AcDbVertex
100
AcDbPolygonMeshVertex
 10
0.0000000000000036
 20
0.4009999999999998
 30
4.491099999999999
 70
    64
  0
VERTEX
  5
7247F
330
72474
100
AcDbEntity
  8
0
100
AcDbVertex
100
AcDbPolygonMeshVertex
 10
0.0000000000000036
 20
0.4009999999999998
 30
3.120099999999999
 70
    64
  0
VERTEX
  5
72480
330
72474
100
AcDbEntity
  8
0
100
AcDbVertex
100
AcDbPolygonMeshVertex
 10
0.0000000000000036
 20
0.5259999999999998
 30
3.120099999999999
 70
    64
  0
VERTEX
  5
72481
330
72474
100
AcDbEntity
  8
0
100
AcDbVertex
100
AcDbPolygonMeshVertex
 10
0.0000000000000036
 20
0.4009999999999998
 30
4.491099999999999
 70
    64
  0
VERTEX
  5
72482
330
72474
100
AcDbEntity
  8
0
100
AcDbVertex
100
AcDbPolygonMeshVertex
 10
0.0000000000000036
 20
0.4009999999999998
 30
4.491099999999999
 70
    64
  0
VERTEX
  5
72483
330
72474
100
AcDbEntity
  8
0
100
AcDbVertex
100
AcDbPolygonMeshVertex
 10
0.0000000000000036
 20
0.5259999999999998
 30
4.491099999999999
 70
    64
  0
VERTEX
  5
72484
330
72474
100
AcDbEntity
  8
0
100
AcDbVertex
100
AcDbPolygonMeshVertex
 10
0.0550000000000033
 20
0.4009999999999998
 30
4.491099999999999
 70
    64
  0
VERTEX
  5
72485
330
72474
100
AcDbEntity
  8
0
100
AcDbVertex
100
AcDbPolygonMeshVertex
 10
0.0550000000000033
 20
0.4009999999999998
 30
4.491099999999999
 70
    64
  0
VERTEX
  5
72486
330
72474
100
AcDbEntity
  8
0
100
AcDbVertex
100
AcDbPolygonMeshVertex
 10
0.0550000000000033
 20
0.5259999999999998
 30
4.491099999999999
 70
    64
  0
SEQEND
  5
72487
330
72474
100
AcDbEntity
  8
0
  0
LWPOLYLINE
  5
72488
330
458D6
100
AcDbEntity
  8
0
100
AcDbPolyline
 90
        4
 70
     1
 43
0.0
 38
3.5301
 10
0.7465000000000002
 20
-2.141
 10
1.0135
 20
-2.141
 10
1.0135
 20
-2.29
 10
0.7465000000000002
 20
-2.29
  0
POLYLINE
  5
72489
330
458D6
100
AcDbEntity
  8
0
100
AcDb3dPolyline
 66
     1
 10
0.0
 20
0.0
 30
0.0
 70
     8
  0
VERTEX
  5
7248A
330
72489
100
AcDbEntity
  8
0
100
AcDbVertex
100
AcDb3dPolylineVertex
 10
1.759999999999999
 20
-1.472999999999999
 30
0.187
 70
    32
  0
VERTEX
  5
7248B
330
72489
100
AcDbEntity
  8
0
100
AcDbVertex
100
AcDb3dPolylineVertex
 10
1.759999999999999
 20
-1.472999999999999
 30
1.056999999999999
 70
    32
  0
VERTEX
  5
7248C
330
72489
100
AcDbEntity
  8
0
100
AcDbVertex
100
AcDb3dPolylineVertex
 10
1.759999999999999
 20
-1.628
 30
1.056999999999999
 70
    32
  0
VERTEX
  5
7248D
330
72489
100
AcDbEntity
  8
0
100
AcDbVertex
100
AcDb3dPolylineVertex
 10
1.759999999999999
 20
-1.628
 30
0.187
 70
    32
  0
SEQEND
  5
7248E
330
72489
100
AcDbEntity
  8
0
  0
POLYLINE
  5
7248F
330
458D6
100
AcDbEntity
  8
0
100
AcDb3dPolyline
 66
     1
 10
0.0
 20
0.0
 30
0.0
 70
     8
  0
VERTEX
  5
72490
330
7248F
100
AcDbEntity
  8
0
100
AcDbVertex
100
AcDb3dPolylineVertex
 10
1.759999999999999
 20
-0.0940000000000003
 30
0.187
 70
    32
  0
VERTEX
  5
72491
330
7248F
100
AcDbEntity
  8
0
100
AcDbVertex
100
AcDb3dPolylineVertex
 10
1.759999999999999
 20
-0.0940000000000003
 30
1.056999999999999
 70
    32
  0
VERTEX
  5
72492
330
7248F
100
AcDbEntity
  8
0
100
AcDbVertex
100
AcDb3dPolylineVertex
 10
1.759999999999999
 20
-0.2490000000000006
 30
1.056999999999999
 70
    32
  0
VERTEX
  5
72493
330
7248F
100
AcDbEntity
  8
0
100
AcDbVertex
100
AcDb3dPolylineVertex
 10
1.759999999999999
 20
-0.2490000000000006
 30
0.187
 70
    32
  0
SEQEND
  5
72494
330
7248F
100
AcDbEntity
  8
0
  0
LINE
  5
72495
330
458D6
100
AcDbEntity
  8
0
100
AcDbLine
 10
1.759999999999999
 20
-0.75
 30
0.5170000000000002
 11
1.759999999999999
 21
-0.972
 31
0.5170000000000002
  0
LINE
  5
72496
330
458D6
100
AcDbEntity
  8
0
100
AcDbLine
 10
1.759999999999999
 20
-0.972
 30
0.5170000000000002
 11
1.759999999999999
 21
-0.972
 31
0.187
  0
LINE
  5
72497
330
458D6
100
AcDbEntity
  8
0
100
AcDbLine
 10
1.759999999999999
 20
-0.75
 30
0.5170000000000002
 11
1.759999999999999
 21
-0.75
 31
0.187
  0
POLYLINE
  5
72498
330
458D6
100
AcDbEntity
  8
0
100
AcDb3dPolyline
 66
     1
 10
0.0
 20
0.0
 30
0.0
 70
     8
  0
VERTEX
  5
72499
330
72498
100
AcDbEntity
  8
0
100
AcDbVertex
100
AcDb3dPolylineVertex
 10
0.0000000000000001
 20
-0.0940000000000003
 30
0.187
 70
    32
  0
VERTEX
  5
7249A
330
72498
100
AcDbEntity
  8
0
100
AcDbVertex
100
AcDb3dPolylineVertex
 10
0.0000000000000001
 20
-0.0940000000000003
 30
1.056999999999999
 70
    32
  0
VERTEX
  5
7249B
330
72498
100
AcDbEntity
  8
0
100
AcDbVertex
100
AcDb3dPolylineVertex
 10
0.0000000000000001
 20
-0.2490000000000006
 30
1.056999999999999
 70
    32
  0
VERTEX
  5
7249C
330
72498
100
AcDbEntity
  8
0
100
AcDbVertex
100
AcDb3dPolylineVertex
 10
0.0000000000000001
 20
-0.2490000000000006
 30
0.187
 70
    32
  0
SEQEND
  5
7249D
330
72498
100
AcDbEntity
  8
0
  0
POLYLINE
  5
7249E
330
458D6
100
AcDbEntity
  8
0
100
AcDb3dPolyline
 66
     1
 10
0.0
 20
0.0
 30
0.0
 70
     8
  0
VERTEX
  5
7249F
330
7249E
100
AcDbEntity
  8
0
100
AcDbVertex
100
AcDb3dPolylineVertex
 10
0.0000000000000001
 20
-1.472999999999999
 30
0.187
 70
    32
  0
VERTEX
  5
724A0
330
7249E
100
AcDbEntity
  8
0
100
AcDbVertex
100
AcDb3dPolylineVertex
 10
0.0000000000000001
 20
-1.472999999999999
 30
1.056999999999999
 70
    32
  0
VERTEX
  5
724A1
330
7249E
100
AcDbEntity
  8
0
100
AcDbVertex
100
AcDb3dPolylineVertex
 10
0.0000000000000001
 20
-1.628
 30
1.056999999999999
 70
    32
  0
VERTEX
  5
724A2
330
7249E
100
AcDbEntity
  8
0
100
AcDbVertex
100
AcDb3dPolylineVertex
 10
0.0000000000000001
 20
-1.628
 30
0.187
 70
    32
  0
SEQEND
  5
724A3
330
7249E
100
AcDbEntity
  8
0
  0
LINE
  5
724A4
330
458D6
100
AcDbEntity
  8
0
100
AcDbLine
 10
1.759999999999999
 20
-1.688
 30
0.187
 11
1.759999999999999
 21
-1.688
 31
0.0
  0
POLYLINE
  5
724A5
330
458D6
100
AcDbEntity
  8
0
100
AcDb3dPolyline
 66
     1
 10
0.0
 20
0.0
 30
0.0
 70
     8
  0
VERTEX
  5
724A6
330
724A5
100
AcDbEntity
  8
0
100
AcDbVertex
100
AcDb3dPolylineVertex
 10
1.759999999999996
 20
-0.7610000000000002
 30
3.060099999999999
 70
    32
  0
VERTEX
  5
724A7
330
724A5
100
AcDbEntity
  8
0
100
AcDbVertex
100
AcDb3dPolylineVertex
 10
1.759999999999996
 20
-0.7610000000000002
 30
3.633099999999999
 70
    32
  0
VERTEX
  5
724A8
330
724A5
100
AcDbEntity
  8
0
100
AcDbVertex
100
AcDb3dPolylineVertex
 10
1.759999999999996
 20
-0.9269999999999999
 30
3.633099999999999
 70
    32
  0
VERTEX
  5
724A9
330
724A5
100
AcDbEntity
  8
0
100
AcDbVertex
100
AcDb3dPolylineVertex
 10
1.759999999999996
 20
-0.9270000000000004
 30
3.060099999999999
 70
    32
  0
VERTEX
  5
724AA
330
724A5
100
AcDbEntity
  8
0
100
AcDbVertex
100
AcDb3dPolylineVertex
 10
1.759999999999996
 20
-0.7610000000000002
 30
3.060099999999999
 70
    32
  0
SEQEND
  5
724AB
330
724A5
100
AcDbEntity
  8
0
  0
LINE
  5
724AC
330
458D6
100
AcDbEntity
  8
0
100
AcDbLine
 10
1.759999999999996
 20
-0.9269999999999999
 30
3.346599999999999
 11
1.759999999999996
 21
-0.7610000000000002
 31
3.346599999999999
  0
LINE
  5
724AD
330
458D6
100
AcDbEntity
  8
0
100
AcDbLine
 10
1.759999999999996
 20
-0.9270000000000004
 30
3.536599999999999
 11
1.759999999999996
 21
-0.7610000000000002
 31
3.536599999999999
  0
POLYLINE
  5
724AE
330
458D6
100
AcDbEntity
  8
0
100
AcDb3dPolyline
 66
     1
 10
0.0
 20
0.0
 30
0.0
 70
     8
  0
VERTEX
  5
724AF
330
724AE
100
AcDbEntity
  8
0
100
AcDbVertex
100
AcDb3dPolylineVertex
 10
-0.0000000000000035
 20
-0.7610000000000002
 30
3.060099999999999
 70
    32
  0
VERTEX
  5
724B0
330
724AE
100
AcDbEntity
  8
0
100
AcDbVertex
100
AcDb3dPolylineVertex
 10
-0.0000000000000035
 20
-0.7610000000000002
 30
3.633099999999999
 70
    32
  0
VERTEX
  5
724B1
330
724AE
100
AcDbEntity
  8
0
100
AcDbVertex
100
AcDb3dPolylineVertex
 10
-0.0000000000000035
 20
-0.9269999999999999
 30
3.633099999999999
 70
    32
  0
VERTEX
  5
724B2
330
724AE
100
AcDbEntity
  8
0
100
AcDbVertex
100
AcDb3dPolylineVertex
 10
-0.0000000000000035
 20
-0.9270000000000004
 30
3.060099999999999
 70
    32
  0
VERTEX
  5
724B3
330
724AE
100
AcDbEntity
  8
0
100
AcDbVertex
100
AcDb3dPolylineVertex
 10
-0.0000000000000035
 20
-0.7610000000000002
 30
3.060099999999999
 70
    32
  0
SEQEND
  5
724B4
330
724AE
100
AcDbEntity
  8
0
  0
LINE
  5
724B5
330
458D6
100
AcDbEntity
  8
0
100
AcDbLine
 10
-0.0000000000000035
 20
-0.9269999999999999
 30
3.346599999999999
 11
-0.0000000000000035
 21
-0.7610000000000002
 31
3.346599999999999
  0
LINE
  5
724B6
330
458D6
100
AcDbEntity
  8
0
100
AcDbLine
 10
-0.0000000000000035
 20
-0.9270000000000004
 30
3.536599999999999
 11
-0.0000000000000035
 21
-0.7610000000000002
 31
3.536599999999999
  0
CIRCLE
  5
724B7
330
458D6
100
AcDbEntity
  8
0
100
AcDbCircle
 10
1.569999999999998
 20
0.3349999999999995
 30
0.3160000000000001
 40
0.086
  0
CIRCLE
  5
724B8
330
458D6
100
AcDbEntity
  8
0
100
AcDbCircle
 10
0.1900000000000009
 20
-2.024999999999999
 30
0.3160000000000001
 40
0.086
  0
CIRCLE
  5
724B9
330
458D6
100
AcDbEntity
  8
0
100
AcDbCircle
 10
0.1900000000000009
 20
-2.024999999999999
 30
0.0
 40
0.086
  0
CIRCLE
  5
724BA
330
458D6
100
AcDbEntity
  8
0
100
AcDbCircle
 10
1.569999999999998
 20
0.3349999999999995
 30
0.0
 40
0.086
  0
LINE
  5
724BB
330
458D6
100
AcDbEntity
  8
0
100
AcDbLine
 10
0.5502486382097378
 20
-2.089
 30
-0.0000000000000003
 11
0.7609153048764044
 21
-2.089
 31
-0.0000000000000003
  0
POLYLINE
  5
724BC
330
458D6
100
AcDbEntity
  8
0
100
AcDb3dPolyline
 66
     1
 10
0.0
 20
0.0
 30
0.0
 70
     8
  0
VERTEX
  5
724BD
330
724BC
100
AcDbEntity
  8
0
100
AcDbVertex
100
AcDb3dPolylineVertex
 10
0.5502486382097378
 20
-2.089
 30
-0.0000000000000003
 70
    32
  0
VERTEX
  5
724BE
330
724BC
100
AcDbEntity
  8
0
100
AcDbVertex
100
AcDb3dPolylineVertex
 10
0.5502486382097378
 20
-2.224
 30
-0.0000000000000002
 70
    32
  0
VERTEX
  5
724BF
330
724BC
100
AcDbEntity
  8
0
100
AcDbVertex
100
AcDb3dPolylineVertex
 10
0.7609153048764044
 20
-2.224
 30
-0.0000000000000002
 70
    32
  0
VERTEX
  5
724C0
330
724BC
100
AcDbEntity
  8
0
100
AcDbVertex
100
AcDb3dPolylineVertex
 10
0.7609153048764044
 20
-2.089
 30
-0.0000000000000003
 70
    32
  0
SEQEND
  5
724C1
330
724BC
100
AcDbEntity
  8
0
  0
POLYLINE
  5
724C2
330
458D6
100
AcDbEntity
  8
0
100
AcDb3dPolyline
 66
     1
 10
0.0
 20
0.0
 30
0.0
 70
     8
  0
VERTEX
  5
724C3
330
724C2
100
AcDbEntity
  8
0
100
AcDbVertex
100
AcDb3dPolylineVertex
 10
0.5502486382097378
 20
-2.089
 30
0.1869999999999998
 70
    32
  0
VERTEX
  5
724C4
330
724C2
100
AcDbEntity
  8
0
100
AcDbVertex
100
AcDb3dPolylineVertex
 10
0.5502486382097378
 20
-2.224
 30
0.1869999999999998
 70
    32
  0
VERTEX
  5
724C5
330
724C2
100
AcDbEntity
  8
0
100
AcDbVertex
100
AcDb3dPolylineVertex
 10
0.7609153048764044
 20
-2.224
 30
0.1869999999999998
 70
    32
  0
VERTEX
  5
724C6
330
724C2
100
AcDbEntity
  8
0
100
AcDbVertex
100
AcDb3dPolylineVertex
 10
0.7609153048764044
 20
-2.089
 30
0.1869999999999998
 70
    32
  0
SEQEND
  5
724C7
330
724C2
100
AcDbEntity
  8
0
  0
POLYLINE
  5
724C8
330
458D6
100
AcDbEntity
  8
0
100
AcDbPolygonMesh
 66
     1
 10
0.0
 20
0.0
 30
0.0
 70
    16
 71
     6
 72
     3
  0
VERTEX
  5
724C9
330
724C8
100
AcDbEntity
  8
0
100
AcDbVertex
100
AcDbPolygonMeshVertex
 10
0.8229153048764036
 20
-2.286
 30
0.1869999999999998
 70
    64
  0
VERTEX
  5
724CA
330
724C8
100
AcDbEntity
  8
0
100
AcDbVertex
100
AcDbPolygonMeshVertex
 10
0.8229153048764036
 20
-2.286
 30
-0.0000000000000002
 70
    64
  0
VERTEX
  5
724CB
330
724C8
100
AcDbEntity
  8
0
100
AcDbVertex
100
AcDbPolygonMeshVertex
 10
0.8229153048764036
 20
-2.286
 30
-0.0000000000000002
 70
    64
  0
VERTEX
  5
724CC
330
724C8
100
AcDbEntity
  8
0
100
AcDbVertex
100
AcDbPolygonMeshVertex
 10
0.2155819715430707
 20
-2.286
 30
0.1869999999999998
 70
    64
  0
VERTEX
  5
724CD
330
724C8
100
AcDbEntity
  8
0
100
AcDbVertex
100
AcDbPolygonMeshVertex
 10
0.2155819715430707
 20
-2.286
 30
-0.0000000000000002
 70
    64
  0
VERTEX
  5
724CE
330
724C8
100
AcDbEntity
  8
0
100
AcDbVertex
100
AcDbPolygonMeshVertex
 10
0.2155819715430707
 20
-2.286
 30
-0.0000000000000002
 70
    64
  0
VERTEX
  5
724CF
330
724C8
100
AcDbEntity
  8
0
100
AcDbVertex
100
AcDbPolygonMeshVertex
 10
0.2155819715430707
 20
-2.224
 30
0.1869999999999998
 70
    64
  0
VERTEX
  5
724D0
330
724C8
100
AcDbEntity
  8
0
100
AcDbVertex
100
AcDbPolygonMeshVertex
 10
0.2155819715430707
 20
-2.224
 30
-0.0000000000000002
 70
    64
  0
VERTEX
  5
724D1
330
724C8
100
AcDbEntity
  8
0
100
AcDbVertex
100
AcDbPolygonMeshVertex
 10
0.2155819715430707
 20
-2.286
 30
-0.0000000000000002
 70
    64
  0
VERTEX
  5
724D2
330
724C8
100
AcDbEntity
  8
0
100
AcDbVertex
100
AcDbPolygonMeshVertex
 10
0.8229153048764036
 20
-2.224
 30
0.1869999999999998
 70
    64
  0
VERTEX
  5
724D3
330
724C8
100
AcDbEntity
  8
0
100
AcDbVertex
100
AcDbPolygonMeshVertex
 10
0.8229153048764036
 20
-2.224
 30
-0.0000000000000002
 70
    64
  0
VERTEX
  5
724D4
330
724C8
100
AcDbEntity
  8
0
100
AcDbVertex
100
AcDbPolygonMeshVertex
 10
0.8229153048764036
 20
-2.286
 30
-0.0000000000000002
 70
    64
  0
VERTEX
  5
724D5
330
724C8
100
AcDbEntity
  8
0
100
AcDbVertex
100
AcDbPolygonMeshVertex
 10
0.8229153048764036
 20
-2.224
 30
0.1869999999999998
 70
    64
  0
VERTEX
  5
724D6
330
724C8
100
AcDbEntity
  8
0
100
AcDbVertex
100
AcDbPolygonMeshVertex
 10
0.8229153048764036
 20
-2.224
 30
0.1869999999999998
 70
    64
  0
VERTEX
  5
724D7
330
724C8
100
AcDbEntity
  8
0
100
AcDbVertex
100
AcDbPolygonMeshVertex
 10
0.8229153048764036
 20
-2.286
 30
0.1869999999999998
 70
    64
  0
VERTEX
  5
724D8
330
724C8
100
AcDbEntity
  8
0
100
AcDbVertex
100
AcDbPolygonMeshVertex
 10
0.2155819715430707
 20
-2.224
 30
0.1869999999999998
 70
    64
  0
VERTEX
  5
724D9
330
724C8
100
AcDbEntity
  8
0
100
AcDbVertex
100
AcDbPolygonMeshVertex
 10
0.2155819715430707
 20
-2.224
 30
0.1869999999999998
 70
    64
  0
VERTEX
  5
724DA
330
724C8
100
AcDbEntity
  8
0
100
AcDbVertex
100
AcDbPolygonMeshVertex
 10
0.2155819715430707
 20
-2.286
 30
0.1869999999999998
 70
    64
  0
SEQEND
  5
724DB
330
724C8
100
AcDbEntity
  8
0
  0
POLYLINE
  5
724DC
330
458D6
100
AcDbEntity
  8
0
100
AcDbPolygonMesh
 66
     1
 10
0.0
 20
0.0
 30
0.0
 70
    16
 71
     6
 72
     3
  0
VERTEX
  5
724DD
330
724DC
100
AcDbEntity
  8
0
100
AcDbVertex
100
AcDbPolygonMeshVertex
 10
0.8229153048764036
 20
-2.224
 30
0.1869999999999998
 70
    64
  0
VERTEX
  5
724DE
330
724DC
100
AcDbEntity
  8
0
100
AcDbVertex
100
AcDbPolygonMeshVertex
 10
0.8229153048764036
 20
-2.224
 30
-0.0000000000000002
 70
    64
  0
VERTEX
  5
724DF
330
724DC
100
AcDbEntity
  8
0
100
AcDbVertex
100
AcDbPolygonMeshVertex
 10
0.8229153048764036
 20
-2.224
 30
-0.0000000000000002
 70
    64
  0
VERTEX
  5
724E0
330
724DC
100
AcDbEntity
  8
0
100
AcDbVertex
100
AcDbPolygonMeshVertex
 10
0.4882486382097385
 20
-2.224
 30
0.1869999999999998
 70
    64
  0
VERTEX
  5
724E1
330
724DC
100
AcDbEntity
  8
0
100
AcDbVertex
100
AcDbPolygonMeshVertex
 10
0.4882486382097385
 20
-2.224
 30
-0.0000000000000002
 70
    64
  0
VERTEX
  5
724E2
330
724DC
100
AcDbEntity
  8
0
100
AcDbVertex
100
AcDbPolygonMeshVertex
 10
0.4882486382097385
 20
-2.224
 30
-0.0000000000000002
 70
    64
  0
VERTEX
  5
724E3
330
724DC
100
AcDbEntity
  8
0
100
AcDbVertex
100
AcDbPolygonMeshVertex
 10
0.4882486382097385
 20
-2.027000000000001
 30
0.1869999999999998
 70
    64
  0
VERTEX
  5
724E4
330
724DC
100
AcDbEntity
  8
0
100
AcDbVertex
100
AcDbPolygonMeshVertex
 10
0.4882486382097385
 20
-2.027000000000001
 30
-0.0000000000000002
 70
    64
  0
VERTEX
  5
724E5
330
724DC
100
AcDbEntity
  8
0
100
AcDbVertex
100
AcDbPolygonMeshVertex
 10
0.4882486382097385
 20
-2.224
 30
-0.0000000000000002
 70
    64
  0
VERTEX
  5
724E6
330
724DC
100
AcDbEntity
  8
0
100
AcDbVertex
100
AcDbPolygonMeshVertex
 10
0.8229153048764036
 20
-2.027000000000001
 30
0.1869999999999998
 70
    64
  0
VERTEX
  5
724E7
330
724DC
100
AcDbEntity
  8
0
100
AcDbVertex
100
AcDbPolygonMeshVertex
 10
0.8229153048764036
 20
-2.027000000000001
 30
-0.0000000000000002
 70
    64
  0
VERTEX
  5
724E8
330
724DC
100
AcDbEntity
  8
0
100
AcDbVertex
100
AcDbPolygonMeshVertex
 10
0.8229153048764036
 20
-2.224
 30
-0.0000000000000002
 70
    64
  0
VERTEX
  5
724E9
330
724DC
100
AcDbEntity
  8
0
100
AcDbVertex
100
AcDbPolygonMeshVertex
 10
0.8229153048764036
 20
-2.027000000000001
 30
0.1869999999999998
 70
    64
  0
VERTEX
  5
724EA
330
724DC
100
AcDbEntity
  8
0
100
AcDbVertex
100
AcDbPolygonMeshVertex
 10
0.8229153048764036
 20
-2.027000000000001
 30
0.1869999999999998
 70
    64
  0
VERTEX
  5
724EB
330
724DC
100
AcDbEntity
  8
0
100
AcDbVertex
100
AcDbPolygonMeshVertex
 10
0.8229153048764036
 20
-2.224
 30
0.1869999999999998
 70
    64
  0
VERTEX
  5
724EC
330
724DC
100
AcDbEntity
  8
0
100
AcDbVertex
100
AcDbPolygonMeshVertex
 10
0.4882486382097385
 20
-2.027000000000001
 30
0.1869999999999998
 70
    64
  0
VERTEX
  5
724ED
330
724DC
100
AcDbEntity
  8
0
100
AcDbVertex
100
AcDbPolygonMeshVertex
 10
0.4882486382097385
 20
-2.027000000000001
 30
0.1869999999999998
 70
    64
  0
VERTEX
  5
724EE
330
724DC
100
AcDbEntity
  8
0
100
AcDbVertex
100
AcDbPolygonMeshVertex
 10
0.4882486382097385
 20
-2.224
 30
0.1869999999999998
 70
    64
  0
SEQEND
  5
724EF
330
724DC
100
AcDbEntity
  8
0
  0
LINE
  5
724F0
330
458D6
100
AcDbEntity
  8
0
100
AcDbLine
 10
0.5502486382097378
 20
-2.089
 30
0.1869999999999998
 11
0.7609153048764044
 21
-2.089
 31
0.1869999999999998
  0
POLYLINE
  5
724F1
330
458D6
100
AcDbEntity
  8
0
  6
Continuous
100
AcDb3dPolyline
 66
     1
 10
0.0
 20
0.0
 30
0.0
 70
     8
  0
VERTEX
  5
724F2
330
724F1
100
AcDbEntity
  8
0
  6
Continuous
100
AcDbVertex
100
AcDb3dPolylineVertex
 10
0.0000000000000001
 20
-2.089
 30
5.331499999999999
 70
    32
1001
ACAD
1000
R13OBJECT
1002
{
1005
724F1
1002
}
  0
VERTEX
  5
724F3
330
724F1
100
AcDbEntity
  8
0
  6
Continuous
100
AcDbVertex
100
AcDb3dPolylineVertex
 10
0.0000000000000001
 20
-2.089
 30
2.786099999999999
 70
    32
1001
ACAD
1000
R13OBJECT
1002
{
1005
724F1
1002
}
  0
SEQEND
  5
724F4
330
724F1
100
AcDbEntity
  8
0
  6
Continuous
  0
POLYLINE
  5
724F5
330
458D6
100
AcDbEntity
  8
0
  6
Continuous
100
AcDb3dPolyline
 66
     1
 10
0.0
 20
0.0
 30
0.0
 70
     8
1001
ACAD
1000
R13OBJECT
1002
{
1005
724F1
1002
}
  0
VERTEX
  5
724F6
330
724F5
100
AcDbEntity
  8
0
  6
Continuous
100
AcDbVertex
100
AcDb3dPolylineVertex
 10
1.759999999999999
 20
-2.089
 30
5.331499999999999
 70
    32
1001
ACAD
1000
R13OBJECT
1002
{
1005
724F1
1002
}
  0
VERTEX
  5
724F7
330
724F5
100
AcDbEntity
  8
0
  6
Continuous
100
AcDbVertex
100
AcDb3dPolylineVertex
 10
1.759999999999999
 20
-2.089
 30
2.786099999999999
 70
    32
1001
ACAD
1000
R13OBJECT
1002
{
1005
724F1
1002
}
  0
SEQEND
  5
724F8
330
724F5
100
AcDbEntity
  8
0
  6
Continuous
  0
POLYLINE
  5
724F9
330
458D6
100
AcDbEntity
  8
0
  6
Continuous
100
AcDb3dPolyline
 66
     1
 10
0.0
 20
0.0
 30
0.0
 70
     8
1001
ACAD
1000
R13OBJECT
1002
{
1005
724F1
1002
}
  0
VERTEX
  5
724FA
330
724F9
100
AcDbEntity
  8
0
  6
Continuous
100
AcDbVertex
100
AcDb3dPolylineVertex
 10
0.0000000000000001
 20
-2.089
 30
5.331499999999999
 70
    32
1001
ACAD
1000
R13OBJECT
1002
{
1005
724F1
1002
}
  0
VERTEX
  5
724FB
330
724F9
100
AcDbEntity
  8
0
  6
Continuous
100
AcDbVertex
100
AcDb3dPolylineVertex
 10
1.759999999999999
 20
-2.089
 30
5.331499999999999
 70
    32
1001
ACAD
1000
R13OBJECT
1002
{
1005
724F1
1002
}
  0
SEQEND
  5
724FC
330
724F9
100
AcDbEntity
  8
0
  6
Continuous
  0
POLYLINE
  5
724FD
330
458D6
100
AcDbEntity
  8
0
  6
Continuous
100
AcDb3dPolyline
 66
     1
 10
0.0
 20
0.0
 30
0.0
 70
     8
  0
VERTEX
  5
724FE
330
724FD
100
AcDbEntity
  8
0
  6
Continuous
100
AcDbVertex
100
AcDb3dPolylineVertex
 10
0.0000000000000001
 20
0.4009999999999998
 30
5.331499999999999
 70
    32
1001
ACAD
1000
R13OBJECT
1002
{
1005
724FD
1002
}
  0
VERTEX
  5
724FF
330
724FD
100
AcDbEntity
  8
0
  6
Continuous
100
AcDbVertex
100
AcDb3dPolylineVertex
 10
0.0000000000000001
 20
0.4009999999999998
 30
2.786099999999999
 70
    32
1001
ACAD
1000
R13OBJECT
1002
{
1005
724FD
1002
}
  0
SEQEND
  5
72500
330
724FD
100
AcDbEntity
  8
0
  6
Continuous
  0
POLYLINE
  5
72501
330
458D6
100
AcDbEntity
  8
0
  6
Continuous
100
AcDb3dPolyline
 66
     1
 10
0.0
 20
0.0
 30
0.0
 70
     8
1001
ACAD
1000
R13OBJECT
1002
{
1005
724FD
1002
}
  0
VERTEX
  5
72502
330
72501
100
AcDbEntity
  8
0
  6
Continuous
100
AcDbVertex
100
AcDb3dPolylineVertex
 10
0.0000000000000001
 20
-2.089
 30
5.331499999999999
 70
    32
1001
ACAD
1000
R13OBJECT
1002
{
1005
724FD
1002
}
  0
VERTEX
  5
72503
330
72501
100
AcDbEntity
  8
0
  6
Continuous
100
AcDbVertex
100
AcDb3dPolylineVertex
 10
0.0000000000000001
 20
-2.089
 30
2.786099999999999
 70
    32
1001
ACAD
1000
R13OBJECT
1002
{
1005
724FD
1002
}
  0
SEQEND
  5
72504
330
72501
100
AcDbEntity
  8
0
  6
Continuous
  0
POLYLINE
  5
72505
330
458D6
100
AcDbEntity
  8
0
  6
Continuous
100
AcDb3dPolyline
 66
     1
 10
0.0
 20
0.0
 30
0.0
 70
     8
1001
ACAD
1000
R13OBJECT
1002
{
1005
724FD
1002
}
  0
VERTEX
  5
72506
330
72505
100
AcDbEntity
  8
0
  6
Continuous
100
AcDbVertex
100
AcDb3dPolylineVertex
 10
0.0000000000000001
 20
0.4009999999999998
 30
5.331499999999999
 70
    32
1001
ACAD
1000
R13OBJECT
1002
{
1005
724FD
1002
}
  0
VERTEX
  5
72507
330
72505
100
AcDbEntity
  8
0
  6
Continuous
100
AcDbVertex
100
AcDb3dPolylineVertex
 10
0.0000000000000001
 20
-2.089
 30
5.331499999999999
 70
    32
1001
ACAD
1000
R13OBJECT
1002
{
1005
724FD
1002
}
  0
SEQEND
  5
72508
330
72505
100
AcDbEntity
  8
0
  6
Continuous
  0
POLYLINE
  5
72509
330
458D6
100
AcDbEntity
  8
0
  6
Continuous
100
AcDb3dPolyline
 66
     1
 10
0.0
 20
0.0
 30
0.0
 70
     8
  0
VERTEX
  5
7250A
330
72509
100
AcDbEntity
  8
0
  6
Continuous
100
AcDbVertex
100
AcDb3dPolylineVertex
 10
1.759999999999999
 20
0.4009999999999998
 30
5.331499999999999
 70
    32
1001
ACAD
1000
R13OBJECT
1002
{
1005
72509
1002
}
  0
VERTEX
  5
7250B
330
72509
100
AcDbEntity
  8
0
  6
Continuous
100
AcDbVertex
100
AcDb3dPolylineVertex
 10
1.759999999999999
 20
0.4009999999999998
 30
2.786099999999999
 70
    32
1001
ACAD
1000
R13OBJECT
1002
{
1005
72509
1002
}
  0
SEQEND
  5
7250C
330
72509
100
AcDbEntity
  8
0
  6
Continuous
  0
POLYLINE
  5
7250D
330
458D6
100
AcDbEntity
  8
0
  6
Continuous
100
AcDb3dPolyline
 66
     1
 10
0.0
 20
0.0
 30
0.0
 70
     8
1001
ACAD
1000
R13OBJECT
1002
{
1005
72509
1002
}
  0
VERTEX
  5
7250E
330
7250D
100
AcDbEntity
  8
0
  6
Continuous
100
AcDbVertex
100
AcDb3dPolylineVertex
 10
0.0000000000000001
 20
0.4009999999999998
 30
5.331499999999999
 70
    32
1001
ACAD
1000
R13OBJECT
1002
{
1005
72509
1002
}
  0
VERTEX
  5
7250F
330
7250D
100
AcDbEntity
  8
0
  6
Continuous
100
AcDbVertex
100
AcDb3dPolylineVertex
 10
0.0000000000000001
 20
0.4009999999999998
 30
2.786099999999999
 70
    32
1001
ACAD
1000
R13OBJECT
1002
{
1005
72509
1002
}
  0
SEQEND
  5
72510
330
7250D
100
AcDbEntity
  8
0
  6
Continuous
  0
POLYLINE
  5
72511
330
458D6
100
AcDbEntity
  8
0
  6
Continuous
100
AcDb3dPolyline
 66
     1
 10
0.0
 20
0.0
 30
0.0
 70
     8
1001
ACAD
1000
R13OBJECT
1002
{
1005
72509
1002
}
  0
VERTEX
  5
72512
330
72511
100
AcDbEntity
  8
0
  6
Continuous
100
AcDbVertex
100
AcDb3dPolylineVertex
 10
1.759999999999999
 20
0.4009999999999998
 30
5.331499999999999
 70
    32
1001
ACAD
1000
R13OBJECT
1002
{
1005
72509
1002
}
  0
VERTEX
  5
72513
330
72511
100
AcDbEntity
  8
0
  6
Continuous
100
AcDbVertex
100
AcDb3dPolylineVertex
 10
0.0000000000000001
 20
0.4009999999999998
 30
5.331499999999999
 70
    32
1001
ACAD
1000
R13OBJECT
1002
{
1005
72509
1002
}
  0
SEQEND
  5
72514
330
72511
100
AcDbEntity
  8
0
  6
Continuous
  0
POLYLINE
  5
72515
330
458D6
100
AcDbEntity
  8
0
  6
Continuous
100
AcDb3dPolyline
 66
     1
 10
0.0
 20
0.0
 30
0.0
 70
     8
  0
VERTEX
  5
72516
330
72515
100
AcDbEntity
  8
0
  6
Continuous
100
AcDbVertex
100
AcDb3dPolylineVertex
 10
1.759999999999999
 20
-2.089
 30
5.331499999999999
 70
    32
1001
ACAD
1000
R13OBJECT
1002
{
1005
72515
1002
}
  0
VERTEX
  5
72517
330
72515
100
AcDbEntity
  8
0
  6
Continuous
100
AcDbVertex
100
AcDb3dPolylineVertex
 10
1.759999999999999
 20
-2.089
 30
2.786099999999999
 70
    32
1001
ACAD
1000
R13OBJECT
1002
{
1005
72515
1002
}
  0
SEQEND
  5
72518
330
72515
100
AcDbEntity
  8
0
  6
Continuous
  0
POLYLINE
  5
72519
330
458D6
100
AcDbEntity
  8
0
  6
Continuous
100
AcDb3dPolyline
 66
     1
 10
0.0
 20
0.0
 30
0.0
 70
     8
1001
ACAD
1000
R13OBJECT
1002
{
1005
72515
1002
}
  0
VERTEX
  5
7251A
330
72519
100
AcDbEntity
  8
0
  6
Continuous
100
AcDbVertex
100
AcDb3dPolylineVertex
 10
1.759999999999999
 20
0.4009999999999998
 30
5.331499999999999
 70
    32
1001
ACAD
1000
R13OBJECT
1002
{
1005
72515
1002
}
  0
VERTEX
  5
7251B
330
72519
100
AcDbEntity
  8
0
  6
Continuous
100
AcDbVertex
100
AcDb3dPolylineVertex
 10
1.759999999999999
 20
0.4009999999999998
 30
2.786099999999999
 70
    32
1001
ACAD
1000
R13OBJECT
1002
{
1005
72515
1002
}
  0
SEQEND
  5
7251C
330
72519
100
AcDbEntity
  8
0
  6
Continuous
  0
POLYLINE
  5
7251D
330
458D6
100
AcDbEntity
  8
0
  6
Continuous
100
AcDb3dPolyline
 66
     1
 10
0.0
 20
0.0
 30
0.0
 70
     8
1001
ACAD
1000
R13OBJECT
1002
{
1005
72515
1002
}
  0
VERTEX
  5
7251E
330
7251D
100
AcDbEntity
  8
0
  6
Continuous
100
AcDbVertex
100
AcDb3dPolylineVertex
 10
1.759999999999999
 20
-2.089
 30
5.331499999999999
 70
    32
1001
ACAD
1000
R13OBJECT
1002
{
1005
72515
1002
}
  0
VERTEX
  5
7251F
330
7251D
100
AcDbEntity
  8
0
  6
Continuous
100
AcDbVertex
100
AcDb3dPolylineVertex
 10
1.759999999999999
 20
0.4009999999999998
 30
5.331499999999999
 70
    32
1001
ACAD
1000
R13OBJECT
1002
{
1005
72515
1002
}
  0
SEQEND
  5
72520
330
7251D
100
AcDbEntity
  8
0
  6
Continuous
  0
3DFACE
  5
72521
330
458D6
100
AcDbEntity
  8
0
100
AcDbFace
 10
1.759999999999999
 20
0.4009999999999998
 30
5.331499999999999
 11
1.759999999999999
 21
0.4009999999999998
 31
5.331499999999999
 12
0.0000000000000001
 22
0.4009999999999998
 32
5.331499999999999
 13
0.0000000000000001
 23
0.4009999999999998
 33
5.331499999999999
  0
POLYLINE
  5
72522
330
458D6
100
AcDbEntity
  8
0
100
AcDbPolygonMesh
 66
     1
 10
0.0
 20
0.0
 30
0.0
 70
    16
 71
     6
 72
     3
  0
VERTEX
  5
72523
330
72522
100
AcDbEntity
  8
0
100
AcDbVertex
100
AcDbPolygonMeshVertex
 10
1.245499999999998
 20
-0.5670000000000002
 30
5.542499999999999
 70
    64
  0
VERTEX
  5
72524
330
72522
100
AcDbEntity
  8
0
100
AcDbVertex
100
AcDbPolygonMeshVertex
 10
1.245499999999998
 20
-0.5670000000000002
 30
5.365499999999999
 70
    64
  0
VERTEX
  5
72525
330
72522
100
AcDbEntity
  8
0
100
AcDbVertex
100
AcDbPolygonMeshVertex
 10
1.245499999999998
 20
-0.5670000000000002
 30
5.365499999999999
 70
    64
  0
VERTEX
  5
72526
330
72522
100
AcDbEntity
  8
0
100
AcDbVertex
100
AcDbPolygonMeshVertex
 10
1.075999999999998
 20
-0.5670000000000002
 30
5.542499999999999
 70
    64
  0
VERTEX
  5
72527
330
72522
100
AcDbEntity
  8
0
100
AcDbVertex
100
AcDbPolygonMeshVertex
 10
1.075999999999998
 20
-0.5670000000000002
 30
5.365499999999999
 70
    64
  0
VERTEX
  5
72528
330
72522
100
AcDbEntity
  8
0
100
AcDbVertex
100
AcDbPolygonMeshVertex
 10
1.075999999999998
 20
-0.5670000000000002
 30
5.365499999999999
 70
    64
  0
VERTEX
  5
72529
330
72522
100
AcDbEntity
  8
0
100
AcDbVertex
100
AcDbPolygonMeshVertex
 10
1.075999999999998
 20
-0.2140000000000004
 30
5.542499999999999
 70
    64
  0
VERTEX
  5
7252A
330
72522
100
AcDbEntity
  8
0
100
AcDbVertex
100
AcDbPolygonMeshVertex
 10
1.075999999999998
 20
-0.2140000000000004
 30
5.365499999999999
 70
    64
  0
VERTEX
  5
7252B
330
72522
100
AcDbEntity
  8
0
100
AcDbVertex
100
AcDbPolygonMeshVertex
 10
1.075999999999998
 20
-0.5670000000000002
 30
5.365499999999999
 70
    64
  0
VERTEX
  5
7252C
330
72522
100
AcDbEntity
  8
0
100
AcDbVertex
100
AcDbPolygonMeshVertex
 10
1.245499999999998
 20
-0.2140000000000004
 30
5.542499999999999
 70
    64
  0
VERTEX
  5
7252D
330
72522
100
AcDbEntity
  8
0
100
AcDbVertex
100
AcDbPolygonMeshVertex
 10
1.245499999999998
 20
-0.2140000000000004
 30
5.365499999999999
 70
    64
  0
VERTEX
  5
7252E
330
72522
100
AcDbEntity
  8
0
100
AcDbVertex
100
AcDbPolygonMeshVertex
 10
1.245499999999998
 20
-0.5670000000000002
 30
5.365499999999999
 70
    64
  0
VERTEX
  5
7252F
330
72522
100
AcDbEntity
  8
0
100
AcDbVertex
100
AcDbPolygonMeshVertex
 10
1.245499999999998
 20
-0.2140000000000004
 30
5.542499999999999
 70
    64
  0
VERTEX
  5
72530
330
72522
100
AcDbEntity
  8
0
100
AcDbVertex
100
AcDbPolygonMeshVertex
 10
1.245499999999998
 20
-0.2140000000000004
 30
5.542499999999999
 70
    64
  0
VERTEX
  5
72531
330
72522
100
AcDbEntity
  8
0
100
AcDbVertex
100
AcDbPolygonMeshVertex
 10
1.245499999999998
 20
-0.5670000000000002
 30
5.542499999999999
 70
    64
  0
VERTEX
  5
72532
330
72522
100
AcDbEntity
  8
0
100
AcDbVertex
100
AcDbPolygonMeshVertex
 10
1.075999999999998
 20
-0.2140000000000004
 30
5.542499999999999
 70
    64
  0
VERTEX
  5
72533
330
72522
100
AcDbEntity
  8
0
100
AcDbVertex
100
AcDbPolygonMeshVertex
 10
1.075999999999998
 20
-0.2140000000000004
 30
5.542499999999999
 70
    64
  0
VERTEX
  5
72534
330
72522
100
AcDbEntity
  8
0
100
AcDbVertex
100
AcDbPolygonMeshVertex
 10
1.075999999999998
 20
-0.5670000000000002
 30
5.542499999999999
 70
    64
  0
SEQEND
  5
72535
330
72522
100
AcDbEntity
  8
0
  0
POLYLINE
  5
72536
330
458D6
100
AcDbEntity
  8
0
100
AcDbPolygonMesh
 66
     1
 10
0.0
 20
0.0
 30
0.0
 70
    16
 71
     6
 72
     3
  0
VERTEX
  5
72537
330
72536
100
AcDbEntity
  8
0
100
AcDbVertex
100
AcDbPolygonMeshVertex
 10
1.245499999999998
 20
-0.5670000000000002
 30
5.365499999999999
 70
    64
  0
VERTEX
  5
72538
330
72536
100
AcDbEntity
  8
0
100
AcDbVertex
100
AcDbPolygonMeshVertex
 10
1.245499999999998
 20
-0.5670000000000002
 30
5.331499999999999
 70
    64
  0
VERTEX
  5
72539
330
72536
100
AcDbEntity
  8
0
100
AcDbVertex
100
AcDbPolygonMeshVertex
 10
1.245499999999998
 20
-0.5670000000000002
 30
5.331499999999999
 70
    64
  0
VERTEX
  5
7253A
330
72536
100
AcDbEntity
  8
0
100
AcDbVertex
100
AcDbPolygonMeshVertex
 10
0.5144999999999991
 20
-0.5670000000000002
 30
5.365499999999999
 70
    64
  0
VERTEX
  5
7253B
330
72536
100
AcDbEntity
  8
0
100
AcDbVertex
100
AcDbPolygonMeshVertex
 10
0.5144999999999991
 20
-0.5670000000000002
 30
5.331499999999999
 70
    64
  0
VERTEX
  5
7253C
330
72536
100
AcDbEntity
  8
0
100
AcDbVertex
100
AcDbPolygonMeshVertex
 10
0.5144999999999991
 20
-0.5670000000000002
 30
5.331499999999999
 70
    64
  0
VERTEX
  5
7253D
330
72536
100
AcDbEntity
  8
0
100
AcDbVertex
100
AcDbPolygonMeshVertex
 10
0.5144999999999991
 20
-0.2140000000000004
 30
5.365499999999999
 70
    64
  0
VERTEX
  5
7253E
330
72536
100
AcDbEntity
  8
0
100
AcDbVertex
100
AcDbPolygonMeshVertex
 10
0.5144999999999991
 20
-0.2140000000000004
 30
5.331499999999999
 70
    64
  0
VERTEX
  5
7253F
330
72536
100
AcDbEntity
  8
0
100
AcDbVertex
100
AcDbPolygonMeshVertex
 10
0.5144999999999991
 20
-0.5670000000000002
 30
5.331499999999999
 70
    64
  0
VERTEX
  5
72540
330
72536
100
AcDbEntity
  8
0
100
AcDbVertex
100
AcDbPolygonMeshVertex
 10
1.245499999999998
 20
-0.2140000000000004
 30
5.365499999999999
 70
    64
  0
VERTEX
  5
72541
330
72536
100
AcDbEntity
  8
0
100
AcDbVertex
100
AcDbPolygonMeshVertex
 10
1.245499999999998
 20
-0.2140000000000004
 30
5.331499999999999
 70
    64
  0
VERTEX
  5
72542
330
72536
100
AcDbEntity
  8
0
100
AcDbVertex
100
AcDbPolygonMeshVertex
 10
1.245499999999998
 20
-0.5670000000000002
 30
5.331499999999999
 70
    64
  0
VERTEX
  5
72543
330
72536
100
AcDbEntity
  8
0
100
AcDbVertex
100
AcDbPolygonMeshVertex
 10
1.245499999999998
 20
-0.2140000000000004
 30
5.365499999999999
 70
    64
  0
VERTEX
  5
72544
330
72536
100
AcDbEntity
  8
0
100
AcDbVertex
100
AcDbPolygonMeshVertex
 10
1.245499999999998
 20
-0.2140000000000004
 30
5.365499999999999
 70
    64
  0
VERTEX
  5
72545
330
72536
100
AcDbEntity
  8
0
100
AcDbVertex
100
AcDbPolygonMeshVertex
 10
1.245499999999998
 20
-0.5670000000000002
 30
5.365499999999999
 70
    64
  0
VERTEX
  5
72546
330
72536
100
AcDbEntity
  8
0
100
AcDbVertex
100
AcDbPolygonMeshVertex
 10
0.5144999999999991
 20
-0.2140000000000004
 30
5.365499999999999
 70
    64
  0
VERTEX
  5
72547
330
72536
100
AcDbEntity
  8
0
100
AcDbVertex
100
AcDbPolygonMeshVertex
 10
0.5144999999999991
 20
-0.2140000000000004
 30
5.365499999999999
 70
    64
  0
VERTEX
  5
72548
330
72536
100
AcDbEntity
  8
0
100
AcDbVertex
100
AcDbPolygonMeshVertex
 10
0.5144999999999991
 20
-0.5670000000000002
 30
5.365499999999999
 70
    64
  0
SEQEND
  5
72549
330
72536
100
AcDbEntity
  8
0
  0
POLYLINE
  5
7254A
330
458D6
100
AcDbEntity
  8
0
100
AcDbPolygonMesh
 66
     1
 10
0.0
 20
0.0
 30
0.0
 70
    16
 71
     6
 72
     3
  0
VERTEX
  5
7254B
330
7254A
100
AcDbEntity
  8
0
100
AcDbVertex
100
AcDbPolygonMeshVertex
 10
1.117499999999998
 20
-1.021999999999999
 30
5.5815
 70
    64
  0
VERTEX
  5
7254C
330
7254A
100
AcDbEntity
  8
0
100
AcDbVertex
100
AcDbPolygonMeshVertex
 10
1.117499999999998
 20
-1.021999999999999
 30
5.365499999999999
 70
    64
  0
VERTEX
  5
7254D
330
7254A
100
AcDbEntity
  8
0
100
AcDbVertex
100
AcDbPolygonMeshVertex
 10
1.117499999999998
 20
-1.021999999999999
 30
5.365499999999999
 70
    64
  0
VERTEX
  5
7254E
330
7254A
100
AcDbEntity
  8
0
100
AcDbVertex
100
AcDbPolygonMeshVertex
 10
0.982499999999999
 20
-1.021999999999999
 30
5.5815
 70
    64
  0
VERTEX
  5
7254F
330
7254A
100
AcDbEntity
  8
0
100
AcDbVertex
100
AcDbPolygonMeshVertex
 10
0.982499999999999
 20
-1.021999999999999
 30
5.365499999999999
 70
    64
  0
VERTEX
  5
72550
330
7254A
100
AcDbEntity
  8
0
100
AcDbVertex
100
AcDbPolygonMeshVertex
 10
0.982499999999999
 20
-1.021999999999999
 30
5.365499999999999
 70
    64
  0
VERTEX
  5
72551
330
7254A
100
AcDbEntity
  8
0
100
AcDbVertex
100
AcDbPolygonMeshVertex
 10
0.982499999999999
 20
-0.6769999999999996
 30
5.5815
 70
    64
  0
VERTEX
  5
72552
330
7254A
100
AcDbEntity
  8
0
100
AcDbVertex
100
AcDbPolygonMeshVertex
 10
0.982499999999999
 20
-0.6769999999999996
 30
5.365499999999999
 70
    64
  0
VERTEX
  5
72553
330
7254A
100
AcDbEntity
  8
0
100
AcDbVertex
100
AcDbPolygonMeshVertex
 10
0.982499999999999
 20
-1.021999999999999
 30
5.365499999999999
 70
    64
  0
VERTEX
  5
72554
330
7254A
100
AcDbEntity
  8
0
100
AcDbVertex
100
AcDbPolygonMeshVertex
 10
1.117499999999998
 20
-0.6769999999999996
 30
5.5815
 70
    64
  0
VERTEX
  5
72555
330
7254A
100
AcDbEntity
  8
0
100
AcDbVertex
100
AcDbPolygonMeshVertex
 10
1.117499999999998
 20
-0.6769999999999996
 30
5.365499999999999
 70
    64
  0
VERTEX
  5
72556
330
7254A
100
AcDbEntity
  8
0
100
AcDbVertex
100
AcDbPolygonMeshVertex
 10
1.117499999999998
 20
-1.021999999999999
 30
5.365499999999999
 70
    64
  0
VERTEX
  5
72557
330
7254A
100
AcDbEntity
  8
0
100
AcDbVertex
100
AcDbPolygonMeshVertex
 10
1.117499999999998
 20
-0.6769999999999996
 30
5.5815
 70
    64
  0
VERTEX
  5
72558
330
7254A
100
AcDbEntity
  8
0
100
AcDbVertex
100
AcDbPolygonMeshVertex
 10
1.117499999999998
 20
-0.6769999999999996
 30
5.5815
 70
    64
  0
VERTEX
  5
72559
330
7254A
100
AcDbEntity
  8
0
100
AcDbVertex
100
AcDbPolygonMeshVertex
 10
1.117499999999998
 20
-1.021999999999999
 30
5.5815
 70
    64
  0
VERTEX
  5
7255A
330
7254A
100
AcDbEntity
  8
0
100
AcDbVertex
100
AcDbPolygonMeshVertex
 10
0.982499999999999
 20
-0.6769999999999996
 30
5.5815
 70
    64
  0
VERTEX
  5
7255B
330
7254A
100
AcDbEntity
  8
0
100
AcDbVertex
100
AcDbPolygonMeshVertex
 10
0.982499999999999
 20
-0.6769999999999996
 30
5.5815
 70
    64
  0
VERTEX
  5
7255C
330
7254A
100
AcDbEntity
  8
0
100
AcDbVertex
100
AcDbPolygonMeshVertex
 10
0.982499999999999
 20
-1.021999999999999
 30
5.5815
 70
    64
  0
SEQEND
  5
7255D
330
7254A
100
AcDbEntity
  8
0
  0
POLYLINE
  5
7255E
330
458D6
100
AcDbEntity
  8
0
100
AcDbPolygonMesh
 66
     1
 10
0.0
 20
0.0
 30
0.0
 70
    16
 71
     6
 72
     3
  0
VERTEX
  5
7255F
330
7255E
100
AcDbEntity
  8
0
100
AcDbVertex
100
AcDbPolygonMeshVertex
 10
0.777499999999999
 20
-1.021999999999999
 30
5.5815
 70
    64
  0
VERTEX
  5
72560
330
7255E
100
AcDbEntity
  8
0
100
AcDbVertex
100
AcDbPolygonMeshVertex
 10
0.777499999999999
 20
-1.021999999999999
 30
5.365499999999999
 70
    64
  0
VERTEX
  5
72561
330
7255E
100
AcDbEntity
  8
0
100
AcDbVertex
100
AcDbPolygonMeshVertex
 10
0.777499999999999
 20
-1.021999999999999
 30
5.365499999999999
 70
    64
  0
VERTEX
  5
72562
330
7255E
100
AcDbEntity
  8
0
100
AcDbVertex
100
AcDbPolygonMeshVertex
 10
0.6424999999999992
 20
-1.021999999999999
 30
5.5815
 70
    64
  0
VERTEX
  5
72563
330
7255E
100
AcDbEntity
  8
0
100
AcDbVertex
100
AcDbPolygonMeshVertex
 10
0.6424999999999992
 20
-1.021999999999999
 30
5.365499999999999
 70
    64
  0
VERTEX
  5
72564
330
7255E
100
AcDbEntity
  8
0
100
AcDbVertex
100
AcDbPolygonMeshVertex
 10
0.6424999999999992
 20
-1.021999999999999
 30
5.365499999999999
 70
    64
  0
VERTEX
  5
72565
330
7255E
100
AcDbEntity
  8
0
100
AcDbVertex
100
AcDbPolygonMeshVertex
 10
0.6424999999999992
 20
-0.6769999999999996
 30
5.5815
 70
    64
  0
VERTEX
  5
72566
330
7255E
100
AcDbEntity
  8
0
100
AcDbVertex
100
AcDbPolygonMeshVertex
 10
0.6424999999999992
 20
-0.6769999999999996
 30
5.365499999999999
 70
    64
  0
VERTEX
  5
72567
330
7255E
100
AcDbEntity
  8
0
100
AcDbVertex
100
AcDbPolygonMeshVertex
 10
0.6424999999999992
 20
-1.021999999999999
 30
5.365499999999999
 70
    64
  0
VERTEX
  5
72568
330
7255E
100
AcDbEntity
  8
0
100
AcDbVertex
100
AcDbPolygonMeshVertex
 10
0.777499999999999
 20
-0.6769999999999996
 30
5.5815
 70
    64
  0
VERTEX
  5
72569
330
7255E
100
AcDbEntity
  8
0
100
AcDbVertex
100
AcDbPolygonMeshVertex
 10
0.777499999999999
 20
-0.6769999999999996
 30
5.365499999999999
 70
    64
  0
VERTEX
  5
7256A
330
7255E
100
AcDbEntity
  8
0
100
AcDbVertex
100
AcDbPolygonMeshVertex
 10
0.777499999999999
 20
-1.021999999999999
 30
5.365499999999999
 70
    64
  0
VERTEX
  5
7256B
330
7255E
100
AcDbEntity
  8
0
100
AcDbVertex
100
AcDbPolygonMeshVertex
 10
0.777499999999999
 20
-0.6769999999999996
 30
5.5815
 70
    64
  0
VERTEX
  5
7256C
330
7255E
100
AcDbEntity
  8
0
100
AcDbVertex
100
AcDbPolygonMeshVertex
 10
0.777499999999999
 20
-0.6769999999999996
 30
5.5815
 70
    64
  0
VERTEX
  5
7256D
330
7255E
100
AcDbEntity
  8
0
100
AcDbVertex
100
AcDbPolygonMeshVertex
 10
0.777499999999999
 20
-1.021999999999999
 30
5.5815
 70
    64
  0
VERTEX
  5
7256E
330
7255E
100
AcDbEntity
  8
0
100
AcDbVertex
100
AcDbPolygonMeshVertex
 10
0.6424999999999992
 20
-0.6769999999999996
 30
5.5815
 70
    64
  0
VERTEX
  5
7256F
330
7255E
100
AcDbEntity
  8
0
100
AcDbVertex
100
AcDbPolygonMeshVertex
 10
0.6424999999999992
 20
-0.6769999999999996
 30
5.5815
 70
    64
  0
VERTEX
  5
72570
330
7255E
100
AcDbEntity
  8
0
100
AcDbVertex
100
AcDbPolygonMeshVertex
 10
0.6424999999999992
 20
-1.021999999999999
 30
5.5815
 70
    64
  0
SEQEND
  5
72571
330
7255E
100
AcDbEntity
  8
0
  0
LINE
  5
72572
330
458D6
100
AcDbEntity
  8
0
100
AcDbLine
 10
0.777499999999999
 20
-1.021999999999999
 30
5.5815
 11
0.777499999999999
 21
-1.021999999999999
 31
5.365499999999999
  0
POLYLINE
  5
72573
330
458D6
100
AcDbEntity
  8
0
100
AcDbPolygonMesh
 66
     1
 10
0.0
 20
0.0
 30
0.0
 70
    16
 71
     6
 72
     3
  0
VERTEX
  5
72574
330
72573
100
AcDbEntity
  8
0
100
AcDbVertex
100
AcDbPolygonMeshVertex
 10
0.6839999999999993
 20
-0.5670000000000002
 30
5.542499999999999
 70
    64
  0
VERTEX
  5
72575
330
72573
100
AcDbEntity
  8
0
100
AcDbVertex
100
AcDbPolygonMeshVertex
 10
0.6839999999999993
 20
-0.5670000000000002
 30
5.365499999999999
 70
    64
  0
VERTEX
  5
72576
330
72573
100
AcDbEntity
  8
0
100
AcDbVertex
100
AcDbPolygonMeshVertex
 10
0.6839999999999993
 20
-0.5670000000000002
 30
5.365499999999999
 70
    64
  0
VERTEX
  5
72577
330
72573
100
AcDbEntity
  8
0
100
AcDbVertex
100
AcDbPolygonMeshVertex
 10
0.5144999999999991
 20
-0.5670000000000002
 30
5.542499999999999
 70
    64
  0
VERTEX
  5
72578
330
72573
100
AcDbEntity
  8
0
100
AcDbVertex
100
AcDbPolygonMeshVertex
 10
0.5144999999999991
 20
-0.5670000000000002
 30
5.365499999999999
 70
    64
  0
VERTEX
  5
72579
330
72573
100
AcDbEntity
  8
0
100
AcDbVertex
100
AcDbPolygonMeshVertex
 10
0.5144999999999991
 20
-0.5670000000000002
 30
5.365499999999999
 70
    64
  0
VERTEX
  5
7257A
330
72573
100
AcDbEntity
  8
0
100
AcDbVertex
100
AcDbPolygonMeshVertex
 10
0.5144999999999991
 20
-0.2140000000000004
 30
5.542499999999999
 70
    64
  0
VERTEX
  5
7257B
330
72573
100
AcDbEntity
  8
0
100
AcDbVertex
100
AcDbPolygonMeshVertex
 10
0.5144999999999991
 20
-0.2140000000000004
 30
5.365499999999999
 70
    64
  0
VERTEX
  5
7257C
330
72573
100
AcDbEntity
  8
0
100
AcDbVertex
100
AcDbPolygonMeshVertex
 10
0.5144999999999991
 20
-0.5670000000000002
 30
5.365499999999999
 70
    64
  0
VERTEX
  5
7257D
330
72573
100
AcDbEntity
  8
0
100
AcDbVertex
100
AcDbPolygonMeshVertex
 10
0.6839999999999993
 20
-0.2140000000000004
 30
5.542499999999999
 70
    64
  0
VERTEX
  5
7257E
330
72573
100
AcDbEntity
  8
0
100
AcDbVertex
100
AcDbPolygonMeshVertex
 10
0.6839999999999993
 20
-0.2140000000000004
 30
5.365499999999999
 70
    64
  0
VERTEX
  5
7257F
330
72573
100
AcDbEntity
  8
0
100
AcDbVertex
100
AcDbPolygonMeshVertex
 10
0.6839999999999993
 20
-0.5670000000000002
 30
5.365499999999999
 70
    64
  0
VERTEX
  5
72580
330
72573
100
AcDbEntity
  8
0
100
AcDbVertex
100
AcDbPolygonMeshVertex
 10
0.6839999999999993
 20
-0.2140000000000004
 30
5.542499999999999
 70
    64
  0
VERTEX
  5
72581
330
72573
100
AcDbEntity
  8
0
100
AcDbVertex
100
AcDbPolygonMeshVertex
 10
0.6839999999999993
 20
-0.2140000000000004
 30
5.542499999999999
 70
    64
  0
VERTEX
  5
72582
330
72573
100
AcDbEntity
  8
0
100
AcDbVertex
100
AcDbPolygonMeshVertex
 10
0.6839999999999993
 20
-0.5670000000000002
 30
5.542499999999999
 70
    64
  0
VERTEX
  5
72583
330
72573
100
AcDbEntity
  8
0
100
AcDbVertex
100
AcDbPolygonMeshVertex
 10
0.5144999999999991
 20
-0.2140000000000004
 30
5.542499999999999
 70
    64
  0
VERTEX
  5
72584
330
72573
100
AcDbEntity
  8
0
100
AcDbVertex
100
AcDbPolygonMeshVertex
 10
0.5144999999999991
 20
-0.2140000000000004
 30
5.542499999999999
 70
    64
  0
VERTEX
  5
72585
330
72573
100
AcDbEntity
  8
0
100
AcDbVertex
100
AcDbPolygonMeshVertex
 10
0.5144999999999991
 20
-0.5670000000000002
 30
5.542499999999999
 70
    64
  0
SEQEND
  5
72586
330
72573
100
AcDbEntity
  8
0
  0
LINE
  5
72587
330
458D6
100
AcDbEntity
  8
0
100
AcDbLine
 10
0.6839999999999993
 20
-0.5670000000000002
 30
5.542499999999999
 11
0.6839999999999993
 21
-0.5670000000000002
 31
5.365499999999999
  0
POLYLINE
  5
72588
330
458D6
100
AcDbEntity
  8
0
100
AcDbPolygonMesh
 66
     1
 10
0.0
 20
0.0
 30
0.0
 70
    16
 71
     6
 72
     3
  0
VERTEX
  5
72589
330
72588
100
AcDbEntity
  8
0
100
AcDbVertex
100
AcDbPolygonMeshVertex
 10
1.117499999999998
 20
-1.021999999999999
 30
5.365499999999999
 70
    64
  0
VERTEX
  5
7258A
330
72588
100
AcDbEntity
  8
0
100
AcDbVertex
100
AcDbPolygonMeshVertex
 10
1.117499999999998
 20
-1.021999999999999
 30
5.331499999999999
 70
    64
  0
VERTEX
  5
7258B
330
72588
100
AcDbEntity
  8
0
100
AcDbVertex
100
AcDbPolygonMeshVertex
 10
1.117499999999998
 20
-1.021999999999999
 30
5.331499999999999
 70
    64
  0
VERTEX
  5
7258C
330
72588
100
AcDbEntity
  8
0
100
AcDbVertex
100
AcDbPolygonMeshVertex
 10
0.6424999999999992
 20
-1.021999999999999
 30
5.365499999999999
 70
    64
  0
VERTEX
  5
7258D
330
72588
100
AcDbEntity
  8
0
100
AcDbVertex
100
AcDbPolygonMeshVertex
 10
0.6424999999999992
 20
-1.021999999999999
 30
5.331499999999999
 70
    64
  0
VERTEX
  5
7258E
330
72588
100
AcDbEntity
  8
0
100
AcDbVertex
100
AcDbPolygonMeshVertex
 10
0.6424999999999992
 20
-1.021999999999999
 30
5.331499999999999
 70
    64
  0
VERTEX
  5
7258F
330
72588
100
AcDbEntity
  8
0
100
AcDbVertex
100
AcDbPolygonMeshVertex
 10
0.6424999999999992
 20
-0.6769999999999996
 30
5.365499999999999
 70
    64
  0
VERTEX
  5
72590
330
72588
100
AcDbEntity
  8
0
100
AcDbVertex
100
AcDbPolygonMeshVertex
 10
0.6424999999999992
 20
-0.6769999999999996
 30
5.331499999999999
 70
    64
  0
VERTEX
  5
72591
330
72588
100
AcDbEntity
  8
0
100
AcDbVertex
100
AcDbPolygonMeshVertex
 10
0.6424999999999992
 20
-1.021999999999999
 30
5.331499999999999
 70
    64
  0
VERTEX
  5
72592
330
72588
100
AcDbEntity
  8
0
100
AcDbVertex
100
AcDbPolygonMeshVertex
 10
1.117499999999998
 20
-0.6769999999999996
 30
5.365499999999999
 70
    64
  0
VERTEX
  5
72593
330
72588
100
AcDbEntity
  8
0
100
AcDbVertex
100
AcDbPolygonMeshVertex
 10
1.117499999999998
 20
-0.6769999999999996
 30
5.331499999999999
 70
    64
  0
VERTEX
  5
72594
330
72588
100
AcDbEntity
  8
0
100
AcDbVertex
100
AcDbPolygonMeshVertex
 10
1.117499999999998
 20
-1.021999999999999
 30
5.331499999999999
 70
    64
  0
VERTEX
  5
72595
330
72588
100
AcDbEntity
  8
0
100
AcDbVertex
100
AcDbPolygonMeshVertex
 10
1.117499999999998
 20
-0.6769999999999996
 30
5.365499999999999
 70
    64
  0
VERTEX
  5
72596
330
72588
100
AcDbEntity
  8
0
100
AcDbVertex
100
AcDbPolygonMeshVertex
 10
1.117499999999998
 20
-0.6769999999999996
 30
5.365499999999999
 70
    64
  0
VERTEX
  5
72597
330
72588
100
AcDbEntity
  8
0
100
AcDbVertex
100
AcDbPolygonMeshVertex
 10
1.117499999999998
 20
-1.021999999999999
 30
5.365499999999999
 70
    64
  0
VERTEX
  5
72598
330
72588
100
AcDbEntity
  8
0
100
AcDbVertex
100
AcDbPolygonMeshVertex
 10
0.6424999999999992
 20
-0.6769999999999996
 30
5.365499999999999
 70
    64
  0
VERTEX
  5
72599
330
72588
100
AcDbEntity
  8
0
100
AcDbVertex
100
AcDbPolygonMeshVertex
 10
0.6424999999999992
 20
-0.6769999999999996
 30
5.365499999999999
 70
    64
  0
VERTEX
  5
7259A
330
72588
100
AcDbEntity
  8
0
100
AcDbVertex
100
AcDbPolygonMeshVertex
 10
0.6424999999999992
 20
-1.021999999999999
 30
5.365499999999999
 70
    64
  0
SEQEND
  5
7259B
330
72588
100
AcDbEntity
  8
0
  0
CIRCLE
  5
7259C
330
458D6
100
AcDbEntity
  8
0
100
AcDbCircle
 10
0.315999999999999
 20
0.1820000000000004
 30
5.331499999999999
 40
0.138
  0
TEXT
  5
7259D
330
458D6
100
AcDbEntity
  8
0
100
AcDbText
 10
0.067417189317153
 20
0.2811155340969122
 30
5.331499999999999
 40
0.0834654981097751
  1
1
100
AcDbText
  0
TEXT
  5
7259E
330
458D6
100
AcDbEntity
  8
0
100
AcDbText
 10
0.4534988136226553
 20
0.2802736679910662
 30
5.331499999999999
 40
0.0834654981097751
  1
L1
100
AcDbText
  0
TEXT
  5
7259F
330
458D6
100
AcDbEntity
  8
0
100
AcDbText
 10
0.6672258341164632
 20
0.2794318018852193
 30
5.331499999999999
 40
0.0834654981097751
  1
3
100
AcDbText
  0
TEXT
  5
725A0
330
458D6
100
AcDbEntity
  8
0
100
AcDbText
 10
1.006248111611726
 20
0.2808433009258362
 30
5.331499999999999
 40
0.0834654981097751
  1
L2
100
AcDbText
  0
LINE
  5
725A1
330
458D6
100
AcDbEntity
  8
0
100
AcDbLine
 10
0.6839999999999993
 20
-0.2140000000000004
 30
5.542499999999999
 11
0.6839999999999993
 21
-0.5670000000000002
 31
5.542499999999999
  0
TEXT
  5
725A2
330
458D6
100
AcDbEntity
  8
0
100
AcDbText
 10
1.577134654616568
 20
-2.06163655604471
 30
5.331499999999999
 40
0.0834654981097751
  1
T3
100
AcDbText
  0
TEXT
  5
725A3
330
458D6
100
AcDbEntity
  8
0
100
AcDbText
 10
1.248897233900002
 20
-2.063048055085326
 30
5.331499999999999
 40
0.0834654981097751
  1
6
100
AcDbText
  0
CIRCLE
  5
725A4
330
458D6
100
AcDbEntity
  8
0
100
AcDbCircle
 10
1.444
 20
-1.87
 30
5.331499999999999
 40
0.138
  0
TEXT
  5
725A5
330
458D6
100
AcDbEntity
  8
0
100
AcDbText
 10
1.253995160550572
 20
0.282254799966454
 30
5.331499999999999
 40
0.0834654981097751
  1
5
100
AcDbText
  0
TEXT
  5
725A6
330
458D6
100
AcDbEntity
  8
0
100
AcDbText
 10
1.592428434568278
 20
0.2842550160273163
 30
5.331499999999999
 40
0.0834654981097751
  1
L3
100
AcDbText
  0
3DFACE
  5
725A7
330
458D6
100
AcDbEntity
  8
0
100
AcDbFace
 10
1.759999999999999
 20
0.4009999999999998
 30
5.331499999999999
 11
1.759999999999999
 21
-2.089
 31
5.331499999999999
 12
0.0000000000000001
 22
-2.089
 32
5.331499999999999
 13
0.0000000000000001
 23
0.4009999999999998
 33
5.331499999999999
  0
POLYLINE
  5
725A8
330
458D6
100
AcDbEntity
  8
0
100
AcDbPolygonMesh
 66
     1
 10
0.0
 20
0.0
 30
0.0
 70
    16
 71
     6
 72
     3
  0
VERTEX
  5
725A9
330
725A8
100
AcDbEntity
  8
0
100
AcDbVertex
100
AcDbPolygonMeshVertex
 10
1.2655
 20
-1.504
 30
5.531499999999999
 70
    64
  0
VERTEX
  5
725AA
330
725A8
100
AcDbEntity
  8
0
100
AcDbVertex
100
AcDbPolygonMeshVertex
 10
1.2655
 20
-1.504
 30
5.331499999999999
 70
    64
  0
VERTEX
  5
725AB
330
725A8
100
AcDbEntity
  8
0
100
AcDbVertex
100
AcDbPolygonMeshVertex
 10
1.2655
 20
-1.504
 30
5.331499999999999
 70
    64
  0
VERTEX
  5
725AC
330
725A8
100
AcDbEntity
  8
0
100
AcDbVertex
100
AcDbPolygonMeshVertex
 10
0.4944999999999996
 20
-1.504
 30
5.531499999999999
 70
    64
  0
VERTEX
  5
725AD
330
725A8
100
AcDbEntity
  8
0
100
AcDbVertex
100
AcDbPolygonMeshVertex
 10
0.4944999999999996
 20
-1.504
 30
5.331499999999999
 70
    64
  0
VERTEX
  5
725AE
330
725A8
100
AcDbEntity
  8
0
100
AcDbVertex
100
AcDbPolygonMeshVertex
 10
0.4944999999999996
 20
-1.504
 30
5.331499999999999
 70
    64
  0
VERTEX
  5
725AF
330
725A8
100
AcDbEntity
  8
0
100
AcDbVertex
100
AcDbPolygonMeshVertex
 10
0.4944999999999996
 20
-1.221999999999999
 30
5.531499999999999
 70
    64
  0
VERTEX
  5
725B0
330
725A8
100
AcDbEntity
  8
0
100
AcDbVertex
100
AcDbPolygonMeshVertex
 10
0.4944999999999996
 20
-1.221999999999999
 30
5.331499999999999
 70
    64
  0
VERTEX
  5
725B1
330
725A8
100
AcDbEntity
  8
0
100
AcDbVertex
100
AcDbPolygonMeshVertex
 10
0.4944999999999996
 20
-1.504
 30
5.331499999999999
 70
    64
  0
VERTEX
  5
725B2
330
725A8
100
AcDbEntity
  8
0
100
AcDbVertex
100
AcDbPolygonMeshVertex
 10
1.2655
 20
-1.221999999999999
 30
5.531499999999999
 70
    64
  0
VERTEX
  5
725B3
330
725A8
100
AcDbEntity
  8
0
100
AcDbVertex
100
AcDbPolygonMeshVertex
 10
1.2655
 20
-1.221999999999999
 30
5.331499999999999
 70
    64
  0
VERTEX
  5
725B4
330
725A8
100
AcDbEntity
  8
0
100
AcDbVertex
100
AcDbPolygonMeshVertex
 10
1.2655
 20
-1.504
 30
5.331499999999999
 70
    64
  0
VERTEX
  5
725B5
330
725A8
100
AcDbEntity
  8
0
100
AcDbVertex
100
AcDbPolygonMeshVertex
 10
1.2655
 20
-1.221999999999999
 30
5.531499999999999
 70
    64
  0
VERTEX
  5
725B6
330
725A8
100
AcDbEntity
  8
0
100
AcDbVertex
100
AcDbPolygonMeshVertex
 10
1.2655
 20
-1.221999999999999
 30
5.531499999999999
 70
    64
  0
VERTEX
  5
725B7
330
725A8
100
AcDbEntity
  8
0
100
AcDbVertex
100
AcDbPolygonMeshVertex
 10
1.2655
 20
-1.504
 30
5.531499999999999
 70
    64
  0
VERTEX
  5
725B8
330
725A8
100
AcDbEntity
  8
0
100
AcDbVertex
100
AcDbPolygonMeshVertex
 10
0.4944999999999996
 20
-1.221999999999999
 30
5.531499999999999
 70
    64
  0
VERTEX
  5
725B9
330
725A8
100
AcDbEntity
  8
0
100
AcDbVertex
100
AcDbPolygonMeshVertex
 10
0.4944999999999996
 20
-1.221999999999999
 30
5.531499999999999
 70
    64
  0
VERTEX
  5
725BA
330
725A8
100
AcDbEntity
  8
0
100
AcDbVertex
100
AcDbPolygonMeshVertex
 10
0.4944999999999996
 20
-1.504
 30
5.531499999999999
 70
    64
  0
SEQEND
  5
725BB
330
725A8
100
AcDbEntity
  8
0
  0
TEXT
  5
725BC
330
458D6
100
AcDbEntity
  8
0
100
AcDbText
 10
0.4716360586384277
 20
-2.062775821914252
 30
5.331499999999999
 40
0.0834654981097751
  1
T1
100
AcDbText
  0
CIRCLE
  5
725BD
330
458D6
100
AcDbEntity
  8
0
100
AcDbCircle
 10
0.315999999999999
 20
-1.87
 30
5.331499999999999
 40
0.138
  0
TEXT
  5
725BE
330
458D6
100
AcDbEntity
  8
0
100
AcDbText
 10
1.027228821691561
 20
-2.06220618897948
 30
5.331499999999999
 40
0.0834654981097751
  1
T2
100
AcDbText
  0
TEXT
  5
725BF
330
458D6
100
AcDbEntity
  8
0
100
AcDbText
 10
0.6927154673693137
 20
-2.060775605853388
 30
5.331499999999999
 40
0.0834654981097751
  1
4
100
AcDbText
  0
CIRCLE
  5
725C0
330
458D6
100
AcDbEntity
  8
0
100
AcDbCircle
 10
0.8800000000000007
 20
-1.87
 30
5.331499999999999
 40
0.138
  0
TEXT
  5
725C1
330
458D6
100
AcDbEntity
  8
0
100
AcDbText
 10
0.075358581031785
 20
-2.064187320954868
 30
5.331499999999999
 40
0.0834654981097751
  1
2
100
AcDbText
  0
POINT
  5
725C2
330
458D6
100
AcDbEntity
  8
SNAP_POINTS
100
AcDbPoint
 10
0.0
 20
0.0
 30
0.0
  0
POLYLINE
  5
725C3
330
458D6
100
AcDbEntity
  8
0
  6
Continuous
100
AcDb3dPolyline
 66
     1
 10
0.0
 20
0.0
 30
0.0
 70
     8
  0
VERTEX
  5
725C4
330
725C3
100
AcDbEntity
  8
0
  6
Continuous
100
AcDbVertex
100
AcDb3dPolylineVertex
 10
1.759999999999999
 20
0.1179999999999994
 30
0.0
 70
    32
1001
ACAD
1000
R13OBJECT
1002
{
1005
725C3
1002
}
  0
VERTEX
  5
725C5
330
725C3
100
AcDbEntity
  8
0
  6
Continuous
100
AcDbVertex
100
AcDb3dPolylineVertex
 10
1.368999999999999
 20
0.1179999999999994
 30
0.0
 70
    32
1001
ACAD
1000
R13OBJECT
1002
{
1005
725C3
1002
}
  0
SEQEND
  5
725C6
330
725C3
100
AcDbEntity
  8
0
  6
Continuous
  0
POLYLINE
  5
725C7
330
458D6
100
AcDbEntity
  8
0
  6
Continuous
100
AcDb3dPolyline
 66
     1
 10
0.0
 20
0.0
 30
0.0
 70
     8
1001
ACAD
1000
R13OBJECT
1002
{
1005
725C3
1002
}
  0
VERTEX
  5
725C8
330
725C7
100
AcDbEntity
  8
0
  6
Continuous
100
AcDbVertex
100
AcDb3dPolylineVertex
 10
1.368999999999999
 20
0.1179999999999994
 30
0.3160000000000001
 70
    32
1001
ACAD
1000
R13OBJECT
1002
{
1005
725C3
1002
}
  0
VERTEX
  5
725C9
330
725C7
100
AcDbEntity
  8
0
  6
Continuous
100
AcDbVertex
100
AcDb3dPolylineVertex
 10
1.759999999999999
 20
0.1179999999999994
 30
0.3160000000000001
 70
    32
1001
ACAD
1000
R13OBJECT
1002
{
1005
725C3
1002
}
  0
SEQEND
  5
725CA
330
725C7
100
AcDbEntity
  8
0
  6
Continuous
  0
POLYLINE
  5
725CB
330
458D6
100
AcDbEntity
  8
0
  6
Continuous
100
AcDb3dPolyline
 66
     1
 10
0.0
 20
0.0
 30
0.0
 70
     8
1001
ACAD
1000
R13OBJECT
1002
{
1005
725C3
1002
}
  0
VERTEX
  5
725CC
330
725CB
100
AcDbEntity
  8
0
  6
Continuous
100
AcDbVertex
100
AcDb3dPolylineVertex
 10
1.368999999999999
 20
0.1179999999999994
 30
0.0
 70
    32
1001
ACAD
1000
R13OBJECT
1002
{
1005
725C3
1002
}
  0
VERTEX
  5
725CD
330
725CB
100
AcDbEntity
  8
0
  6
Continuous
100
AcDbVertex
100
AcDb3dPolylineVertex
 10
1.368999999999999
 20
0.4819999999999994
 30
0.0
 70
    32
1001
ACAD
1000
R13OBJECT
1002
{
1005
725C3
1002
}
  0
SEQEND
  5
725CE
330
725CB
100
AcDbEntity
  8
0
  6
Continuous
  0
POLYLINE
  5
725CF
330
458D6
100
AcDbEntity
  8
0
  6
Continuous
100
AcDb3dPolyline
 66
     1
 10
0.0
 20
0.0
 30
0.0
 70
     8
1001
ACAD
1000
R13OBJECT
1002
{
1005
725C3
1002
}
  0
VERTEX
  5
725D0
330
725CF
100
AcDbEntity
  8
0
  6
Continuous
100
AcDbVertex
100
AcDb3dPolylineVertex
 10
1.368999999999999
 20
0.1179999999999994
 30
0.3160000000000001
 70
    32
1001
ACAD
1000
R13OBJECT
1002
{
1005
725C3
1002
}
  0
VERTEX
  5
725D1
330
725CF
100
AcDbEntity
  8
0
  6
Continuous
100
AcDbVertex
100
AcDb3dPolylineVertex
 10
1.368999999999999
 20
0.1179999999999994
 30
0.0
 70
    32
1001
ACAD
1000
R13OBJECT
1002
{
1005
725C3
1002
}
  0
SEQEND
  5
725D2
330
725CF
100
AcDbEntity
  8
0
  6
Continuous
  0
POLYLINE
  5
725D3
330
458D6
100
AcDbEntity
  8
0
  6
Continuous
100
AcDb3dPolyline
 66
     1
 10
0.0
 20
0.0
 30
0.0
 70
     8
1001
ACAD
1000
R13OBJECT
1002
{
1005
725C3
1002
}
  0
VERTEX
  5
725D4
330
725D3
100
AcDbEntity
  8
0
  6
Continuous
100
AcDbVertex
100
AcDb3dPolylineVertex
 10
1.368999999999999
 20
0.4819999999999994
 30
0.3160000000000001
 70
    32
1001
ACAD
1000
R13OBJECT
1002
{
1005
725C3
1002
}
  0
VERTEX
  5
725D5
330
725D3
100
AcDbEntity
  8
0
  6
Continuous
100
AcDbVertex
100
AcDb3dPolylineVertex
 10
1.368999999999999
 20
0.1179999999999994
 30
0.3160000000000001
 70
    32
1001
ACAD
1000
R13OBJECT
1002
{
1005
725C3
1002
}
  0
SEQEND
  5
725D6
330
725D3
100
AcDbEntity
  8
0
  6
Continuous
  0
POLYLINE
  5
725D7
330
458D6
100
AcDbEntity
  8
0
  6
Continuous
100
AcDb3dPolyline
 66
     1
 10
0.0
 20
0.0
 30
0.0
 70
     8
1001
ACAD
1000
R13OBJECT
1002
{
1005
725C3
1002
}
  0
VERTEX
  5
725D8
330
725D7
100
AcDbEntity
  8
0
  6
Continuous
100
AcDbVertex
100
AcDb3dPolylineVertex
 10
1.368999999999999
 20
0.4819999999999994
 30
0.0
 70
    32
1001
ACAD
1000
R13OBJECT
1002
{
1005
725C3
1002
}
  0
VERTEX
  5
725D9
330
725D7
100
AcDbEntity
  8
0
  6
Continuous
100
AcDbVertex
100
AcDb3dPolylineVertex
 10
1.759999999999999
 20
0.4819999999999994
 30
0.0
 70
    32
1001
ACAD
1000
R13OBJECT
1002
{
1005
725C3
1002
}
  0
SEQEND
  5
725DA
330
725D7
100
AcDbEntity
  8
0
  6
Continuous
  0
POLYLINE
  5
725DB
330
458D6
100
AcDbEntity
  8
0
  6
Continuous
100
AcDb3dPolyline
 66
     1
 10
0.0
 20
0.0
 30
0.0
 70
     8
1001
ACAD
1000
R13OBJECT
1002
{
1005
725C3
1002
}
  0
VERTEX
  5
725DC
330
725DB
100
AcDbEntity
  8
0
  6
Continuous
100
AcDbVertex
100
AcDb3dPolylineVertex
 10
1.368999999999999
 20
0.4819999999999994
 30
0.3160000000000001
 70
    32
1001
ACAD
1000
R13OBJECT
1002
{
1005
725C3
1002
}
  0
VERTEX
  5
725DD
330
725DB
100
AcDbEntity
  8
0
  6
Continuous
100
AcDbVertex
100
AcDb3dPolylineVertex
 10
1.368999999999999
 20
0.4819999999999994
 30
0.0
 70
    32
1001
ACAD
1000
R13OBJECT
1002
{
1005
725C3
1002
}
  0
SEQEND
  5
725DE
330
725DB
100
AcDbEntity
  8
0
  6
Continuous
  0
POLYLINE
  5
725DF
330
458D6
100
AcDbEntity
  8
0
  6
Continuous
100
AcDb3dPolyline
 66
     1
 10
0.0
 20
0.0
 30
0.0
 70
     8
1001
ACAD
1000
R13OBJECT
1002
{
1005
725C3
1002
}
  0
VERTEX
  5
725E0
330
725DF
100
AcDbEntity
  8
0
  6
Continuous
100
AcDbVertex
100
AcDb3dPolylineVertex
 10
1.759999999999999
 20
0.4819999999999994
 30
0.3160000000000001
 70
    32
1001
ACAD
1000
R13OBJECT
1002
{
1005
725C3
1002
}
  0
VERTEX
  5
725E1
330
725DF
100
AcDbEntity
  8
0
  6
Continuous
100
AcDbVertex
100
AcDb3dPolylineVertex
 10
1.368999999999999
 20
0.4819999999999994
 30
0.3160000000000001
 70
    32
1001
ACAD
1000
R13OBJECT
1002
{
1005
725C3
1002
}
  0
SEQEND
  5
725E2
330
725DF
100
AcDbEntity
  8
0
  6
Continuous
  0
POLYLINE
  5
725E3
330
458D6
100
AcDbEntity
  8
0
  6
Continuous
100
AcDb3dPolyline
 66
     1
 10
0.0
 20
0.0
 30
0.0
 70
     8
1001
ACAD
1000
R13OBJECT
1002
{
1005
725C3
1002
}
  0
VERTEX
  5
725E4
330
725E3
100
AcDbEntity
  8
0
  6
Continuous
100
AcDbVertex
100
AcDb3dPolylineVertex
 10
1.759999999999999
 20
0.1179999999999994
 30
0.3160000000000001
 70
    32
1001
ACAD
1000
R13OBJECT
1002
{
1005
725C3
1002
}
  0
VERTEX
  5
725E5
330
725E3
100
AcDbEntity
  8
0
  6
Continuous
100
AcDbVertex
100
AcDb3dPolylineVertex
 10
1.759999999999999
 20
0.1179999999999994
 30
0.0
 70
    32
1001
ACAD
1000
R13OBJECT
1002
{
1005
725C3
1002
}
  0
SEQEND
  5
725E6
330
725E3
100
AcDbEntity
  8
0
  6
Continuous
  0
POLYLINE
  5
725E7
330
458D6
100
AcDbEntity
  8
0
  6
Continuous
100
AcDb3dPolyline
 66
     1
 10
0.0
 20
0.0
 30
0.0
 70
     8
1001
ACAD
1000
R13OBJECT
1002
{
1005
725C3
1002
}
  0
VERTEX
  5
725E8
330
725E7
100
AcDbEntity
  8
0
  6
Continuous
100
AcDbVertex
100
AcDb3dPolylineVertex
 10
1.759999999999999
 20
0.4819999999999994
 30
0.0
 70
    32
1001
ACAD
1000
R13OBJECT
1002
{
1005
725C3
1002
}
  0
VERTEX
  5
725E9
330
725E7
100
AcDbEntity
  8
0
  6
Continuous
100
AcDbVertex
100
AcDb3dPolylineVertex
 10
1.759999999999999
 20
0.1179999999999994
 30
0.0
 70
    32
1001
ACAD
1000
R13OBJECT
1002
{
1005
725C3
1002
}
  0
SEQEND
  5
725EA
330
725E7
100
AcDbEntity
  8
0
  6
Continuous
  0
POLYLINE
  5
725EB
330
458D6
100
AcDbEntity
  8
0
  6
Continuous
100
AcDb3dPolyline
 66
     1
 10
0.0
 20
0.0
 30
0.0
 70
     8
1001
ACAD
1000
R13OBJECT
1002
{
1005
725C3
1002
}
  0
VERTEX
  5
725EC
330
725EB
100
AcDbEntity
  8
0
  6
Continuous
100
AcDbVertex
100
AcDb3dPolylineVertex
 10
1.759999999999999
 20
0.4819999999999994
 30
0.3160000000000001
 70
    32
1001
ACAD
1000
R13OBJECT
1002
{
1005
725C3
1002
}
  0
VERTEX
  5
725ED
330
725EB
100
AcDbEntity
  8
0
  6
Continuous
100
AcDbVertex
100
AcDb3dPolylineVertex
 10
1.759999999999999
 20
0.4819999999999994
 30
0.0
 70
    32
1001
ACAD
1000
R13OBJECT
1002
{
1005
725C3
1002
}
  0
SEQEND
  5
725EE
330
725EB
100
AcDbEntity
  8
0
  6
Continuous
  0
POLYLINE
  5
725EF
330
458D6
100
AcDbEntity
  8
0
  6
Continuous
100
AcDb3dPolyline
 66
     1
 10
0.0
 20
0.0
 30
0.0
 70
     8
1001
ACAD
1000
R13OBJECT
1002
{
1005
725C3
1002
}
  0
VERTEX
  5
725F0
330
725EF
100
AcDbEntity
  8
0
  6
Continuous
100
AcDbVertex
100
AcDb3dPolylineVertex
 10
1.759999999999999
 20
0.1179999999999994
 30
0.3160000000000001
 70
    32
1001
ACAD
1000
R13OBJECT
1002
{
1005
725C3
1002
}
  0
VERTEX
  5
725F1
330
725EF
100
AcDbEntity
  8
0
  6
Continuous
100
AcDbVertex
100
AcDb3dPolylineVertex
 10
1.759999999999999
 20
0.4819999999999994
 30
0.3160000000000001
 70
    32
1001
ACAD
1000
R13OBJECT
1002
{
1005
725C3
1002
}
  0
SEQEND
  5
725F2
330
725EF
100
AcDbEntity
  8
0
  6
Continuous
  0
POLYLINE
  5
725F3
330
458D6
100
AcDbEntity
  8
0
  6
Continuous
100
AcDb3dPolyline
 66
     1
 10
0.0
 20
0.0
 30
0.0
 70
     8
  0
VERTEX
  5
725F4
330
725F3
100
AcDbEntity
  8
0
  6
Continuous
100
AcDbVertex
100
AcDb3dPolylineVertex
 10
0.3912113791658698
 20
-2.17180856146939
 30
0.0
 70
    32
1001
ACAD
1000
R13OBJECT
1002
{
1005
725F3
1002
}
  0
VERTEX
  5
725F5
330
725F3
100
AcDbEntity
  8
0
  6
Continuous
100
AcDbVertex
100
AcDb3dPolylineVertex
 10
0.0000000000000001
 20
-2.17180856146939
 30
0.0
 70
    32
1001
ACAD
1000
R13OBJECT
1002
{
1005
725F3
1002
}
  0
SEQEND
  5
725F6
330
725F3
100
AcDbEntity
  8
0
  6
Continuous
  0
POLYLINE
  5
725F7
330
458D6
100
AcDbEntity
  8
0
  6
Continuous
100
AcDb3dPolyline
 66
     1
 10
0.0
 20
0.0
 30
0.0
 70
     8
1001
ACAD
1000
R13OBJECT
1002
{
1005
725F3
1002
}
  0
VERTEX
  5
725F8
330
725F7
100
AcDbEntity
  8
0
  6
Continuous
100
AcDbVertex
100
AcDb3dPolylineVertex
 10
0.0000000000000001
 20
-2.17180856146939
 30
0.3160000000000001
 70
    32
1001
ACAD
1000
R13OBJECT
1002
{
1005
725F3
1002
}
  0
VERTEX
  5
725F9
330
725F7
100
AcDbEntity
  8
0
  6
Continuous
100
AcDbVertex
100
AcDb3dPolylineVertex
 10
0.3912113791658698
 20
-2.17180856146939
 30
0.3160000000000001
 70
    32
1001
ACAD
1000
R13OBJECT
1002
{
1005
725F3
1002
}
  0
SEQEND
  5
725FA
330
725F7
100
AcDbEntity
  8
0
  6
Continuous
  0
POLYLINE
  5
725FB
330
458D6
100
AcDbEntity
  8
0
  6
Continuous
100
AcDb3dPolyline
 66
     1
 10
0.0
 20
0.0
 30
0.0
 70
     8
1001
ACAD
1000
R13OBJECT
1002
{
1005
725F3
1002
}
  0
VERTEX
  5
725FC
330
725FB
100
AcDbEntity
  8
0
  6
Continuous
100
AcDbVertex
100
AcDb3dPolylineVertex
 10
0.0000000000000001
 20
-2.17180856146939
 30
0.0
 70
    32
1001
ACAD
1000
R13OBJECT
1002
{
1005
725F3
1002
}
  0
VERTEX
  5
725FD
330
725FB
100
AcDbEntity
  8
0
  6
Continuous
100
AcDbVertex
100
AcDb3dPolylineVertex
 10
0.0000000000000001
 20
-1.80580856146939
 30
0.0
 70
    32
1001
ACAD
1000
R13OBJECT
1002
{
1005
725F3
1002
}
  0
SEQEND
  5
725FE
330
725FB
100
AcDbEntity
  8
0
  6
Continuous
  0
POLYLINE
  5
725FF
330
458D6
100
AcDbEntity
  8
0
  6
Continuous
100
AcDb3dPolyline
 66
     1
 10
0.0
 20
0.0
 30
0.0
 70
     8
1001
ACAD
1000
R13OBJECT
1002
{
1005
725F3
1002
}
  0
VERTEX
  5
72600
330
725FF
100
AcDbEntity
  8
0
  6
Continuous
100
AcDbVertex
100
AcDb3dPolylineVertex
 10
0.0000000000000001
 20
-2.17180856146939
 30
0.3160000000000001
 70
    32
1001
ACAD
1000
R13OBJECT
1002
{
1005
725F3
1002
}
  0
VERTEX
  5
72601
330
725FF
100
AcDbEntity
  8
0
  6
Continuous
100
AcDbVertex
100
AcDb3dPolylineVertex
 10
0.0000000000000001
 20
-2.17180856146939
 30
0.0
 70
    32
1001
ACAD
1000
R13OBJECT
1002
{
1005
725F3
1002
}
  0
SEQEND
  5
72602
330
725FF
100
AcDbEntity
  8
0
  6
Continuous
  0
POLYLINE
  5
72603
330
458D6
100
AcDbEntity
  8
0
  6
Continuous
100
AcDb3dPolyline
 66
     1
 10
0.0
 20
0.0
 30
0.0
 70
     8
1001
ACAD
1000
R13OBJECT
1002
{
1005
725F3
1002
}
  0
VERTEX
  5
72604
330
72603
100
AcDbEntity
  8
0
  6
Continuous
100
AcDbVertex
100
AcDb3dPolylineVertex
 10
0.0000000000000001
 20
-1.80580856146939
 30
0.3160000000000001
 70
    32
1001
ACAD
1000
R13OBJECT
1002
{
1005
725F3
1002
}
  0
VERTEX
  5
72605
330
72603
100
AcDbEntity
  8
0
  6
Continuous
100
AcDbVertex
100
AcDb3dPolylineVertex
 10
0.0000000000000001
 20
-2.17180856146939
 30
0.3160000000000001
 70
    32
1001
ACAD
1000
R13OBJECT
1002
{
1005
725F3
1002
}
  0
SEQEND
  5
72606
330
72603
100
AcDbEntity
  8
0
  6
Continuous
  0
POLYLINE
  5
72607
330
458D6
100
AcDbEntity
  8
0
  6
Continuous
100
AcDb3dPolyline
 66
     1
 10
0.0
 20
0.0
 30
0.0
 70
     8
1001
ACAD
1000
R13OBJECT
1002
{
1005
725F3
1002
}
  0
VERTEX
  5
72608
330
72607
100
AcDbEntity
  8
0
  6
Continuous
100
AcDbVertex
100
AcDb3dPolylineVertex
 10
0.0000000000000001
 20
-1.80580856146939
 30
0.0
 70
    32
1001
ACAD
1000
R13OBJECT
1002
{
1005
725F3
1002
}
  0
VERTEX
  5
72609
330
72607
100
AcDbEntity
  8
0
  6
Continuous
100
AcDbVertex
100
AcDb3dPolylineVertex
 10
0.3912113791658698
 20
-1.80580856146939
 30
0.0
 70
    32
1001
ACAD
1000
R13OBJECT
1002
{
1005
725F3
1002
}
  0
SEQEND
  5
7260A
330
72607
100
AcDbEntity
  8
0
  6
Continuous
  0
POLYLINE
  5
7260B
330
458D6
100
AcDbEntity
  8
0
  6
Continuous
100
AcDb3dPolyline
 66
     1
 10
0.0
 20
0.0
 30
0.0
 70
     8
1001
ACAD
1000
R13OBJECT
1002
{
1005
725F3
1002
}
  0
VERTEX
  5
7260C
330
7260B
100
AcDbEntity
  8
0
  6
Continuous
100
AcDbVertex
100
AcDb3dPolylineVertex
 10
0.0000000000000001
 20
-1.80580856146939
 30
0.3160000000000001
 70
    32
1001
ACAD
1000
R13OBJECT
1002
{
1005
725F3
1002
}
  0
VERTEX
  5
7260D
330
7260B
100
AcDbEntity
  8
0
  6
Continuous
100
AcDbVertex
100
AcDb3dPolylineVertex
 10
0.0000000000000001
 20
-1.80580856146939
 30
0.0
 70
    32
1001
ACAD
1000
R13OBJECT
1002
{
1005
725F3
1002
}
  0
SEQEND
  5
7260E
330
7260B
100
AcDbEntity
  8
0
  6
Continuous
  0
POLYLINE
  5
7260F
330
458D6
100
AcDbEntity
  8
0
  6
Continuous
100
AcDb3dPolyline
 66
     1
 10
0.0
 20
0.0
 30
0.0
 70
     8
1001
ACAD
1000
R13OBJECT
1002
{
1005
725F3
1002
}
  0
VERTEX
  5
72610
330
7260F
100
AcDbEntity
  8
0
  6
Continuous
100
AcDbVertex
100
AcDb3dPolylineVertex
 10
0.3912113791658698
 20
-1.80580856146939
 30
0.3160000000000001
 70
    32
1001
ACAD
1000
R13OBJECT
1002
{
1005
725F3
1002
}
  0
VERTEX
  5
72611
330
7260F
100
AcDbEntity
  8
0
  6
Continuous
100
AcDbVertex
100
AcDb3dPolylineVertex
 10
0.0000000000000001
 20
-1.80580856146939
 30
0.3160000000000001
 70
    32
1001
ACAD
1000
R13OBJECT
1002
{
1005
725F3
1002
}
  0
SEQEND
  5
72612
330
7260F
100
AcDbEntity
  8
0
  6
Continuous
  0
POLYLINE
  5
72613
330
458D6
100
AcDbEntity
  8
0
  6
Continuous
100
AcDb3dPolyline
 66
     1
 10
0.0
 20
0.0
 30
0.0
 70
     8
1001
ACAD
1000
R13OBJECT
1002
{
1005
725F3
1002
}
  0
VERTEX
  5
72614
330
72613
100
AcDbEntity
  8
0
  6
Continuous
100
AcDbVertex
100
AcDb3dPolylineVertex
 10
0.3912113791658698
 20
-2.17180856146939
 30
0.3160000000000001
 70
    32
1001
ACAD
1000
R13OBJECT
1002
{
1005
725F3
1002
}
  0
VERTEX
  5
72615
330
72613
100
AcDbEntity
  8
0
  6
Continuous
100
AcDbVertex
100
AcDb3dPolylineVertex
 10
0.3912113791658698
 20
-2.17180856146939
 30
0.0
 70
    32
1001
ACAD
1000
R13OBJECT
1002
{
1005
725F3
1002
}
  0
SEQEND
  5
72616
330
72613
100
AcDbEntity
  8
0
  6
Continuous
  0
POLYLINE
  5
72617
330
458D6
100
AcDbEntity
  8
0
  6
Continuous
100
AcDb3dPolyline
 66
     1
 10
0.0
 20
0.0
 30
0.0
 70
     8
1001
ACAD
1000
R13OBJECT
1002
{
1005
725F3
1002
}
  0
VERTEX
  5
72618
330
72617
100
AcDbEntity
  8
0
  6
Continuous
100
AcDbVertex
100
AcDb3dPolylineVertex
 10
0.3912113791658698
 20
-1.80580856146939
 30
0.0
 70
    32
1001
ACAD
1000
R13OBJECT
1002
{
1005
725F3
1002
}
  0
VERTEX
  5
72619
330
72617
100
AcDbEntity
  8
0
  6
Continuous
100
AcDbVertex
100
AcDb3dPolylineVertex
 10
0.3912113791658698
 20
-2.17180856146939
 30
0.0
 70
    32
1001
ACAD
1000
R13OBJECT
1002
{
1005
725F3
1002
}
  0
SEQEND
  5
7261A
330
72617
100
AcDbEntity
  8
0
  6
Continuous
  0
POLYLINE
  5
7261B
330
458D6
100
AcDbEntity
  8
0
  6
Continuous
100
AcDb3dPolyline
 66
     1
 10
0.0
 20
0.0
 30
0.0
 70
     8
1001
ACAD
1000
R13OBJECT
1002
{
1005
725F3
1002
}
  0
VERTEX
  5
7261C
330
7261B
100
AcDbEntity
  8
0
  6
Continuous
100
AcDbVertex
100
AcDb3dPolylineVertex
 10
0.3912113791658698
 20
-1.80580856146939
 30
0.3160000000000001
 70
    32
1001
ACAD
1000
R13OBJECT
1002
{
1005
725F3
1002
}
  0
VERTEX
  5
7261D
330
7261B
100
AcDbEntity
  8
0
  6
Continuous
100
AcDbVertex
100
AcDb3dPolylineVertex
 10
0.3912113791658698
 20
-1.80580856146939
 30
0.0
 70
    32
1001
ACAD
1000
R13OBJECT
1002
{
1005
725F3
1002
}
  0
SEQEND
  5
7261E
330
7261B
100
AcDbEntity
  8
0
  6
Continuous
  0
POLYLINE
  5
7261F
330
458D6
100
AcDbEntity
  8
0
  6
Continuous
100
AcDb3dPolyline
 66
     1
 10
0.0
 20
0.0
 30
0.0
 70
     8
1001
ACAD
1000
R13OBJECT
1002
{
1005
725F3
1002
}
  0
VERTEX
  5
72620
330
7261F
100
AcDbEntity
  8
0
  6
Continuous
100
AcDbVertex
100
AcDb3dPolylineVertex
 10
0.3912113791658698
 20
-2.17180856146939
 30
0.3160000000000001
 70
    32
1001
ACAD
1000
R13OBJECT
1002
{
1005
725F3
1002
}
  0
VERTEX
  5
72621
330
7261F
100
AcDbEntity
  8
0
  6
Continuous
100
AcDbVertex
100
AcDb3dPolylineVertex
 10
0.3912113791658698
 20
-1.80580856146939
 30
0.3160000000000001
 70
    32
1001
ACAD
1000
R13OBJECT
1002
{
1005
725F3
1002
}
  0
SEQEND
  5
72622
330
7261F
100
AcDbEntity
  8
0
  6
Continuous
  0
POLYLINE
  5
72623
330
458D6
100
AcDbEntity
  8
0
  6
Continuous
100
AcDb3dPolyline
 66
     1
 10
0.0
 20
0.0
 30
0.0
 70
     8
1001
ACAD
1000
R13OBJECT
1002
{
1005
0
1002
}
  0
VERTEX
  5
72624
330
72623
100
AcDbEntity
  8
0
  6
Continuous
100
AcDbVertex
100
AcDb3dPolylineVertex
 10
0.0
 20
-2.089
 30
5.331499999999999
 70
    32
1001
ACAD
1000
R13OBJECT
1002
{
1005
0
1002
}
  0
VERTEX
  5
72625
330
72623
100
AcDbEntity
  8
0
  6
Continuous
100
AcDbVertex
100
AcDb3dPolylineVertex
 10
1.759999999999999
 20
-2.089
 30
5.331499999999999
 70
    32
1001
ACAD
1000
R13OBJECT
1002
{
1005
0
1002
}
  0
SEQEND
  5
72626
330
72623
100
AcDbEntity
  8
0
  6
Continuous
  0
POLYLINE
  5
72627
330
458D6
100
AcDbEntity
  8
0
  6
Continuous
100
AcDb3dPolyline
 66
     1
 10
0.0
 20
0.0
 30
0.0
 70
     8
1001
ACAD
1000
R13OBJECT
1002
{
1005
0
1002
}
  0
VERTEX
  5
72628
330
72627
100
AcDbEntity
  8
0
  6
Continuous
100
AcDbVertex
100
AcDb3dPolylineVertex
 10
0.0
 20
-2.089
 30
5.331499999999999
 70
    32
1001
ACAD
1000
R13OBJECT
1002
{
1005
0
1002
}
  0
VERTEX
  5
72629
330
72627
100
AcDbEntity
  8
0
  6
Continuous
100
AcDbVertex
100
AcDb3dPolylineVertex
 10
0.0
 20
-2.089
 30
2.7861
 70
    32
1001
ACAD
1000
R13OBJECT
1002
{
1005
0
1002
}
  0
SEQEND
  5
7262A
330
72627
100
AcDbEntity
  8
0
  6
Continuous
  0
POLYLINE
  5
7262B
330
458D6
100
AcDbEntity
  8
0
  6
Continuous
100
AcDb3dPolyline
 66
     1
 10
0.0
 20
0.0
 30
0.0
 70
     8
1001
ACAD
1000
R13OBJECT
1002
{
1005
0
1002
}
  0
VERTEX
  5
7262C
330
7262B
100
AcDbEntity
  8
0
  6
Continuous
100
AcDbVertex
100
AcDb3dPolylineVertex
 10
0.0
 20
0.4009999999999998
 30
5.331499999999999
 70
    32
1001
ACAD
1000
R13OBJECT
1002
{
1005
0
1002
}
  0
VERTEX
  5
7262D
330
7262B
100
AcDbEntity
  8
0
  6
Continuous
100
AcDbVertex
100
AcDb3dPolylineVertex
 10
0.0
 20
-2.089
 30
5.331499999999999
 70
    32
1001
ACAD
1000
R13OBJECT
1002
{
1005
0
1002
}
  0
SEQEND
  5
7262E
330
7262B
100
AcDbEntity
  8
0
  6
Continuous
  0
POLYLINE
  5
7262F
330
458D6
100
AcDbEntity
  8
0
  6
Continuous
100
AcDb3dPolyline
 66
     1
 10
0.0
 20
0.0
 30
0.0
 70
     8
1001
ACAD
1000
R13OBJECT
1002
{
1005
0
1002
}
  0
VERTEX
  5
72630
330
7262F
100
AcDbEntity
  8
0
  6
Continuous
100
AcDbVertex
100
AcDb3dPolylineVertex
 10
0.0
 20
0.4009999999999998
 30
5.331499999999999
 70
    32
1001
ACAD
1000
R13OBJECT
1002
{
1005
0
1002
}
  0
VERTEX
  5
72631
330
7262F
100
AcDbEntity
  8
0
  6
Continuous
100
AcDbVertex
100
AcDb3dPolylineVertex
 10
0.0
 20
0.4009999999999998
 30
2.7861
 70
    32
1001
ACAD
1000
R13OBJECT
1002
{
1005
0
1002
}
  0
SEQEND
  5
72632
330
7262F
100
AcDbEntity
  8
0
  6
Continuous
  0
POLYLINE
  5
72633
330
458D6
100
AcDbEntity
  8
0
  6
Continuous
100
AcDb3dPolyline
 66
     1
 10
0.0
 20
0.0
 30
0.0
 70
     8
1001
ACAD
1000
R13OBJECT
1002
{
1005
0
1002
}
  0
VERTEX
  5
72634
330
72633
100
AcDbEntity
  8
0
  6
Continuous
100
AcDbVertex
100
AcDb3dPolylineVertex
 10
1.759999999999999
 20
0.4009999999999998
 30
5.331499999999999
 70
    32
1001
ACAD
1000
R13OBJECT
1002
{
1005
0
1002
}
  0
VERTEX
  5
72635
330
72633
100
AcDbEntity
  8
0
  6
Continuous
100
AcDbVertex
100
AcDb3dPolylineVertex
 10
0.0
 20
0.4009999999999998
 30
5.331499999999999
 70
    32
1001
ACAD
1000
R13OBJECT
1002
{
1005
0
1002
}
  0
SEQEND
  5
72636
330
72633
100
AcDbEntity
  8
0
  6
Continuous
  0
POLYLINE
  5
72637
330
458D6
100
AcDbEntity
  8
0
  6
Continuous
100
AcDb3dPolyline
 66
     1
 10
0.0
 20
0.0
 30
0.0
 70
     8
1001
ACAD
1000
R13OBJECT
1002
{
1005
0
1002
}
  0
VERTEX
  5
72638
330
72637
100
AcDbEntity
  8
0
  6
Continuous
100
AcDbVertex
100
AcDb3dPolylineVertex
 10
1.759999999999999
 20
-2.089
 30
5.331499999999999
 70
    32
1001
ACAD
1000
R13OBJECT
1002
{
1005
0
1002
}
  0
VERTEX
  5
72639
330
72637
100
AcDbEntity
  8
0
  6
Continuous
100
AcDbVertex
100
AcDb3dPolylineVertex
 10
1.759999999999999
 20
-2.089
 30
2.7861
 70
    32
1001
ACAD
1000
R13OBJECT
1002
{
1005
0
1002
}
  0
SEQEND
  5
7263A
330
72637
100
AcDbEntity
  8
0
  6
Continuous
  0
POLYLINE
  5
7263B
330
458D6
100
AcDbEntity
  8
0
  6
Continuous
100
AcDb3dPolyline
 66
     1
 10
0.0
 20
0.0
 30
0.0
 70
     8
1001
ACAD
1000
R13OBJECT
1002
{
1005
0
1002
}
  0
VERTEX
  5
7263C
330
7263B
100
AcDbEntity
  8
0
  6
Continuous
100
AcDbVertex
100
AcDb3dPolylineVertex
 10
1.759999999999999
 20
0.4009999999999998
 30
5.331499999999999
 70
    32
1001
ACAD
1000
R13OBJECT
1002
{
1005
0
1002
}
  0
VERTEX
  5
7263D
330
7263B
100
AcDbEntity
  8
0
  6
Continuous
100
AcDbVertex
100
AcDb3dPolylineVertex
 10
1.759999999999999
 20
0.4009999999999998
 30
2.7861
 70
    32
1001
ACAD
1000
R13OBJECT
1002
{
1005
0
1002
}
  0
SEQEND
  5
7263E
330
7263B
100
AcDbEntity
  8
0
  6
Continuous
  0
POLYLINE
  5
7263F
330
458D6
100
AcDbEntity
  8
0
  6
Continuous
100
AcDb3dPolyline
 66
     1
 10
0.0
 20
0.0
 30
0.0
 70
     8
1001
ACAD
1000
R13OBJECT
1002
{
1005
0
1002
}
  0
VERTEX
  5
72640
330
7263F
100
AcDbEntity
  8
0
  6
Continuous
100
AcDbVertex
100
AcDb3dPolylineVertex
 10
1.759999999999999
 20
-2.089
 30
5.331499999999999
 70
    32
1001
ACAD
1000
R13OBJECT
1002
{
1005
0
1002
}
  0
VERTEX
  5
72641
330
7263F
100
AcDbEntity
  8
0
  6
Continuous
100
AcDbVertex
100
AcDb3dPolylineVertex
 10
1.759999999999999
 20
0.4009999999999998
 30
5.331499999999999
 70
    32
1001
ACAD
1000
R13OBJECT
1002
{
1005
0
1002
}
  0
SEQEND
  5
72642
330
7263F
100
AcDbEntity
  8
0
  6
Continuous
  0
POINT
  5
72643
330
458D6
100
AcDbEntity
  8
SNAP_POINTS
100
AcDbPoint
 10
-0.0000000000000036
 20
-0.8940000000000001
 30
3.536599999999999
  0
POINT
  5
72644
330
458D6
100
AcDbEntity
  8
SNAP_POINTS
100
AcDbPoint
 10
1.759999999999996
 20
-0.7940000000000001
 30
3.536599999999999
  0
POINT
  5
72645
330
458D6
100
AcDbEntity
  8
SNAP_POINTS
100
AcDbPoint
 10
0.879999999999999
 20
-0.8494999999999999
 30
5.365499999999999
  0
POLYLINE
  5
72646
330
458D6
100
AcDbEntity
  8
0
100
AcDbPolygonMesh
 66
     1
 10
0.0
 20
0.0
 30
0.0
 70
    16
 71
     6
 72
     3
  0
VERTEX
  5
72647
330
72646
100
AcDbEntity
  8
0
100
AcDbVertex
100
AcDbPolygonMeshVertex
 10
0.3912113791658698
 20
-2.17180856146939
 30
0.3160000000000001
 70
    64
  0
VERTEX
  5
72648
330
72646
100
AcDbEntity
  8
0
100
AcDbVertex
100
AcDbPolygonMeshVertex
 10
0.3912113791658698
 20
-2.17180856146939
 30
0.0
 70
    64
  0
VERTEX
  5
72649
330
72646
100
AcDbEntity
  8
0
100
AcDbVertex
100
AcDbPolygonMeshVertex
 10
0.3912113791658698
 20
-2.17180856146939
 30
0.0
 70
    64
  0
VERTEX
  5
7264A
330
72646
100
AcDbEntity
  8
0
100
AcDbVertex
100
AcDbPolygonMeshVertex
 10
0.0000000000000001
 20
-2.17180856146939
 30
0.3160000000000001
 70
    64
  0
VERTEX
  5
7264B
330
72646
100
AcDbEntity
  8
0
100
AcDbVertex
100
AcDbPolygonMeshVertex
 10
0.0000000000000001
 20
-2.17180856146939
 30
0.0
 70
    64
  0
VERTEX
  5
7264C
330
72646
100
AcDbEntity
  8
0
100
AcDbVertex
100
AcDbPolygonMeshVertex
 10
0.0000000000000001
 20
-2.17180856146939
 30
0.0
 70
    64
  0
VERTEX
  5
7264D
330
72646
100
AcDbEntity
  8
0
100
AcDbVertex
100
AcDbPolygonMeshVertex
 10
0.0000000000000001
 20
-1.80580856146939
 30
0.3160000000000001
 70
    64
  0
VERTEX
  5
7264E
330
72646
100
AcDbEntity
  8
0
100
AcDbVertex
100
AcDbPolygonMeshVertex
 10
0.0000000000000001
 20
-1.80580856146939
 30
0.0
 70
    64
  0
VERTEX
  5
7264F
330
72646
100
AcDbEntity
  8
0
100
AcDbVertex
100
AcDbPolygonMeshVertex
 10
0.0000000000000001
 20
-2.17180856146939
 30
0.0
 70
    64
  0
VERTEX
  5
72650
330
72646
100
AcDbEntity
  8
0
100
AcDbVertex
100
AcDbPolygonMeshVertex
 10
0.3912113791658698
 20
-1.80580856146939
 30
0.3160000000000001
 70
    64
  0
VERTEX
  5
72651
330
72646
100
AcDbEntity
  8
0
100
AcDbVertex
100
AcDbPolygonMeshVertex
 10
0.3912113791658698
 20
-1.80580856146939
 30
0.0
 70
    64
  0
VERTEX
  5
72652
330
72646
100
AcDbEntity
  8
0
100
AcDbVertex
100
AcDbPolygonMeshVertex
 10
0.3912113791658698
 20
-2.17180856146939
 30
0.0
 70
    64
  0
VERTEX
  5
72653
330
72646
100
AcDbEntity
  8
0
100
AcDbVertex
100
AcDbPolygonMeshVertex
 10
0.3912113791658698
 20
-1.80580856146939
 30
0.3160000000000001
 70
    64
  0
VERTEX
  5
72654
330
72646
100
AcDbEntity
  8
0
100
AcDbVertex
100
AcDbPolygonMeshVertex
 10
0.3912113791658698
 20
-1.80580856146939
 30
0.3160000000000001
 70
    64
  0
VERTEX
  5
72655
330
72646
100
AcDbEntity
  8
0
100
AcDbVertex
100
AcDbPolygonMeshVertex
 10
0.3912113791658698
 20
-2.17180856146939
 30
0.3160000000000001
 70
    64
  0
VERTEX
  5
72656
330
72646
100
AcDbEntity
  8
0
100
AcDbVertex
100
AcDbPolygonMeshVertex
 10
0.0000000000000001
 20
-1.80580856146939
 30
0.3160000000000001
 70
    64
  0
VERTEX
  5
72657
330
72646
100
AcDbEntity
  8
0
100
AcDbVertex
100
AcDbPolygonMeshVertex
 10
0.0000000000000001
 20
-1.80580856146939
 30
0.3160000000000001
 70
    64
  0
VERTEX
  5
72658
330
72646
100
AcDbEntity
  8
0
100
AcDbVertex
100
AcDbPolygonMeshVertex
 10
0.0000000000000001
 20
-2.17180856146939
 30
0.3160000000000001
 70
    64
  0
SEQEND
  5
72659
330
72646
100
AcDbEntity
  8
0
  0
POLYLINE
  5
7265A
330
458D6
100
AcDbEntity
  8
0
100
AcDbPolygonMesh
 66
     1
 10
0.0
 20
0.0
 30
0.0
 70
    16
 71
     6
 72
     3
  0
VERTEX
  5
7265B
330
7265A
100
AcDbEntity
  8
0
100
AcDbVertex
100
AcDbPolygonMeshVertex
 10
1.369000028589194
 20
0.4818504782640875
 30
0.3160000000000001
 70
    64
  0
VERTEX
  5
7265C
330
7265A
100
AcDbEntity
  8
0
100
AcDbVertex
100
AcDbPolygonMeshVertex
 10
1.369000028589194
 20
0.4818504782640875
 30
0.0
 70
    64
  0
VERTEX
  5
7265D
330
7265A
100
AcDbEntity
  8
0
100
AcDbVertex
100
AcDbPolygonMeshVertex
 10
1.369000028589194
 20
0.4818504782640875
 30
0.0
 70
    64
  0
VERTEX
  5
7265E
330
7265A
100
AcDbEntity
  8
0
100
AcDbVertex
100
AcDbPolygonMeshVertex
 10
1.759999999999999
 20
0.4819999999999994
 30
0.3160000000000001
 70
    64
  0
VERTEX
  5
7265F
330
7265A
100
AcDbEntity
  8
0
100
AcDbVertex
100
AcDbPolygonMeshVertex
 10
1.759999999999999
 20
0.4819999999999994
 30
0.0
 70
    64
  0
VERTEX
  5
72660
330
7265A
100
AcDbEntity
  8
0
100
AcDbVertex
100
AcDbPolygonMeshVertex
 10
1.759999999999999
 20
0.4819999999999994
 30
0.0
 70
    64
  0
VERTEX
  5
72661
330
7265A
100
AcDbEntity
  8
0
100
AcDbVertex
100
AcDbPolygonMeshVertex
 10
1.760139196705554
 20
0.1180000266150043
 30
0.3160000000000001
 70
    64
  0
VERTEX
  5
72662
330
7265A
100
AcDbEntity
  8
0
100
AcDbVertex
100
AcDbPolygonMeshVertex
 10
1.760139196705554
 20
0.1180000266150043
 30
0.0
 70
    64
  0
VERTEX
  5
72663
330
7265A
100
AcDbEntity
  8
0
100
AcDbVertex
100
AcDbPolygonMeshVertex
 10
1.759999999999999
 20
0.4819999999999994
 30
0.0
 70
    64
  0
VERTEX
  5
72664
330
7265A
100
AcDbEntity
  8
0
100
AcDbVertex
100
AcDbPolygonMeshVertex
 10
1.369139225294749
 20
0.1178505048790925
 30
0.3160000000000001
 70
    64
  0
VERTEX
  5
72665
330
7265A
100
AcDbEntity
  8
0
100
AcDbVertex
100
AcDbPolygonMeshVertex
 10
1.369139225294749
 20
0.1178505048790925
 30
0.0
 70
    64
  0
VERTEX
  5
72666
330
7265A
100
AcDbEntity
  8
0
100
AcDbVertex
100
AcDbPolygonMeshVertex
 10
1.369000028589194
 20
0.4818504782640875
 30
0.0
 70
    64
  0
VERTEX
  5
72667
330
7265A
100
AcDbEntity
  8
0
100
AcDbVertex
100
AcDbPolygonMeshVertex
 10
1.369139225294749
 20
0.1178505048790925
 30
0.3160000000000001
 70
    64
  0
VERTEX
  5
72668
330
7265A
100
AcDbEntity
  8
0
100
AcDbVertex
100
AcDbPolygonMeshVertex
 10
1.369139225294749
 20
0.1178505048790925
 30
0.3160000000000001
 70
    64
  0
VERTEX
  5
72669
330
7265A
100
AcDbEntity
  8
0
100
AcDbVertex
100
AcDbPolygonMeshVertex
 10
1.369000028589194
 20
0.4818504782640875
 30
0.3160000000000001
 70
    64
  0
VERTEX
  5
7266A
330
7265A
100
AcDbEntity
  8
0
100
AcDbVertex
100
AcDbPolygonMeshVertex
 10
1.760139196705554
 20
0.1180000266150043
 30
0.3160000000000001
 70
    64
  0
VERTEX
  5
7266B
330
7265A
100
AcDbEntity
  8
0
100
AcDbVertex
100
AcDbPolygonMeshVertex
 10
1.760139196705554
 20
0.1180000266150043
 30
0.3160000000000001
 70
    64
  0
VERTEX
  5
7266C
330
7265A
100
AcDbEntity
  8
0
100
AcDbVertex
100
AcDbPolygonMeshVertex
 10
1.759999999999999
 20
0.4819999999999994
 30
0.3160000000000001
 70
    64
  0
SEQEND
  5
7266D
330
7265A
100
AcDbEntity
  8
0
  0
POLYLINE
  5
7266E
330
458D6
100
AcDbEntity
  8
0
100
AcDbPolygonMesh
 66
     1
 10
0.0
 20
0.0
 30
0.0
 70
    16
 71
     6
 72
     3
  0
VERTEX
  5
7266F
330
7266E
100
AcDbEntity
  8
0
100
AcDbVertex
100
AcDbPolygonMeshVertex
 10
1.759999999999999
 20
-2.089
 30
5.331499999999999
 70
    64
  0
VERTEX
  5
72670
330
7266E
100
AcDbEntity
  8
0
100
AcDbVertex
100
AcDbPolygonMeshVertex
 10
1.759999999999999
 20
-2.089
 30
1.317999999999998
 70
    64
  0
VERTEX
  5
72671
330
7266E
100
AcDbEntity
  8
0
100
AcDbVertex
100
AcDbPolygonMeshVertex
 10
1.759999999999999
 20
-2.089
 30
1.317999999999998
 70
    64
  0
VERTEX
  5
72672
330
7266E
100
AcDbEntity
  8
0
100
AcDbVertex
100
AcDbPolygonMeshVertex
 10
0.0
 20
-2.089
 30
5.331499999999999
 70
    64
  0
VERTEX
  5
72673
330
7266E
100
AcDbEntity
  8
0
100
AcDbVertex
100
AcDbPolygonMeshVertex
 10
0.0
 20
-2.089
 30
1.317999999999998
 70
    64
  0
VERTEX
  5
72674
330
7266E
100
AcDbEntity
  8
0
100
AcDbVertex
100
AcDbPolygonMeshVertex
 10
0.0
 20
-2.089
 30
1.317999999999998
 70
    64
  0
VERTEX
  5
72675
330
7266E
100
AcDbEntity
  8
0
100
AcDbVertex
100
AcDbPolygonMeshVertex
 10
0.0
 20
0.4009999999999998
 30
5.331499999999999
 70
    64
  0
VERTEX
  5
72676
330
7266E
100
AcDbEntity
  8
0
100
AcDbVertex
100
AcDbPolygonMeshVertex
 10
0.0
 20
0.4009999999999998
 30
1.317999999999998
 70
    64
  0
VERTEX
  5
72677
330
7266E
100
AcDbEntity
  8
0
100
AcDbVertex
100
AcDbPolygonMeshVertex
 10
0.0
 20
-2.089
 30
1.317999999999998
 70
    64
  0
VERTEX
  5
72678
330
7266E
100
AcDbEntity
  8
0
100
AcDbVertex
100
AcDbPolygonMeshVertex
 10
1.759999999999999
 20
0.4009999999999998
 30
5.331499999999999
 70
    64
  0
VERTEX
  5
72679
330
7266E
100
AcDbEntity
  8
0
100
AcDbVertex
100
AcDbPolygonMeshVertex
 10
1.759999999999999
 20
0.4009999999999998
 30
1.317999999999998
 70
    64
  0
VERTEX
  5
7267A
330
7266E
100
AcDbEntity
  8
0
100
AcDbVertex
100
AcDbPolygonMeshVertex
 10
1.759999999999999
 20
-2.089
 30
1.317999999999998
 70
    64
  0
VERTEX
  5
7267B
330
7266E
100
AcDbEntity
  8
0
100
AcDbVertex
100
AcDbPolygonMeshVertex
 10
1.759999999999999
 20
0.4009999999999998
 30
5.331499999999999
 70
    64
  0
VERTEX
  5
7267C
330
7266E
100
AcDbEntity
  8
0
100
AcDbVertex
100
AcDbPolygonMeshVertex
 10
1.759999999999999
 20
0.4009999999999998
 30
5.331499999999999
 70
    64
  0
VERTEX
  5
7267D
330
7266E
100
AcDbEntity
  8
0
100
AcDbVertex
100
AcDbPolygonMeshVertex
 10
1.759999999999999
 20
-2.089
 30
5.331499999999999
 70
    64
  0
VERTEX
  5
7267E
330
7266E
100
AcDbEntity
  8
0
100
AcDbVertex
100
AcDbPolygonMeshVertex
 10
0.0
 20
0.4009999999999998
 30
5.331499999999999
 70
    64
  0
VERTEX
  5
7267F
330
7266E
100
AcDbEntity
  8
0
100
AcDbVertex
100
AcDbPolygonMeshVertex
 10
0.0
 20
0.4009999999999998
 30
5.331499999999999
 70
    64
  0
VERTEX
  5
72680
330
7266E
100
AcDbEntity
  8
0
100
AcDbVertex
100
AcDbPolygonMeshVertex
 10
0.0
 20
-2.089
 30
5.331499999999999
 70
    64
  0
SEQEND
  5
72681
330
7266E
100
AcDbEntity
  8
0
  0
POLYLINE
  5
72682
330
458D6
100
AcDbEntity
  8
0
100
AcDb3dPolyline
 66
     1
 10
0.0
 20
0.0
 30
0.0
 70
     8
  0
VERTEX
  5
72683
330
72682
100
AcDbEntity
  8
0
100
AcDbVertex
100
AcDb3dPolylineVertex
 10
1.214666666666667
 20
-2.088999999999999
 30
1.468099999999999
 70
    32
  0
VERTEX
  5
72684
330
72682
100
AcDbEntity
  8
0
100
AcDbVertex
100
AcDb3dPolylineVertex
 10
1.214666666666667
 20
-2.223999999999999
 30
1.468099999999999
 70
    32
  0
VERTEX
  5
72685
330
72682
100
AcDbEntity
  8
0
100
AcDbVertex
100
AcDb3dPolylineVertex
 10
1.425333333333332
 20
-2.223999999999999
 30
1.468099999999999
 70
    32
  0
VERTEX
  5
72686
330
72682
100
AcDbEntity
  8
0
100
AcDbVertex
100
AcDb3dPolylineVertex
 10
1.425333333333332
 20
-2.088999999999999
 30
1.468099999999999
 70
    32
  0
SEQEND
  5
72687
330
72682
100
AcDbEntity
  8
0
  0
POLYLINE
  5
72688
330
458D6
100
AcDbEntity
  8
0
100
AcDb3dPolyline
 66
     1
 10
0.0
 20
0.0
 30
0.0
 70
     8
  0
VERTEX
  5
72689
330
72688
100
AcDbEntity
  8
0
100
AcDbVertex
100
AcDb3dPolylineVertex
 10
1.487333333333333
 20
-2.088999999999999
 30
1.468099999999999
 70
    32
  0
VERTEX
  5
7268A
330
72688
100
AcDbEntity
  8
0
100
AcDbVertex
100
AcDb3dPolylineVertex
 10
1.487333333333333
 20
-2.223999999999999
 30
1.468099999999999
 70
    32
  0
VERTEX
  5
7268B
330
72688
100
AcDbEntity
  8
0
100
AcDbVertex
100
AcDb3dPolylineVertex
 10
1.697999999999998
 20
-2.223999999999999
 30
1.468099999999999
 70
    32
  0
VERTEX
  5
7268C
330
72688
100
AcDbEntity
  8
0
100
AcDbVertex
100
AcDb3dPolylineVertex
 10
1.697999999999998
 20
-2.088999999999999
 30
1.468099999999999
 70
    32
  0
SEQEND
  5
7268D
330
72688
100
AcDbEntity
  8
0
  0
POLYLINE
  5
7268E
330
458D6
100
AcDbEntity
  8
0
100
AcDb3dPolyline
 66
     1
 10
0.0
 20
0.0
 30
0.0
 70
     8
  0
VERTEX
  5
7268F
330
7268E
100
AcDbEntity
  8
0
100
AcDbVertex
100
AcDb3dPolylineVertex
 10
1.214666666666667
 20
-2.088999999999999
 30
1.6551
 70
    32
  0
VERTEX
  5
72690
330
7268E
100
AcDbEntity
  8
0
100
AcDbVertex
100
AcDb3dPolylineVertex
 10
1.214666666666667
 20
-2.223999999999999
 30
1.6551
 70
    32
  0
VERTEX
  5
72691
330
7268E
100
AcDbEntity
  8
0
100
AcDbVertex
100
AcDb3dPolylineVertex
 10
1.425333333333332
 20
-2.223999999999999
 30
1.6551
 70
    32
  0
VERTEX
  5
72692
330
7268E
100
AcDbEntity
  8
0
100
AcDbVertex
100
AcDb3dPolylineVertex
 10
1.425333333333332
 20
-2.088999999999999
 30
1.6551
 70
    32
  0
SEQEND
  5
72693
330
7268E
100
AcDbEntity
  8
0
  0
POLYLINE
  5
72694
330
458D6
100
AcDbEntity
  8
0
100
AcDb3dPolyline
 66
     1
 10
0.0
 20
0.0
 30
0.0
 70
     8
  0
VERTEX
  5
72695
330
72694
100
AcDbEntity
  8
0
100
AcDbVertex
100
AcDb3dPolylineVertex
 10
0.9420000000000019
 20
-2.088999999999999
 30
1.6551
 70
    32
  0
VERTEX
  5
72696
330
72694
100
AcDbEntity
  8
0
100
AcDbVertex
100
AcDb3dPolylineVertex
 10
0.9420000000000019
 20
-2.223999999999999
 30
1.6551
 70
    32
  0
VERTEX
  5
72697
330
72694
100
AcDbEntity
  8
0
100
AcDbVertex
100
AcDb3dPolylineVertex
 10
1.152666666666666
 20
-2.223999999999999
 30
1.6551
 70
    32
  0
VERTEX
  5
72698
330
72694
100
AcDbEntity
  8
0
100
AcDbVertex
100
AcDb3dPolylineVertex
 10
1.152666666666666
 20
-2.088999999999999
 30
1.6551
 70
    32
  0
SEQEND
  5
72699
330
72694
100
AcDbEntity
  8
0
  0
POLYLINE
  5
7269A
330
458D6
100
AcDbEntity
  8
0
100
AcDb3dPolyline
 66
     1
 10
0.0
 20
0.0
 30
0.0
 70
     8
  0
VERTEX
  5
7269B
330
7269A
100
AcDbEntity
  8
0
100
AcDbVertex
100
AcDb3dPolylineVertex
 10
1.487333333333333
 20
-2.088999999999999
 30
1.6551
 70
    32
  0
VERTEX
  5
7269C
330
7269A
100
AcDbEntity
  8
0
100
AcDbVertex
100
AcDb3dPolylineVertex
 10
1.487333333333333
 20
-2.223999999999999
 30
1.6551
 70
    32
  0
VERTEX
  5
7269D
330
7269A
100
AcDbEntity
  8
0
100
AcDbVertex
100
AcDb3dPolylineVertex
 10
1.697999999999998
 20
-2.223999999999999
 30
1.6551
 70
    32
  0
VERTEX
  5
7269E
330
7269A
100
AcDbEntity
  8
0
100
AcDbVertex
100
AcDb3dPolylineVertex
 10
1.697999999999998
 20
-2.088999999999999
 30
1.6551
 70
    32
  0
SEQEND
  5
7269F
330
7269A
100
AcDbEntity
  8
0
  0
LINE
  5
726A0
330
458D6
100
AcDbEntity
  8
0
100
AcDbLine
 10
0.9420000000000019
 20
-2.088999999999999
 30
1.6551
 11
1.152666666666666
 21
-2.088999999999999
 31
1.6551
  0
LINE
  5
726A1
330
458D6
100
AcDbEntity
  8
0
100
AcDbLine
 10
1.214666666666667
 20
-2.088999999999999
 30
1.6551
 11
1.425333333333332
 21
-2.088999999999999
 31
1.6551
  0
LINE
  5
726A2
330
458D6
100
AcDbEntity
  8
0
100
AcDbLine
 10
1.487333333333333
 20
-2.088999999999999
 30
1.6551
 11
1.697999999999998
 21
-2.088999999999999
 31
1.6551
  0
POLYLINE
  5
726A3
330
458D6
100
AcDbEntity
  8
0
100
AcDbPolygonMesh
 66
     1
 10
0.0
 20
0.0
 30
0.0
 70
    16
 71
     6
 72
     3
  0
VERTEX
  5
726A4
330
726A3
100
AcDbEntity
  8
0
100
AcDbVertex
100
AcDbPolygonMeshVertex
 10
1.759999999999999
 20
-2.286
 30
1.6551
 70
    64
  0
VERTEX
  5
726A5
330
726A3
100
AcDbEntity
  8
0
100
AcDbVertex
100
AcDbPolygonMeshVertex
 10
1.759999999999999
 20
-2.286
 30
1.468099999999999
 70
    64
  0
VERTEX
  5
726A6
330
726A3
100
AcDbEntity
  8
0
100
AcDbVertex
100
AcDbPolygonMeshVertex
 10
1.759999999999999
 20
-2.286
 30
1.468099999999999
 70
    64
  0
VERTEX
  5
726A7
330
726A3
100
AcDbEntity
  8
0
100
AcDbVertex
100
AcDbPolygonMeshVertex
 10
0.8800000000000007
 20
-2.286
 30
1.6551
 70
    64
  0
VERTEX
  5
726A8
330
726A3
100
AcDbEntity
  8
0
100
AcDbVertex
100
AcDbPolygonMeshVertex
 10
0.8800000000000007
 20
-2.286
 30
1.468099999999999
 70
    64
  0
VERTEX
  5
726A9
330
726A3
100
AcDbEntity
  8
0
100
AcDbVertex
100
AcDbPolygonMeshVertex
 10
0.8800000000000007
 20
-2.286
 30
1.468099999999999
 70
    64
  0
VERTEX
  5
726AA
330
726A3
100
AcDbEntity
  8
0
100
AcDbVertex
100
AcDbPolygonMeshVertex
 10
0.8800000000000007
 20
-2.089
 30
1.6551
 70
    64
  0
VERTEX
  5
726AB
330
726A3
100
AcDbEntity
  8
0
100
AcDbVertex
100
AcDbPolygonMeshVertex
 10
0.8800000000000007
 20
-2.089
 30
1.468099999999999
 70
    64
  0
VERTEX
  5
726AC
330
726A3
100
AcDbEntity
  8
0
100
AcDbVertex
100
AcDbPolygonMeshVertex
 10
0.8800000000000007
 20
-2.286
 30
1.468099999999999
 70
    64
  0
VERTEX
  5
726AD
330
726A3
100
AcDbEntity
  8
0
100
AcDbVertex
100
AcDbPolygonMeshVertex
 10
1.759999999999999
 20
-2.089
 30
1.6551
 70
    64
  0
VERTEX
  5
726AE
330
726A3
100
AcDbEntity
  8
0
100
AcDbVertex
100
AcDbPolygonMeshVertex
 10
1.759999999999999
 20
-2.089
 30
1.468099999999999
 70
    64
  0
VERTEX
  5
726AF
330
726A3
100
AcDbEntity
  8
0
100
AcDbVertex
100
AcDbPolygonMeshVertex
 10
1.759999999999999
 20
-2.286
 30
1.468099999999999
 70
    64
  0
VERTEX
  5
726B0
330
726A3
100
AcDbEntity
  8
0
100
AcDbVertex
100
AcDbPolygonMeshVertex
 10
1.759999999999999
 20
-2.089
 30
1.6551
 70
    64
  0
VERTEX
  5
726B1
330
726A3
100
AcDbEntity
  8
0
100
AcDbVertex
100
AcDbPolygonMeshVertex
 10
1.759999999999999
 20
-2.089
 30
1.6551
 70
    64
  0
VERTEX
  5
726B2
330
726A3
100
AcDbEntity
  8
0
100
AcDbVertex
100
AcDbPolygonMeshVertex
 10
1.759999999999999
 20
-2.286
 30
1.6551
 70
    64
  0
VERTEX
  5
726B3
330
726A3
100
AcDbEntity
  8
0
100
AcDbVertex
100
AcDbPolygonMeshVertex
 10
0.8800000000000007
 20
-2.089
 30
1.6551
 70
    64
  0
VERTEX
  5
726B4
330
726A3
100
AcDbEntity
  8
0
100
AcDbVertex
100
AcDbPolygonMeshVertex
 10
0.8800000000000007
 20
-2.089
 30
1.6551
 70
    64
  0
VERTEX
  5
726B5
330
726A3
100
AcDbEntity
  8
0
100
AcDbVertex
100
AcDbPolygonMeshVertex
 10
0.8800000000000007
 20
-2.286
 30
1.6551
 70
    64
  0
SEQEND
  5
726B6
330
726A3
100
AcDbEntity
  8
0
  0
POLYLINE
  5
726B7
330
458D6
100
AcDbEntity
  8
0
100
AcDbPolygonMesh
 66
     1
 10
0.0
 20
0.0
 30
0.0
 70
    16
 71
     6
 72
     3
  0
VERTEX
  5
726B8
330
726B7
100
AcDbEntity
  8
0
100
AcDbVertex
100
AcDbPolygonMeshVertex
 10
1.368999999999999
 20
0.0
 30
0.187
 70
    64
  0
VERTEX
  5
726B9
330
726B7
100
AcDbEntity
  8
0
100
AcDbVertex
100
AcDbPolygonMeshVertex
 10
1.368999999999999
 20
0.0
 30
0.0
 70
    64
  0
VERTEX
  5
726BA
330
726B7
100
AcDbEntity
  8
0
100
AcDbVertex
100
AcDbPolygonMeshVertex
 10
1.368999999999999
 20
0.0
 30
0.0
 70
    64
  0
VERTEX
  5
726BB
330
726B7
100
AcDbEntity
  8
0
100
AcDbVertex
100
AcDbPolygonMeshVertex
 10
0.0
 20
0.0
 30
0.187
 70
    64
  0
VERTEX
  5
726BC
330
726B7
100
AcDbEntity
  8
0
100
AcDbVertex
100
AcDbPolygonMeshVertex
 10
0.0
 20
0.0
 30
0.0
 70
    64
  0
VERTEX
  5
726BD
330
726B7
100
AcDbEntity
  8
0
100
AcDbVertex
100
AcDbPolygonMeshVertex
 10
0.0
 20
0.0
 30
0.0
 70
    64
  0
VERTEX
  5
726BE
330
726B7
100
AcDbEntity
  8
0
100
AcDbVertex
100
AcDbPolygonMeshVertex
 10
0.0
 20
0.4009999999999998
 30
0.187
 70
    64
  0
VERTEX
  5
726BF
330
726B7
100
AcDbEntity
  8
0
100
AcDbVertex
100
AcDbPolygonMeshVertex
 10
0.0
 20
0.4009999999999998
 30
0.0
 70
    64
  0
VERTEX
  5
726C0
330
726B7
100
AcDbEntity
  8
0
100
AcDbVertex
100
AcDbPolygonMeshVertex
 10
0.0
 20
0.0
 30
0.0
 70
    64
  0
VERTEX
  5
726C1
330
726B7
100
AcDbEntity
  8
0
100
AcDbVertex
100
AcDbPolygonMeshVertex
 10
1.368999999999999
 20
0.4009999999999998
 30
0.187
 70
    64
  0
VERTEX
  5
726C2
330
726B7
100
AcDbEntity
  8
0
100
AcDbVertex
100
AcDbPolygonMeshVertex
 10
1.368999999999999
 20
0.4009999999999998
 30
0.0
 70
    64
  0
VERTEX
  5
726C3
330
726B7
100
AcDbEntity
  8
0
100
AcDbVertex
100
AcDbPolygonMeshVertex
 10
1.368999999999999
 20
0.0
 30
0.0
 70
    64
  0
VERTEX
  5
726C4
330
726B7
100
AcDbEntity
  8
0
100
AcDbVertex
100
AcDbPolygonMeshVertex
 10
1.368999999999999
 20
0.4009999999999998
 30
0.187
 70
    64
  0
VERTEX
  5
726C5
330
726B7
100
AcDbEntity
  8
0
100
AcDbVertex
100
AcDbPolygonMeshVertex
 10
1.368999999999999
 20
0.4009999999999998
 30
0.187
 70
    64
  0
VERTEX
  5
726C6
330
726B7
100
AcDbEntity
  8
0
100
AcDbVertex
100
AcDbPolygonMeshVertex
 10
1.368999999999999
 20
0.0
 30
0.187
 70
    64
  0
VERTEX
  5
726C7
330
726B7
100
AcDbEntity
  8
0
100
AcDbVertex
100
AcDbPolygonMeshVertex
 10
0.0
 20
0.4009999999999998
 30
0.187
 70
    64
  0
VERTEX
  5
726C8
330
726B7
100
AcDbEntity
  8
0
100
AcDbVertex
100
AcDbPolygonMeshVertex
 10
0.0
 20
0.4009999999999998
 30
0.187
 70
    64
  0
VERTEX
  5
726C9
330
726B7
100
AcDbEntity
  8
0
100
AcDbVertex
100
AcDbPolygonMeshVertex
 10
0.0
 20
0.0
 30
0.187
 70
    64
  0
SEQEND
  5
726CA
330
726B7
100
AcDbEntity
  8
0
  0
POLYLINE
  5
726CB
330
458D6
100
AcDbEntity
  8
0
100
AcDbPolygonMesh
 66
     1
 10
0.0
 20
0.0
 30
0.0
 70
    16
 71
     6
 72
     3
  0
VERTEX
  5
726CC
330
726CB
100
AcDbEntity
  8
0
100
AcDbVertex
100
AcDbPolygonMeshVertex
 10
1.759999999999999
 20
-2.286
 30
1.468099999999999
 70
    64
  0
VERTEX
  5
726CD
330
726CB
100
AcDbEntity
  8
0
100
AcDbVertex
100
AcDbPolygonMeshVertex
 10
1.759999999999999
 20
-2.286
 30
-0.0000000000000001
 70
    64
  0
VERTEX
  5
726CE
330
726CB
100
AcDbEntity
  8
0
100
AcDbVertex
100
AcDbPolygonMeshVertex
 10
1.759999999999999
 20
-2.286
 30
-0.0000000000000001
 70
    64
  0
VERTEX
  5
726CF
330
726CB
100
AcDbEntity
  8
0
100
AcDbVertex
100
AcDbPolygonMeshVertex
 10
1.699999999999999
 20
-2.286
 30
1.468099999999999
 70
    64
  0
VERTEX
  5
726D0
330
726CB
100
AcDbEntity
  8
0
100
AcDbVertex
100
AcDbPolygonMeshVertex
 10
1.699999999999999
 20
-2.286
 30
-0.0000000000000001
 70
    64
  0
VERTEX
  5
726D1
330
726CB
100
AcDbEntity
  8
0
100
AcDbVertex
100
AcDbPolygonMeshVertex
 10
1.699999999999999
 20
-2.286
 30
-0.0000000000000001
 70
    64
  0
VERTEX
  5
726D2
330
726CB
100
AcDbEntity
  8
0
100
AcDbVertex
100
AcDbPolygonMeshVertex
 10
1.699999999999999
 20
-2.089
 30
1.468099999999999
 70
    64
  0
VERTEX
  5
726D3
330
726CB
100
AcDbEntity
  8
0
100
AcDbVertex
100
AcDbPolygonMeshVertex
 10
1.699999999999999
 20
-2.089
 30
-0.0000000000000001
 70
    64
  0
VERTEX
  5
726D4
330
726CB
100
AcDbEntity
  8
0
100
AcDbVertex
100
AcDbPolygonMeshVertex
 10
1.699999999999999
 20
-2.286
 30
-0.0000000000000001
 70
    64
  0
VERTEX
  5
726D5
330
726CB
100
AcDbEntity
  8
0
100
AcDbVertex
100
AcDbPolygonMeshVertex
 10
1.759999999999999
 20
-2.089
 30
1.468099999999999
 70
    64
  0
VERTEX
  5
726D6
330
726CB
100
AcDbEntity
  8
0
100
AcDbVertex
100
AcDbPolygonMeshVertex
 10
1.759999999999999
 20
-2.089
 30
-0.0000000000000001
 70
    64
  0
VERTEX
  5
726D7
330
726CB
100
AcDbEntity
  8
0
100
AcDbVertex
100
AcDbPolygonMeshVertex
 10
1.759999999999999
 20
-2.286
 30
-0.0000000000000001
 70
    64
  0
VERTEX
  5
726D8
330
726CB
100
AcDbEntity
  8
0
100
AcDbVertex
100
AcDbPolygonMeshVertex
 10
1.759999999999999
 20
-2.089
 30
1.468099999999999
 70
    64
  0
VERTEX
  5
726D9
330
726CB
100
AcDbEntity
  8
0
100
AcDbVertex
100
AcDbPolygonMeshVertex
 10
1.759999999999999
 20
-2.089
 30
1.468099999999999
 70
    64
  0
VERTEX
  5
726DA
330
726CB
100
AcDbEntity
  8
0
100
AcDbVertex
100
AcDbPolygonMeshVertex
 10
1.759999999999999
 20
-2.286
 30
1.468099999999999
 70
    64
  0
VERTEX
  5
726DB
330
726CB
100
AcDbEntity
  8
0
100
AcDbVertex
100
AcDbPolygonMeshVertex
 10
1.699999999999999
 20
-2.089
 30
1.468099999999999
 70
    64
  0
VERTEX
  5
726DC
330
726CB
100
AcDbEntity
  8
0
100
AcDbVertex
100
AcDbPolygonMeshVertex
 10
1.699999999999999
 20
-2.089
 30
1.468099999999999
 70
    64
  0
VERTEX
  5
726DD
330
726CB
100
AcDbEntity
  8
0
100
AcDbVertex
100
AcDbPolygonMeshVertex
 10
1.699999999999999
 20
-2.286
 30
1.468099999999999
 70
    64
  0
SEQEND
  5
726DE
330
726CB
100
AcDbEntity
  8
0
  0
POLYLINE
  5
726DF
330
458D6
100
AcDbEntity
  8
0
100
AcDbPolygonMesh
 66
     1
 10
0.0
 20
0.0
 30
0.0
 70
    16
 71
     6
 72
     3
  0
VERTEX
  5
726E0
330
726DF
100
AcDbEntity
  8
0
100
AcDbVertex
100
AcDbPolygonMeshVertex
 10
1.759999999999999
 20
-1.688
 30
0.1869999999999998
 70
    64
  0
VERTEX
  5
726E1
330
726DF
100
AcDbEntity
  8
0
100
AcDbVertex
100
AcDbPolygonMeshVertex
 10
1.759999999999999
 20
-1.688
 30
-0.0000000000000001
 70
    64
  0
VERTEX
  5
726E2
330
726DF
100
AcDbEntity
  8
0
100
AcDbVertex
100
AcDbPolygonMeshVertex
 10
1.759999999999999
 20
-1.688
 30
-0.0000000000000001
 70
    64
  0
VERTEX
  5
726E3
330
726DF
100
AcDbEntity
  8
0
100
AcDbVertex
100
AcDbPolygonMeshVertex
 10
1.759999999999999
 20
-2.089
 30
0.1869999999999998
 70
    64
  0
VERTEX
  5
726E4
330
726DF
100
AcDbEntity
  8
0
100
AcDbVertex
100
AcDbPolygonMeshVertex
 10
1.759999999999999
 20
-2.089
 30
-0.0000000000000001
 70
    64
  0
VERTEX
  5
726E5
330
726DF
100
AcDbEntity
  8
0
100
AcDbVertex
100
AcDbPolygonMeshVertex
 10
1.759999999999999
 20
-2.089
 30
-0.0000000000000001
 70
    64
  0
VERTEX
  5
726E6
330
726DF
100
AcDbEntity
  8
0
100
AcDbVertex
100
AcDbPolygonMeshVertex
 10
0.8229153048764036
 20
-2.089
 30
0.1869999999999998
 70
    64
  0
VERTEX
  5
726E7
330
726DF
100
AcDbEntity
  8
0
100
AcDbVertex
100
AcDbPolygonMeshVertex
 10
0.8229153048764036
 20
-2.089
 30
-0.0000000000000001
 70
    64
  0
VERTEX
  5
726E8
330
726DF
100
AcDbEntity
  8
0
100
AcDbVertex
100
AcDbPolygonMeshVertex
 10
1.759999999999999
 20
-2.089
 30
-0.0000000000000001
 70
    64
  0
VERTEX
  5
726E9
330
726DF
100
AcDbEntity
  8
0
100
AcDbVertex
100
AcDbPolygonMeshVertex
 10
0.8229153048764036
 20
-1.688
 30
0.1869999999999998
 70
    64
  0
VERTEX
  5
726EA
330
726DF
100
AcDbEntity
  8
0
100
AcDbVertex
100
AcDbPolygonMeshVertex
 10
0.8229153048764036
 20
-1.688
 30
-0.0000000000000001
 70
    64
  0
VERTEX
  5
726EB
330
726DF
100
AcDbEntity
  8
0
100
AcDbVertex
100
AcDbPolygonMeshVertex
 10
1.759999999999999
 20
-1.688
 30
-0.0000000000000001
 70
    64
  0
VERTEX
  5
726EC
330
726DF
100
AcDbEntity
  8
0
100
AcDbVertex
100
AcDbPolygonMeshVertex
 10
0.8229153048764036
 20
-1.688
 30
0.1869999999999998
 70
    64
  0
VERTEX
  5
726ED
330
726DF
100
AcDbEntity
  8
0
100
AcDbVertex
100
AcDbPolygonMeshVertex
 10
0.8229153048764036
 20
-1.688
 30
0.1869999999999998
 70
    64
  0
VERTEX
  5
726EE
330
726DF
100
AcDbEntity
  8
0
100
AcDbVertex
100
AcDbPolygonMeshVertex
 10
1.759999999999999
 20
-1.688
 30
0.1869999999999998
 70
    64
  0
VERTEX
  5
726EF
330
726DF
100
AcDbEntity
  8
0
100
AcDbVertex
100
AcDbPolygonMeshVertex
 10
0.8229153048764036
 20
-2.089
 30
0.1869999999999998
 70
    64
  0
VERTEX
  5
726F0
330
726DF
100
AcDbEntity
  8
0
100
AcDbVertex
100
AcDbPolygonMeshVertex
 10
0.8229153048764036
 20
-2.089
 30
0.1869999999999998
 70
    64
  0
VERTEX
  5
726F1
330
726DF
100
AcDbEntity
  8
0
100
AcDbVertex
100
AcDbPolygonMeshVertex
 10
1.759999999999999
 20
-2.089
 30
0.1869999999999998
 70
    64
  0
SEQEND
  5
726F2
330
726DF
100
AcDbEntity
  8
0
  0
POLYLINE
  5
726F3
330
458D6
100
AcDbEntity
  8
0
100
AcDbPolygonMesh
 66
     1
 10
0.0
 20
0.0
 30
0.0
 70
    16
 71
     6
 72
     3
  0
VERTEX
  5
726F4
330
726F3
100
AcDbEntity
  8
0
100
AcDbVertex
100
AcDbPolygonMeshVertex
 10
0.0
 20
0.5979999999999999
 30
1.4681
 70
    64
  0
VERTEX
  5
726F5
330
726F3
100
AcDbEntity
  8
0
100
AcDbVertex
100
AcDbPolygonMeshVertex
 10
0.0
 20
0.5979999999999999
 30
0.0
 70
    64
  0
VERTEX
  5
726F6
330
726F3
100
AcDbEntity
  8
0
100
AcDbVertex
100
AcDbPolygonMeshVertex
 10
0.0
 20
0.5979999999999999
 30
0.0
 70
    64
  0
VERTEX
  5
726F7
330
726F3
100
AcDbEntity
  8
0
100
AcDbVertex
100
AcDbPolygonMeshVertex
 10
0.0600000000000005
 20
0.5979999999999999
 30
1.4681
 70
    64
  0
VERTEX
  5
726F8
330
726F3
100
AcDbEntity
  8
0
100
AcDbVertex
100
AcDbPolygonMeshVertex
 10
0.0600000000000005
 20
0.5979999999999999
 30
0.0
 70
    64
  0
VERTEX
  5
726F9
330
726F3
100
AcDbEntity
  8
0
100
AcDbVertex
100
AcDbPolygonMeshVertex
 10
0.0600000000000005
 20
0.5979999999999999
 30
0.0
 70
    64
  0
VERTEX
  5
726FA
330
726F3
100
AcDbEntity
  8
0
100
AcDbVertex
100
AcDbPolygonMeshVertex
 10
0.0600000000000005
 20
0.4009999999999998
 30
1.4681
 70
    64
  0
VERTEX
  5
726FB
330
726F3
100
AcDbEntity
  8
0
100
AcDbVertex
100
AcDbPolygonMeshVertex
 10
0.0600000000000005
 20
0.4009999999999998
 30
0.0
 70
    64
  0
VERTEX
  5
726FC
330
726F3
100
AcDbEntity
  8
0
100
AcDbVertex
100
AcDbPolygonMeshVertex
 10
0.0600000000000005
 20
0.5979999999999999
 30
0.0
 70
    64
  0
VERTEX
  5
726FD
330
726F3
100
AcDbEntity
  8
0
100
AcDbVertex
100
AcDbPolygonMeshVertex
 10
0.0
 20
0.4009999999999998
 30
1.4681
 70
    64
  0
VERTEX
  5
726FE
330
726F3
100
AcDbEntity
  8
0
100
AcDbVertex
100
AcDbPolygonMeshVertex
 10
0.0
 20
0.4009999999999998
 30
0.0
 70
    64
  0
VERTEX
  5
726FF
330
726F3
100
AcDbEntity
  8
0
100
AcDbVertex
100
AcDbPolygonMeshVertex
 10
0.0
 20
0.5979999999999999
 30
0.0
 70
    64
  0
VERTEX
  5
72700
330
726F3
100
AcDbEntity
  8
0
100
AcDbVertex
100
AcDbPolygonMeshVertex
 10
0.0
 20
0.4009999999999998
 30
1.4681
 70
    64
  0
VERTEX
  5
72701
330
726F3
100
AcDbEntity
  8
0
100
AcDbVertex
100
AcDbPolygonMeshVertex
 10
0.0
 20
0.4009999999999998
 30
1.4681
 70
    64
  0
VERTEX
  5
72702
330
726F3
100
AcDbEntity
  8
0
100
AcDbVertex
100
AcDbPolygonMeshVertex
 10
0.0
 20
0.5979999999999999
 30
1.4681
 70
    64
  0
VERTEX
  5
72703
330
726F3
100
AcDbEntity
  8
0
100
AcDbVertex
100
AcDbPolygonMeshVertex
 10
0.0600000000000005
 20
0.4009999999999998
 30
1.4681
 70
    64
  0
VERTEX
  5
72704
330
726F3
100
AcDbEntity
  8
0
100
AcDbVertex
100
AcDbPolygonMeshVertex
 10
0.0600000000000005
 20
0.4009999999999998
 30
1.4681
 70
    64
  0
VERTEX
  5
72705
330
726F3
100
AcDbEntity
  8
0
100
AcDbVertex
100
AcDbPolygonMeshVertex
 10
0.0600000000000005
 20
0.5979999999999999
 30
1.4681
 70
    64
  0
SEQEND
  5
72706
330
726F3
100
AcDbEntity
  8
0
  0
POLYLINE
  5
72707
330
458D6
100
AcDbEntity
  8
0
100
AcDbPolygonMesh
 66
     1
 10
0.0
 20
0.0
 30
0.0
 70
    16
 71
     6
 72
     3
  0
VERTEX
  5
72708
330
72707
100
AcDbEntity
  8
0
100
AcDbVertex
100
AcDbPolygonMeshVertex
 10
0.0
 20
0.5979999999999995
 30
1.6551
 70
    64
  0
VERTEX
  5
72709
330
72707
100
AcDbEntity
  8
0
100
AcDbVertex
100
AcDbPolygonMeshVertex
 10
0.0
 20
0.5979999999999995
 30
1.4681
 70
    64
  0
VERTEX
  5
7270A
330
72707
100
AcDbEntity
  8
0
100
AcDbVertex
100
AcDbPolygonMeshVertex
 10
0.0
 20
0.5979999999999995
 30
1.4681
 70
    64
  0
VERTEX
  5
7270B
330
72707
100
AcDbEntity
  8
0
100
AcDbVertex
100
AcDbPolygonMeshVertex
 10
0.879999999999999
 20
0.5979999999999995
 30
1.6551
 70
    64
  0
VERTEX
  5
7270C
330
72707
100
AcDbEntity
  8
0
100
AcDbVertex
100
AcDbPolygonMeshVertex
 10
0.879999999999999
 20
0.5979999999999995
 30
1.4681
 70
    64
  0
VERTEX
  5
7270D
330
72707
100
AcDbEntity
  8
0
100
AcDbVertex
100
AcDbPolygonMeshVertex
 10
0.879999999999999
 20
0.5979999999999995
 30
1.4681
 70
    64
  0
VERTEX
  5
7270E
330
72707
100
AcDbEntity
  8
0
100
AcDbVertex
100
AcDbPolygonMeshVertex
 10
0.879999999999999
 20
0.4009999999999998
 30
1.6551
 70
    64
  0
VERTEX
  5
7270F
330
72707
100
AcDbEntity
  8
0
100
AcDbVertex
100
AcDbPolygonMeshVertex
 10
0.879999999999999
 20
0.4009999999999998
 30
1.4681
 70
    64
  0
VERTEX
  5
72710
330
72707
100
AcDbEntity
  8
0
100
AcDbVertex
100
AcDbPolygonMeshVertex
 10
0.879999999999999
 20
0.5979999999999995
 30
1.4681
 70
    64
  0
VERTEX
  5
72711
330
72707
100
AcDbEntity
  8
0
100
AcDbVertex
100
AcDbPolygonMeshVertex
 10
0.0
 20
0.4009999999999998
 30
1.6551
 70
    64
  0
VERTEX
  5
72712
330
72707
100
AcDbEntity
  8
0
100
AcDbVertex
100
AcDbPolygonMeshVertex
 10
0.0
 20
0.4009999999999998
 30
1.4681
 70
    64
  0
VERTEX
  5
72713
330
72707
100
AcDbEntity
  8
0
100
AcDbVertex
100
AcDbPolygonMeshVertex
 10
0.0
 20
0.5979999999999995
 30
1.4681
 70
    64
  0
VERTEX
  5
72714
330
72707
100
AcDbEntity
  8
0
100
AcDbVertex
100
AcDbPolygonMeshVertex
 10
0.0
 20
0.4009999999999998
 30
1.6551
 70
    64
  0
VERTEX
  5
72715
330
72707
100
AcDbEntity
  8
0
100
AcDbVertex
100
AcDbPolygonMeshVertex
 10
0.0
 20
0.4009999999999998
 30
1.6551
 70
    64
  0
VERTEX
  5
72716
330
72707
100
AcDbEntity
  8
0
100
AcDbVertex
100
AcDbPolygonMeshVertex
 10
0.0
 20
0.5979999999999995
 30
1.6551
 70
    64
  0
VERTEX
  5
72717
330
72707
100
AcDbEntity
  8
0
100
AcDbVertex
100
AcDbPolygonMeshVertex
 10
0.879999999999999
 20
0.4009999999999998
 30
1.6551
 70
    64
  0
VERTEX
  5
72718
330
72707
100
AcDbEntity
  8
0
100
AcDbVertex
100
AcDbPolygonMeshVertex
 10
0.879999999999999
 20
0.4009999999999998
 30
1.6551
 70
    64
  0
VERTEX
  5
72719
330
72707
100
AcDbEntity
  8
0
100
AcDbVertex
100
AcDbPolygonMeshVertex
 10
0.879999999999999
 20
0.5979999999999995
 30
1.6551
 70
    64
  0
SEQEND
  5
7271A
330
72707
100
AcDbEntity
  8
0
  0
POLYLINE
  5
7271B
330
458D6
100
AcDbEntity
  8
0
100
AcDb3dPolyline
 66
     1
 10
0.0
 20
0.0
 30
0.0
 70
     8
  0
VERTEX
  5
7271C
330
7271B
100
AcDbEntity
  8
0
100
AcDbVertex
100
AcDb3dPolylineVertex
 10
0.8179999999999978
 20
0.4009999999999994
 30
1.6551
 70
    32
  0
VERTEX
  5
7271D
330
7271B
100
AcDbEntity
  8
0
100
AcDbVertex
100
AcDb3dPolylineVertex
 10
0.8179999999999978
 20
0.5359999999999992
 30
1.6551
 70
    32
  0
VERTEX
  5
7271E
330
7271B
100
AcDbEntity
  8
0
100
AcDbVertex
100
AcDb3dPolylineVertex
 10
0.6073333333333331
 20
0.5359999999999992
 30
1.6551
 70
    32
  0
VERTEX
  5
7271F
330
7271B
100
AcDbEntity
  8
0
100
AcDbVertex
100
AcDb3dPolylineVertex
 10
0.6073333333333331
 20
0.4009999999999994
 30
1.6551
 70
    32
  0
SEQEND
  5
72720
330
7271B
100
AcDbEntity
  8
0
  0
POLYLINE
  5
72721
330
458D6
100
AcDbEntity
  8
0
100
AcDb3dPolyline
 66
     1
 10
0.0
 20
0.0
 30
0.0
 70
     8
  0
VERTEX
  5
72722
330
72721
100
AcDbEntity
  8
0
100
AcDbVertex
100
AcDb3dPolylineVertex
 10
0.5453333333333319
 20
0.4009999999999994
 30
1.6551
 70
    32
  0
VERTEX
  5
72723
330
72721
100
AcDbEntity
  8
0
100
AcDbVertex
100
AcDb3dPolylineVertex
 10
0.5453333333333319
 20
0.5359999999999992
 30
1.6551
 70
    32
  0
VERTEX
  5
72724
330
72721
100
AcDbEntity
  8
0
100
AcDbVertex
100
AcDb3dPolylineVertex
 10
0.3346666666666671
 20
0.5359999999999992
 30
1.6551
 70
    32
  0
VERTEX
  5
72725
330
72721
100
AcDbEntity
  8
0
100
AcDbVertex
100
AcDb3dPolylineVertex
 10
0.3346666666666671
 20
0.4009999999999994
 30
1.6551
 70
    32
  0
SEQEND
  5
72726
330
72721
100
AcDbEntity
  8
0
  0
POLYLINE
  5
72727
330
458D6
100
AcDbEntity
  8
0
100
AcDb3dPolyline
 66
     1
 10
0.0
 20
0.0
 30
0.0
 70
     8
  0
VERTEX
  5
72728
330
72727
100
AcDbEntity
  8
0
100
AcDbVertex
100
AcDb3dPolylineVertex
 10
0.2726666666666659
 20
0.4009999999999994
 30
1.6551
 70
    32
  0
VERTEX
  5
72729
330
72727
100
AcDbEntity
  8
0
100
AcDbVertex
100
AcDb3dPolylineVertex
 10
0.2726666666666659
 20
0.5359999999999992
 30
1.6551
 70
    32
  0
VERTEX
  5
7272A
330
72727
100
AcDbEntity
  8
0
100
AcDbVertex
100
AcDb3dPolylineVertex
 10
0.0620000000000012
 20
0.5359999999999992
 30
1.6551
 70
    32
  0
VERTEX
  5
7272B
330
72727
100
AcDbEntity
  8
0
100
AcDbVertex
100
AcDb3dPolylineVertex
 10
0.0620000000000012
 20
0.4009999999999994
 30
1.6551
 70
    32
  0
SEQEND
  5
7272C
330
72727
100
AcDbEntity
  8
0
  0
POLYLINE
  5
7272D
330
458D6
100
AcDbEntity
  8
0
100
AcDb3dPolyline
 66
     1
 10
0.0
 20
0.0
 30
0.0
 70
     8
  0
VERTEX
  5
7272E
330
7272D
100
AcDbEntity
  8
0
100
AcDbVertex
100
AcDb3dPolylineVertex
 10
0.2726666666666659
 20
0.4009999999999994
 30
1.4681
 70
    32
  0
VERTEX
  5
7272F
330
7272D
100
AcDbEntity
  8
0
100
AcDbVertex
100
AcDb3dPolylineVertex
 10
0.2726666666666659
 20
0.5359999999999992
 30
1.4681
 70
    32
  0
VERTEX
  5
72730
330
7272D
100
AcDbEntity
  8
0
100
AcDbVertex
100
AcDb3dPolylineVertex
 10
0.0620000000000012
 20
0.5359999999999992
 30
1.4681
 70
    32
  0
VERTEX
  5
72731
330
7272D
100
AcDbEntity
  8
0
100
AcDbVertex
100
AcDb3dPolylineVertex
 10
0.0620000000000012
 20
0.4009999999999994
 30
1.4681
 70
    32
  0
SEQEND
  5
72732
330
7272D
100
AcDbEntity
  8
0
  0
POLYLINE
  5
72733
330
458D6
100
AcDbEntity
  8
0
100
AcDb3dPolyline
 66
     1
 10
0.0
 20
0.0
 30
0.0
 70
     8
  0
VERTEX
  5
72734
330
72733
100
AcDbEntity
  8
0
100
AcDbVertex
100
AcDb3dPolylineVertex
 10
0.5453333333333319
 20
0.4009999999999994
 30
1.4681
 70
    32
  0
VERTEX
  5
72735
330
72733
100
AcDbEntity
  8
0
100
AcDbVertex
100
AcDb3dPolylineVertex
 10
0.5453333333333319
 20
0.5359999999999992
 30
1.4681
 70
    32
  0
VERTEX
  5
72736
330
72733
100
AcDbEntity
  8
0
100
AcDbVertex
100
AcDb3dPolylineVertex
 10
0.3346666666666671
 20
0.5359999999999992
 30
1.4681
 70
    32
  0
VERTEX
  5
72737
330
72733
100
AcDbEntity
  8
0
100
AcDbVertex
100
AcDb3dPolylineVertex
 10
0.3346666666666671
 20
0.4009999999999994
 30
1.4681
 70
    32
  0
SEQEND
  5
72738
330
72733
100
AcDbEntity
  8
0
  0
POLYLINE
  5
72739
330
458D6
100
AcDbEntity
  8
0
100
AcDb3dPolyline
 66
     1
 10
0.0
 20
0.0
 30
0.0
 70
     8
  0
VERTEX
  5
7273A
330
72739
100
AcDbEntity
  8
0
100
AcDbVertex
100
AcDb3dPolylineVertex
 10
0.8179999999999978
 20
0.4009999999999994
 30
1.4681
 70
    32
  0
VERTEX
  5
7273B
330
72739
100
AcDbEntity
  8
0
100
AcDbVertex
100
AcDb3dPolylineVertex
 10
0.8179999999999978
 20
0.5359999999999992
 30
1.4681
 70
    32
  0
VERTEX
  5
7273C
330
72739
100
AcDbEntity
  8
0
100
AcDbVertex
100
AcDb3dPolylineVertex
 10
0.6073333333333331
 20
0.5359999999999992
 30
1.4681
 70
    32
  0
VERTEX
  5
7273D
330
72739
100
AcDbEntity
  8
0
100
AcDbVertex
100
AcDb3dPolylineVertex
 10
0.6073333333333331
 20
0.4009999999999994
 30
1.4681
 70
    32
  0
SEQEND
  5
7273E
330
72739
100
AcDbEntity
  8
0
  0
LWPOLYLINE
  5
7273F
330
458D6
100
AcDbEntity
  8
0
100
AcDbPolyline
 90
        4
 70
     1
 43
0.0
 38
3.5301
 10
0.7465000000000002
 20
0.6019999999999999
 10
1.0135
 20
0.6019999999999999
 10
1.0135
 20
0.4530000000000003
 10
0.7465000000000002
 20
0.4530000000000003
  0
POLYLINE
  5
72740
330
458D6
100
AcDbEntity
  8
0
100
AcDbPolygonMesh
 66
     1
 10
0.0
 20
0.0
 30
0.0
 70
    16
 71
     6
 72
     3
  0
VERTEX
  5
72741
330
72740
100
AcDbEntity
  8
0
100
AcDbVertex
100
AcDbPolygonMeshVertex
 10
1.065499999999999
 20
0.4009999999999998
 30
3.5301
 70
    64
  0
VERTEX
  5
72742
330
72740
100
AcDbEntity
  8
0
100
AcDbVertex
100
AcDbPolygonMeshVertex
 10
1.065499999999999
 20
0.4009999999999998
 30
2.856099999999999
 70
    64
  0
VERTEX
  5
72743
330
72740
100
AcDbEntity
  8
0
100
AcDbVertex
100
AcDbPolygonMeshVertex
 10
1.065499999999999
 20
0.4009999999999998
 30
2.856099999999999
 70
    64
  0
VERTEX
  5
72744
330
72740
100
AcDbEntity
  8
0
100
AcDbVertex
100
AcDbPolygonMeshVertex
 10
0.6944999999999997
 20
0.4009999999999998
 30
3.5301
 70
    64
  0
VERTEX
  5
72745
330
72740
100
AcDbEntity
  8
0
100
AcDbVertex
100
AcDbPolygonMeshVertex
 10
0.6944999999999997
 20
0.4009999999999998
 30
2.856099999999999
 70
    64
  0
VERTEX
  5
72746
330
72740
100
AcDbEntity
  8
0
100
AcDbVertex
100
AcDbPolygonMeshVertex
 10
0.6944999999999997
 20
0.4009999999999998
 30
2.856099999999999
 70
    64
  0
VERTEX
  5
72747
330
72740
100
AcDbEntity
  8
0
100
AcDbVertex
100
AcDbPolygonMeshVertex
 10
0.6944999999999997
 20
0.654
 30
3.5301
 70
    64
  0
VERTEX
  5
72748
330
72740
100
AcDbEntity
  8
0
100
AcDbVertex
100
AcDbPolygonMeshVertex
 10
0.6944999999999997
 20
0.654
 30
2.856099999999999
 70
    64
  0
VERTEX
  5
72749
330
72740
100
AcDbEntity
  8
0
100
AcDbVertex
100
AcDbPolygonMeshVertex
 10
0.6944999999999997
 20
0.4009999999999998
 30
2.856099999999999
 70
    64
  0
VERTEX
  5
7274A
330
72740
100
AcDbEntity
  8
0
100
AcDbVertex
100
AcDbPolygonMeshVertex
 10
1.065499999999999
 20
0.654
 30
3.5301
 70
    64
  0
VERTEX
  5
7274B
330
72740
100
AcDbEntity
  8
0
100
AcDbVertex
100
AcDbPolygonMeshVertex
 10
1.065499999999999
 20
0.654
 30
2.856099999999999
 70
    64
  0
VERTEX
  5
7274C
330
72740
100
AcDbEntity
  8
0
100
AcDbVertex
100
AcDbPolygonMeshVertex
 10
1.065499999999999
 20
0.4009999999999998
 30
2.856099999999999
 70
    64
  0
VERTEX
  5
7274D
330
72740
100
AcDbEntity
  8
0
100
AcDbVertex
100
AcDbPolygonMeshVertex
 10
1.065499999999999
 20
0.654
 30
3.5301
 70
    64
  0
VERTEX
  5
7274E
330
72740
100
AcDbEntity
  8
0
100
AcDbVertex
100
AcDbPolygonMeshVertex
 10
1.065499999999999
 20
0.654
 30
3.5301
 70
    64
  0
VERTEX
  5
7274F
330
72740
100
AcDbEntity
  8
0
100
AcDbVertex
100
AcDbPolygonMeshVertex
 10
1.065499999999999
 20
0.4009999999999998
 30
3.5301
 70
    64
  0
VERTEX
  5
72750
330
72740
100
AcDbEntity
  8
0
100
AcDbVertex
100
AcDbPolygonMeshVertex
 10
0.6944999999999997
 20
0.654
 30
3.5301
 70
    64
  0
VERTEX
  5
72751
330
72740
100
AcDbEntity
  8
0
100
AcDbVertex
100
AcDbPolygonMeshVertex
 10
0.6944999999999997
 20
0.654
 30
3.5301
 70
    64
  0
VERTEX
  5
72752
330
72740
100
AcDbEntity
  8
0
100
AcDbVertex
100
AcDbPolygonMeshVertex
 10
0.6944999999999997
 20
0.4009999999999998
 30
3.5301
 70
    64
  0
SEQEND
  5
72753
330
72740
100
AcDbEntity
  8
0
  0
LWPOLYLINE
  5
72754
330
458D6
100
AcDbEntity
  8
0
100
AcDbPolyline
 90
        4
 70
     1
 43
0.0
 38
2.856099999999999
 10
0.7465000000000002
 20
0.6019999999999999
 10
1.0135
 20
0.6019999999999999
 10
1.0135
 20
0.4530000000000003
 10
0.7465000000000002
 20
0.4530000000000003
  0
POLYLINE
  5
72755
330
458D6
100
AcDbEntity
  8
0
100
AcDbPolygonMesh
 66
     1
 10
0.0
 20
0.0
 30
0.0
 70
    16
 71
     6
 72
     3
  0
VERTEX
  5
72756
330
72755
100
AcDbEntity
  8
0
100
AcDbVertex
100
AcDbPolygonMeshVertex
 10
1.432499999999999
 20
-2.526
 30
3.5301
 70
    64
  0
VERTEX
  5
72757
330
72755
100
AcDbEntity
  8
0
100
AcDbVertex
100
AcDbPolygonMeshVertex
 10
1.432499999999999
 20
-2.526
 30
2.856099999999999
 70
    64
  0
VERTEX
  5
72758
330
72755
100
AcDbEntity
  8
0
100
AcDbVertex
100
AcDbPolygonMeshVertex
 10
1.432499999999999
 20
-2.526
 30
2.856099999999999
 70
    64
  0
VERTEX
  5
72759
330
72755
100
AcDbEntity
  8
0
100
AcDbVertex
100
AcDbPolygonMeshVertex
 10
0.3274999999999992
 20
-2.526
 30
3.5301
 70
    64
  0
VERTEX
  5
7275A
330
72755
100
AcDbEntity
  8
0
100
AcDbVertex
100
AcDbPolygonMeshVertex
 10
0.3274999999999992
 20
-2.526
 30
2.856099999999999
 70
    64
  0
VERTEX
  5
7275B
330
72755
100
AcDbEntity
  8
0
100
AcDbVertex
100
AcDbPolygonMeshVertex
 10
0.3274999999999992
 20
-2.526
 30
2.856099999999999
 70
    64
  0
VERTEX
  5
7275C
330
72755
100
AcDbEntity
  8
0
100
AcDbVertex
100
AcDbPolygonMeshVertex
 10
0.3274999999999992
 20
-2.089
 30
3.5301
 70
    64
  0
VERTEX
  5
7275D
330
72755
100
AcDbEntity
  8
0
100
AcDbVertex
100
AcDbPolygonMeshVertex
 10
0.3274999999999992
 20
-2.089
 30
2.856099999999999
 70
    64
  0
VERTEX
  5
7275E
330
72755
100
AcDbEntity
  8
0
100
AcDbVertex
100
AcDbPolygonMeshVertex
 10
0.3274999999999992
 20
-2.526
 30
2.856099999999999
 70
    64
  0
VERTEX
  5
7275F
330
72755
100
AcDbEntity
  8
0
100
AcDbVertex
100
AcDbPolygonMeshVertex
 10
1.432499999999999
 20
-2.089
 30
3.5301
 70
    64
  0
VERTEX
  5
72760
330
72755
100
AcDbEntity
  8
0
100
AcDbVertex
100
AcDbPolygonMeshVertex
 10
1.432499999999999
 20
-2.089
 30
2.856099999999999
 70
    64
  0
VERTEX
  5
72761
330
72755
100
AcDbEntity
  8
0
100
AcDbVertex
100
AcDbPolygonMeshVertex
 10
1.432499999999999
 20
-2.526
 30
2.856099999999999
 70
    64
  0
VERTEX
  5
72762
330
72755
100
AcDbEntity
  8
0
100
AcDbVertex
100
AcDbPolygonMeshVertex
 10
1.432499999999999
 20
-2.089
 30
3.5301
 70
    64
  0
VERTEX
  5
72763
330
72755
100
AcDbEntity
  8
0
100
AcDbVertex
100
AcDbPolygonMeshVertex
 10
1.432499999999999
 20
-2.089
 30
3.5301
 70
    64
  0
VERTEX
  5
72764
330
72755
100
AcDbEntity
  8
0
100
AcDbVertex
100
AcDbPolygonMeshVertex
 10
1.432499999999999
 20
-2.526
 30
3.5301
 70
    64
  0
VERTEX
  5
72765
330
72755
100
AcDbEntity
  8
0
100
AcDbVertex
100
AcDbPolygonMeshVertex
 10
0.3274999999999992
 20
-2.089
 30
3.5301
 70
    64
  0
VERTEX
  5
72766
330
72755
100
AcDbEntity
  8
0
100
AcDbVertex
100
AcDbPolygonMeshVertex
 10
0.3274999999999992
 20
-2.089
 30
3.5301
 70
    64
  0
VERTEX
  5
72767
330
72755
100
AcDbEntity
  8
0
100
AcDbVertex
100
AcDbPolygonMeshVertex
 10
0.3274999999999992
 20
-2.526
 30
3.5301
 70
    64
  0
SEQEND
  5
72768
330
72755
100
AcDbEntity
  8
0
  0
LINE
  5
72769
330
458D6
100
AcDbEntity
  8
0
100
AcDbLine
 10
0.6994999999999992
 20
-2.526
 30
3.309099999999999
 11
0.6994999999999992
 21
-2.526
 31
3.109099999999999
  0
LINE
  5
7276A
330
458D6
100
AcDbEntity
  8
0
100
AcDbLine
 10
0.6994999999999992
 20
-2.526
 30
3.309099999999999
 11
0.382499999999999
 21
-2.526
 31
3.309099999999999
  0
LINE
  5
7276B
330
458D6
100
AcDbEntity
  8
0
100
AcDbLine
 10
0.382499999999999
 20
-2.526
 30
3.309099999999999
 11
0.382499999999999
 21
-2.526
 31
3.109099999999999
  0
LINE
  5
7276C
330
458D6
100
AcDbEntity
  8
0
100
AcDbLine
 10
0.6994999999999992
 20
-2.526
 30
3.109099999999999
 11
0.382499999999999
 21
-2.526
 31
3.109099999999999
  0
LINE
  5
7276D
330
458D6
100
AcDbEntity
  8
0
100
AcDbLine
 10
1.060499999999999
 20
-2.526
 30
3.309099999999999
 11
1.377499999999999
 21
-2.526
 31
3.309099999999999
  0
LINE
  5
7276E
330
458D6
100
AcDbEntity
  8
0
100
AcDbLine
 10
1.377499999999999
 20
-2.526
 30
3.309099999999999
 11
1.377499999999999
 21
-2.526
 31
3.109099999999999
  0
LINE
  5
7276F
330
458D6
100
AcDbEntity
  8
0
100
AcDbLine
 10
1.060499999999999
 20
-2.526
 30
3.109099999999999
 11
1.377499999999999
 21
-2.526
 31
3.109099999999999
  0
POINT
  5
72770
330
458D6
100
AcDbEntity
  8
SNAP_POINTS
100
AcDbPoint
 10
1.060499999999999
 20
-2.526
 30
3.109099999999999
  0
LINE
  5
72771
330
458D6
100
AcDbEntity
  8
0
100
AcDbLine
 10
1.060499999999999
 20
-2.526
 30
3.309099999999999
 11
1.060499999999999
 21
-2.526
 31
3.109099999999999
  0
CIRCLE
  5
72772
330
458D6
100
AcDbEntity
  8
0
100
AcDbCircle
 10
0.5409999999999973
 20
-2.3075
 30
3.5301
 40
0.12
  0
CIRCLE
  5
72773
330
458D6
100
AcDbEntity
  8
0
100
AcDbCircle
 10
1.219000000000001
 20
-2.3075
 30
3.5301
 40
0.12
  0
TEXT
  5
72774
330
458D6
100
AcDbEntity
  8
0
100
AcDbText
 39
0.0000001
 10
0.3493834523732882
 20
-2.501171210018519
 30
3.5301
 40
0.0834654981097751
  1
A1
100
AcDbText
  0
TEXT
  5
72775
330
458D6
100
AcDbEntity
  8
0
100
AcDbText
 39
0.00000001
 10
1.281870060884229
 20
-2.499168564740418
 30
3.5301
 40
0.0834654981097751
  1
A2
100
AcDbText
  0
POINT
  5
72776
330
458D6
100
AcDbEntity
  8
DIMS-MTG-HOLES
100
AcDbPoint
 10
0.19
 20
-2.024999999999999
 30
0.0
  0
POINT
  5
72777
330
458D6
100
AcDbEntity
  8
DIMS-MTG-HOLES
100
AcDbPoint
 10
1.569999999999998
 20
0.3349999999999995
 30
0.0
  0
LWPOLYLINE
  5
72778
330
458D6
100
AcDbEntity
  8
0
100
AcDbPolyline
 90
        6
 70
     0
 43
0.0
 38
3.5301
 10
0.5609999999999973
 20
-2.425821595661988
 10
0.5609999999999973
 20
-2.3275
 10
0.6209999999999976
 20
-2.3275
 10
0.6209999999999976
 20
-2.2875
 10
0.5609999999999973
 20
-2.2875
 10
0.5609999999999973
 20
-2.189178404338004
  0
LWPOLYLINE
  5
72779
330
458D6
100
AcDbEntity
  8
0
100
AcDbPolyline
 90
        6
 70
     0
 43
0.0
 38
3.5301
 10
0.5209999999999973
 20
-2.425821595661997
 10
0.5209999999999973
 20
-2.3275
 10
0.4609999999999977
 20
-2.3275
 10
0.4609999999999977
 20
-2.2875
 10
0.5209999999999973
 20
-2.2875
 10
0.5209999999999973
 20
-2.189178404338012
  0
LWPOLYLINE
  5
7277A
330
458D6
100
AcDbEntity
  8
0
100
AcDbPolyline
 90
        6
 70
     0
 43
0.0
 38
3.5301
 10
1.199000000000001
 20
-2.425821595661997
 10
1.199000000000001
 20
-2.3275
 10
1.139000000000002
 20
-2.3275
 10
1.139000000000002
 20
-2.2875
 10
1.199000000000001
 20
-2.2875
 10
1.199000000000001
 20
-2.189178404338012
  0
LWPOLYLINE
  5
7277B
330
458D6
100
AcDbEntity
  8
0
100
AcDbPolyline
 90
        6
 70
     0
 43
0.0
 38
3.5301
 10
1.239000000000001
 20
-2.425821595661988
 10
1.239000000000001
 20
-2.3275
 10
1.299000000000001
 20
-2.3275
 10
1.299000000000001
 20
-2.2875
 10
1.239000000000001
 20
-2.2875
 10
1.239000000000001
 20
-2.189178404338004
  0
LWPOLYLINE
  5
7277C
330
458D6
100
AcDbEntity
  8
0
100
AcDbPolyline
 90
        6
 70
     0
 43
0.0
 38
5.331499999999999
 10
0.3359999999999994
 20
-2.006543033509586
 10
0.3359999999999994
 20
-1.89
 10
0.395999999999999
 20
-1.89
 10
0.395999999999999
 20
-1.85
 10
0.3359999999999994
 20
-1.85
 10
0.3359999999999994
 20
-1.733456966490413
  0
LWPOLYLINE
  5
7277D
330
458D6
100
AcDbEntity
  8
0
100
AcDbPolyline
 90
        6
 70
     0
 43
0.0
 38
5.331499999999999
 10
0.2959999999999994
 20
-2.006543033509586
 10
0.2959999999999994
 20
-1.89
 10
0.2359999999999989
 20
-1.89
 10
0.2359999999999989
 20
-1.85
 10
0.2959999999999994
 20
-1.85
 10
0.2959999999999994
 20
-1.733456966490413
  0
LWPOLYLINE
  5
7277E
330
458D6
100
AcDbEntity
  8
0
100
AcDbPolyline
 90
        6
 70
     0
 43
0.0
 38
5.331499999999999
 10
0.9000000000000012
 20
-2.006543033509586
 10
0.9000000000000012
 20
-1.89
 10
0.9600000000000008
 20
-1.89
 10
0.9600000000000008
 20
-1.85
 10
0.9000000000000012
 20
-1.85
 10
0.9000000000000012
 20
-1.733456966490413
  0
LWPOLYLINE
  5
7277F
330
458D6
100
AcDbEntity
  8
0
100
AcDbPolyline
 90
        6
 70
     0
 43
0.0
 38
5.331499999999999
 10
0.8600000000000012
 20
-2.006543033509586
 10
0.8600000000000012
 20
-1.89
 10
0.8000000000000007
 20
-1.89
 10
0.8000000000000007
 20
-1.85
 10
0.8600000000000012
 20
-1.85
 10
0.8600000000000012
 20
-1.733456966490413
  0
LWPOLYLINE
  5
72780
330
458D6
100
AcDbEntity
  8
0
100
AcDbPolyline
 90
        6
 70
     0
 43
0.0
 38
5.331499999999999
 10
1.464000000000001
 20
-2.006543033509586
 10
1.464000000000001
 20
-1.89
 10
1.524
 20
-1.89
 10
1.524
 20
-1.85
 10
1.464000000000001
 20
-1.85
 10
1.464000000000001
 20
-1.733456966490413
  0
LWPOLYLINE
  5
72781
330
458D6
100
AcDbEntity
  8
0
100
AcDbPolyline
 90
        6
 70
     0
 43
0.0
 38
5.331499999999999
 10
1.424000000000001
 20
-2.006543033509586
 10
1.424000000000001
 20
-1.89
 10
1.364
 20
-1.89
 10
1.364
 20
-1.85
 10
1.424000000000001
 20
-1.85
 10
1.424000000000001
 20
-1.733456966490413
  0
CIRCLE
  5
72782
330
458D6
100
AcDbEntity
  8
0
100
AcDbCircle
 10
1.444
 20
0.1820000000000004
 30
5.331499999999999
 40
0.138
  0
CIRCLE
  5
72783
330
458D6
100
AcDbEntity
  8
0
100
AcDbCircle
 10
0.8800000000000007
 20
0.1820000000000004
 30
5.331499999999999
 40
0.138
  0
LWPOLYLINE
  5
72784
330
458D6
100
AcDbEntity
  8
0
100
AcDbPolyline
 90
        6
 70
     0
 43
0.0
 38
5.331499999999999
 10
0.2959999999999994
 20
0.0454569664904141
 10
0.2959999999999994
 20
0.1620000000000004
 10
0.2359999999999989
 20
0.1620000000000004
 10
0.2359999999999989
 20
0.2020000000000004
 10
0.2959999999999994
 20
0.2020000000000004
 10
0.2959999999999994
 20
0.3185430335095867
  0
LWPOLYLINE
  5
72785
330
458D6
100
AcDbEntity
  8
0
100
AcDbPolyline
 90
        6
 70
     0
 43
0.0
 38
5.331499999999999
 10
0.3359999999999994
 20
0.0454569664904141
 10
0.3359999999999994
 20
0.1620000000000004
 10
0.395999999999999
 20
0.1620000000000004
 10
0.395999999999999
 20
0.2020000000000004
 10
0.3359999999999994
 20
0.2020000000000004
 10
0.3359999999999994
 20
0.3185430335095867
  0
LWPOLYLINE
  5
72786
330
458D6
100
AcDbEntity
  8
0
100
AcDbPolyline
 90
        6
 70
     0
 43
0.0
 38
5.331499999999999
 10
0.8600000000000012
 20
0.0454569664904141
 10
0.8600000000000012
 20
0.1620000000000004
 10
0.8000000000000007
 20
0.1620000000000004
 10
0.8000000000000007
 20
0.2020000000000004
 10
0.8600000000000012
 20
0.2020000000000004
 10
0.8600000000000012
 20
0.3185430335095867
  0
LWPOLYLINE
  5
72787
330
458D6
100
AcDbEntity
  8
0
100
AcDbPolyline
 90
        6
 70
     0
 43
0.0
 38
5.331499999999999
 10
0.9000000000000012
 20
0.0454569664904141
 10
0.9000000000000012
 20
0.1620000000000004
 10
0.9600000000000008
 20
0.1620000000000004
 10
0.9600000000000008
 20
0.2020000000000004
 10
0.9000000000000012
 20
0.2020000000000004
 10
0.9000000000000012
 20
0.3185430335095867
  0
LWPOLYLINE
  5
72788
330
458D6
100
AcDbEntity
  8
0
100
AcDbPolyline
 90
        6
 70
     0
 43
0.0
 38
5.331499999999999
 10
1.424000000000001
 20
0.0454569664904141
 10
1.424000000000001
 20
0.1620000000000004
 10
1.364
 20
0.1620000000000004
 10
1.364
 20
0.2020000000000004
 10
1.424000000000001
 20
0.2020000000000004
 10
1.424000000000001
 20
0.3185430335095867
  0
LWPOLYLINE
  5
72789
330
458D6
100
AcDbEntity
  8
0
100
AcDbPolyline
 90
        6
 70
     0
 43
0.0
 38
5.331499999999999
 10
1.464000000000001
 20
0.0454569664904141
 10
1.464000000000001
 20
0.1620000000000004
 10
1.524
 20
0.1620000000000004
 10
1.524
 20
0.2020000000000004
 10
1.464000000000001
 20
0.2020000000000004
 10
1.464000000000001
 20
0.3185430335095867
  0
DIMENSION
  5
7278A
330
458D6
100
AcDbEntity
  8
AREA1
100
AcDbDimension
  2
*D0
 10
-0.4673233275482822
 20
-2.526
 30
0.0
 11
-0.4673233275482818
 21
-1.017199735172688
 31
0.0
 70
   160
 71
     5
 42
-1.0
 73
     0
 74
     0
 75
     0
  3
ABECAD_3D
100
AcDbAlignedDimension
 13
0.6944999999999997
 23
0.654
 33
2.856099999999999
 14
0.3274999999999992
 24
-2.526
 34
2.856099999999999
 50
90.0
100
AcDbRotatedDimension
  0
DIMENSION
  5
72798
330
458D6
100
AcDbEntity
  8
AREA1
100
AcDbDimension
  2
*D1
 10
1.759999999999996
 20
0.9549503427460717
 30
0.0
 11
0.8822390417000679
 21
1.220961280313451
 31
0.0
 70
   160
 71
     5
 42
-1.0
 73
     0
 74
     0
 75
     0
  3
ABECAD_3D
100
AcDbAlignedDimension
 13
0.0
 23
0.5979999999999999
 33
0.0
 14
1.759999999999996
 24
0.5259999999999998
 34
3.120099999999999
100
AcDbRotatedDimension
  0
LWPOLYLINE
  5
727BD
330
458D6
100
AcDbEntity
  8
SCALE
100
AcDbPolyline
 90
        4
 70
     1
 43
0.0
 10
0.3193020754989679
 20
-2.645962647384426
 10
1.45493089504094
 20
-2.645962647384426
 10
1.45493089504094
 20
-3.487572214162441
 10
0.3193020754989679
 20
-3.487572214162441
  0
LINE
  5
727BE
330
458D6
100
AcDbEntity
  8
SCALE
100
AcDbLine
 10
0.37730073972573
 20
-3.026040966088642
 30
0.0
 11
1.377300739725729
 21
-3.026040966088642
 31
0.0
  0
LINE
  5
727BF
330
458D6
100
AcDbEntity
  8
SCALE
100
AcDbLine
 10
0.37730073972573
 20
-3.326040966088641
 30
0.0
 11
0.7710007397257299
 21
-3.326040966088641
 31
0.0
  0
LINE
  5
727C0
330
458D6
100
AcDbEntity
  8
SCALE
100
AcDbLine
 10
0.37730073972573
 20
-3.126040966088642
 30
0.0
 11
0.37730073972573
 21
-2.926040966088641
 31
0.0
  0
TEXT
  5
727C1
330
458D6
100
AcDbEntity
  8
SCALE
100
AcDbText
 10
0.4332767216562048
 20
-3.278355876325799
 30
0.0
 40
0.0625
  1
[10mm]
100
AcDbText
  0
LINE
  5
727C2
330
458D6
100
AcDbEntity
  8
SCALE
100
AcDbLine
 10
0.37730073972573
 20
-3.426040966088641
 30
0.0
 11
0.37730073972573
 21
-3.226040966088642
 31
0.0
  0
TEXT
  5
727C3
330
458D6
100
AcDbEntity
  8
SCALE
100
AcDbText
 10
0.3788310049722559
 20
-2.751163844815028
 30
0.0
 40
0.0625
  1
SCALE:
100
AcDbText
  0
LINE
  5
727C4
330
458D6
100
AcDbEntity
  8
SCALE
100
AcDbLine
 10
0.7710007397257299
 20
-3.426040966088641
 30
0.0
 11
0.7710007397257299
 21
-3.226040966088642
 31
0.0
  0
TEXT
  5
727C5
330
458D6
100
AcDbEntity
  8
SCALE
100
AcDbText
 10
0.7405837282096397
 20
-2.95699227071544
 30
0.0
 40
0.0625
  1
1 Inch
100
AcDbText
  0
LINE
  5
727C6
330
458D6
100
AcDbEntity
  8
SCALE
100
AcDbLine
 10
1.377300739725729
 20
-3.026040966088642
 30
0.0
 11
1.377300739725729
 21
-3.126040966088642
 31
0.0
  0
LINE
  5
727C7
330
458D6
100
AcDbEntity
  8
SCALE
100
AcDbLine
 10
1.377300739725729
 20
-3.126040966088642
 30
0.0
 11
1.377300739725729
 21
-2.926040966088641
 31
0.0
  0
VIEWPORT
  5
5677D
330
458D3
100
AcDbEntity
 67
     1
  8
0
100
AcDbViewport
 10
5.249999639556163
 20
3.999999883606677
 30
0.0
 40
16.38686186943767
 41
8.992999745766947
 68
     1
 69
     1
 12
5.249999639556163
 22
3.999999883606677
 13
0.0
 23
0.0
 14
0.5
 24
0.5
 15
0.5
 25
0.5
 16
0.0
 26
0.0
 36
1.0
 17
0.0
 27
0.0
 37
0.0
 42
50.0
 43
0.0
 44
0.0
 45
8.992999745766947
 50
0.0
 51
0.0
 72
 20000
 90
    32800
  1

281
     0
 71
     1
 74
     0
110
0.0
120
0.0
130
0.0
111
1.0
121
0.0
131
0.0
112
0.0
122
1.0
132
0.0
 79
     0
146
0.0
170
     0
 61
     5
348
7286F
292
     1
282
     1
141
0.0
142
0.0
 63
   250
421
  3355443
  0
VIEWPORT
  5
5677F
330
458D3
100
AcDbEntity
 67
     1
  8
AREA1
100
AcDbViewport
 10
5.24999976158142
 20
3.99999976158142
 30
0.0
 40
8.399999618530271
 41
6.399999618530272
 68
     2
 69
     2
 12
-1.017175299537903
 22
0.747812767808223
 13
0.0
 23
0.0
 14
0.25
 24
0.25
 15
0.25
 25
0.25
 16
0.0
 26
0.0
 36
1.0
 17
0.5634438949382106
 27
-0.8801371703728531
 37
1.68649307151727
 42
50.0
 43
0.0
 44
0.0
 45
4.58291448918931
 50
0.0
 51
0.0
 72
 20000
 90
    32800
  1

281
     1
 71
     1
 74
     0
110
0.0
120
0.0
130
0.0
111
1.0
121
0.0
131
0.0
112
0.0
122
1.0
132
0.0
 79
     1
146
0.0
170
     0
 61
     5
348
72870
292
     1
282
     1
141
0.0
142
0.0
 63
   250
421
  3355443
  0
ENDSEC
  0
SECTION
  2
OBJECTS
  0
DICTIONARY
  5
458CB
330
0
100
AcDbDictionary
281
     1
  3
ACAD_BACKGROUND
350
7287F
  3
ACAD_COLOR
350
7287A
  3
ACAD_GROUP
350
458CC
  3
ACAD_LAYOUT
350
458FB
  3
ACAD_MATERIAL
350
72865
  3
ACAD_MLINESTYLE
350
458D9
  3
ACAD_PLOTSETTINGS
350
458FC
  3
ACAD_PLOTSTYLENAME
350
458F9
  3
ACAD_TABLESTYLE
350
7287B
  3
ACAD_VISUALSTYLE
350
72869
  3
ACADE_WIRETYPE
350
72894
  3
ACDBVARIABLEDICTIONARY
350
458E1
  3
ASE_INDEX_DICTIONARY
350
72887
  0
DICTIONARY
  5
72896
330
458C7
100
AcDbDictionary
280
     1
281
     1
  0
DICTIONARY
  5
72884
330
72883
100
AcDbDictionary
280
     1
281
     1
  3
ACADE_WIRETYPE
360
72885
  0
DICTIONARY
  5
4592C
330
458D6
100
AcDbDictionary
280
     1
281
     1
  3
ACAD_LAYOUTSELFREF
360
72859
  0
DICTIONARY
  5
4592A
330
458D3
100
AcDbDictionary
280
     1
281
     1
  3
ACAD_LAYOUTSELFREF
360
72858
  0
DICTIONARY
  5
7287F
102
{ACAD_REACTORS
330
458CB
102
}
330
458CB
100
AcDbDictionary
281
     1
  0
DICTIONARY
  5
7287A
102
{ACAD_REACTORS
330
458CB
102
}
330
458CB
100
AcDbDictionary
281
     1
  0
DICTIONARY
  5
458CC
102
{ACAD_REACTORS
330
458CB
102
}
330
458CB
100
AcDbDictionary
281
     1
  0
DICTIONARY
  5
458FB
102
{ACAD_REACTORS
330
458CB
102
}
330
458CB
100
AcDbDictionary
281
     1
  3
Layout1
350
458FE
  3
Model
350
458FD
  0
DICTIONARY
  5
72865
102
{ACAD_REACTORS
330
458CB
102
}
330
458CB
100
AcDbDictionary
281
     1
  3
ByBlock
350
72867
  3
ByLayer
350
72866
  3
Global
350
72868
  0
DICTIONARY
  5
458D9
102
{ACAD_REACTORS
330
458CB
102
}
330
458CB
100
AcDbDictionary
281
     1
  3
STANDARD
350
458DA
  0
DICTIONARY
  5
458FC
102
{ACAD_REACTORS
330
458CB
102
}
330
458CB
100
AcDbDictionary
281
     1
  0
ACDBDICTIONARYWDFLT
  5
458F9
102
{ACAD_REACTORS
330
458CB
102
}
330
458CB
100
AcDbDictionary
281
     1
  3
Normal
350
458FA
100
AcDbDictionaryWithDefault
340
458FA
  0
DICTIONARY
  5
7287B
102
{ACAD_REACTORS
330
458CB
102
}
330
458CB
100
AcDbDictionary
281
     1
  3
Standard
350
7287C
  0
DICTIONARY
  5
72869
102
{ACAD_REACTORS
330
458CB
102
}
330
458CB
100
AcDbDictionary
281
     1
  3
2dWireframe
350
7286F
  3
3D Hidden
350
72871
  3
3dWireframe
350
72870
  3
Basic
350
7286E
  3
Brighten
350
72875
  3
ColorChange
350
72879
  3
Conceptual
350
72872
  3
Dim
350
72874
  3
Facepattern
350
72878
  3
Flat
350
7286A
  3
FlatWithEdges
350
7286B
  3
Gouraud
350
7286C
  3
GouraudWithEdges
350
7286D
  3
Linepattern
350
72877
  3
Realistic
350
72873
  3
Thicken
350
72876
  0
DICTIONARY
  5
72894
102
{ACAD_REACTORS
330
458CB
102
}
330
458CB
100
AcDbDictionary
281
     1
  3
CURRENT_WIRELAY
350
72895
  0
DICTIONARY
  5
458E1
102
{ACAD_REACTORS
330
458CB
102
}
330
458CB
100
AcDbDictionary
281
     1
  3
CTABLESTYLE
350
7288A
  3
DIMADEC
350
458E2
  0
DICTIONARY
  5
72887
102
{ACAD_REACTORS
330
458CB
102
}
330
458CB
100
AcDbDictionary
281
     1
  3
ASEBlockHierarchyIndexRecord
350
72889
1001
DCO15
1040
1582952680.312
  0
XRECORD
  5
72885
102
{ACAD_REACTORS
330
72884
102
}
330
72884
100
AcDbXrecord
280
     1
  1

  2

  3
WIRE
 90
        0
  0
XRECORD
  5
72859
102
{ACAD_REACTORS
330
4592C
102
}
330
4592C
100
AcDbXrecord
280
     1
340
458D6
  0
XRECORD
  5
72858
102
{ACAD_REACTORS
330
4592A
102
}
330
4592A
100
AcDbXrecord
280
     1
340
458D3
  0
LAYOUT
  5
458FE
102
{ACAD_REACTORS
330
458FB
102
}
330
458FB
100
AcDbPlotSettings
  1

  2
none_device
  4
Letter_(8.50_x_11.00_Inches)
  6

 40
6.349999904632568
 41
6.349999904632568
 42
6.350006103515625
 43
6.350006103515625
 44
215.8999938964844
 45
279.3999938964844
 46
0.0
 47
0.0
 48
0.0
 49
0.0
140
0.0
141
0.0
142
1.0
143
1.0
 70
   688
 72
     0
 73
     1
 74
     5
  7
Default R14 pen assignments.ctb
 75
    16
147
1.0
 76
     0
 77
     2
 78
   300
148
0.0
149
0.0
100
AcDbLayout
  1
Layout1
 70
     1
 71
     1
 10
-0.2500002402958907
 20
-0.2499999962453767
 11
10.74999951940821
 21
8.249999763458731
 12
0.0
 22
0.0
 32
0.0
 14
1.049999952316284
 24
0.7999999523162842
 34
0.0
 15
9.449999570846555
 25
7.199999570846556
 35
0.0
146
0.0
 13
0.0
 23
0.0
 33
0.0
 16
1.0
 26
0.0
 36
0.0
 17
0.0
 27
1.0
 37
0.0
 76
     0
330
458D3
331
5677D
  0
LAYOUT
  5
458FD
102
{ACAD_REACTORS
330
458FB
102
}
330
458FB
100
AcDbPlotSettings
  1

  2
HP LaserJet 5000 Series PCL 6
  4

  6

 40
0.0
 41
0.0
 42
0.0
 43
0.0
 44
0.0
 45
0.0
 46
0.0
 47
0.0
 48
0.0
 49
0.0
140
0.0
141
0.0
142
1.0
143
1.0
 70
  1712
 72
     0
 73
     0
 74
     0
  7
Default R14 pen assignments.ctb
 75
     0
147
1.0
 76
     0
 77
     2
 78
   300
148
0.0
149
0.0
100
AcDbLayout
  1
Model
 70
     1
 71
     0
 10
0.0
 20
0.0
 11
12.0
 21
9.0
 12
0.0
 22
0.0
 32
0.0
 14
0.0
 24
0.0
 34
0.0
 15
0.0
 25
0.0
 35
0.0
146
0.0
 13
0.0
 23
0.0
 33
0.0
 16
1.0
 26
0.0
 36
0.0
 17
0.0
 27
1.0
 37
0.0
 76
     0
330
458D6
331
72832
  0
MATERIAL
  5
72867
102
{ACAD_REACTORS
330
72865
102
}
330
72865
100
AcDbMaterial
  1
ByBlock
  0
MATERIAL
  5
72866
102
{ACAD_REACTORS
330
72865
102
}
330
72865
100
AcDbMaterial
  1
ByLayer
  0
MATERIAL
  5
72868
102
{ACAD_REACTORS
330
72865
102
}
330
72865
100
AcDbMaterial
  1
Global
  0
MLINESTYLE
  5
458DA
102
{ACAD_REACTORS
330
458D9
102
}
330
458D9
100
AcDbMlineStyle
  2
STANDARD
 70
     0
  3

 62
   256
 51
90.0
 52
90.0
 71
     2
 49
0.5
 62
   256
  6
BYLAYER
 49
-0.5
 62
   256
  6
BYLAYER
  0
ACDBPLACEHOLDER
  5
458FA
102
{ACAD_REACTORS
330
458F9
102
}
330
458F9
  0
TABLESTYLE
  5
7287C
102
{ACAD_REACTORS
330
7287B
102
}
330
7287B
100
AcDbTableStyle
  3
Standard
 70
     0
 71
     0
 40
0.06
 41
0.06
280
     0
281
     0
  7
STANDARD
140
0.18
170
     2
 62
     0
 63
     7
283
     0
 90
      512
 91
        0
  1

274
    -2
284
     1
 64
     0
275
    -2
285
     1
 65
     0
276
    -2
286
     1
 66
     0
277
    -2
287
     1
 67
     0
278
    -2
288
     1
 68
     0
279
    -2
289
     1
 69
     0
  7
STANDARD
140
0.25
170
     5
 62
     0
 63
     7
283
     0
 90
      512
 91
        0
  1

274
    -2
284
     1
 64
     0
275
    -2
285
     1
 65
     0
276
    -2
286
     1
 66
     0
277
    -2
287
     1
 67
     0
278
    -2
288
     1
 68
     0
279
    -2
289
     1
 69
     0
  7
STANDARD
140
0.18
170
     5
 62
     0
 63
     7
283
     0
 90
      512
 91
        0
  1

274
    -2
284
     1
 64
     0
275
    -2
285
     1
 65
     0
276
    -2
286
     1
 66
     0
277
    -2
287
     1
 67
     0
278
    -2
288
     1
 68
     0
279
    -2
289
     1
 69
     0
  0
VISUALSTYLE
  5
7286F
102
{ACAD_REACTORS
330
72869
102
}
330
72869
100
AcDbVisualStyle
  2
2dWireframe
 70
     4
 71
     0
 72
     2
 73
     0
 90
        0
 40
-0.6
 41
-30.0
 62
     5
 63
     7
421
 16777215
 74
     1
 91
        4
 64
     7
 65
   257
 75
     1
175
     1
 42
1.0
 92
        0
 66
   257
 43
1.0
 76
     1
 77
     6
 78
     2
 67
     7
 79
     5
170
     0
171
     0
290
     0
174
     0
 93
        1
 44
0.0
173
     0
291
     0
 45
0.0
  0
VISUALSTYLE
  5
72871
102
{ACAD_REACTORS
330
72869
102
}
330
72869
100
AcDbVisualStyle
  2
3D Hidden
 70
     6
 71
     1
 72
     2
 73
     2
 90
        0
 40
-0.6
 41
-30.0
 62
     5
 63
     7
421
 16777215
 74
     2
 91
        2
 64
     7
 65
   257
 75
     2
175
     1
 42
40.0
 92
        0
 66
   257
 43
1.0
 76
     1
 77
     6
 78
     2
 67
     7
 79
     3
170
     0
171
     0
290
     0
174
     0
 93
        1
 44
0.0
173
     0
291
     0
 45
0.0
  0
VISUALSTYLE
  5
72870
102
{ACAD_REACTORS
330
72869
102
}
330
72869
100
AcDbVisualStyle
  2
3dWireframe
 70
     5
 71
     0
 72
     2
 73
     0
 90
        0
 40
-0.6
 41
-30.0
 62
     5
 63
     7
421
 16777215
 74
     1
 91
        4
 64
     7
 65
   257
 75
     1
175
     1
 42
1.0
 92
        0
 66
   257
 43
1.0
 76
     1
 77
     6
 78
     2
 67
     7
 79
     5
170
     0
171
     0
290
     0
174
     0
 93
        1
 44
0.0
173
     0
291
     0
 45
0.0
  0
VISUALSTYLE
  5
7286E
102
{ACAD_REACTORS
330
72869
102
}
330
72869
100
AcDbVisualStyle
  2
Basic
 70
     7
 71
     1
 72
     0
 73
     1
 90
        0
 40
-0.6
 41
-30.0
 62
     5
 63
     7
421
 16777215
 74
     0
 91
        4
 64
     7
 65
   257
 75
     1
175
     1
 42
1.0
 92
        8
 66
     7
 43
1.0
 76
     1
 77
     6
 78
     2
 67
     7
 79
     5
170
     0
171
     0
290
     0
174
     0
 93
        1
 44
0.0
173
     0
291
     1
 45
0.0
  0
VISUALSTYLE
  5
72875
102
{ACAD_REACTORS
330
72869
102
}
330
72869
100
AcDbVisualStyle
  2
Brighten
 70
    12
 71
     2
 72
     2
 73
     0
 90
        0
 40
-0.6
 41
-30.0
 62
     5
 63
     7
421
 16777215
 74
     1
 91
        4
 64
     7
 65
   257
 75
     1
175
     1
 42
1.0
 92
        8
 66
     7
 43
1.0
 76
     1
 77
     6
 78
     2
 67
     7
 79
     5
170
     0
171
     0
290
     0
174
     0
 93
        1
 44
50.0
173
     0
291
     1
 45
0.0
  0
VISUALSTYLE
  5
72879
102
{ACAD_REACTORS
330
72869
102
}
330
72869
100
AcDbVisualStyle
  2
ColorChange
 70
    16
 71
     2
 72
     2
 73
     3
 90
        0
 40
-0.6
 41
-30.0
 62
     5
 63
     8
421
  8421504
 74
     1
 91
        4
 64
     7
 65
   257
 75
     1
175
     1
 42
1.0
 92
        8
 66
     8
424
  8421504
 43
1.0
 76
     1
 77
     6
 78
     2
 67
     7
 79
     5
170
     0
171
     0
290
     0
174
     0
 93
        1
 44
0.0
173
     0
291
     1
 45
0.0
  0
VISUALSTYLE
  5
72872
102
{ACAD_REACTORS
330
72869
102
}
330
72869
100
AcDbVisualStyle
  2
Conceptual
 70
     9
 71
     3
 72
     2
 73
     0
 90
        0
 40
-0.6
 41
-30.0
 62
     5
 63
     7
421
 16777215
 74
     2
 91
        2
 64
     7
 65
   257
 75
     1
175
     1
 42
40.0
 92
        8
 66
     7
 43
1.0
 76
     1
 77
     6
 78
     2
 67
     7
 79
     3
170
     0
171
     0
290
     0
174
     0
 93
        1
 44
0.0
173
     0
291
     0
 45
0.0
  0
VISUALSTYLE
  5
72874
102
{ACAD_REACTORS
330
72869
102
}
330
72869
100
AcDbVisualStyle
  2
Dim
 70
    11
 71
     2
 72
     2
 73
     0
 90
        0
 40
-0.6
 41
-30.0
 62
     5
 63
     7
421
 16777215
 74
     1
 91
        4
 64
     7
 65
   257
 75
     1
175
     1
 42
1.0
 92
        8
 66
     7
 43
1.0
 76
     1
 77
     6
 78
     2
 67
     7
 79
     5
170
     0
171
     0
290
     0
174
     0
 93
        1
 44
-50.0
173
     0
291
     1
 45
0.0
  0
VISUALSTYLE
  5
72878
102
{ACAD_REACTORS
330
72869
102
}
330
72869
100
AcDbVisualStyle
  2
Facepattern
 70
    15
 71
     2
 72
     2
 73
     0
 90
        0
 40
-0.6
 41
-30.0
 62
     5
 63
     7
421
 16777215
 74
     1
 91
        4
 64
     7
 65
   257
 75
     1
175
     1
 42
1.0
 92
        8
 66
     7
 43
1.0
 76
     1
 77
     6
 78
     2
 67
     7
 79
     5
170
     0
171
     0
290
     0
174
     0
 93
        1
 44
0.0
173
     0
291
     1
 45
0.0
  0
VISUALSTYLE
  5
7286A
102
{ACAD_REACTORS
330
72869
102
}
330
72869
100
AcDbVisualStyle
  2
Flat
 70
     0
 71
     2
 72
     1
 73
     1
 90
        2
 40
-0.6
 41
30.0
 62
     5
 63
     7
421
 16777215
 74
     0
 91
        4
 64
     7
 65
   257
 75
     1
175
     1
 42
1.0
 92
        8
 66
     7
 43
1.0
 76
     1
 77
     6
 78
     2
 67
     7
 79
     5
170
     0
171
     0
290
     0
174
     0
 93
       13
 44
0.0
173
     0
291
     1
 45
0.0
  0
VISUALSTYLE
  5
7286B
102
{ACAD_REACTORS
330
72869
102
}
330
72869
100
AcDbVisualStyle
  2
FlatWithEdges
 70
     1
 71
     2
 72
     1
 73
     1
 90
        2
 40
-0.6
 41
30.0
 62
     5
 63
     7
421
 16777215
 74
     1
 91
        4
 64
     7
 65
   257
 75
     1
175
     1
 42
1.0
 92
        0
 66
   257
 43
1.0
 76
     1
 77
     6
 78
     2
 67
     7
 79
     5
170
     0
171
     0
290
     0
174
     0
 93
       13
 44
0.0
173
     0
291
     1
 45
0.0
  0
VISUALSTYLE
  5
7286C
102
{ACAD_REACTORS
330
72869
102
}
330
72869
100
AcDbVisualStyle
  2
Gouraud
 70
     2
 71
     2
 72
     2
 73
     1
 90
        2
 40
-0.6
 41
30.0
 62
     5
 63
     7
421
 16777215
 74
     0
 91
        4
 64
     7
 65
   257
 75
     1
175
     1
 42
1.0
 92
        0
 66
     7
 43
1.0
 76
     1
 77
     6
 78
     2
 67
     7
 79
     5
170
     0
171
     0
290
     0
174
     0
 93
       13
 44
0.0
173
     0
291
     1
 45
0.0
  0
VISUALSTYLE
  5
7286D
102
{ACAD_REACTORS
330
72869
102
}
330
72869
100
AcDbVisualStyle
  2
GouraudWithEdges
 70
     3
 71
     2
 72
     2
 73
     1
 90
        2
 40
-0.6
 41
30.0
 62
     5
 63
     7
421
 16777215
 74
     1
 91
        4
 64
     7
 65
   257
 75
     1
175
     1
 42
1.0
 92
        0
 66
   257
 43
1.0
 76
     1
 77
     6
 78
     2
 67
     7
 79
     5
170
     0
171
     0
290
     0
174
     0
 93
       13
 44
0.0
173
     0
291
     1
 45
0.0
  0
VISUALSTYLE
  5
72877
102
{ACAD_REACTORS
330
72869
102
}
330
72869
100
AcDbVisualStyle
  2
Linepattern
 70
    14
 71
     2
 72
     2
 73
     0
 90
        0
 40
-0.6
 41
-30.0
 62
     5
 63
     7
421
 16777215
 74
     1
 91
        4
 64
     7
 65
   257
 75
     7
175
     7
 42
1.0
 92
        8
 66
     7
 43
1.0
 76
     1
 77
     6
 78
     2
 67
     7
 79
     5
170
     0
171
     0
290
     0
174
     0
 93
        1
 44
0.0
173
     0
291
     1
 45
0.0
  0
VISUALSTYLE
  5
72873
102
{ACAD_REACTORS
330
72869
102
}
330
72869
100
AcDbVisualStyle
  2
Realistic
 70
     8
 71
     2
 72
     2
 73
     0
 90
        0
 40
-0.6
 41
-30.0
 62
     5
 63
     7
421
 16777215
 74
     1
 91
        0
 64
     7
 65
   257
 75
     1
175
     1
 42
1.0
 92
        8
 66
     8
424
  7895160
 43
1.0
 76
     1
 77
     6
 78
     2
 67
     7
 79
     5
170
     0
171
     0
290
     0
174
     0
 93
       13
 44
0.0
173
     0
291
     0
 45
0.0
  0
VISUALSTYLE
  5
72876
102
{ACAD_REACTORS
330
72869
102
}
330
72869
100
AcDbVisualStyle
  2
Thicken
 70
    13
 71
     2
 72
     2
 73
     0
 90
        0
 40
-0.6
 41
-30.0
 62
     5
 63
     7
421
 16777215
 74
     1
 91
        4
 64
     7
 65
   257
 75
     1
175
     1
 42
1.0
 92
       12
 66
     7
 43
1.0
 76
     1
 77
     6
 78
     2
 67
     7
 79
     5
170
     0
171
     0
290
     0
174
     0
 93
        1
 44
0.0
173
     0
291
     1
 45
0.0
  0
XRECORD
  5
72895
102
{ACAD_REACTORS
330
72894
102
}
330
72894
100
AcDbXrecord
280
     1
  1
WIRES
  1
WIRES
  1

290
     0
  0
DICTIONARYVAR
  5
7288A
102
{ACAD_REACTORS
330
458E1
102
}
330
458E1
100
DictionaryVariables
280
     0
  1
STANDARD
  0
DICTIONARYVAR
  5
458E2
102
{ACAD_REACTORS
330
458E1
102
}
330
458E1
100
DictionaryVariables
280
     0
  1
0
  0
XRECORD
  5
72889
102
{ACAD_REACTORS
330
72887
102
}
330
72887
100
AcDbXrecord
280
     1
  0
ENDSEC
  0
EOF
