  0
SECTION
  2
HEADER
  9
$ACADVER
  1
AC1021
  9
$ACADMAINTVER
 70
     1
  9
$DWGCODEPAGE
  3
ANSI_1252
  9
$LASTSAVEDBY
  1
gdseiver
  9
$INSBASE
 10
0.0
 20
0.0
 30
0.0
  9
$EXTMIN
 10
-0.0000000000000035
 20
-2.526
 30
-0.0000000579884615
  9
$EXTMAX
 10
1.759999999999999
 20
0.654
 30
4.1134
  9
$LIMMIN
 10
0.0
 20
0.0
  9
$LIMMAX
 10
12.0
 20
9.0
  9
$ORTHOMODE
 70
     0
  9
$REGENMODE
 70
     1
  9
$FILLMODE
 70
     1
  9
$QTEXTMODE
 70
     0
  9
$MIRRTEXT
 70
     1
  9
$LTSCALE
 40
1.0
  9
$ATTMODE
 70
     1
  9
$TEXTSIZE
 40
0.12
  9
$TRACEWID
 40
0.05
  9
$TEXTSTYLE
  7
STANDARD
  9
$CLAYER
  8
0
  9
$CELTYPE
  6
BYLAYER
  9
$CECOLOR
 62
   256
  9
$CELTSCALE
 40
1.0
  9
$DISPSILH
 70
     0
  9
$DIMSCALE
 40
1.0
  9
$DIMASZ
 40
0.18
  9
$DIMEXO
 40
0.0625
  9
$DIMDLI
 40
0.375
  9
$DIMRND
 40
0.0
  9
$DIMDLE
 40
0.0
  9
$DIMEXE
 40
0.18
  9
$DIMTP
 40
0.0
  9
$DIMTM
 40
0.0
  9
$DIMTXT
 40
0.14
  9
$DIMCEN
 40
0.09
  9
$DIMTSZ
 40
0.0
  9
$DIMTOL
 70
     0
  9
$DIMLIM
 70
     0
  9
$DIMTIH
 70
     0
  9
$DIMTOH
 70
     1
  9
$DIMSE1
 70
     0
  9
$DIMSE2
 70
     0
  9
$DIMTAD
 70
     0
  9
$DIMZIN
 70
     4
  9
$DIMBLK
  1

  9
$DIMASO
 70
     1
  9
$DIMSHO
 70
     1
  9
$DIMPOST
  1

  9
$DIMAPOST
  1

  9
$DIMALT
 70
     1
  9
$DIMALTD
 70
     2
  9
$DIMALTF
 40
25.4
  9
$DIMLFAC
 40
1.0
  9
$DIMTOFL
 70
     0
  9
$DIMTVP
 40
0.0
  9
$DIMTIX
 70
     0
  9
$DIMSOXD
 70
     0
  9
$DIMSAH
 70
     0
  9
$DIMBLK1
  1

  9
$DIMBLK2
  1

  9
$DIMSTYLE
  2
ABECAD_3D
  9
$DIMCLRD
 70
     0
  9
$DIMCLRE
 70
     0
  9
$DIMCLRT
 70
     0
  9
$DIMTFAC
 40
1.5
  9
$DIMGAP
 40
0.09
  9
$DIMJUST
 70
     0
  9
$DIMSD1
 70
     0
  9
$DIMSD2
 70
     0
  9
$DIMTOLJ
 70
     1
  9
$DIMTZIN
 70
     4
  9
$DIMALTZ
 70
     4
  9
$DIMALTTZ
 70
     4
  9
$DIMUPT
 70
     1
  9
$DIMDEC
 70
     6
  9
$DIMTDEC
 70
     6
  9
$DIMALTU
 70
     2
  9
$DIMALTTD
 70
     2
  9
$DIMTXSTY
  7
STANDARD
  9
$DIMAUNIT
 70
     0
  9
$DIMADEC
 70
     0
  9
$DIMALTRND
 40
0.0
  9
$DIMAZIN
 70
     0
  9
$DIMDSEP
 70
    46
  9
$DIMATFIT
 70
     2
  9
$DIMFRAC
 70
     2
  9
$DIMLDRBLK
  1

  9
$DIMLUNIT
 70
     5
  9
$DIMLWD
 70
    -2
  9
$DIMLWE
 70
    -2
  9
$DIMTMOVE
 70
     2
  9
$DIMFXL
 40
1.0
  9
$DIMFXLON
 70
     0
  9
$DIMJOGANG
 40
0.7853981633974483
  9
$DIMTFILL
 70
     0
  9
$DIMTFILLCLR
 70
     0
  9
$DIMARCSYM
 70
     0
  9
$DIMLTYPE
  6

  9
$DIMLTEX1
  6

  9
$DIMLTEX2
  6

  9
$LUNITS
 70
     2
  9
$LUPREC
 70
     4
  9
$SKETCHINC
 40
0.1
  9
$FILLETRAD
 40
0.0
  9
$AUNITS
 70
     0
  9
$AUPREC
 70
     0
  9
$MENU
  1
ACAD
  9
$ELEVATION
 40
0.0
  9
$PELEVATION
 40
0.0
  9
$THICKNESS
 40
0.0
  9
$LIMCHECK
 70
     0
  9
$CHAMFERA
 40
0.0
  9
$CHAMFERB
 40
0.0
  9
$CHAMFERC
 40
0.0
  9
$CHAMFERD
 40
0.0
  9
$SKPOLY
 70
     0
  9
$TDCREATE
 40
2451726.480055787
  9
$TDUCREATE
 40
2451726.688389120
  9
$TDUPDATE
 40
2454229.679466123
  9
$TDUUPDATE
 40
2454229.887799456
  9
$TDINDWG
 40
0.6999138889
  9
$TDUSRTIMER
 40
0.6999138889
  9
$USRTIMER
 70
     1
  9
$ANGBASE
 50
0.0
  9
$ANGDIR
 70
     0
  9
$PDMODE
 70
     3
  9
$PDSIZE
 40
0.09
  9
$PLINEWID
 40
0.0
  9
$SPLFRAME
 70
     1
  9
$SPLINETYPE
 70
     6
  9
$SPLINESEGS
 70
     8
  9
$HANDSEED
  5
62D3D
  9
$SURFTAB1
 70
     6
  9
$SURFTAB2
 70
     6
  9
$SURFTYPE
 70
     6
  9
$SURFU
 70
     6
  9
$SURFV
 70
     6
  9
$UCSBASE
  2

  9
$UCSNAME
  2

  9
$UCSORG
 10
0.0
 20
0.0
 30
0.0
  9
$UCSXDIR
 10
1.0
 20
0.0
 30
0.0
  9
$UCSYDIR
 10
0.0
 20
1.0
 30
0.0
  9
$UCSORTHOREF
  2

  9
$UCSORTHOVIEW
 70
     1
  9
$UCSORGTOP
 10
0.0
 20
0.0
 30
0.0
  9
$UCSORGBOTTOM
 10
0.0
 20
0.0
 30
0.0
  9
$UCSORGLEFT
 10
0.0
 20
0.0
 30
0.0
  9
$UCSORGRIGHT
 10
0.0
 20
0.0
 30
0.0
  9
$UCSORGFRONT
 10
0.0
 20
0.0
 30
0.0
  9
$UCSORGBACK
 10
0.0
 20
0.0
 30
0.0
  9
$PUCSBASE
  2

  9
$PUCSNAME
  2

  9
$PUCSORG
 10
0.0
 20
0.0
 30
0.0
  9
$PUCSXDIR
 10
1.0
 20
0.0
 30
0.0
  9
$PUCSYDIR
 10
0.0
 20
1.0
 30
0.0
  9
$PUCSORTHOREF
  2

  9
$PUCSORTHOVIEW
 70
     0
  9
$PUCSORGTOP
 10
0.0
 20
0.0
 30
0.0
  9
$PUCSORGBOTTOM
 10
0.0
 20
0.0
 30
0.0
  9
$PUCSORGLEFT
 10
0.0
 20
0.0
 30
0.0
  9
$PUCSORGRIGHT
 10
0.0
 20
0.0
 30
0.0
  9
$PUCSORGFRONT
 10
0.0
 20
0.0
 30
0.0
  9
$PUCSORGBACK
 10
0.0
 20
0.0
 30
0.0
  9
$USERI1
 70
     0
  9
$USERI2
 70
     0
  9
$USERI3
 70
     0
  9
$USERI4
 70
     0
  9
$USERI5
 70
     0
  9
$USERR1
 40
0.0
  9
$USERR2
 40
0.0
  9
$USERR3
 40
0.0
  9
$USERR4
 40
0.0
  9
$USERR5
 40
0.0
  9
$WORLDVIEW
 70
     1
  9
$SHADEDGE
 70
     3
  9
$SHADEDIF
 70
    70
  9
$TILEMODE
 70
     1
  9
$MAXACTVP
 70
    16
  9
$PINSBASE
 10
0.0
 20
0.0
 30
0.0
  9
$PLIMCHECK
 70
     0
  9
$PEXTMIN
 10
1.049999952316284
 20
0.7999999523162842
 30
0.0
  9
$PEXTMAX
 10
9.449999570846555
 20
7.199999570846556
 30
0.0
  9
$PLIMMIN
 10
-0.2500002402958907
 20
-0.2499999962453767
  9
$PLIMMAX
 10
10.74999951940821
 20
8.249999763458731
  9
$UNITMODE
 70
     0
  9
$VISRETAIN
 70
     0
  9
$PLINEGEN
 70
     0
  9
$PSLTSCALE
 70
     1
  9
$TREEDEPTH
 70
  3020
  9
$CMLSTYLE
  2
STANDARD
  9
$CMLJUST
 70
     0
  9
$CMLSCALE
 40
1.0
  9
$PROXYGRAPHICS
 70
     1
  9
$MEASUREMENT
 70
     0
  9
$CELWEIGHT
370
    -1
  9
$ENDCAPS
280
     0
  9
$JOINSTYLE
280
     0
  9
$LWDISPLAY
290
     0
  9
$INSUNITS
 70
     0
  9
$HYPERLINKBASE
  1

  9
$STYLESHEET
  1

  9
$XEDIT
290
     1
  9
$CEPSNTYPE
380
     0
  9
$PSTYLEMODE
290
     1
  9
$FINGERPRINTGUID
  2
{6E0CF4B8-225E-11D4-A150-00A0CC3303EC}
  9
$VERSIONGUID
  2
{EB519A40-6465-4900-9F7B-B20C07228604}
  9
$EXTNAMES
290
     1
  9
$PSVPSCALE
 40
0.0
  9
$OLESTARTUP
290
     0
  9
$SORTENTS
280
   127
  9
$INDEXCTL
280
     0
  9
$HIDETEXT
280
     0
  9
$XCLIPFRAME
290
     0
  9
$HALOGAP
280
     0
  9
$OBSCOLOR
 70
   257
  9
$OBSLTYPE
280
     0
  9
$INTERSECTIONDISPLAY
280
     0
  9
$INTERSECTIONCOLOR
 70
   257
  9
$DIMASSOC
280
     1
  9
$PROJECTNAME
  1

  9
$CAMERADISPLAY
290
     0
  9
$LENSLENGTH
 40
50.0
  9
$CAMERAHEIGHT
 40
0.0
  9
$STEPSPERSEC
 40
2.0
  9
$STEPSIZE
 40
6.0
  9
$3DDWFPREC
 40
2.0
  9
$PSOLWIDTH
 40
0.25
  9
$PSOLHEIGHT
 40
4.0
  9
$LOFTANG1
 40
1.570796326794896
  9
$LOFTANG2
 40
1.570796326794896
  9
$LOFTMAG1
 40
0.0
  9
$LOFTMAG2
 40
0.0
  9
$LOFTPARAM
 70
     7
  9
$LOFTNORMALS
280
     1
  9
$LATITUDE
 40
37.795
  9
$LONGITUDE
 40
-122.394
  9
$NORTHDIRECTION
 40
0.0
  9
$TIMEZONE
 70
 -8000
  9
$LIGHTGLYPHDISPLAY
280
     1
  9
$TILEMODELIGHTSYNCH
280
     1
  9
$CMATERIAL
347
62CE7
  9
$SOLIDHIST
280
     1
  9
$SHOWHIST
280
     1
  9
$DWFFRAME
280
     2
  9
$DGNFRAME
280
     0
  9
$REALWORLDSCALE
290
     1
  9
$INTERFERECOLOR
 62
     1
  9
$INTERFEREOBJVS
345
62CF4
  9
$INTERFEREVPVS
346
62CF1
  9
$CSHADOW
280
     0
  9
$SHADOWPLANELOCATION
 40
0.0
  0
ENDSEC
  0
SECTION
  2
CLASSES
  0
CLASS
  1
DICTIONARYVAR
  2
AcDbDictionaryVar
  3
ObjectDBX Classes
 90
        0
 91
        2
280
     0
281
     0
  0
CLASS
  1
ACDBDICTIONARYWDFLT
  2
AcDbDictionaryWithDefault
  3
ObjectDBX Classes
 90
        0
 91
        1
280
     0
281
     0
  0
CLASS
  1
MATERIAL
  2
AcDbMaterial
  3
ObjectDBX Classes
 90
     1024
 91
        3
280
     0
281
     0
  0
CLASS
  1
VISUALSTYLE
  2
AcDbVisualStyle
  3
ObjectDBX Classes
 90
     4095
 91
       16
280
     0
281
     0
  0
CLASS
  1
TABLESTYLE
  2
AcDbTableStyle
  3
ObjectDBX Classes
 90
     4095
 91
        1
280
     0
281
     0
  0
CLASS
  1
SOLID_BACKGROUND
  2
AcDbSolidBackground
  3
SCENEOE
 90
     4095
 91
        1
280
     0
281
     0
  0
CLASS
  1
NPOCOLLECTION
  2
AcDbImpNonPersistentObjectsCollection
  3
ObjectDBX Classes
 90
     1153
 91
        1
280
     0
281
     0
  0
CLASS
  1
EXACXREFPANELOBJECT
  2
ExAcXREFPanelObject
  3
EXAC_ESW
 90
     1025
 91
        0
280
     0
281
     0
  0
ENDSEC
  0
SECTION
  2
TABLES
  0
TABLE
  2
VPORT
  5
458C7
102
{ACAD_XDICTIONARY
360
62D17
102
}
330
0
100
AcDbSymbolTable
 70
     1
  0
VPORT
  5
62CB3
330
458C7
100
AcDbSymbolTableRecord
100
AcDbViewportTableRecord
  2
*Active
 70
     0
 10
0.0
 20
0.0
 11
1.0
 21
1.0
 12
0.3164820582633021
 22
-0.0558867444169611
 13
0.0
 23
0.0
 14
0.25
 24
0.25
 15
0.25
 25
0.25
 16
0.0
 26
0.0
 36
1.0
 17
0.5634438949382106
 27
-0.8801371703728531
 37
1.68649307151727
 40
3.205474714781603
 41
1.421818181818181
 42
50.0
 43
0.0
 44
0.0
 50
0.0
 51
0.0
 71
     0
 72
 20000
 73
     1
 74
     1
 75
     0
 76
     0
 77
     0
 78
     0
281
     1
 65
     1
110
0.0
120
0.0
130
0.0
111
1.0
121
0.0
131
0.0
112
0.0
122
1.0
132
0.0
 79
     0
146
0.0
348
62CF1
 60
     3
 61
     5
292
     1
282
     1
141
0.0
142
0.0
 63
   250
421
  3355443
  0
ENDTAB
  0
TABLE
  2
LTYPE
  5
458C4
330
0
100
AcDbSymbolTable
 70
     1
  0
LTYPE
  5
458D0
330
458C4
100
AcDbSymbolTableRecord
100
AcDbLinetypeTableRecord
  2
BYBLOCK
 70
     0
  3

 72
    65
 73
     0
 40
0.0
  0
LTYPE
  5
458D1
330
458C4
100
AcDbSymbolTableRecord
100
AcDbLinetypeTableRecord
  2
BYLAYER
 70
     0
  3

 72
    65
 73
     0
 40
0.0
  0
LTYPE
  5
458D2
330
458C4
100
AcDbSymbolTableRecord
100
AcDbLinetypeTableRecord
  2
CONTINUOUS
 70
     0
  3
Solid line
 72
    65
 73
     0
 40
0.0
  0
ENDTAB
  0
TABLE
  2
LAYER
  5
458C1
330
0
100
AcDbSymbolTable
 70
     8
  0
LAYER
  5
458CD
330
458C1
100
AcDbSymbolTableRecord
100
AcDbLayerTableRecord
  2
0
 70
     0
 62
     7
  6
CONTINUOUS
370
    -3
390
458FA
347
62CE9
  0
LAYER
  5
458EA
330
458C1
100
AcDbSymbolTableRecord
100
AcDbLayerTableRecord
  2
DIMS-MTG-HOLES
 70
     0
 62
     1
  6
CONTINUOUS
370
    -3
390
458FA
347
62CE9
  0
LAYER
  5
458EB
330
458C1
100
AcDbSymbolTableRecord
100
AcDbLayerTableRecord
  2
ATTRIBUTES
 70
     0
 62
     7
  6
CONTINUOUS
370
    -3
390
458FA
347
62CE9
  0
LAYER
  5
4593B
330
458C1
100
AcDbSymbolTableRecord
100
AcDbLayerTableRecord
  2
AREA1
 70
     1
 62
     7
  6
CONTINUOUS
290
     0
370
    -3
390
458FA
347
62CE9
  0
LAYER
  5
45940
330
458C1
100
AcDbSymbolTableRecord
100
AcDbLayerTableRecord
  2
Defpoints
 70
     1
 62
     7
  6
CONTINUOUS
290
     0
370
    -3
390
458FA
347
62CE9
  0
LAYER
  5
45954
330
458C1
100
AcDbSymbolTableRecord
100
AcDbLayerTableRecord
  2
SCALE
 70
     1
 62
     7
  6
CONTINUOUS
370
    -3
390
458FA
347
62CE9
  0
LAYER
  5
4D59A
330
458C1
100
AcDbSymbolTableRecord
100
AcDbLayerTableRecord
  2
SNAP_POINTS
 70
     1
 62
     1
  6
CONTINUOUS
370
    -3
390
458FA
347
62CE9
  0
LAYER
  5
62D04
102
{ACAD_XDICTIONARY
360
62D05
102
}
330
458C1
100
AcDbSymbolTableRecord
100
AcDbLayerTableRecord
  2
WIRES
 70
     0
 62
     7
  6
CONTINUOUS
370
    -3
390
458FA
347
62CE9
  0
ENDTAB
  0
TABLE
  2
STYLE
  5
458C2
330
0
100
AcDbSymbolTable
 70
     1
  0
STYLE
  5
458CE
330
458C2
100
AcDbSymbolTableRecord
100
AcDbTextStyleTableRecord
  2
STANDARD
 70
     0
 40
0.0
 41
1.0
 50
0.0
 71
     0
 42
0.12
  3
txt
  4

  0
ENDTAB
  0
TABLE
  2
VIEW
  5
458C5
330
0
100
AcDbSymbolTable
 70
     0
  0
ENDTAB
  0
TABLE
  2
UCS
  5
458C6
330
0
100
AcDbSymbolTable
 70
     0
  0
ENDTAB
  0
TABLE
  2
APPID
  5
458C8
330
0
100
AcDbSymbolTable
 70
     3
  0
APPID
  5
458CF
330
458C8
100
AcDbSymbolTableRecord
100
AcDbRegAppTableRecord
  2
ACAD
 70
     0
  0
APPID
  5
5FD5B
330
458C8
100
AcDbSymbolTableRecord
100
AcDbRegAppTableRecord
  2
AVE_RENDER
 70
     0
  0
APPID
  5
62D09
330
458C8
100
AcDbSymbolTableRecord
100
AcDbRegAppTableRecord
  2
DCO15
 70
     0
  0
ENDTAB
  0
TABLE
  2
DIMSTYLE
  5
458C9
330
0
100
AcDbSymbolTable
 70
     1
100
AcDbDimStyleTable
 71
     0
  0
DIMSTYLE
105
458F6
102
{ACAD_REACTORS
330
62C0B
330
62C19
102
}
330
458C9
100
AcDbSymbolTableRecord
100
AcDbDimStyleTableRecord
  2
ABECAD_3D
 70
     0
 43
0.375
 73
     0
 78
     4
140
0.14
146
1.5
170
     1
271
     6
272
     6
276
     2
277
     5
279
     2
284
     4
285
     4
286
     4
288
     1
289
     2
340
458CE
  0
ENDTAB
  0
TABLE
  2
BLOCK_RECORD
  5
458C0
330
0
100
AcDbSymbolTable
 70
     2
  0
BLOCK_RECORD
  5
458D6
102
{ACAD_XDICTIONARY
360
4592C
102
}
330
458C0
100
AcDbSymbolTableRecord
100
AcDbBlockTableRecord
  2
*MODEL_SPACE
340
458FD
 70
     0
280
     1
281
     0
  0
BLOCK_RECORD
  5
458D3
102
{ACAD_XDICTIONARY
360
4592A
102
}
330
458C0
100
AcDbSymbolTableRecord
100
AcDbBlockTableRecord
  2
*PAPER_SPACE
340
458FE
 70
     0
280
     1
281
     0
  0
BLOCK_RECORD
  5
62C0C
330
458C0
100
AcDbSymbolTableRecord
100
AcDbBlockTableRecord
  2
*D0
340
0
 70
     0
280
     1
281
     0
  0
BLOCK_RECORD
  5
62C1A
330
458C0
100
AcDbSymbolTableRecord
100
AcDbBlockTableRecord
  2
*D1
340
0
 70
     0
280
     1
281
     0
  0
ENDTAB
  0
ENDSEC
  0
SECTION
  2
BLOCKS
  0
BLOCK
  5
458DF
330
458D6
100
AcDbEntity
  8
0
100
AcDbBlockBegin
  2
*MODEL_SPACE
 70
     0
 10
0.0
 20
0.0
 30
0.0
  3
*MODEL_SPACE
  1

  0
ENDBLK
  5
458E0
330
458D6
100
AcDbEntity
  8
0
100
AcDbBlockEnd
  0
BLOCK
  5
458DD
330
458D3
100
AcDbEntity
 67
     1
  8
0
100
AcDbBlockBegin
  2
*PAPER_SPACE
 70
     0
 10
0.0
 20
0.0
 30
0.0
  3
*PAPER_SPACE
  1

  0
ENDBLK
  5
458DE
330
458D3
100
AcDbEntity
 67
     1
  8
0
100
AcDbBlockEnd
  0
BLOCK
  5
62C17
330
62C0C
100
AcDbEntity
  8
0
100
AcDbBlockBegin
  2
*D0
 70
     1
 10
0.0
 20
0.0
 30
0.0
  3
*D0
  1

  0
LINE
  5
62C0D
330
62C0C
100
AcDbEntity
  8
AREA1
 62
     0
370
    -2
100
AcDbLine
 10
0.6319999999999997
 20
0.654
 30
0.0
 11
-0.8272185504850632
 21
0.6540000000000004
 31
0.0
  0
LINE
  5
62C0E
330
62C0C
100
AcDbEntity
  8
AREA1
 62
     0
370
    -2
100
AcDbLine
 10
0.2649999999999988
 20
-2.526
 30
0.0
 11
-0.8272185504850641
 21
-2.526
 31
0.0
  0
LINE
  5
62C0F
330
62C0C
100
AcDbEntity
  8
AREA1
 62
     0
370
    -2
100
AcDbLine
 10
-0.6472185504850635
 20
0.4740000000000003
 30
0.0
 11
-0.6472185504850636
 21
-0.0430320163469964
 31
0.0
  0
LINE
  5
62C10
330
62C0C
100
AcDbEntity
  8
AREA1
 62
     0
370
    -2
100
AcDbLine
 10
-0.6472185504850642
 20
-2.346
 30
0.0
 11
-0.6472185504850641
 21
-1.879698683013663
 31
0.0
  0
MTEXT
  5
62C11
330
62C0C
100
AcDbEntity
  8
AREA1
 62
     0
100
AcDbMText
 10
-0.6472185504850639
 20
-0.9613653496803298
 30
0.0
 40
0.14
 41
0.0
 46
0.0
 71
     5
 72
     1
  1
\A1;3 3/16 [80.77]
 11
0.0000000000000001
 21
1.0
 31
0.0
 73
     1
 44
1.0
  0
SOLID
  5
62C12
330
62C0C
100
AcDbEntity
  8
AREA1
 62
     0
100
AcDbTrace
 10
-0.6772185504850636
 20
0.4740000000000003
 30
0.0
 11
-0.6172185504850635
 21
0.4740000000000003
 31
0.0
 12
-0.6472185504850635
 22
0.6540000000000003
 32
0.0
 13
-0.6472185504850635
 23
0.6540000000000003
 33
0.0
  0
SOLID
  5
62C13
330
62C0C
100
AcDbEntity
  8
AREA1
 62
     0
100
AcDbTrace
 10
-0.6772185504850642
 20
-2.346
 30
0.0
 11
-0.6172185504850641
 21
-2.346
 31
0.0
 12
-0.6472185504850642
 22
-2.526
 32
0.0
 13
-0.6472185504850642
 23
-2.526
 33
0.0
  0
POINT
  5
62C14
330
62C0C
100
AcDbEntity
  8
Defpoints
 62
     0
100
AcDbPoint
 10
0.6944999999999997
 20
0.654
 30
1.388
  0
POINT
  5
62C15
330
62C0C
100
AcDbEntity
  8
Defpoints
 62
     0
100
AcDbPoint
 10
0.3274999999999988
 20
-2.526
 30
1.388
  0
POINT
  5
62C16
330
62C0C
100
AcDbEntity
  8
Defpoints
 62
     0
100
AcDbPoint
 10
-0.6472185504850642
 20
-2.526
 30
0.0
  0
ENDBLK
  5
62C18
330
62C0C
100
AcDbEntity
  8
0
100
AcDbBlockEnd
  0
BLOCK
  5
62C24
330
62C1A
100
AcDbEntity
  8
0
100
AcDbBlockBegin
  2
*D1
 70
     1
 10
0.0
 20
0.0
 30
0.0
  3
*D1
  1

  0
LINE
  5
62C26
330
62C1A
100
AcDbEntity
  8
AREA1
 62
     0
370
    -2
100
AcDbLine
 10
0.0000000000000001
 20
0.6604999999999999
 30
0.0
 11
0.0000000000000001
 21
1.164951357628736
 31
0.0
  0
LINE
  5
62C27
330
62C1A
100
AcDbEntity
  8
AREA1
 62
     0
370
    -2
100
AcDbLine
 10
1.759999999999996
 20
0.5884999999999998
 30
0.0
 11
1.759999999999996
 21
1.164951357628736
 31
0.0
  0
LINE
  5
62C28
330
62C1A
100
AcDbEntity
  8
AREA1
 62
     0
370
    -2
100
AcDbLine
 10
0.1800000000000001
 20
0.984951357628736
 30
0.0
 11
1.579999999999996
 21
0.984951357628736
 31
0.0
  0
MTEXT
  5
62C29
330
62C1A
100
AcDbEntity
  8
AREA1
 62
     0
100
AcDbMText
 10
0.8764600145672364
 20
1.360725380102559
 30
0.0
 40
0.14
 41
0.0
 46
0.0
 71
     5
 72
     1
  1
\A1;1 49/64 [44.70]
 73
     1
 44
1.0
  0
SOLID
  5
62C2A
330
62C1A
100
AcDbEntity
  8
AREA1
 62
     0
100
AcDbTrace
 10
0.1800000000000001
 20
1.014951357628736
 30
0.0
 11
0.1800000000000001
 21
0.954951357628736
 31
0.0
 12
0.0000000000000001
 22
0.984951357628736
 32
0.0
 13
0.0000000000000001
 23
0.984951357628736
 33
0.0
  0
SOLID
  5
62C2B
330
62C1A
100
AcDbEntity
  8
AREA1
 62
     0
100
AcDbTrace
 10
1.579999999999996
 20
1.014951357628736
 30
0.0
 11
1.579999999999996
 21
0.954951357628736
 31
0.0
 12
1.759999999999996
 22
0.984951357628736
 32
0.0
 13
1.759999999999996
 23
0.984951357628736
 33
0.0
  0
POINT
  5
62C2C
330
62C1A
100
AcDbEntity
  8
Defpoints
 62
     0
100
AcDbPoint
 10
0.0000000000000001
 20
0.5979999999999999
 30
0.0
  0
POINT
  5
62C2D
330
62C1A
100
AcDbEntity
  8
Defpoints
 62
     0
100
AcDbPoint
 10
1.759999999999996
 20
0.5259999999999998
 30
1.652
  0
POINT
  5
62C2E
330
62C1A
100
AcDbEntity
  8
Defpoints
 62
     0
100
AcDbPoint
 10
1.759999999999996
 20
0.984951357628736
 30
0.0
  0
ENDBLK
  5
62C25
330
62C1A
100
AcDbEntity
  8
0
100
AcDbBlockEnd
  0
ENDSEC
  0
SECTION
  2
ENTITIES
  0
ATTDEF
  5
628B9
330
458D6
100
AcDbEntity
  8
ATTRIBUTES
100
AcDbText
 10
0.0984979619675901
 20
-0.1788256642508905
 30
0.0
 40
0.0805203758744914
  1
SPRECHER+SCHUH
100
AcDbAttributeDefinition
  3
MANUFACTURER NAME?
  2
AC_VND_LABEL
 70
     1
280
     0
  0
ATTDEF
  5
628BA
330
458D6
100
AcDbEntity
  8
ATTRIBUTES
100
AcDbText
 10
0.0984979619675901
 20
-0.3465764473227475
 30
0.0
 40
0.0805203758744914
  1
CA7-30U, -37U*00
100
AcDbAttributeDefinition
  3
CATALOG NUMBER?
  2
AC_PART_NO
 70
     1
280
     0
  0
ATTDEF
  5
628BB
330
458D6
100
AcDbEntity
  8
ATTRIBUTES
100
AcDbText
 10
0.0984979619675901
 20
-0.5143272303946045
 30
0.0
 40
0.0805203758744914
  1
IEC AC CONTACTOR; 30A-37A
100
AcDbAttributeDefinition
  3
PART DESCRIPTION?
  2
AC_DESCRIPTION
 70
     1
280
     0
  0
ATTDEF
  5
628BC
330
458D6
100
AcDbEntity
  8
ATTRIBUTES
100
AcDbText
 10
0.0984979619675901
 20
-0.6820780134664615
 30
0.0
 40
0.0805203758744914
  1

100
AcDbAttributeDefinition
  3
DEVICE ID?
  2
DEVICE_ID
 70
     1
280
     0
  0
ATTDEF
  5
628BD
330
458D6
100
AcDbEntity
  8
ATTRIBUTES
100
AcDbText
 10
0.0984979619675901
 20
-0.8498287965383184
 30
0.0
 40
0.0805203758744914
  1

100
AcDbAttributeDefinition
  3
CUSTOMER PART NUMBER?
  2
AC_CPART_NO
 70
     1
280
     0
  0
ATTDEF
  5
628BE
330
458D6
100
AcDbEntity
  8
ATTRIBUTES
100
AcDbText
 10
0.0984979619675901
 20
-1.017579579610176
 30
0.0
 40
0.0805203758744914
  1

100
AcDbAttributeDefinition
  3
CUSTOMER NOTE?
  2
AC_NOTE
 70
     1
280
     0
  0
ATTDEF
  5
628BF
330
458D6
100
AcDbEntity
  8
ATTRIBUTES
100
AcDbText
 10
0.0984979619675901
 20
-1.185330362682033
 30
0.0
 40
0.0805203758744914
  1

100
AcDbAttributeDefinition
  3
FASTENER DATA?
  2
FASTENER
 70
     1
280
     0
  0
ATTDEF
  5
628C0
330
458D6
100
AcDbEntity
  8
ATTRIBUTES
100
AcDbText
 10
0.0984979619675901
 20
-1.35308114575389
 30
0.0
 40
0.0805203758744914
  1
INCH
100
AcDbAttributeDefinition
  3
UNIT OF SCALE?
  2
AC_SCALE_UNIT
 70
     1
280
     0
  0
ATTDEF
  5
628C1
330
458D6
100
AcDbEntity
  8
ATTRIBUTES
100
AcDbText
 10
0.0984979619675901
 20
-1.520831928825747
 30
0.0
 40
0.0805203758744914
  1
0
100
AcDbAttributeDefinition
  3
VIEW CODE?
  2
AC_VIEW_CODE
 70
     1
280
     0
  0
POLYLINE
  5
628C2
330
458D6
100
AcDbEntity
  8
0
100
AcDbPolygonMesh
 66
     1
 10
0.0
 20
0.0
 30
0.0
 70
    16
 71
     6
 72
     3
  0
VERTEX
  5
628C3
330
628C2
100
AcDbEntity
  8
0
100
AcDbVertex
100
AcDbPolygonMeshVertex
 10
0.3910000000000001
 20
-1.806
 30
1.318
 70
    64
  0
VERTEX
  5
628C4
330
628C2
100
AcDbEntity
  8
0
100
AcDbVertex
100
AcDbPolygonMeshVertex
 10
0.3910000000000001
 20
-1.806
 30
0.187
 70
    64
  0
VERTEX
  5
628C5
330
628C2
100
AcDbEntity
  8
0
100
AcDbVertex
100
AcDbPolygonMeshVertex
 10
0.3910000000000001
 20
-1.806
 30
0.187
 70
    64
  0
VERTEX
  5
628C6
330
628C2
100
AcDbEntity
  8
0
100
AcDbVertex
100
AcDbPolygonMeshVertex
 10
0.0000000000000001
 20
-1.806
 30
1.318
 70
    64
  0
VERTEX
  5
628C7
330
628C2
100
AcDbEntity
  8
0
100
AcDbVertex
100
AcDbPolygonMeshVertex
 10
0.0000000000000001
 20
-1.806
 30
0.187
 70
    64
  0
VERTEX
  5
628C8
330
628C2
100
AcDbEntity
  8
0
100
AcDbVertex
100
AcDbPolygonMeshVertex
 10
0.0000000000000001
 20
-1.806
 30
0.187
 70
    64
  0
VERTEX
  5
628C9
330
628C2
100
AcDbEntity
  8
0
100
AcDbVertex
100
AcDbPolygonMeshVertex
 10
0.0000000000000001
 20
0.4009999999999998
 30
1.318
 70
    64
  0
VERTEX
  5
628CA
330
628C2
100
AcDbEntity
  8
0
100
AcDbVertex
100
AcDbPolygonMeshVertex
 10
0.0000000000000001
 20
0.4009999999999998
 30
0.187
 70
    64
  0
VERTEX
  5
628CB
330
628C2
100
AcDbEntity
  8
0
100
AcDbVertex
100
AcDbPolygonMeshVertex
 10
0.0000000000000001
 20
-1.806
 30
0.187
 70
    64
  0
VERTEX
  5
628CC
330
628C2
100
AcDbEntity
  8
0
100
AcDbVertex
100
AcDbPolygonMeshVertex
 10
0.3910000000000001
 20
0.4009999999999998
 30
1.318
 70
    64
  0
VERTEX
  5
628CD
330
628C2
100
AcDbEntity
  8
0
100
AcDbVertex
100
AcDbPolygonMeshVertex
 10
0.3910000000000001
 20
0.4009999999999998
 30
0.187
 70
    64
  0
VERTEX
  5
628CE
330
628C2
100
AcDbEntity
  8
0
100
AcDbVertex
100
AcDbPolygonMeshVertex
 10
0.3910000000000001
 20
-1.806
 30
0.187
 70
    64
  0
VERTEX
  5
628CF
330
628C2
100
AcDbEntity
  8
0
100
AcDbVertex
100
AcDbPolygonMeshVertex
 10
0.3910000000000001
 20
0.4009999999999998
 30
1.318
 70
    64
  0
VERTEX
  5
628D0
330
628C2
100
AcDbEntity
  8
0
100
AcDbVertex
100
AcDbPolygonMeshVertex
 10
0.3910000000000001
 20
0.4009999999999998
 30
1.318
 70
    64
  0
VERTEX
  5
628D1
330
628C2
100
AcDbEntity
  8
0
100
AcDbVertex
100
AcDbPolygonMeshVertex
 10
0.3910000000000001
 20
-1.806
 30
1.318
 70
    64
  0
VERTEX
  5
628D2
330
628C2
100
AcDbEntity
  8
0
100
AcDbVertex
100
AcDbPolygonMeshVertex
 10
0.0000000000000001
 20
0.4009999999999998
 30
1.318
 70
    64
  0
VERTEX
  5
628D3
330
628C2
100
AcDbEntity
  8
0
100
AcDbVertex
100
AcDbPolygonMeshVertex
 10
0.0000000000000001
 20
0.4009999999999998
 30
1.318
 70
    64
  0
VERTEX
  5
628D4
330
628C2
100
AcDbEntity
  8
0
100
AcDbVertex
100
AcDbPolygonMeshVertex
 10
0.0000000000000001
 20
-1.806
 30
1.318
 70
    64
  0
SEQEND
  5
628D5
330
628C2
100
AcDbEntity
  8
0
  0
POLYLINE
  5
628D6
330
458D6
100
AcDbEntity
  8
0
100
AcDbPolygonMesh
 66
     1
 10
0.0
 20
0.0
 30
0.0
 70
    16
 71
     6
 72
     3
  0
VERTEX
  5
628D7
330
628D6
100
AcDbEntity
  8
0
100
AcDbVertex
100
AcDbPolygonMeshVertex
 10
1.759999999999999
 20
-2.089
 30
1.318
 70
    64
  0
VERTEX
  5
628D8
330
628D6
100
AcDbEntity
  8
0
100
AcDbVertex
100
AcDbPolygonMeshVertex
 10
1.759999999999999
 20
-2.089
 30
0.187
 70
    64
  0
VERTEX
  5
628D9
330
628D6
100
AcDbEntity
  8
0
100
AcDbVertex
100
AcDbPolygonMeshVertex
 10
1.759999999999999
 20
-2.089
 30
0.187
 70
    64
  0
VERTEX
  5
628DA
330
628D6
100
AcDbEntity
  8
0
100
AcDbVertex
100
AcDbPolygonMeshVertex
 10
1.368999999999999
 20
-2.089
 30
1.318
 70
    64
  0
VERTEX
  5
628DB
330
628D6
100
AcDbEntity
  8
0
100
AcDbVertex
100
AcDbPolygonMeshVertex
 10
1.368999999999999
 20
-2.089
 30
0.187
 70
    64
  0
VERTEX
  5
628DC
330
628D6
100
AcDbEntity
  8
0
100
AcDbVertex
100
AcDbPolygonMeshVertex
 10
1.368999999999999
 20
-2.089
 30
0.187
 70
    64
  0
VERTEX
  5
628DD
330
628D6
100
AcDbEntity
  8
0
100
AcDbVertex
100
AcDbPolygonMeshVertex
 10
1.368999999999999
 20
0.1179999999999994
 30
1.318
 70
    64
  0
VERTEX
  5
628DE
330
628D6
100
AcDbEntity
  8
0
100
AcDbVertex
100
AcDbPolygonMeshVertex
 10
1.368999999999999
 20
0.1179999999999994
 30
0.187
 70
    64
  0
VERTEX
  5
628DF
330
628D6
100
AcDbEntity
  8
0
100
AcDbVertex
100
AcDbPolygonMeshVertex
 10
1.368999999999999
 20
-2.089
 30
0.187
 70
    64
  0
VERTEX
  5
628E0
330
628D6
100
AcDbEntity
  8
0
100
AcDbVertex
100
AcDbPolygonMeshVertex
 10
1.759999999999999
 20
0.1179999999999994
 30
1.318
 70
    64
  0
VERTEX
  5
628E1
330
628D6
100
AcDbEntity
  8
0
100
AcDbVertex
100
AcDbPolygonMeshVertex
 10
1.759999999999999
 20
0.1179999999999994
 30
0.187
 70
    64
  0
VERTEX
  5
628E2
330
628D6
100
AcDbEntity
  8
0
100
AcDbVertex
100
AcDbPolygonMeshVertex
 10
1.759999999999999
 20
-2.089
 30
0.187
 70
    64
  0
VERTEX
  5
628E3
330
628D6
100
AcDbEntity
  8
0
100
AcDbVertex
100
AcDbPolygonMeshVertex
 10
1.759999999999999
 20
0.1179999999999994
 30
1.318
 70
    64
  0
VERTEX
  5
628E4
330
628D6
100
AcDbEntity
  8
0
100
AcDbVertex
100
AcDbPolygonMeshVertex
 10
1.759999999999999
 20
0.1179999999999994
 30
1.318
 70
    64
  0
VERTEX
  5
628E5
330
628D6
100
AcDbEntity
  8
0
100
AcDbVertex
100
AcDbPolygonMeshVertex
 10
1.759999999999999
 20
-2.089
 30
1.318
 70
    64
  0
VERTEX
  5
628E6
330
628D6
100
AcDbEntity
  8
0
100
AcDbVertex
100
AcDbPolygonMeshVertex
 10
1.368999999999999
 20
0.1179999999999994
 30
1.318
 70
    64
  0
VERTEX
  5
628E7
330
628D6
100
AcDbEntity
  8
0
100
AcDbVertex
100
AcDbPolygonMeshVertex
 10
1.368999999999999
 20
0.1179999999999994
 30
1.318
 70
    64
  0
VERTEX
  5
628E8
330
628D6
100
AcDbEntity
  8
0
100
AcDbVertex
100
AcDbPolygonMeshVertex
 10
1.368999999999999
 20
-2.089
 30
1.318
 70
    64
  0
SEQEND
  5
628E9
330
628D6
100
AcDbEntity
  8
0
  0
POLYLINE
  5
628EA
330
458D6
100
AcDbEntity
  8
0
100
AcDbPolygonMesh
 66
     1
 10
0.0
 20
0.0
 30
0.0
 70
    16
 71
     6
 72
     3
  0
VERTEX
  5
628EB
330
628EA
100
AcDbEntity
  8
0
100
AcDbVertex
100
AcDbPolygonMeshVertex
 10
1.368999999999999
 20
-2.089
 30
1.318
 70
    64
  0
VERTEX
  5
628EC
330
628EA
100
AcDbEntity
  8
0
100
AcDbVertex
100
AcDbPolygonMeshVertex
 10
1.368999999999999
 20
-2.089
 30
0.187
 70
    64
  0
VERTEX
  5
628ED
330
628EA
100
AcDbEntity
  8
0
100
AcDbVertex
100
AcDbPolygonMeshVertex
 10
1.368999999999999
 20
-2.089
 30
0.187
 70
    64
  0
VERTEX
  5
628EE
330
628EA
100
AcDbEntity
  8
0
100
AcDbVertex
100
AcDbPolygonMeshVertex
 10
0.3910000000000001
 20
-2.089
 30
1.318
 70
    64
  0
VERTEX
  5
628EF
330
628EA
100
AcDbEntity
  8
0
100
AcDbVertex
100
AcDbPolygonMeshVertex
 10
0.3910000000000001
 20
-2.089
 30
0.187
 70
    64
  0
VERTEX
  5
628F0
330
628EA
100
AcDbEntity
  8
0
100
AcDbVertex
100
AcDbPolygonMeshVertex
 10
0.3910000000000001
 20
-2.089
 30
0.187
 70
    64
  0
VERTEX
  5
628F1
330
628EA
100
AcDbEntity
  8
0
100
AcDbVertex
100
AcDbPolygonMeshVertex
 10
0.3910000000000001
 20
0.4009999999999998
 30
1.318
 70
    64
  0
VERTEX
  5
628F2
330
628EA
100
AcDbEntity
  8
0
100
AcDbVertex
100
AcDbPolygonMeshVertex
 10
0.3910000000000001
 20
0.4009999999999998
 30
0.187
 70
    64
  0
VERTEX
  5
628F3
330
628EA
100
AcDbEntity
  8
0
100
AcDbVertex
100
AcDbPolygonMeshVertex
 10
0.3910000000000001
 20
-2.089
 30
0.187
 70
    64
  0
VERTEX
  5
628F4
330
628EA
100
AcDbEntity
  8
0
100
AcDbVertex
100
AcDbPolygonMeshVertex
 10
1.368999999999999
 20
0.4009999999999998
 30
1.318
 70
    64
  0
VERTEX
  5
628F5
330
628EA
100
AcDbEntity
  8
0
100
AcDbVertex
100
AcDbPolygonMeshVertex
 10
1.368999999999999
 20
0.4009999999999998
 30
0.187
 70
    64
  0
VERTEX
  5
628F6
330
628EA
100
AcDbEntity
  8
0
100
AcDbVertex
100
AcDbPolygonMeshVertex
 10
1.368999999999999
 20
-2.089
 30
0.187
 70
    64
  0
VERTEX
  5
628F7
330
628EA
100
AcDbEntity
  8
0
100
AcDbVertex
100
AcDbPolygonMeshVertex
 10
1.368999999999999
 20
0.4009999999999998
 30
1.318
 70
    64
  0
VERTEX
  5
628F8
330
628EA
100
AcDbEntity
  8
0
100
AcDbVertex
100
AcDbPolygonMeshVertex
 10
1.368999999999999
 20
0.4009999999999998
 30
1.318
 70
    64
  0
VERTEX
  5
628F9
330
628EA
100
AcDbEntity
  8
0
100
AcDbVertex
100
AcDbPolygonMeshVertex
 10
1.368999999999999
 20
-2.089
 30
1.318
 70
    64
  0
VERTEX
  5
628FA
330
628EA
100
AcDbEntity
  8
0
100
AcDbVertex
100
AcDbPolygonMeshVertex
 10
0.3910000000000001
 20
0.4009999999999998
 30
1.318
 70
    64
  0
VERTEX
  5
628FB
330
628EA
100
AcDbEntity
  8
0
100
AcDbVertex
100
AcDbPolygonMeshVertex
 10
0.3910000000000001
 20
0.4009999999999998
 30
1.318
 70
    64
  0
VERTEX
  5
628FC
330
628EA
100
AcDbEntity
  8
0
100
AcDbVertex
100
AcDbPolygonMeshVertex
 10
0.3910000000000001
 20
-2.089
 30
1.318
 70
    64
  0
SEQEND
  5
628FD
330
628EA
100
AcDbEntity
  8
0
  0
POLYLINE
  5
628FE
330
458D6
100
AcDbEntity
  8
0
100
AcDbPolygonMesh
 66
     1
 10
0.0
 20
0.0
 30
0.0
 70
    16
 71
     6
 72
     3
  0
VERTEX
  5
628FF
330
628FE
100
AcDbEntity
  8
0
100
AcDbVertex
100
AcDbPolygonMeshVertex
 10
1.065499999999999
 20
0.654
 30
2.062
 70
    64
  0
VERTEX
  5
62900
330
628FE
100
AcDbEntity
  8
0
100
AcDbVertex
100
AcDbPolygonMeshVertex
 10
1.065499999999999
 20
0.654
 30
1.388
 70
    64
  0
VERTEX
  5
62901
330
628FE
100
AcDbEntity
  8
0
100
AcDbVertex
100
AcDbPolygonMeshVertex
 10
1.065499999999999
 20
0.654
 30
1.388
 70
    64
  0
VERTEX
  5
62902
330
628FE
100
AcDbEntity
  8
0
100
AcDbVertex
100
AcDbPolygonMeshVertex
 10
0.6944999999999997
 20
0.654
 30
2.062
 70
    64
  0
VERTEX
  5
62903
330
628FE
100
AcDbEntity
  8
0
100
AcDbVertex
100
AcDbPolygonMeshVertex
 10
0.6944999999999997
 20
0.654
 30
1.388
 70
    64
  0
VERTEX
  5
62904
330
628FE
100
AcDbEntity
  8
0
100
AcDbVertex
100
AcDbPolygonMeshVertex
 10
0.6944999999999997
 20
0.654
 30
1.388
 70
    64
  0
VERTEX
  5
62905
330
628FE
100
AcDbEntity
  8
0
100
AcDbVertex
100
AcDbPolygonMeshVertex
 10
0.6944999999999997
 20
0.4009999999999998
 30
2.062
 70
    64
  0
VERTEX
  5
62906
330
628FE
100
AcDbEntity
  8
0
100
AcDbVertex
100
AcDbPolygonMeshVertex
 10
0.6944999999999997
 20
0.4009999999999998
 30
1.388
 70
    64
  0
VERTEX
  5
62907
330
628FE
100
AcDbEntity
  8
0
100
AcDbVertex
100
AcDbPolygonMeshVertex
 10
0.6944999999999997
 20
0.654
 30
1.388
 70
    64
  0
VERTEX
  5
62908
330
628FE
100
AcDbEntity
  8
0
100
AcDbVertex
100
AcDbPolygonMeshVertex
 10
1.065499999999999
 20
0.4009999999999998
 30
2.062
 70
    64
  0
VERTEX
  5
62909
330
628FE
100
AcDbEntity
  8
0
100
AcDbVertex
100
AcDbPolygonMeshVertex
 10
1.065499999999999
 20
0.4009999999999998
 30
1.388
 70
    64
  0
VERTEX
  5
6290A
330
628FE
100
AcDbEntity
  8
0
100
AcDbVertex
100
AcDbPolygonMeshVertex
 10
1.065499999999999
 20
0.654
 30
1.388
 70
    64
  0
VERTEX
  5
6290B
330
628FE
100
AcDbEntity
  8
0
100
AcDbVertex
100
AcDbPolygonMeshVertex
 10
1.065499999999999
 20
0.4009999999999998
 30
2.062
 70
    64
  0
VERTEX
  5
6290C
330
628FE
100
AcDbEntity
  8
0
100
AcDbVertex
100
AcDbPolygonMeshVertex
 10
1.065499999999999
 20
0.4009999999999998
 30
2.062
 70
    64
  0
VERTEX
  5
6290D
330
628FE
100
AcDbEntity
  8
0
100
AcDbVertex
100
AcDbPolygonMeshVertex
 10
1.065499999999999
 20
0.654
 30
2.062
 70
    64
  0
VERTEX
  5
6290E
330
628FE
100
AcDbEntity
  8
0
100
AcDbVertex
100
AcDbPolygonMeshVertex
 10
0.6944999999999997
 20
0.4009999999999998
 30
2.062
 70
    64
  0
VERTEX
  5
6290F
330
628FE
100
AcDbEntity
  8
0
100
AcDbVertex
100
AcDbPolygonMeshVertex
 10
0.6944999999999997
 20
0.4009999999999998
 30
2.062
 70
    64
  0
VERTEX
  5
62910
330
628FE
100
AcDbEntity
  8
0
100
AcDbVertex
100
AcDbPolygonMeshVertex
 10
0.6944999999999997
 20
0.654
 30
2.062
 70
    64
  0
SEQEND
  5
62911
330
628FE
100
AcDbEntity
  8
0
  0
LINE
  5
62912
330
458D6
100
AcDbEntity
  8
0
100
AcDbLine
 10
1.58083333333333
 20
-2.089
 30
2.304
 11
1.58083333333333
 21
-2.089
 31
3.022999999999999
  0
LINE
  5
62913
330
458D6
100
AcDbEntity
  8
0
100
AcDbLine
 10
1.315833333333331
 20
-2.089
 30
2.304
 11
1.315833333333331
 21
-2.089
 31
3.022999999999999
  0
LINE
  5
62914
330
458D6
100
AcDbEntity
  8
0
100
AcDbLine
 10
1.58083333333333
 20
-2.089
 30
3.022999999999999
 11
1.315833333333331
 21
-2.089
 31
3.022999999999999
  0
LINE
  5
62915
330
458D6
100
AcDbEntity
  8
0
100
AcDbLine
 10
1.315833333333331
 20
-2.089
 30
2.304
 11
1.58083333333333
 21
-2.089
 31
2.304
  0
POLYLINE
  5
62916
330
458D6
100
AcDbEntity
  8
0
100
AcDbPolygonMesh
 66
     1
 10
0.0
 20
0.0
 30
0.0
 70
    16
 71
     6
 72
     3
  0
VERTEX
  5
62917
330
62916
100
AcDbEntity
  8
0
100
AcDbVertex
100
AcDbPolygonMeshVertex
 10
0.623333333333334
 20
-2.214
 30
3.022999999999999
 70
    64
  0
VERTEX
  5
62918
330
62916
100
AcDbEntity
  8
0
100
AcDbVertex
100
AcDbPolygonMeshVertex
 10
0.623333333333334
 20
-2.214
 30
2.304
 70
    64
  0
VERTEX
  5
62919
330
62916
100
AcDbEntity
  8
0
100
AcDbVertex
100
AcDbPolygonMeshVertex
 10
0.623333333333334
 20
-2.214
 30
2.304
 70
    64
  0
VERTEX
  5
6291A
330
62916
100
AcDbEntity
  8
0
100
AcDbVertex
100
AcDbPolygonMeshVertex
 10
0.5683333333333343
 20
-2.214
 30
3.022999999999999
 70
    64
  0
VERTEX
  5
6291B
330
62916
100
AcDbEntity
  8
0
100
AcDbVertex
100
AcDbPolygonMeshVertex
 10
0.5683333333333343
 20
-2.214
 30
2.304
 70
    64
  0
VERTEX
  5
6291C
330
62916
100
AcDbEntity
  8
0
100
AcDbVertex
100
AcDbPolygonMeshVertex
 10
0.5683333333333343
 20
-2.214
 30
2.304
 70
    64
  0
VERTEX
  5
6291D
330
62916
100
AcDbEntity
  8
0
100
AcDbVertex
100
AcDbPolygonMeshVertex
 10
0.5683333333333343
 20
-2.089
 30
3.022999999999999
 70
    64
  0
VERTEX
  5
6291E
330
62916
100
AcDbEntity
  8
0
100
AcDbVertex
100
AcDbPolygonMeshVertex
 10
0.5683333333333343
 20
-2.089
 30
2.304
 70
    64
  0
VERTEX
  5
6291F
330
62916
100
AcDbEntity
  8
0
100
AcDbVertex
100
AcDbPolygonMeshVertex
 10
0.5683333333333343
 20
-2.214
 30
2.304
 70
    64
  0
VERTEX
  5
62920
330
62916
100
AcDbEntity
  8
0
100
AcDbVertex
100
AcDbPolygonMeshVertex
 10
0.623333333333334
 20
-2.089
 30
3.022999999999999
 70
    64
  0
VERTEX
  5
62921
330
62916
100
AcDbEntity
  8
0
100
AcDbVertex
100
AcDbPolygonMeshVertex
 10
0.623333333333334
 20
-2.089
 30
2.304
 70
    64
  0
VERTEX
  5
62922
330
62916
100
AcDbEntity
  8
0
100
AcDbVertex
100
AcDbPolygonMeshVertex
 10
0.623333333333334
 20
-2.214
 30
2.304
 70
    64
  0
VERTEX
  5
62923
330
62916
100
AcDbEntity
  8
0
100
AcDbVertex
100
AcDbPolygonMeshVertex
 10
0.623333333333334
 20
-2.089
 30
3.022999999999999
 70
    64
  0
VERTEX
  5
62924
330
62916
100
AcDbEntity
  8
0
100
AcDbVertex
100
AcDbPolygonMeshVertex
 10
0.623333333333334
 20
-2.089
 30
3.022999999999999
 70
    64
  0
VERTEX
  5
62925
330
62916
100
AcDbEntity
  8
0
100
AcDbVertex
100
AcDbPolygonMeshVertex
 10
0.623333333333334
 20
-2.214
 30
3.022999999999999
 70
    64
  0
VERTEX
  5
62926
330
62916
100
AcDbEntity
  8
0
100
AcDbVertex
100
AcDbPolygonMeshVertex
 10
0.5683333333333343
 20
-2.089
 30
3.022999999999999
 70
    64
  0
VERTEX
  5
62927
330
62916
100
AcDbEntity
  8
0
100
AcDbVertex
100
AcDbPolygonMeshVertex
 10
0.5683333333333343
 20
-2.089
 30
3.022999999999999
 70
    64
  0
VERTEX
  5
62928
330
62916
100
AcDbEntity
  8
0
100
AcDbVertex
100
AcDbPolygonMeshVertex
 10
0.5683333333333343
 20
-2.214
 30
3.022999999999999
 70
    64
  0
SEQEND
  5
62929
330
62916
100
AcDbEntity
  8
0
  0
POLYLINE
  5
6292A
330
458D6
100
AcDbEntity
  8
0
100
AcDbPolygonMesh
 66
     1
 10
0.0
 20
0.0
 30
0.0
 70
    16
 71
     6
 72
     3
  0
VERTEX
  5
6292B
330
6292A
100
AcDbEntity
  8
0
100
AcDbVertex
100
AcDbPolygonMeshVertex
 10
1.191666666666665
 20
-2.214
 30
3.022999999999999
 70
    64
  0
VERTEX
  5
6292C
330
6292A
100
AcDbEntity
  8
0
100
AcDbVertex
100
AcDbPolygonMeshVertex
 10
1.191666666666665
 20
-2.214
 30
2.304
 70
    64
  0
VERTEX
  5
6292D
330
6292A
100
AcDbEntity
  8
0
100
AcDbVertex
100
AcDbPolygonMeshVertex
 10
1.191666666666665
 20
-2.214
 30
2.304
 70
    64
  0
VERTEX
  5
6292E
330
6292A
100
AcDbEntity
  8
0
100
AcDbVertex
100
AcDbPolygonMeshVertex
 10
1.136666666666665
 20
-2.214
 30
3.022999999999999
 70
    64
  0
VERTEX
  5
6292F
330
6292A
100
AcDbEntity
  8
0
100
AcDbVertex
100
AcDbPolygonMeshVertex
 10
1.136666666666665
 20
-2.214
 30
2.304
 70
    64
  0
VERTEX
  5
62930
330
6292A
100
AcDbEntity
  8
0
100
AcDbVertex
100
AcDbPolygonMeshVertex
 10
1.136666666666665
 20
-2.214
 30
2.304
 70
    64
  0
VERTEX
  5
62931
330
6292A
100
AcDbEntity
  8
0
100
AcDbVertex
100
AcDbPolygonMeshVertex
 10
1.136666666666665
 20
-2.089
 30
3.022999999999999
 70
    64
  0
VERTEX
  5
62932
330
6292A
100
AcDbEntity
  8
0
100
AcDbVertex
100
AcDbPolygonMeshVertex
 10
1.136666666666665
 20
-2.089
 30
2.304
 70
    64
  0
VERTEX
  5
62933
330
6292A
100
AcDbEntity
  8
0
100
AcDbVertex
100
AcDbPolygonMeshVertex
 10
1.136666666666665
 20
-2.214
 30
2.304
 70
    64
  0
VERTEX
  5
62934
330
6292A
100
AcDbEntity
  8
0
100
AcDbVertex
100
AcDbPolygonMeshVertex
 10
1.191666666666665
 20
-2.089
 30
3.022999999999999
 70
    64
  0
VERTEX
  5
62935
330
6292A
100
AcDbEntity
  8
0
100
AcDbVertex
100
AcDbPolygonMeshVertex
 10
1.191666666666665
 20
-2.089
 30
2.304
 70
    64
  0
VERTEX
  5
62936
330
6292A
100
AcDbEntity
  8
0
100
AcDbVertex
100
AcDbPolygonMeshVertex
 10
1.191666666666665
 20
-2.214
 30
2.304
 70
    64
  0
VERTEX
  5
62937
330
6292A
100
AcDbEntity
  8
0
100
AcDbVertex
100
AcDbPolygonMeshVertex
 10
1.191666666666665
 20
-2.089
 30
3.022999999999999
 70
    64
  0
VERTEX
  5
62938
330
6292A
100
AcDbEntity
  8
0
100
AcDbVertex
100
AcDbPolygonMeshVertex
 10
1.191666666666665
 20
-2.089
 30
3.022999999999999
 70
    64
  0
VERTEX
  5
62939
330
6292A
100
AcDbEntity
  8
0
100
AcDbVertex
100
AcDbPolygonMeshVertex
 10
1.191666666666665
 20
-2.214
 30
3.022999999999999
 70
    64
  0
VERTEX
  5
6293A
330
6292A
100
AcDbEntity
  8
0
100
AcDbVertex
100
AcDbPolygonMeshVertex
 10
1.136666666666665
 20
-2.089
 30
3.022999999999999
 70
    64
  0
VERTEX
  5
6293B
330
6292A
100
AcDbEntity
  8
0
100
AcDbVertex
100
AcDbPolygonMeshVertex
 10
1.136666666666665
 20
-2.089
 30
3.022999999999999
 70
    64
  0
VERTEX
  5
6293C
330
6292A
100
AcDbEntity
  8
0
100
AcDbVertex
100
AcDbPolygonMeshVertex
 10
1.136666666666665
 20
-2.214
 30
3.022999999999999
 70
    64
  0
SEQEND
  5
6293D
330
6292A
100
AcDbEntity
  8
0
  0
LINE
  5
6293E
330
458D6
100
AcDbEntity
  8
0
100
AcDbLine
 10
1.58083333333333
 20
-2.089
 30
2.663499999999999
 11
1.315833333333331
 21
-2.089
 31
2.663499999999999
  0
POLYLINE
  5
6293F
330
458D6
100
AcDbEntity
  8
0
100
AcDbPolygonMesh
 66
     1
 10
0.0
 20
0.0
 30
0.0
 70
    16
 71
     6
 72
     3
  0
VERTEX
  5
62940
330
6293F
100
AcDbEntity
  8
0
100
AcDbVertex
100
AcDbPolygonMeshVertex
 10
1.759999999999996
 20
-2.214
 30
3.022999999999999
 70
    64
  0
VERTEX
  5
62941
330
6293F
100
AcDbEntity
  8
0
100
AcDbVertex
100
AcDbPolygonMeshVertex
 10
1.759999999999996
 20
-2.214
 30
1.652
 70
    64
  0
VERTEX
  5
62942
330
6293F
100
AcDbEntity
  8
0
100
AcDbVertex
100
AcDbPolygonMeshVertex
 10
1.759999999999996
 20
-2.214
 30
1.652
 70
    64
  0
VERTEX
  5
62943
330
6293F
100
AcDbEntity
  8
0
100
AcDbVertex
100
AcDbPolygonMeshVertex
 10
1.704999999999996
 20
-2.214
 30
3.022999999999999
 70
    64
  0
VERTEX
  5
62944
330
6293F
100
AcDbEntity
  8
0
100
AcDbVertex
100
AcDbPolygonMeshVertex
 10
1.704999999999996
 20
-2.214
 30
1.652
 70
    64
  0
VERTEX
  5
62945
330
6293F
100
AcDbEntity
  8
0
100
AcDbVertex
100
AcDbPolygonMeshVertex
 10
1.704999999999996
 20
-2.214
 30
1.652
 70
    64
  0
VERTEX
  5
62946
330
6293F
100
AcDbEntity
  8
0
100
AcDbVertex
100
AcDbPolygonMeshVertex
 10
1.704999999999996
 20
-2.089
 30
3.022999999999999
 70
    64
  0
VERTEX
  5
62947
330
6293F
100
AcDbEntity
  8
0
100
AcDbVertex
100
AcDbPolygonMeshVertex
 10
1.704999999999996
 20
-2.089
 30
1.652
 70
    64
  0
VERTEX
  5
62948
330
6293F
100
AcDbEntity
  8
0
100
AcDbVertex
100
AcDbPolygonMeshVertex
 10
1.704999999999996
 20
-2.214
 30
1.652
 70
    64
  0
VERTEX
  5
62949
330
6293F
100
AcDbEntity
  8
0
100
AcDbVertex
100
AcDbPolygonMeshVertex
 10
1.759999999999996
 20
-2.089
 30
3.022999999999999
 70
    64
  0
VERTEX
  5
6294A
330
6293F
100
AcDbEntity
  8
0
100
AcDbVertex
100
AcDbPolygonMeshVertex
 10
1.759999999999996
 20
-2.089
 30
1.652
 70
    64
  0
VERTEX
  5
6294B
330
6293F
100
AcDbEntity
  8
0
100
AcDbVertex
100
AcDbPolygonMeshVertex
 10
1.759999999999996
 20
-2.214
 30
1.652
 70
    64
  0
VERTEX
  5
6294C
330
6293F
100
AcDbEntity
  8
0
100
AcDbVertex
100
AcDbPolygonMeshVertex
 10
1.759999999999996
 20
-2.089
 30
3.022999999999999
 70
    64
  0
VERTEX
  5
6294D
330
6293F
100
AcDbEntity
  8
0
100
AcDbVertex
100
AcDbPolygonMeshVertex
 10
1.759999999999996
 20
-2.089
 30
3.022999999999999
 70
    64
  0
VERTEX
  5
6294E
330
6293F
100
AcDbEntity
  8
0
100
AcDbVertex
100
AcDbPolygonMeshVertex
 10
1.759999999999996
 20
-2.214
 30
3.022999999999999
 70
    64
  0
VERTEX
  5
6294F
330
6293F
100
AcDbEntity
  8
0
100
AcDbVertex
100
AcDbPolygonMeshVertex
 10
1.704999999999996
 20
-2.089
 30
3.022999999999999
 70
    64
  0
VERTEX
  5
62950
330
6293F
100
AcDbEntity
  8
0
100
AcDbVertex
100
AcDbPolygonMeshVertex
 10
1.704999999999996
 20
-2.089
 30
3.022999999999999
 70
    64
  0
VERTEX
  5
62951
330
6293F
100
AcDbEntity
  8
0
100
AcDbVertex
100
AcDbPolygonMeshVertex
 10
1.704999999999996
 20
-2.214
 30
3.022999999999999
 70
    64
  0
SEQEND
  5
62952
330
6293F
100
AcDbEntity
  8
0
  0
POLYLINE
  5
62953
330
458D6
100
AcDbEntity
  8
0
100
AcDbPolygonMesh
 66
     1
 10
0.0
 20
0.0
 30
0.0
 70
    16
 71
     6
 72
     3
  0
VERTEX
  5
62954
330
62953
100
AcDbEntity
  8
0
100
AcDbVertex
100
AcDbPolygonMeshVertex
 10
0.0000000000000036
 20
-2.214
 30
3.022999999999999
 70
    64
  0
VERTEX
  5
62955
330
62953
100
AcDbEntity
  8
0
100
AcDbVertex
100
AcDbPolygonMeshVertex
 10
0.0000000000000036
 20
-2.214
 30
1.652
 70
    64
  0
VERTEX
  5
62956
330
62953
100
AcDbEntity
  8
0
100
AcDbVertex
100
AcDbPolygonMeshVertex
 10
0.0000000000000036
 20
-2.214
 30
1.652
 70
    64
  0
VERTEX
  5
62957
330
62953
100
AcDbEntity
  8
0
100
AcDbVertex
100
AcDbPolygonMeshVertex
 10
0.0550000000000033
 20
-2.214
 30
3.022999999999999
 70
    64
  0
VERTEX
  5
62958
330
62953
100
AcDbEntity
  8
0
100
AcDbVertex
100
AcDbPolygonMeshVertex
 10
0.0550000000000033
 20
-2.214
 30
1.652
 70
    64
  0
VERTEX
  5
62959
330
62953
100
AcDbEntity
  8
0
100
AcDbVertex
100
AcDbPolygonMeshVertex
 10
0.0550000000000033
 20
-2.214
 30
1.652
 70
    64
  0
VERTEX
  5
6295A
330
62953
100
AcDbEntity
  8
0
100
AcDbVertex
100
AcDbPolygonMeshVertex
 10
0.0550000000000033
 20
-2.089
 30
3.022999999999999
 70
    64
  0
VERTEX
  5
6295B
330
62953
100
AcDbEntity
  8
0
100
AcDbVertex
100
AcDbPolygonMeshVertex
 10
0.0550000000000033
 20
-2.089
 30
1.652
 70
    64
  0
VERTEX
  5
6295C
330
62953
100
AcDbEntity
  8
0
100
AcDbVertex
100
AcDbPolygonMeshVertex
 10
0.0550000000000033
 20
-2.214
 30
1.652
 70
    64
  0
VERTEX
  5
6295D
330
62953
100
AcDbEntity
  8
0
100
AcDbVertex
100
AcDbPolygonMeshVertex
 10
0.0000000000000036
 20
-2.089
 30
3.022999999999999
 70
    64
  0
VERTEX
  5
6295E
330
62953
100
AcDbEntity
  8
0
100
AcDbVertex
100
AcDbPolygonMeshVertex
 10
0.0000000000000036
 20
-2.089
 30
1.652
 70
    64
  0
VERTEX
  5
6295F
330
62953
100
AcDbEntity
  8
0
100
AcDbVertex
100
AcDbPolygonMeshVertex
 10
0.0000000000000036
 20
-2.214
 30
1.652
 70
    64
  0
VERTEX
  5
62960
330
62953
100
AcDbEntity
  8
0
100
AcDbVertex
100
AcDbPolygonMeshVertex
 10
0.0000000000000036
 20
-2.089
 30
3.022999999999999
 70
    64
  0
VERTEX
  5
62961
330
62953
100
AcDbEntity
  8
0
100
AcDbVertex
100
AcDbPolygonMeshVertex
 10
0.0000000000000036
 20
-2.089
 30
3.022999999999999
 70
    64
  0
VERTEX
  5
62962
330
62953
100
AcDbEntity
  8
0
100
AcDbVertex
100
AcDbPolygonMeshVertex
 10
0.0000000000000036
 20
-2.214
 30
3.022999999999999
 70
    64
  0
VERTEX
  5
62963
330
62953
100
AcDbEntity
  8
0
100
AcDbVertex
100
AcDbPolygonMeshVertex
 10
0.0550000000000033
 20
-2.089
 30
3.022999999999999
 70
    64
  0
VERTEX
  5
62964
330
62953
100
AcDbEntity
  8
0
100
AcDbVertex
100
AcDbPolygonMeshVertex
 10
0.0550000000000033
 20
-2.089
 30
3.022999999999999
 70
    64
  0
VERTEX
  5
62965
330
62953
100
AcDbEntity
  8
0
100
AcDbVertex
100
AcDbPolygonMeshVertex
 10
0.0550000000000033
 20
-2.214
 30
3.022999999999999
 70
    64
  0
SEQEND
  5
62966
330
62953
100
AcDbEntity
  8
0
  0
LINE
  5
62967
330
458D6
100
AcDbEntity
  8
0
100
AcDbLine
 10
0.7475000000000005
 20
-2.089
 30
2.304
 11
0.7475000000000005
 21
-2.089
 31
3.022999999999999
  0
LINE
  5
62968
330
458D6
100
AcDbEntity
  8
0
100
AcDbLine
 10
1.0125
 20
-2.089
 30
2.304
 11
1.0125
 21
-2.089
 31
3.022999999999999
  0
LINE
  5
62969
330
458D6
100
AcDbEntity
  8
0
100
AcDbLine
 10
1.0125
 20
-2.089
 30
2.663499999999999
 11
0.7475000000000005
 21
-2.089
 31
2.663499999999999
  0
LINE
  5
6296A
330
458D6
100
AcDbEntity
  8
0
100
AcDbLine
 10
1.0125
 20
-2.089
 30
3.022999999999999
 11
0.7475000000000005
 21
-2.089
 31
3.022999999999999
  0
LINE
  5
6296B
330
458D6
100
AcDbEntity
  8
0
100
AcDbLine
 10
0.7475000000000005
 20
-2.089
 30
2.304
 11
1.0125
 21
-2.089
 31
2.304
  0
LINE
  5
6296C
330
458D6
100
AcDbEntity
  8
0
100
AcDbLine
 10
0.179166666666669
 20
-2.119
 30
2.304
 11
0.179166666666669
 21
-2.119
 31
3.022999999999999
  0
LINE
  5
6296D
330
458D6
100
AcDbEntity
  8
0
100
AcDbLine
 10
0.4441666666666687
 20
-2.089
 30
2.304
 11
0.4441666666666687
 21
-2.089
 31
3.022999999999999
  0
LINE
  5
6296E
330
458D6
100
AcDbEntity
  8
0
100
AcDbLine
 10
0.179166666666669
 20
-2.089
 30
2.304
 11
0.4441666666666687
 21
-2.089
 31
2.304
  0
LINE
  5
6296F
330
458D6
100
AcDbEntity
  8
0
100
AcDbLine
 10
0.4441666666666687
 20
-2.089
 30
2.663499999999999
 11
0.179166666666669
 21
-2.089
 31
2.663499999999999
  0
LINE
  5
62970
330
458D6
100
AcDbEntity
  8
0
100
AcDbLine
 10
0.4441666666666687
 20
-2.089
 30
3.022999999999999
 11
0.179166666666669
 21
-2.089
 31
3.022999999999999
  0
POLYLINE
  5
62971
330
458D6
100
AcDbEntity
  8
0
100
AcDbPolygonMesh
 66
     1
 10
0.0
 20
0.0
 30
0.0
 70
    16
 71
     6
 72
     3
  0
VERTEX
  5
62972
330
62971
100
AcDbEntity
  8
0
100
AcDbVertex
100
AcDbPolygonMeshVertex
 10
1.759999999999996
 20
0.5259999999999998
 30
3.022999999999999
 70
    64
  0
VERTEX
  5
62973
330
62971
100
AcDbEntity
  8
0
100
AcDbVertex
100
AcDbPolygonMeshVertex
 10
1.759999999999996
 20
0.5259999999999998
 30
1.652
 70
    64
  0
VERTEX
  5
62974
330
62971
100
AcDbEntity
  8
0
100
AcDbVertex
100
AcDbPolygonMeshVertex
 10
1.759999999999996
 20
0.5259999999999998
 30
1.652
 70
    64
  0
VERTEX
  5
62975
330
62971
100
AcDbEntity
  8
0
100
AcDbVertex
100
AcDbPolygonMeshVertex
 10
1.704999999999996
 20
0.5259999999999998
 30
3.022999999999999
 70
    64
  0
VERTEX
  5
62976
330
62971
100
AcDbEntity
  8
0
100
AcDbVertex
100
AcDbPolygonMeshVertex
 10
1.704999999999996
 20
0.5259999999999998
 30
1.652
 70
    64
  0
VERTEX
  5
62977
330
62971
100
AcDbEntity
  8
0
100
AcDbVertex
100
AcDbPolygonMeshVertex
 10
1.704999999999996
 20
0.5259999999999998
 30
1.652
 70
    64
  0
VERTEX
  5
62978
330
62971
100
AcDbEntity
  8
0
100
AcDbVertex
100
AcDbPolygonMeshVertex
 10
1.704999999999996
 20
0.4009999999999998
 30
3.022999999999999
 70
    64
  0
VERTEX
  5
62979
330
62971
100
AcDbEntity
  8
0
100
AcDbVertex
100
AcDbPolygonMeshVertex
 10
1.704999999999996
 20
0.4009999999999998
 30
1.652
 70
    64
  0
VERTEX
  5
6297A
330
62971
100
AcDbEntity
  8
0
100
AcDbVertex
100
AcDbPolygonMeshVertex
 10
1.704999999999996
 20
0.5259999999999998
 30
1.652
 70
    64
  0
VERTEX
  5
6297B
330
62971
100
AcDbEntity
  8
0
100
AcDbVertex
100
AcDbPolygonMeshVertex
 10
1.759999999999996
 20
0.4009999999999998
 30
3.022999999999999
 70
    64
  0
VERTEX
  5
6297C
330
62971
100
AcDbEntity
  8
0
100
AcDbVertex
100
AcDbPolygonMeshVertex
 10
1.759999999999996
 20
0.4009999999999998
 30
1.652
 70
    64
  0
VERTEX
  5
6297D
330
62971
100
AcDbEntity
  8
0
100
AcDbVertex
100
AcDbPolygonMeshVertex
 10
1.759999999999996
 20
0.5259999999999998
 30
1.652
 70
    64
  0
VERTEX
  5
6297E
330
62971
100
AcDbEntity
  8
0
100
AcDbVertex
100
AcDbPolygonMeshVertex
 10
1.759999999999996
 20
0.4009999999999998
 30
3.022999999999999
 70
    64
  0
VERTEX
  5
6297F
330
62971
100
AcDbEntity
  8
0
100
AcDbVertex
100
AcDbPolygonMeshVertex
 10
1.759999999999996
 20
0.4009999999999998
 30
3.022999999999999
 70
    64
  0
VERTEX
  5
62980
330
62971
100
AcDbEntity
  8
0
100
AcDbVertex
100
AcDbPolygonMeshVertex
 10
1.759999999999996
 20
0.5259999999999998
 30
3.022999999999999
 70
    64
  0
VERTEX
  5
62981
330
62971
100
AcDbEntity
  8
0
100
AcDbVertex
100
AcDbPolygonMeshVertex
 10
1.704999999999996
 20
0.4009999999999998
 30
3.022999999999999
 70
    64
  0
VERTEX
  5
62982
330
62971
100
AcDbEntity
  8
0
100
AcDbVertex
100
AcDbPolygonMeshVertex
 10
1.704999999999996
 20
0.4009999999999998
 30
3.022999999999999
 70
    64
  0
VERTEX
  5
62983
330
62971
100
AcDbEntity
  8
0
100
AcDbVertex
100
AcDbPolygonMeshVertex
 10
1.704999999999996
 20
0.5259999999999998
 30
3.022999999999999
 70
    64
  0
SEQEND
  5
62984
330
62971
100
AcDbEntity
  8
0
  0
POLYLINE
  5
62985
330
458D6
100
AcDbEntity
  8
0
100
AcDbPolygonMesh
 66
     1
 10
0.0
 20
0.0
 30
0.0
 70
    16
 71
     6
 72
     3
  0
VERTEX
  5
62986
330
62985
100
AcDbEntity
  8
0
100
AcDbVertex
100
AcDbPolygonMeshVertex
 10
1.191666666666665
 20
0.5259999999999998
 30
3.022999999999999
 70
    64
  0
VERTEX
  5
62987
330
62985
100
AcDbEntity
  8
0
100
AcDbVertex
100
AcDbPolygonMeshVertex
 10
1.191666666666665
 20
0.5259999999999998
 30
2.304
 70
    64
  0
VERTEX
  5
62988
330
62985
100
AcDbEntity
  8
0
100
AcDbVertex
100
AcDbPolygonMeshVertex
 10
1.191666666666665
 20
0.5259999999999998
 30
2.304
 70
    64
  0
VERTEX
  5
62989
330
62985
100
AcDbEntity
  8
0
100
AcDbVertex
100
AcDbPolygonMeshVertex
 10
1.136666666666665
 20
0.5259999999999998
 30
3.022999999999999
 70
    64
  0
VERTEX
  5
6298A
330
62985
100
AcDbEntity
  8
0
100
AcDbVertex
100
AcDbPolygonMeshVertex
 10
1.136666666666665
 20
0.5259999999999998
 30
2.304
 70
    64
  0
VERTEX
  5
6298B
330
62985
100
AcDbEntity
  8
0
100
AcDbVertex
100
AcDbPolygonMeshVertex
 10
1.136666666666665
 20
0.5259999999999998
 30
2.304
 70
    64
  0
VERTEX
  5
6298C
330
62985
100
AcDbEntity
  8
0
100
AcDbVertex
100
AcDbPolygonMeshVertex
 10
1.136666666666665
 20
0.4009999999999998
 30
3.022999999999999
 70
    64
  0
VERTEX
  5
6298D
330
62985
100
AcDbEntity
  8
0
100
AcDbVertex
100
AcDbPolygonMeshVertex
 10
1.136666666666665
 20
0.4009999999999998
 30
2.304
 70
    64
  0
VERTEX
  5
6298E
330
62985
100
AcDbEntity
  8
0
100
AcDbVertex
100
AcDbPolygonMeshVertex
 10
1.136666666666665
 20
0.5259999999999998
 30
2.304
 70
    64
  0
VERTEX
  5
6298F
330
62985
100
AcDbEntity
  8
0
100
AcDbVertex
100
AcDbPolygonMeshVertex
 10
1.191666666666665
 20
0.4009999999999998
 30
3.022999999999999
 70
    64
  0
VERTEX
  5
62990
330
62985
100
AcDbEntity
  8
0
100
AcDbVertex
100
AcDbPolygonMeshVertex
 10
1.191666666666665
 20
0.4009999999999998
 30
2.304
 70
    64
  0
VERTEX
  5
62991
330
62985
100
AcDbEntity
  8
0
100
AcDbVertex
100
AcDbPolygonMeshVertex
 10
1.191666666666665
 20
0.5259999999999998
 30
2.304
 70
    64
  0
VERTEX
  5
62992
330
62985
100
AcDbEntity
  8
0
100
AcDbVertex
100
AcDbPolygonMeshVertex
 10
1.191666666666665
 20
0.4009999999999998
 30
3.022999999999999
 70
    64
  0
VERTEX
  5
62993
330
62985
100
AcDbEntity
  8
0
100
AcDbVertex
100
AcDbPolygonMeshVertex
 10
1.191666666666665
 20
0.4009999999999998
 30
3.022999999999999
 70
    64
  0
VERTEX
  5
62994
330
62985
100
AcDbEntity
  8
0
100
AcDbVertex
100
AcDbPolygonMeshVertex
 10
1.191666666666665
 20
0.5259999999999998
 30
3.022999999999999
 70
    64
  0
VERTEX
  5
62995
330
62985
100
AcDbEntity
  8
0
100
AcDbVertex
100
AcDbPolygonMeshVertex
 10
1.136666666666665
 20
0.4009999999999998
 30
3.022999999999999
 70
    64
  0
VERTEX
  5
62996
330
62985
100
AcDbEntity
  8
0
100
AcDbVertex
100
AcDbPolygonMeshVertex
 10
1.136666666666665
 20
0.4009999999999998
 30
3.022999999999999
 70
    64
  0
VERTEX
  5
62997
330
62985
100
AcDbEntity
  8
0
100
AcDbVertex
100
AcDbPolygonMeshVertex
 10
1.136666666666665
 20
0.5259999999999998
 30
3.022999999999999
 70
    64
  0
SEQEND
  5
62998
330
62985
100
AcDbEntity
  8
0
  0
LINE
  5
62999
330
458D6
100
AcDbEntity
  8
0
100
AcDbLine
 10
1.0125
 20
0.4009999999999998
 30
2.304
 11
1.0125
 21
0.4009999999999998
 31
3.022999999999999
  0
LINE
  5
6299A
330
458D6
100
AcDbEntity
  8
0
100
AcDbLine
 10
1.315833333333331
 20
0.4009999999999998
 30
2.304
 11
1.315833333333331
 21
0.4009999999999998
 31
3.022999999999999
  0
LINE
  5
6299B
330
458D6
100
AcDbEntity
  8
0
100
AcDbLine
 10
1.58083333333333
 20
0.4009999999999998
 30
2.304
 11
1.58083333333333
 21
0.4009999999999998
 31
3.022999999999999
  0
LINE
  5
6299C
330
458D6
100
AcDbEntity
  8
0
100
AcDbLine
 10
1.315833333333331
 20
0.4009999999999998
 30
2.304
 11
1.58083333333333
 21
0.4009999999999998
 31
2.304
  0
LINE
  5
6299D
330
458D6
100
AcDbEntity
  8
0
100
AcDbLine
 10
1.58083333333333
 20
0.4009999999999998
 30
2.663499999999999
 11
1.315833333333331
 21
0.4009999999999998
 31
2.663499999999999
  0
LINE
  5
6299E
330
458D6
100
AcDbEntity
  8
0
100
AcDbLine
 10
1.58083333333333
 20
0.4009999999999998
 30
3.022999999999999
 11
1.315833333333331
 21
0.4009999999999998
 31
3.022999999999999
  0
LINE
  5
6299F
330
458D6
100
AcDbEntity
  8
0
100
AcDbLine
 10
0.7475000000000005
 20
0.4009999999999998
 30
2.304
 11
0.7475000000000005
 21
0.4009999999999998
 31
3.022999999999999
  0
LINE
  5
629A0
330
458D6
100
AcDbEntity
  8
0
100
AcDbLine
 10
0.7475000000000005
 20
0.4009999999999998
 30
2.304
 11
1.0125
 21
0.4009999999999998
 31
2.304
  0
LINE
  5
629A1
330
458D6
100
AcDbEntity
  8
0
100
AcDbLine
 10
1.0125
 20
0.4009999999999998
 30
2.663499999999999
 11
0.7475000000000005
 21
0.4009999999999998
 31
2.663499999999999
  0
LINE
  5
629A2
330
458D6
100
AcDbEntity
  8
0
100
AcDbLine
 10
0.4441666666666687
 20
0.4009999999999998
 30
2.663499999999999
 11
0.179166666666669
 21
0.4009999999999998
 31
2.663499999999999
  0
LINE
  5
629A3
330
458D6
100
AcDbEntity
  8
0
100
AcDbLine
 10
1.0125
 20
0.4009999999999998
 30
3.022999999999999
 11
0.7475000000000005
 21
0.4009999999999998
 31
3.022999999999999
  0
LINE
  5
629A4
330
458D6
100
AcDbEntity
  8
0
100
AcDbLine
 10
0.4441666666666687
 20
0.4009999999999998
 30
3.022999999999999
 11
0.179166666666669
 21
0.4009999999999998
 31
3.022999999999999
  0
POLYLINE
  5
629A5
330
458D6
100
AcDbEntity
  8
0
100
AcDbPolygonMesh
 66
     1
 10
0.0
 20
0.0
 30
0.0
 70
    16
 71
     6
 72
     3
  0
VERTEX
  5
629A6
330
629A5
100
AcDbEntity
  8
0
100
AcDbVertex
100
AcDbPolygonMeshVertex
 10
0.623333333333334
 20
0.5259999999999998
 30
3.022999999999999
 70
    64
  0
VERTEX
  5
629A7
330
629A5
100
AcDbEntity
  8
0
100
AcDbVertex
100
AcDbPolygonMeshVertex
 10
0.623333333333334
 20
0.5259999999999998
 30
2.304
 70
    64
  0
VERTEX
  5
629A8
330
629A5
100
AcDbEntity
  8
0
100
AcDbVertex
100
AcDbPolygonMeshVertex
 10
0.623333333333334
 20
0.5259999999999998
 30
2.304
 70
    64
  0
VERTEX
  5
629A9
330
629A5
100
AcDbEntity
  8
0
100
AcDbVertex
100
AcDbPolygonMeshVertex
 10
0.5683333333333343
 20
0.5259999999999998
 30
3.022999999999999
 70
    64
  0
VERTEX
  5
629AA
330
629A5
100
AcDbEntity
  8
0
100
AcDbVertex
100
AcDbPolygonMeshVertex
 10
0.5683333333333343
 20
0.5259999999999998
 30
2.304
 70
    64
  0
VERTEX
  5
629AB
330
629A5
100
AcDbEntity
  8
0
100
AcDbVertex
100
AcDbPolygonMeshVertex
 10
0.5683333333333343
 20
0.5259999999999998
 30
2.304
 70
    64
  0
VERTEX
  5
629AC
330
629A5
100
AcDbEntity
  8
0
100
AcDbVertex
100
AcDbPolygonMeshVertex
 10
0.5683333333333343
 20
0.4009999999999998
 30
3.022999999999999
 70
    64
  0
VERTEX
  5
629AD
330
629A5
100
AcDbEntity
  8
0
100
AcDbVertex
100
AcDbPolygonMeshVertex
 10
0.5683333333333343
 20
0.4009999999999998
 30
2.304
 70
    64
  0
VERTEX
  5
629AE
330
629A5
100
AcDbEntity
  8
0
100
AcDbVertex
100
AcDbPolygonMeshVertex
 10
0.5683333333333343
 20
0.5259999999999998
 30
2.304
 70
    64
  0
VERTEX
  5
629AF
330
629A5
100
AcDbEntity
  8
0
100
AcDbVertex
100
AcDbPolygonMeshVertex
 10
0.623333333333334
 20
0.4009999999999998
 30
3.022999999999999
 70
    64
  0
VERTEX
  5
629B0
330
629A5
100
AcDbEntity
  8
0
100
AcDbVertex
100
AcDbPolygonMeshVertex
 10
0.623333333333334
 20
0.4009999999999998
 30
2.304
 70
    64
  0
VERTEX
  5
629B1
330
629A5
100
AcDbEntity
  8
0
100
AcDbVertex
100
AcDbPolygonMeshVertex
 10
0.623333333333334
 20
0.5259999999999998
 30
2.304
 70
    64
  0
VERTEX
  5
629B2
330
629A5
100
AcDbEntity
  8
0
100
AcDbVertex
100
AcDbPolygonMeshVertex
 10
0.623333333333334
 20
0.4009999999999998
 30
3.022999999999999
 70
    64
  0
VERTEX
  5
629B3
330
629A5
100
AcDbEntity
  8
0
100
AcDbVertex
100
AcDbPolygonMeshVertex
 10
0.623333333333334
 20
0.4009999999999998
 30
3.022999999999999
 70
    64
  0
VERTEX
  5
629B4
330
629A5
100
AcDbEntity
  8
0
100
AcDbVertex
100
AcDbPolygonMeshVertex
 10
0.623333333333334
 20
0.5259999999999998
 30
3.022999999999999
 70
    64
  0
VERTEX
  5
629B5
330
629A5
100
AcDbEntity
  8
0
100
AcDbVertex
100
AcDbPolygonMeshVertex
 10
0.5683333333333343
 20
0.4009999999999998
 30
3.022999999999999
 70
    64
  0
VERTEX
  5
629B6
330
629A5
100
AcDbEntity
  8
0
100
AcDbVertex
100
AcDbPolygonMeshVertex
 10
0.5683333333333343
 20
0.4009999999999998
 30
3.022999999999999
 70
    64
  0
VERTEX
  5
629B7
330
629A5
100
AcDbEntity
  8
0
100
AcDbVertex
100
AcDbPolygonMeshVertex
 10
0.5683333333333343
 20
0.5259999999999998
 30
3.022999999999999
 70
    64
  0
SEQEND
  5
629B8
330
629A5
100
AcDbEntity
  8
0
  0
LINE
  5
629B9
330
458D6
100
AcDbEntity
  8
0
100
AcDbLine
 10
0.4441666666666687
 20
0.4009999999999998
 30
2.304
 11
0.4441666666666687
 21
0.4009999999999998
 31
3.022999999999999
  0
LINE
  5
629BA
330
458D6
100
AcDbEntity
  8
0
100
AcDbLine
 10
0.179166666666669
 20
0.4009999999999998
 30
2.304
 11
0.179166666666669
 21
0.4009999999999998
 31
3.022999999999999
  0
LINE
  5
629BB
330
458D6
100
AcDbEntity
  8
0
100
AcDbLine
 10
0.179166666666669
 20
0.4009999999999998
 30
2.304
 11
0.4441666666666687
 21
0.4009999999999998
 31
2.304
  0
POLYLINE
  5
629BC
330
458D6
100
AcDbEntity
  8
0
100
AcDbPolygonMesh
 66
     1
 10
0.0
 20
0.0
 30
0.0
 70
    16
 71
     6
 72
     3
  0
VERTEX
  5
629BD
330
629BC
100
AcDbEntity
  8
0
100
AcDbVertex
100
AcDbPolygonMeshVertex
 10
0.0000000000000036
 20
0.5259999999999998
 30
3.022999999999999
 70
    64
  0
VERTEX
  5
629BE
330
629BC
100
AcDbEntity
  8
0
100
AcDbVertex
100
AcDbPolygonMeshVertex
 10
0.0000000000000036
 20
0.5259999999999998
 30
1.652
 70
    64
  0
VERTEX
  5
629BF
330
629BC
100
AcDbEntity
  8
0
100
AcDbVertex
100
AcDbPolygonMeshVertex
 10
0.0000000000000036
 20
0.5259999999999998
 30
1.652
 70
    64
  0
VERTEX
  5
629C0
330
629BC
100
AcDbEntity
  8
0
100
AcDbVertex
100
AcDbPolygonMeshVertex
 10
0.0550000000000033
 20
0.5259999999999998
 30
3.022999999999999
 70
    64
  0
VERTEX
  5
629C1
330
629BC
100
AcDbEntity
  8
0
100
AcDbVertex
100
AcDbPolygonMeshVertex
 10
0.0550000000000033
 20
0.5259999999999998
 30
1.652
 70
    64
  0
VERTEX
  5
629C2
330
629BC
100
AcDbEntity
  8
0
100
AcDbVertex
100
AcDbPolygonMeshVertex
 10
0.0550000000000033
 20
0.5259999999999998
 30
1.652
 70
    64
  0
VERTEX
  5
629C3
330
629BC
100
AcDbEntity
  8
0
100
AcDbVertex
100
AcDbPolygonMeshVertex
 10
0.0550000000000033
 20
0.4009999999999998
 30
3.022999999999999
 70
    64
  0
VERTEX
  5
629C4
330
629BC
100
AcDbEntity
  8
0
100
AcDbVertex
100
AcDbPolygonMeshVertex
 10
0.0550000000000033
 20
0.4009999999999998
 30
1.652
 70
    64
  0
VERTEX
  5
629C5
330
629BC
100
AcDbEntity
  8
0
100
AcDbVertex
100
AcDbPolygonMeshVertex
 10
0.0550000000000033
 20
0.5259999999999998
 30
1.652
 70
    64
  0
VERTEX
  5
629C6
330
629BC
100
AcDbEntity
  8
0
100
AcDbVertex
100
AcDbPolygonMeshVertex
 10
0.0000000000000036
 20
0.4009999999999998
 30
3.022999999999999
 70
    64
  0
VERTEX
  5
629C7
330
629BC
100
AcDbEntity
  8
0
100
AcDbVertex
100
AcDbPolygonMeshVertex
 10
0.0000000000000036
 20
0.4009999999999998
 30
1.652
 70
    64
  0
VERTEX
  5
629C8
330
629BC
100
AcDbEntity
  8
0
100
AcDbVertex
100
AcDbPolygonMeshVertex
 10
0.0000000000000036
 20
0.5259999999999998
 30
1.652
 70
    64
  0
VERTEX
  5
629C9
330
629BC
100
AcDbEntity
  8
0
100
AcDbVertex
100
AcDbPolygonMeshVertex
 10
0.0000000000000036
 20
0.4009999999999998
 30
3.022999999999999
 70
    64
  0
VERTEX
  5
629CA
330
629BC
100
AcDbEntity
  8
0
100
AcDbVertex
100
AcDbPolygonMeshVertex
 10
0.0000000000000036
 20
0.4009999999999998
 30
3.022999999999999
 70
    64
  0
VERTEX
  5
629CB
330
629BC
100
AcDbEntity
  8
0
100
AcDbVertex
100
AcDbPolygonMeshVertex
 10
0.0000000000000036
 20
0.5259999999999998
 30
3.022999999999999
 70
    64
  0
VERTEX
  5
629CC
330
629BC
100
AcDbEntity
  8
0
100
AcDbVertex
100
AcDbPolygonMeshVertex
 10
0.0550000000000033
 20
0.4009999999999998
 30
3.022999999999999
 70
    64
  0
VERTEX
  5
629CD
330
629BC
100
AcDbEntity
  8
0
100
AcDbVertex
100
AcDbPolygonMeshVertex
 10
0.0550000000000033
 20
0.4009999999999998
 30
3.022999999999999
 70
    64
  0
VERTEX
  5
629CE
330
629BC
100
AcDbEntity
  8
0
100
AcDbVertex
100
AcDbPolygonMeshVertex
 10
0.0550000000000033
 20
0.5259999999999998
 30
3.022999999999999
 70
    64
  0
SEQEND
  5
629CF
330
629BC
100
AcDbEntity
  8
0
  0
LWPOLYLINE
  5
629D0
330
458D6
100
AcDbEntity
  8
0
100
AcDbPolyline
 90
        4
 70
     1
 43
0.0
 38
2.062
 10
0.7465000000000002
 20
0.4529999999999999
 10
1.0135
 20
0.4529999999999999
 10
1.0135
 20
0.6019999999999995
 10
0.7465000000000002
 20
0.6019999999999995
  0
LWPOLYLINE
  5
629D1
330
458D6
100
AcDbEntity
  8
0
100
AcDbPolyline
 90
        4
 70
     1
 43
0.0
 38
1.388
 10
0.7465000000000002
 20
0.4529999999999999
 10
1.0135
 20
0.4529999999999999
 10
1.0135
 20
0.6019999999999995
 10
0.7465000000000002
 20
0.6019999999999995
  0
POLYLINE
  5
629D2
330
458D6
100
AcDbEntity
  8
0
100
AcDbPolygonMesh
 66
     1
 10
0.0
 20
0.0
 30
0.0
 70
    16
 71
     6
 72
     3
  0
VERTEX
  5
629D3
330
629D2
100
AcDbEntity
  8
0
100
AcDbVertex
100
AcDbPolygonMeshVertex
 10
0.3274999999999988
 20
-2.526
 30
2.062
 70
    64
  0
VERTEX
  5
629D4
330
629D2
100
AcDbEntity
  8
0
100
AcDbVertex
100
AcDbPolygonMeshVertex
 10
0.3274999999999988
 20
-2.526
 30
1.388
 70
    64
  0
VERTEX
  5
629D5
330
629D2
100
AcDbEntity
  8
0
100
AcDbVertex
100
AcDbPolygonMeshVertex
 10
0.3274999999999988
 20
-2.526
 30
1.388
 70
    64
  0
VERTEX
  5
629D6
330
629D2
100
AcDbEntity
  8
0
100
AcDbVertex
100
AcDbPolygonMeshVertex
 10
1.432499999999999
 20
-2.526
 30
2.062
 70
    64
  0
VERTEX
  5
629D7
330
629D2
100
AcDbEntity
  8
0
100
AcDbVertex
100
AcDbPolygonMeshVertex
 10
1.432499999999999
 20
-2.526
 30
1.388
 70
    64
  0
VERTEX
  5
629D8
330
629D2
100
AcDbEntity
  8
0
100
AcDbVertex
100
AcDbPolygonMeshVertex
 10
1.432499999999999
 20
-2.526
 30
1.388
 70
    64
  0
VERTEX
  5
629D9
330
629D2
100
AcDbEntity
  8
0
100
AcDbVertex
100
AcDbPolygonMeshVertex
 10
1.432499999999999
 20
-2.089
 30
2.062
 70
    64
  0
VERTEX
  5
629DA
330
629D2
100
AcDbEntity
  8
0
100
AcDbVertex
100
AcDbPolygonMeshVertex
 10
1.432499999999999
 20
-2.089
 30
1.388
 70
    64
  0
VERTEX
  5
629DB
330
629D2
100
AcDbEntity
  8
0
100
AcDbVertex
100
AcDbPolygonMeshVertex
 10
1.432499999999999
 20
-2.526
 30
1.388
 70
    64
  0
VERTEX
  5
629DC
330
629D2
100
AcDbEntity
  8
0
100
AcDbVertex
100
AcDbPolygonMeshVertex
 10
0.3274999999999988
 20
-2.089
 30
2.062
 70
    64
  0
VERTEX
  5
629DD
330
629D2
100
AcDbEntity
  8
0
100
AcDbVertex
100
AcDbPolygonMeshVertex
 10
0.3274999999999988
 20
-2.089
 30
1.388
 70
    64
  0
VERTEX
  5
629DE
330
629D2
100
AcDbEntity
  8
0
100
AcDbVertex
100
AcDbPolygonMeshVertex
 10
0.3274999999999988
 20
-2.526
 30
1.388
 70
    64
  0
VERTEX
  5
629DF
330
629D2
100
AcDbEntity
  8
0
100
AcDbVertex
100
AcDbPolygonMeshVertex
 10
0.3274999999999988
 20
-2.089
 30
2.062
 70
    64
  0
VERTEX
  5
629E0
330
629D2
100
AcDbEntity
  8
0
100
AcDbVertex
100
AcDbPolygonMeshVertex
 10
0.3274999999999988
 20
-2.089
 30
2.062
 70
    64
  0
VERTEX
  5
629E1
330
629D2
100
AcDbEntity
  8
0
100
AcDbVertex
100
AcDbPolygonMeshVertex
 10
0.3274999999999988
 20
-2.526
 30
2.062
 70
    64
  0
VERTEX
  5
629E2
330
629D2
100
AcDbEntity
  8
0
100
AcDbVertex
100
AcDbPolygonMeshVertex
 10
1.432499999999999
 20
-2.089
 30
2.062
 70
    64
  0
VERTEX
  5
629E3
330
629D2
100
AcDbEntity
  8
0
100
AcDbVertex
100
AcDbPolygonMeshVertex
 10
1.432499999999999
 20
-2.089
 30
2.062
 70
    64
  0
VERTEX
  5
629E4
330
629D2
100
AcDbEntity
  8
0
100
AcDbVertex
100
AcDbPolygonMeshVertex
 10
1.432499999999999
 20
-2.526
 30
2.062
 70
    64
  0
SEQEND
  5
629E5
330
629D2
100
AcDbEntity
  8
0
  0
LINE
  5
629E6
330
458D6
100
AcDbEntity
  8
0
100
AcDbLine
 10
0.7399999999999994
 20
-2.089
 30
2.062
 11
0.7399999999999994
 21
-2.324
 31
2.062
  0
LINE
  5
629E7
330
458D6
100
AcDbEntity
  8
0
100
AcDbLine
 10
1.019999999999998
 20
-2.089
 30
2.062
 11
1.019999999999998
 21
-2.324
 31
2.062
  0
LINE
  5
629E8
330
458D6
100
AcDbEntity
  8
0
100
AcDbLine
 10
1.019999999999998
 20
-2.324
 30
2.062
 11
0.7399999999999994
 21
-2.324
 31
2.062
  0
LINE
  5
629E9
330
458D6
100
AcDbEntity
  8
0
100
AcDbLine
 10
0.6994999999999987
 20
-2.526
 30
1.841
 11
0.3824999999999985
 21
-2.526
 31
1.841
  0
LINE
  5
629EA
330
458D6
100
AcDbEntity
  8
0
100
AcDbLine
 10
0.6994999999999987
 20
-2.526
 30
1.641
 11
0.3824999999999985
 21
-2.526
 31
1.641
  0
LINE
  5
629EB
330
458D6
100
AcDbEntity
  8
0
100
AcDbLine
 10
0.3824999999999985
 20
-2.526
 30
1.841
 11
0.3824999999999985
 21
-2.526
 31
1.641
  0
LINE
  5
629EC
330
458D6
100
AcDbEntity
  8
0
100
AcDbLine
 10
0.6994999999999987
 20
-2.526
 30
1.841
 11
0.6994999999999987
 21
-2.526
 31
1.641
  0
CIRCLE
  5
629ED
330
458D6
100
AcDbEntity
  8
0
100
AcDbCircle
 10
0.5409999999999969
 20
-2.3075
 30
2.062
 40
0.12
  0
CIRCLE
  5
629EE
330
458D6
100
AcDbEntity
  8
0
100
AcDbCircle
 10
1.219000000000001
 20
-2.3075
 30
2.062
 40
0.12
  0
LINE
  5
629EF
330
458D6
100
AcDbEntity
  8
0
100
AcDbLine
 10
1.060499999999999
 20
-2.526
 30
1.641
 11
1.377499999999999
 21
-2.526
 31
1.641
  0
LINE
  5
629F0
330
458D6
100
AcDbEntity
  8
0
100
AcDbLine
 10
1.060499999999999
 20
-2.526
 30
1.841
 11
1.377499999999999
 21
-2.526
 31
1.841
  0
LINE
  5
629F1
330
458D6
100
AcDbEntity
  8
0
100
AcDbLine
 10
1.377499999999999
 20
-2.526
 30
1.841
 11
1.377499999999999
 21
-2.526
 31
1.641
  0
LINE
  5
629F2
330
458D6
100
AcDbEntity
  8
0
100
AcDbLine
 10
1.060499999999999
 20
-2.526
 30
1.841
 11
1.060499999999999
 21
-2.526
 31
1.641
  0
POLYLINE
  5
629F3
330
458D6
100
AcDbEntity
  8
0
100
AcDb3dPolyline
 66
     1
 10
0.0
 20
0.0
 30
0.0
 70
     8
  0
VERTEX
  5
629F4
330
629F3
100
AcDbEntity
  8
0
100
AcDbVertex
100
AcDb3dPolylineVertex
 10
1.759999999999999
 20
-1.472999999999999
 30
0.187
 70
    32
  0
VERTEX
  5
629F5
330
629F3
100
AcDbEntity
  8
0
100
AcDbVertex
100
AcDb3dPolylineVertex
 10
1.759999999999999
 20
-1.472999999999999
 30
1.056999999999999
 70
    32
  0
VERTEX
  5
629F6
330
629F3
100
AcDbEntity
  8
0
100
AcDbVertex
100
AcDb3dPolylineVertex
 10
1.759999999999999
 20
-1.628
 30
1.056999999999999
 70
    32
  0
VERTEX
  5
629F7
330
629F3
100
AcDbEntity
  8
0
100
AcDbVertex
100
AcDb3dPolylineVertex
 10
1.759999999999999
 20
-1.628
 30
0.187
 70
    32
  0
SEQEND
  5
629F8
330
629F3
100
AcDbEntity
  8
0
  0
POLYLINE
  5
629F9
330
458D6
100
AcDbEntity
  8
0
100
AcDb3dPolyline
 66
     1
 10
0.0
 20
0.0
 30
0.0
 70
     8
  0
VERTEX
  5
629FA
330
629F9
100
AcDbEntity
  8
0
100
AcDbVertex
100
AcDb3dPolylineVertex
 10
1.759999999999999
 20
-0.0940000000000003
 30
0.187
 70
    32
  0
VERTEX
  5
629FB
330
629F9
100
AcDbEntity
  8
0
100
AcDbVertex
100
AcDb3dPolylineVertex
 10
1.759999999999999
 20
-0.0940000000000003
 30
1.056999999999999
 70
    32
  0
VERTEX
  5
629FC
330
629F9
100
AcDbEntity
  8
0
100
AcDbVertex
100
AcDb3dPolylineVertex
 10
1.759999999999999
 20
-0.2490000000000006
 30
1.056999999999999
 70
    32
  0
VERTEX
  5
629FD
330
629F9
100
AcDbEntity
  8
0
100
AcDbVertex
100
AcDb3dPolylineVertex
 10
1.759999999999999
 20
-0.2490000000000006
 30
0.187
 70
    32
  0
SEQEND
  5
629FE
330
629F9
100
AcDbEntity
  8
0
  0
LINE
  5
629FF
330
458D6
100
AcDbEntity
  8
0
100
AcDbLine
 10
1.759999999999999
 20
-0.75
 30
0.5170000000000002
 11
1.759999999999999
 21
-0.972
 31
0.5170000000000002
  0
LINE
  5
62A00
330
458D6
100
AcDbEntity
  8
0
100
AcDbLine
 10
1.759999999999999
 20
-0.972
 30
0.5170000000000002
 11
1.759999999999999
 21
-0.972
 31
0.187
  0
LINE
  5
62A01
330
458D6
100
AcDbEntity
  8
0
100
AcDbLine
 10
1.759999999999999
 20
-0.75
 30
0.5170000000000002
 11
1.759999999999999
 21
-0.75
 31
0.187
  0
POLYLINE
  5
62A02
330
458D6
100
AcDbEntity
  8
0
100
AcDb3dPolyline
 66
     1
 10
0.0
 20
0.0
 30
0.0
 70
     8
  0
VERTEX
  5
62A03
330
62A02
100
AcDbEntity
  8
0
100
AcDbVertex
100
AcDb3dPolylineVertex
 10
0.0000000000000001
 20
-0.0940000000000003
 30
0.187
 70
    32
  0
VERTEX
  5
62A04
330
62A02
100
AcDbEntity
  8
0
100
AcDbVertex
100
AcDb3dPolylineVertex
 10
0.0000000000000001
 20
-0.0940000000000003
 30
1.056999999999999
 70
    32
  0
VERTEX
  5
62A05
330
62A02
100
AcDbEntity
  8
0
100
AcDbVertex
100
AcDb3dPolylineVertex
 10
0.0000000000000001
 20
-0.2490000000000006
 30
1.056999999999999
 70
    32
  0
VERTEX
  5
62A06
330
62A02
100
AcDbEntity
  8
0
100
AcDbVertex
100
AcDb3dPolylineVertex
 10
0.0000000000000001
 20
-0.2490000000000006
 30
0.187
 70
    32
  0
SEQEND
  5
62A07
330
62A02
100
AcDbEntity
  8
0
  0
POLYLINE
  5
62A08
330
458D6
100
AcDbEntity
  8
0
100
AcDb3dPolyline
 66
     1
 10
0.0
 20
0.0
 30
0.0
 70
     8
  0
VERTEX
  5
62A09
330
62A08
100
AcDbEntity
  8
0
100
AcDbVertex
100
AcDb3dPolylineVertex
 10
0.0000000000000001
 20
-1.472999999999999
 30
0.187
 70
    32
  0
VERTEX
  5
62A0A
330
62A08
100
AcDbEntity
  8
0
100
AcDbVertex
100
AcDb3dPolylineVertex
 10
0.0000000000000001
 20
-1.472999999999999
 30
1.056999999999999
 70
    32
  0
VERTEX
  5
62A0B
330
62A08
100
AcDbEntity
  8
0
100
AcDbVertex
100
AcDb3dPolylineVertex
 10
0.0000000000000001
 20
-1.628
 30
1.056999999999999
 70
    32
  0
VERTEX
  5
62A0C
330
62A08
100
AcDbEntity
  8
0
100
AcDbVertex
100
AcDb3dPolylineVertex
 10
0.0000000000000001
 20
-1.628
 30
0.187
 70
    32
  0
SEQEND
  5
62A0D
330
62A08
100
AcDbEntity
  8
0
  0
LINE
  5
62A0E
330
458D6
100
AcDbEntity
  8
0
100
AcDbLine
 10
1.759999999999999
 20
-1.688
 30
0.187
 11
1.759999999999999
 21
-1.688
 31
0.0
  0
LINE
  5
62A0F
330
458D6
100
AcDbEntity
  8
0
100
AcDbLine
 10
1.759999999999999
 20
-1.688
 30
0.0
 11
0.8799999999999998
 21
-1.688
 31
0.0
  0
POLYLINE
  5
62A10
330
458D6
100
AcDbEntity
  8
0
100
AcDbPolygonMesh
 66
     1
 10
0.0
 20
0.0
 30
0.0
 70
    16
 71
     6
 72
     3
  0
VERTEX
  5
62A11
330
62A10
100
AcDbEntity
  8
0
100
AcDbVertex
100
AcDbPolygonMeshVertex
 10
0.8800000000000007
 20
-1.688
 30
0.187
 70
    64
  0
VERTEX
  5
62A12
330
62A10
100
AcDbEntity
  8
0
100
AcDbVertex
100
AcDbPolygonMeshVertex
 10
0.8800000000000007
 20
-1.688
 30
0.0
 70
    64
  0
VERTEX
  5
62A13
330
62A10
100
AcDbEntity
  8
0
100
AcDbVertex
100
AcDbPolygonMeshVertex
 10
0.8800000000000007
 20
-1.688
 30
0.0
 70
    64
  0
VERTEX
  5
62A14
330
62A10
100
AcDbEntity
  8
0
100
AcDbVertex
100
AcDbPolygonMeshVertex
 10
1.759999999999999
 20
-1.688
 30
0.187
 70
    64
  0
VERTEX
  5
62A15
330
62A10
100
AcDbEntity
  8
0
100
AcDbVertex
100
AcDbPolygonMeshVertex
 10
1.759999999999999
 20
-1.688
 30
0.0
 70
    64
  0
VERTEX
  5
62A16
330
62A10
100
AcDbEntity
  8
0
100
AcDbVertex
100
AcDbPolygonMeshVertex
 10
1.759999999999999
 20
-1.688
 30
0.0
 70
    64
  0
VERTEX
  5
62A17
330
62A10
100
AcDbEntity
  8
0
100
AcDbVertex
100
AcDbPolygonMeshVertex
 10
1.759999999999999
 20
-2.286
 30
0.187
 70
    64
  0
VERTEX
  5
62A18
330
62A10
100
AcDbEntity
  8
0
100
AcDbVertex
100
AcDbPolygonMeshVertex
 10
1.759999999999999
 20
-2.286
 30
0.0
 70
    64
  0
VERTEX
  5
62A19
330
62A10
100
AcDbEntity
  8
0
100
AcDbVertex
100
AcDbPolygonMeshVertex
 10
1.759999999999999
 20
-1.688
 30
0.0
 70
    64
  0
VERTEX
  5
62A1A
330
62A10
100
AcDbEntity
  8
0
100
AcDbVertex
100
AcDbPolygonMeshVertex
 10
0.8800000000000007
 20
-2.286
 30
0.187
 70
    64
  0
VERTEX
  5
62A1B
330
62A10
100
AcDbEntity
  8
0
100
AcDbVertex
100
AcDbPolygonMeshVertex
 10
0.8800000000000007
 20
-2.286
 30
0.0
 70
    64
  0
VERTEX
  5
62A1C
330
62A10
100
AcDbEntity
  8
0
100
AcDbVertex
100
AcDbPolygonMeshVertex
 10
0.8800000000000007
 20
-1.688
 30
0.0
 70
    64
  0
VERTEX
  5
62A1D
330
62A10
100
AcDbEntity
  8
0
100
AcDbVertex
100
AcDbPolygonMeshVertex
 10
0.8800000000000007
 20
-2.286
 30
0.187
 70
    64
  0
VERTEX
  5
62A1E
330
62A10
100
AcDbEntity
  8
0
100
AcDbVertex
100
AcDbPolygonMeshVertex
 10
0.8800000000000007
 20
-2.286
 30
0.187
 70
    64
  0
VERTEX
  5
62A1F
330
62A10
100
AcDbEntity
  8
0
100
AcDbVertex
100
AcDbPolygonMeshVertex
 10
0.8800000000000007
 20
-1.688
 30
0.187
 70
    64
  0
VERTEX
  5
62A20
330
62A10
100
AcDbEntity
  8
0
100
AcDbVertex
100
AcDbPolygonMeshVertex
 10
1.759999999999999
 20
-2.286
 30
0.187
 70
    64
  0
VERTEX
  5
62A21
330
62A10
100
AcDbEntity
  8
0
100
AcDbVertex
100
AcDbPolygonMeshVertex
 10
1.759999999999999
 20
-2.286
 30
0.187
 70
    64
  0
VERTEX
  5
62A22
330
62A10
100
AcDbEntity
  8
0
100
AcDbVertex
100
AcDbPolygonMeshVertex
 10
1.759999999999999
 20
-1.688
 30
0.187
 70
    64
  0
SEQEND
  5
62A23
330
62A10
100
AcDbEntity
  8
0
  0
POLYLINE
  5
62A24
330
458D6
100
AcDbEntity
  8
0
100
AcDbPolygonMesh
 66
     1
 10
0.0
 20
0.0
 30
0.0
 70
    16
 71
     6
 72
     3
  0
VERTEX
  5
62A25
330
62A24
100
AcDbEntity
  8
0
100
AcDbVertex
100
AcDbPolygonMeshVertex
 10
0.0000000000000001
 20
0.5979999999999999
 30
0.187
 70
    64
  0
VERTEX
  5
62A26
330
62A24
100
AcDbEntity
  8
0
100
AcDbVertex
100
AcDbPolygonMeshVertex
 10
0.0000000000000001
 20
0.5979999999999999
 30
0.0
 70
    64
  0
VERTEX
  5
62A27
330
62A24
100
AcDbEntity
  8
0
100
AcDbVertex
100
AcDbPolygonMeshVertex
 10
0.0000000000000001
 20
0.5979999999999999
 30
0.0
 70
    64
  0
VERTEX
  5
62A28
330
62A24
100
AcDbEntity
  8
0
100
AcDbVertex
100
AcDbPolygonMeshVertex
 10
0.879999999999999
 20
0.5979999999999999
 30
0.187
 70
    64
  0
VERTEX
  5
62A29
330
62A24
100
AcDbEntity
  8
0
100
AcDbVertex
100
AcDbPolygonMeshVertex
 10
0.879999999999999
 20
0.5979999999999999
 30
0.0
 70
    64
  0
VERTEX
  5
62A2A
330
62A24
100
AcDbEntity
  8
0
100
AcDbVertex
100
AcDbPolygonMeshVertex
 10
0.879999999999999
 20
0.5979999999999999
 30
0.0
 70
    64
  0
VERTEX
  5
62A2B
330
62A24
100
AcDbEntity
  8
0
100
AcDbVertex
100
AcDbPolygonMeshVertex
 10
0.879999999999999
 20
0.0
 30
0.187
 70
    64
  0
VERTEX
  5
62A2C
330
62A24
100
AcDbEntity
  8
0
100
AcDbVertex
100
AcDbPolygonMeshVertex
 10
0.879999999999999
 20
0.0
 30
0.0
 70
    64
  0
VERTEX
  5
62A2D
330
62A24
100
AcDbEntity
  8
0
100
AcDbVertex
100
AcDbPolygonMeshVertex
 10
0.879999999999999
 20
0.5979999999999999
 30
0.0
 70
    64
  0
VERTEX
  5
62A2E
330
62A24
100
AcDbEntity
  8
0
100
AcDbVertex
100
AcDbPolygonMeshVertex
 10
0.0000000000000001
 20
0.0
 30
0.187
 70
    64
  0
VERTEX
  5
62A2F
330
62A24
100
AcDbEntity
  8
0
100
AcDbVertex
100
AcDbPolygonMeshVertex
 10
0.0000000000000001
 20
0.0
 30
0.0
 70
    64
  0
VERTEX
  5
62A30
330
62A24
100
AcDbEntity
  8
0
100
AcDbVertex
100
AcDbPolygonMeshVertex
 10
0.0000000000000001
 20
0.5979999999999999
 30
0.0
 70
    64
  0
VERTEX
  5
62A31
330
62A24
100
AcDbEntity
  8
0
100
AcDbVertex
100
AcDbPolygonMeshVertex
 10
0.0000000000000001
 20
0.0
 30
0.187
 70
    64
  0
VERTEX
  5
62A32
330
62A24
100
AcDbEntity
  8
0
100
AcDbVertex
100
AcDbPolygonMeshVertex
 10
0.0000000000000001
 20
0.0
 30
0.187
 70
    64
  0
VERTEX
  5
62A33
330
62A24
100
AcDbEntity
  8
0
100
AcDbVertex
100
AcDbPolygonMeshVertex
 10
0.0000000000000001
 20
0.5979999999999999
 30
0.187
 70
    64
  0
VERTEX
  5
62A34
330
62A24
100
AcDbEntity
  8
0
100
AcDbVertex
100
AcDbPolygonMeshVertex
 10
0.879999999999999
 20
0.0
 30
0.187
 70
    64
  0
VERTEX
  5
62A35
330
62A24
100
AcDbEntity
  8
0
100
AcDbVertex
100
AcDbPolygonMeshVertex
 10
0.879999999999999
 20
0.0
 30
0.187
 70
    64
  0
VERTEX
  5
62A36
330
62A24
100
AcDbEntity
  8
0
100
AcDbVertex
100
AcDbPolygonMeshVertex
 10
0.879999999999999
 20
0.5979999999999999
 30
0.187
 70
    64
  0
SEQEND
  5
62A37
330
62A24
100
AcDbEntity
  8
0
  0
POLYLINE
  5
62A38
330
458D6
100
AcDbEntity
  8
0
100
AcDb3dPolyline
 66
     1
 10
0.0
 20
0.0
 30
0.0
 70
     8
  0
VERTEX
  5
62A39
330
62A38
100
AcDbEntity
  8
0
100
AcDbVertex
100
AcDb3dPolylineVertex
 10
1.759999999999996
 20
-0.7610000000000002
 30
1.592
 70
    32
  0
VERTEX
  5
62A3A
330
62A38
100
AcDbEntity
  8
0
100
AcDbVertex
100
AcDb3dPolylineVertex
 10
1.759999999999996
 20
-0.7610000000000002
 30
2.165
 70
    32
  0
VERTEX
  5
62A3B
330
62A38
100
AcDbEntity
  8
0
100
AcDbVertex
100
AcDb3dPolylineVertex
 10
1.759999999999996
 20
-0.9269999999999999
 30
2.165
 70
    32
  0
VERTEX
  5
62A3C
330
62A38
100
AcDbEntity
  8
0
100
AcDbVertex
100
AcDb3dPolylineVertex
 10
1.759999999999996
 20
-0.9270000000000003
 30
1.592
 70
    32
  0
VERTEX
  5
62A3D
330
62A38
100
AcDbEntity
  8
0
100
AcDbVertex
100
AcDb3dPolylineVertex
 10
1.759999999999996
 20
-0.7610000000000002
 30
1.592
 70
    32
  0
SEQEND
  5
62A3E
330
62A38
100
AcDbEntity
  8
0
  0
LINE
  5
62A3F
330
458D6
100
AcDbEntity
  8
0
100
AcDbLine
 10
1.759999999999996
 20
-0.9270000000000001
 30
1.8785
 11
1.759999999999996
 21
-0.7610000000000002
 31
1.8785
  0
LINE
  5
62A40
330
458D6
100
AcDbEntity
  8
0
100
AcDbLine
 10
1.759999999999996
 20
-0.9270000000000003
 30
2.0685
 11
1.759999999999996
 21
-0.7610000000000002
 31
2.0685
  0
POLYLINE
  5
62A41
330
458D6
100
AcDbEntity
  8
0
100
AcDb3dPolyline
 66
     1
 10
0.0
 20
0.0
 30
0.0
 70
     8
  0
VERTEX
  5
62A42
330
62A41
100
AcDbEntity
  8
0
100
AcDbVertex
100
AcDb3dPolylineVertex
 10
-0.0000000000000035
 20
-0.7610000000000002
 30
1.592
 70
    32
  0
VERTEX
  5
62A43
330
62A41
100
AcDbEntity
  8
0
100
AcDbVertex
100
AcDb3dPolylineVertex
 10
-0.0000000000000035
 20
-0.7610000000000002
 30
2.165
 70
    32
  0
VERTEX
  5
62A44
330
62A41
100
AcDbEntity
  8
0
100
AcDbVertex
100
AcDb3dPolylineVertex
 10
-0.0000000000000035
 20
-0.9269999999999999
 30
2.165
 70
    32
  0
VERTEX
  5
62A45
330
62A41
100
AcDbEntity
  8
0
100
AcDbVertex
100
AcDb3dPolylineVertex
 10
-0.0000000000000035
 20
-0.9270000000000003
 30
1.592
 70
    32
  0
VERTEX
  5
62A46
330
62A41
100
AcDbEntity
  8
0
100
AcDbVertex
100
AcDb3dPolylineVertex
 10
-0.0000000000000035
 20
-0.7610000000000002
 30
1.592
 70
    32
  0
SEQEND
  5
62A47
330
62A41
100
AcDbEntity
  8
0
  0
LINE
  5
62A48
330
458D6
100
AcDbEntity
  8
0
100
AcDbLine
 10
-0.0000000000000035
 20
-0.9270000000000001
 30
1.8785
 11
-0.0000000000000035
 21
-0.7610000000000002
 31
1.8785
  0
LINE
  5
62A49
330
458D6
100
AcDbEntity
  8
0
100
AcDbLine
 10
-0.0000000000000035
 20
-0.9270000000000003
 30
2.0685
 11
-0.0000000000000035
 21
-0.7610000000000002
 31
2.0685
  0
CIRCLE
  5
62A4A
330
458D6
100
AcDbEntity
  8
0
100
AcDbCircle
 10
1.569999999999998
 20
0.3349999999999995
 30
0.3160000000000001
 40
0.086
  0
POLYLINE
  5
62A4B
330
458D6
100
AcDbEntity
  8
0
100
AcDb3dPolyline
 66
     1
 10
0.0
 20
0.0
 30
0.0
 70
     8
  0
VERTEX
  5
62A4C
330
62A4B
100
AcDbEntity
  8
0
100
AcDbVertex
100
AcDb3dPolylineVertex
 10
0.5453333333333319
 20
0.4009999999999998
 30
0.187
 70
    32
  0
VERTEX
  5
62A4D
330
62A4B
100
AcDbEntity
  8
0
100
AcDbVertex
100
AcDb3dPolylineVertex
 10
0.5453333333333319
 20
0.5359999999999996
 30
0.187
 70
    32
  0
VERTEX
  5
62A4E
330
62A4B
100
AcDbEntity
  8
0
100
AcDbVertex
100
AcDb3dPolylineVertex
 10
0.3346666666666663
 20
0.5359999999999996
 30
0.187
 70
    32
  0
VERTEX
  5
62A4F
330
62A4B
100
AcDbEntity
  8
0
100
AcDbVertex
100
AcDb3dPolylineVertex
 10
0.3346666666666663
 20
0.4009999999999998
 30
0.187
 70
    32
  0
SEQEND
  5
62A50
330
62A4B
100
AcDbEntity
  8
0
  0
POLYLINE
  5
62A51
330
458D6
100
AcDbEntity
  8
0
100
AcDb3dPolyline
 66
     1
 10
0.0
 20
0.0
 30
0.0
 70
     8
  0
VERTEX
  5
62A52
330
62A51
100
AcDbEntity
  8
0
100
AcDbVertex
100
AcDb3dPolylineVertex
 10
0.272666666666666
 20
0.4009999999999998
 30
0.187
 70
    32
  0
VERTEX
  5
62A53
330
62A51
100
AcDbEntity
  8
0
100
AcDbVertex
100
AcDb3dPolylineVertex
 10
0.272666666666666
 20
0.5359999999999996
 30
0.187
 70
    32
  0
VERTEX
  5
62A54
330
62A51
100
AcDbEntity
  8
0
100
AcDbVertex
100
AcDb3dPolylineVertex
 10
0.0620000000000003
 20
0.5359999999999996
 30
0.187
 70
    32
  0
VERTEX
  5
62A55
330
62A51
100
AcDbEntity
  8
0
100
AcDbVertex
100
AcDb3dPolylineVertex
 10
0.0620000000000003
 20
0.4009999999999998
 30
0.187
 70
    32
  0
SEQEND
  5
62A56
330
62A51
100
AcDbEntity
  8
0
  0
POLYLINE
  5
62A57
330
458D6
100
AcDbEntity
  8
0
100
AcDb3dPolyline
 66
     1
 10
0.0
 20
0.0
 30
0.0
 70
     8
  0
VERTEX
  5
62A58
330
62A57
100
AcDbEntity
  8
0
100
AcDbVertex
100
AcDb3dPolylineVertex
 10
0.8179999999999978
 20
0.4009999999999998
 30
0.187
 70
    32
  0
VERTEX
  5
62A59
330
62A57
100
AcDbEntity
  8
0
100
AcDbVertex
100
AcDb3dPolylineVertex
 10
0.8179999999999978
 20
0.5359999999999996
 30
0.187
 70
    32
  0
VERTEX
  5
62A5A
330
62A57
100
AcDbEntity
  8
0
100
AcDbVertex
100
AcDb3dPolylineVertex
 10
0.6073333333333322
 20
0.5359999999999996
 30
0.187
 70
    32
  0
VERTEX
  5
62A5B
330
62A57
100
AcDbEntity
  8
0
100
AcDbVertex
100
AcDb3dPolylineVertex
 10
0.6073333333333322
 20
0.4009999999999998
 30
0.187
 70
    32
  0
SEQEND
  5
62A5C
330
62A57
100
AcDbEntity
  8
0
  0
POLYLINE
  5
62A5D
330
458D6
100
AcDbEntity
  8
0
100
AcDb3dPolyline
 66
     1
 10
0.0
 20
0.0
 30
0.0
 70
     8
  0
VERTEX
  5
62A5E
330
62A5D
100
AcDbEntity
  8
0
100
AcDbVertex
100
AcDb3dPolylineVertex
 10
1.487333333333333
 20
-2.088999999999999
 30
0.187
 70
    32
  0
VERTEX
  5
62A5F
330
62A5D
100
AcDbEntity
  8
0
100
AcDbVertex
100
AcDb3dPolylineVertex
 10
1.487333333333333
 20
-2.223999999999999
 30
0.187
 70
    32
  0
VERTEX
  5
62A60
330
62A5D
100
AcDbEntity
  8
0
100
AcDbVertex
100
AcDb3dPolylineVertex
 10
1.697999999999998
 20
-2.223999999999999
 30
0.187
 70
    32
  0
VERTEX
  5
62A61
330
62A5D
100
AcDbEntity
  8
0
100
AcDbVertex
100
AcDb3dPolylineVertex
 10
1.697999999999998
 20
-2.088999999999999
 30
0.187
 70
    32
  0
SEQEND
  5
62A62
330
62A5D
100
AcDbEntity
  8
0
  0
POLYLINE
  5
62A63
330
458D6
100
AcDbEntity
  8
0
100
AcDb3dPolyline
 66
     1
 10
0.0
 20
0.0
 30
0.0
 70
     8
  0
VERTEX
  5
62A64
330
62A63
100
AcDbEntity
  8
0
100
AcDbVertex
100
AcDb3dPolylineVertex
 10
1.214666666666667
 20
-2.088999999999999
 30
0.187
 70
    32
  0
VERTEX
  5
62A65
330
62A63
100
AcDbEntity
  8
0
100
AcDbVertex
100
AcDb3dPolylineVertex
 10
1.214666666666667
 20
-2.223999999999999
 30
0.187
 70
    32
  0
VERTEX
  5
62A66
330
62A63
100
AcDbEntity
  8
0
100
AcDbVertex
100
AcDb3dPolylineVertex
 10
1.425333333333332
 20
-2.223999999999999
 30
0.187
 70
    32
  0
VERTEX
  5
62A67
330
62A63
100
AcDbEntity
  8
0
100
AcDbVertex
100
AcDb3dPolylineVertex
 10
1.425333333333332
 20
-2.088999999999999
 30
0.187
 70
    32
  0
SEQEND
  5
62A68
330
62A63
100
AcDbEntity
  8
0
  0
POLYLINE
  5
62A69
330
458D6
100
AcDbEntity
  8
0
100
AcDb3dPolyline
 66
     1
 10
0.0
 20
0.0
 30
0.0
 70
     8
  0
VERTEX
  5
62A6A
330
62A69
100
AcDbEntity
  8
0
100
AcDbVertex
100
AcDb3dPolylineVertex
 10
0.9420000000000019
 20
-2.088999999999999
 30
0.187
 70
    32
  0
VERTEX
  5
62A6B
330
62A69
100
AcDbEntity
  8
0
100
AcDbVertex
100
AcDb3dPolylineVertex
 10
0.9420000000000019
 20
-2.223999999999999
 30
0.187
 70
    32
  0
VERTEX
  5
62A6C
330
62A69
100
AcDbEntity
  8
0
100
AcDbVertex
100
AcDb3dPolylineVertex
 10
1.152666666666666
 20
-2.223999999999999
 30
0.187
 70
    32
  0
VERTEX
  5
62A6D
330
62A69
100
AcDbEntity
  8
0
100
AcDbVertex
100
AcDb3dPolylineVertex
 10
1.152666666666666
 20
-2.088999999999999
 30
0.187
 70
    32
  0
SEQEND
  5
62A6E
330
62A69
100
AcDbEntity
  8
0
  0
CIRCLE
  5
62A6F
330
458D6
100
AcDbEntity
  8
0
100
AcDbCircle
 10
0.1900000000000009
 20
-2.024999999999999
 30
0.3160000000000001
 40
0.086
  0
CIRCLE
  5
62A70
330
458D6
100
AcDbEntity
  8
0
100
AcDbCircle
 10
0.1900000000000009
 20
-2.024999999999999
 30
0.0
 40
0.086
  0
CIRCLE
  5
62A71
330
458D6
100
AcDbEntity
  8
0
100
AcDbCircle
 10
1.569999999999998
 20
0.3349999999999995
 30
0.0
 40
0.086
  0
POLYLINE
  5
62A72
330
458D6
100
AcDbEntity
  8
0
100
AcDb3dPolyline
 66
     1
 10
0.0
 20
0.0
 30
0.0
 70
     8
  0
VERTEX
  5
62A73
330
62A72
100
AcDbEntity
  8
0
100
AcDbVertex
100
AcDb3dPolylineVertex
 10
0.9420000000000019
 20
-2.088999999999999
 30
-0.0000000000000001
 70
    32
  0
VERTEX
  5
62A74
330
62A72
100
AcDbEntity
  8
0
100
AcDbVertex
100
AcDb3dPolylineVertex
 10
0.9420000000000019
 20
-2.223999999999999
 30
0.0
 70
    32
  0
VERTEX
  5
62A75
330
62A72
100
AcDbEntity
  8
0
100
AcDbVertex
100
AcDb3dPolylineVertex
 10
1.152666666666666
 20
-2.223999999999999
 30
0.0
 70
    32
  0
VERTEX
  5
62A76
330
62A72
100
AcDbEntity
  8
0
100
AcDbVertex
100
AcDb3dPolylineVertex
 10
1.152666666666666
 20
-2.088999999999999
 30
-0.0000000000000001
 70
    32
  0
SEQEND
  5
62A77
330
62A72
100
AcDbEntity
  8
0
  0
POLYLINE
  5
62A78
330
458D6
100
AcDbEntity
  8
0
100
AcDb3dPolyline
 66
     1
 10
0.0
 20
0.0
 30
0.0
 70
     8
  0
VERTEX
  5
62A79
330
62A78
100
AcDbEntity
  8
0
100
AcDbVertex
100
AcDb3dPolylineVertex
 10
1.214666666666667
 20
-2.088999999999999
 30
-0.0000000000000001
 70
    32
  0
VERTEX
  5
62A7A
330
62A78
100
AcDbEntity
  8
0
100
AcDbVertex
100
AcDb3dPolylineVertex
 10
1.214666666666667
 20
-2.223999999999999
 30
0.0
 70
    32
  0
VERTEX
  5
62A7B
330
62A78
100
AcDbEntity
  8
0
100
AcDbVertex
100
AcDb3dPolylineVertex
 10
1.425333333333332
 20
-2.223999999999999
 30
0.0
 70
    32
  0
VERTEX
  5
62A7C
330
62A78
100
AcDbEntity
  8
0
100
AcDbVertex
100
AcDb3dPolylineVertex
 10
1.425333333333332
 20
-2.088999999999999
 30
-0.0000000000000001
 70
    32
  0
SEQEND
  5
62A7D
330
62A78
100
AcDbEntity
  8
0
  0
POLYLINE
  5
62A7E
330
458D6
100
AcDbEntity
  8
0
100
AcDb3dPolyline
 66
     1
 10
0.0
 20
0.0
 30
0.0
 70
     8
  0
VERTEX
  5
62A7F
330
62A7E
100
AcDbEntity
  8
0
100
AcDbVertex
100
AcDb3dPolylineVertex
 10
1.487333333333333
 20
-2.088999999999999
 30
-0.0000000000000001
 70
    32
  0
VERTEX
  5
62A80
330
62A7E
100
AcDbEntity
  8
0
100
AcDbVertex
100
AcDb3dPolylineVertex
 10
1.487333333333333
 20
-2.223999999999999
 30
0.0
 70
    32
  0
VERTEX
  5
62A81
330
62A7E
100
AcDbEntity
  8
0
100
AcDbVertex
100
AcDb3dPolylineVertex
 10
1.697999999999998
 20
-2.223999999999999
 30
0.0
 70
    32
  0
VERTEX
  5
62A82
330
62A7E
100
AcDbEntity
  8
0
100
AcDbVertex
100
AcDb3dPolylineVertex
 10
1.697999999999998
 20
-2.088999999999999
 30
-0.0000000000000001
 70
    32
  0
SEQEND
  5
62A83
330
62A7E
100
AcDbEntity
  8
0
  0
POLYLINE
  5
62A84
330
458D6
100
AcDbEntity
  8
0
100
AcDb3dPolyline
 66
     1
 10
0.0
 20
0.0
 30
0.0
 70
     8
  0
VERTEX
  5
62A85
330
62A84
100
AcDbEntity
  8
0
100
AcDbVertex
100
AcDb3dPolylineVertex
 10
0.8179999999999978
 20
0.4009999999999998
 30
-0.0000000000000001
 70
    32
  0
VERTEX
  5
62A86
330
62A84
100
AcDbEntity
  8
0
100
AcDbVertex
100
AcDb3dPolylineVertex
 10
0.8179999999999978
 20
0.5359999999999996
 30
0.0
 70
    32
  0
VERTEX
  5
62A87
330
62A84
100
AcDbEntity
  8
0
100
AcDbVertex
100
AcDb3dPolylineVertex
 10
0.6073333333333322
 20
0.5359999999999996
 30
0.0
 70
    32
  0
VERTEX
  5
62A88
330
62A84
100
AcDbEntity
  8
0
100
AcDbVertex
100
AcDb3dPolylineVertex
 10
0.6073333333333322
 20
0.4009999999999998
 30
-0.0000000000000001
 70
    32
  0
SEQEND
  5
62A89
330
62A84
100
AcDbEntity
  8
0
  0
POLYLINE
  5
62A8A
330
458D6
100
AcDbEntity
  8
0
100
AcDb3dPolyline
 66
     1
 10
0.0
 20
0.0
 30
0.0
 70
     8
  0
VERTEX
  5
62A8B
330
62A8A
100
AcDbEntity
  8
0
100
AcDbVertex
100
AcDb3dPolylineVertex
 10
0.5453333333333319
 20
0.4009999999999998
 30
-0.0000000000000001
 70
    32
  0
VERTEX
  5
62A8C
330
62A8A
100
AcDbEntity
  8
0
100
AcDbVertex
100
AcDb3dPolylineVertex
 10
0.5453333333333319
 20
0.5359999999999996
 30
0.0
 70
    32
  0
VERTEX
  5
62A8D
330
62A8A
100
AcDbEntity
  8
0
100
AcDbVertex
100
AcDb3dPolylineVertex
 10
0.3346666666666663
 20
0.5359999999999996
 30
0.0
 70
    32
  0
VERTEX
  5
62A8E
330
62A8A
100
AcDbEntity
  8
0
100
AcDbVertex
100
AcDb3dPolylineVertex
 10
0.3346666666666663
 20
0.4009999999999998
 30
-0.0000000000000001
 70
    32
  0
SEQEND
  5
62A8F
330
62A8A
100
AcDbEntity
  8
0
  0
POLYLINE
  5
62A90
330
458D6
100
AcDbEntity
  8
0
100
AcDb3dPolyline
 66
     1
 10
0.0
 20
0.0
 30
0.0
 70
     8
  0
VERTEX
  5
62A91
330
62A90
100
AcDbEntity
  8
0
100
AcDbVertex
100
AcDb3dPolylineVertex
 10
0.272666666666666
 20
0.4009999999999998
 30
-0.0000000000000001
 70
    32
  0
VERTEX
  5
62A92
330
62A90
100
AcDbEntity
  8
0
100
AcDbVertex
100
AcDb3dPolylineVertex
 10
0.272666666666666
 20
0.5359999999999996
 30
0.0
 70
    32
  0
VERTEX
  5
62A93
330
62A90
100
AcDbEntity
  8
0
100
AcDbVertex
100
AcDb3dPolylineVertex
 10
0.0620000000000003
 20
0.5359999999999996
 30
0.0
 70
    32
  0
VERTEX
  5
62A94
330
62A90
100
AcDbEntity
  8
0
100
AcDbVertex
100
AcDb3dPolylineVertex
 10
0.0620000000000003
 20
0.4009999999999998
 30
-0.0000000000000001
 70
    32
  0
SEQEND
  5
62A95
330
62A90
100
AcDbEntity
  8
0
  0
LINE
  5
62A96
330
458D6
100
AcDbEntity
  8
0
100
AcDbLine
 10
1.697999999999998
 20
-2.088999999999999
 30
-0.0000000000000001
 11
1.487333333333333
 21
-2.088999999999999
 31
-0.0000000000000001
  0
LINE
  5
62A97
330
458D6
100
AcDbEntity
  8
0
100
AcDbLine
 10
1.425333333333332
 20
-2.088999999999999
 30
-0.0000000000000001
 11
1.214666666666667
 21
-2.088999999999999
 31
-0.0000000000000001
  0
LINE
  5
62A98
330
458D6
100
AcDbEntity
  8
0
100
AcDbLine
 10
1.152666666666666
 20
-2.088999999999999
 30
-0.0000000000000001
 11
0.9420000000000019
 21
-2.088999999999999
 31
-0.0000000000000001
  0
LINE
  5
62A99
330
458D6
100
AcDbEntity
  8
0
100
AcDbLine
 10
0.8179999999999978
 20
0.4009999999999998
 30
-0.0000000000000001
 11
0.6073333333333322
 21
0.4009999999999998
 31
-0.0000000000000001
  0
LINE
  5
62A9A
330
458D6
100
AcDbEntity
  8
0
100
AcDbLine
 10
0.5453333333333319
 20
0.4009999999999998
 30
-0.0000000000000001
 11
0.3346666666666663
 21
0.4009999999999998
 31
-0.0000000000000001
  0
LINE
  5
62A9B
330
458D6
100
AcDbEntity
  8
0
100
AcDbLine
 10
0.272666666666666
 20
0.4009999999999998
 30
-0.0000000000000001
 11
0.0620000000000003
 21
0.4009999999999998
 31
-0.0000000000000001
  0
LINE
  5
62A9C
330
458D6
100
AcDbEntity
  8
0
100
AcDbLine
 10
0.5502486382097378
 20
-2.089
 30
-0.0000000000000003
 11
0.7609153048764044
 21
-2.089
 31
-0.0000000000000003
  0
POLYLINE
  5
62A9D
330
458D6
100
AcDbEntity
  8
0
100
AcDb3dPolyline
 66
     1
 10
0.0
 20
0.0
 30
0.0
 70
     8
  0
VERTEX
  5
62A9E
330
62A9D
100
AcDbEntity
  8
0
100
AcDbVertex
100
AcDb3dPolylineVertex
 10
0.5502486382097378
 20
-2.089
 30
-0.0000000000000003
 70
    32
  0
VERTEX
  5
62A9F
330
62A9D
100
AcDbEntity
  8
0
100
AcDbVertex
100
AcDb3dPolylineVertex
 10
0.5502486382097378
 20
-2.224
 30
-0.0000000000000002
 70
    32
  0
VERTEX
  5
62AA0
330
62A9D
100
AcDbEntity
  8
0
100
AcDbVertex
100
AcDb3dPolylineVertex
 10
0.7609153048764044
 20
-2.224
 30
-0.0000000000000002
 70
    32
  0
VERTEX
  5
62AA1
330
62A9D
100
AcDbEntity
  8
0
100
AcDbVertex
100
AcDb3dPolylineVertex
 10
0.7609153048764044
 20
-2.089
 30
-0.0000000000000003
 70
    32
  0
SEQEND
  5
62AA2
330
62A9D
100
AcDbEntity
  8
0
  0
POLYLINE
  5
62AA3
330
458D6
100
AcDbEntity
  8
0
100
AcDb3dPolyline
 66
     1
 10
0.0
 20
0.0
 30
0.0
 70
     8
  0
VERTEX
  5
62AA4
330
62AA3
100
AcDbEntity
  8
0
100
AcDbVertex
100
AcDb3dPolylineVertex
 10
0.5502486382097378
 20
-2.089
 30
0.1869999999999998
 70
    32
  0
VERTEX
  5
62AA5
330
62AA3
100
AcDbEntity
  8
0
100
AcDbVertex
100
AcDb3dPolylineVertex
 10
0.5502486382097378
 20
-2.224
 30
0.1869999999999998
 70
    32
  0
VERTEX
  5
62AA6
330
62AA3
100
AcDbEntity
  8
0
100
AcDbVertex
100
AcDb3dPolylineVertex
 10
0.7609153048764044
 20
-2.224
 30
0.1869999999999998
 70
    32
  0
VERTEX
  5
62AA7
330
62AA3
100
AcDbEntity
  8
0
100
AcDbVertex
100
AcDb3dPolylineVertex
 10
0.7609153048764044
 20
-2.089
 30
0.1869999999999998
 70
    32
  0
SEQEND
  5
62AA8
330
62AA3
100
AcDbEntity
  8
0
  0
POLYLINE
  5
62AA9
330
458D6
100
AcDbEntity
  8
0
100
AcDbPolygonMesh
 66
     1
 10
0.0
 20
0.0
 30
0.0
 70
    16
 71
     6
 72
     3
  0
VERTEX
  5
62AAA
330
62AA9
100
AcDbEntity
  8
0
100
AcDbVertex
100
AcDbPolygonMeshVertex
 10
0.8229153048764036
 20
-2.286
 30
0.1869999999999998
 70
    64
  0
VERTEX
  5
62AAB
330
62AA9
100
AcDbEntity
  8
0
100
AcDbVertex
100
AcDbPolygonMeshVertex
 10
0.8229153048764036
 20
-2.286
 30
-0.0000000000000002
 70
    64
  0
VERTEX
  5
62AAC
330
62AA9
100
AcDbEntity
  8
0
100
AcDbVertex
100
AcDbPolygonMeshVertex
 10
0.8229153048764036
 20
-2.286
 30
-0.0000000000000002
 70
    64
  0
VERTEX
  5
62AAD
330
62AA9
100
AcDbEntity
  8
0
100
AcDbVertex
100
AcDbPolygonMeshVertex
 10
0.2155819715430707
 20
-2.286
 30
0.1869999999999998
 70
    64
  0
VERTEX
  5
62AAE
330
62AA9
100
AcDbEntity
  8
0
100
AcDbVertex
100
AcDbPolygonMeshVertex
 10
0.2155819715430707
 20
-2.286
 30
-0.0000000000000002
 70
    64
  0
VERTEX
  5
62AAF
330
62AA9
100
AcDbEntity
  8
0
100
AcDbVertex
100
AcDbPolygonMeshVertex
 10
0.2155819715430707
 20
-2.286
 30
-0.0000000000000002
 70
    64
  0
VERTEX
  5
62AB0
330
62AA9
100
AcDbEntity
  8
0
100
AcDbVertex
100
AcDbPolygonMeshVertex
 10
0.2155819715430707
 20
-2.224
 30
0.1869999999999998
 70
    64
  0
VERTEX
  5
62AB1
330
62AA9
100
AcDbEntity
  8
0
100
AcDbVertex
100
AcDbPolygonMeshVertex
 10
0.2155819715430707
 20
-2.224
 30
-0.0000000000000002
 70
    64
  0
VERTEX
  5
62AB2
330
62AA9
100
AcDbEntity
  8
0
100
AcDbVertex
100
AcDbPolygonMeshVertex
 10
0.2155819715430707
 20
-2.286
 30
-0.0000000000000002
 70
    64
  0
VERTEX
  5
62AB3
330
62AA9
100
AcDbEntity
  8
0
100
AcDbVertex
100
AcDbPolygonMeshVertex
 10
0.8229153048764036
 20
-2.224
 30
0.1869999999999998
 70
    64
  0
VERTEX
  5
62AB4
330
62AA9
100
AcDbEntity
  8
0
100
AcDbVertex
100
AcDbPolygonMeshVertex
 10
0.8229153048764036
 20
-2.224
 30
-0.0000000000000002
 70
    64
  0
VERTEX
  5
62AB5
330
62AA9
100
AcDbEntity
  8
0
100
AcDbVertex
100
AcDbPolygonMeshVertex
 10
0.8229153048764036
 20
-2.286
 30
-0.0000000000000002
 70
    64
  0
VERTEX
  5
62AB6
330
62AA9
100
AcDbEntity
  8
0
100
AcDbVertex
100
AcDbPolygonMeshVertex
 10
0.8229153048764036
 20
-2.224
 30
0.1869999999999998
 70
    64
  0
VERTEX
  5
62AB7
330
62AA9
100
AcDbEntity
  8
0
100
AcDbVertex
100
AcDbPolygonMeshVertex
 10
0.8229153048764036
 20
-2.224
 30
0.1869999999999998
 70
    64
  0
VERTEX
  5
62AB8
330
62AA9
100
AcDbEntity
  8
0
100
AcDbVertex
100
AcDbPolygonMeshVertex
 10
0.8229153048764036
 20
-2.286
 30
0.1869999999999998
 70
    64
  0
VERTEX
  5
62AB9
330
62AA9
100
AcDbEntity
  8
0
100
AcDbVertex
100
AcDbPolygonMeshVertex
 10
0.2155819715430707
 20
-2.224
 30
0.1869999999999998
 70
    64
  0
VERTEX
  5
62ABA
330
62AA9
100
AcDbEntity
  8
0
100
AcDbVertex
100
AcDbPolygonMeshVertex
 10
0.2155819715430707
 20
-2.224
 30
0.1869999999999998
 70
    64
  0
VERTEX
  5
62ABB
330
62AA9
100
AcDbEntity
  8
0
100
AcDbVertex
100
AcDbPolygonMeshVertex
 10
0.2155819715430707
 20
-2.286
 30
0.1869999999999998
 70
    64
  0
SEQEND
  5
62ABC
330
62AA9
100
AcDbEntity
  8
0
  0
POLYLINE
  5
62ABD
330
458D6
100
AcDbEntity
  8
0
100
AcDbPolygonMesh
 66
     1
 10
0.0
 20
0.0
 30
0.0
 70
    16
 71
     6
 72
     3
  0
VERTEX
  5
62ABE
330
62ABD
100
AcDbEntity
  8
0
100
AcDbVertex
100
AcDbPolygonMeshVertex
 10
0.8229153048764036
 20
-2.224
 30
0.1869999999999998
 70
    64
  0
VERTEX
  5
62ABF
330
62ABD
100
AcDbEntity
  8
0
100
AcDbVertex
100
AcDbPolygonMeshVertex
 10
0.8229153048764036
 20
-2.224
 30
-0.0000000000000002
 70
    64
  0
VERTEX
  5
62AC0
330
62ABD
100
AcDbEntity
  8
0
100
AcDbVertex
100
AcDbPolygonMeshVertex
 10
0.8229153048764036
 20
-2.224
 30
-0.0000000000000002
 70
    64
  0
VERTEX
  5
62AC1
330
62ABD
100
AcDbEntity
  8
0
100
AcDbVertex
100
AcDbPolygonMeshVertex
 10
0.4882486382097385
 20
-2.224
 30
0.1869999999999998
 70
    64
  0
VERTEX
  5
62AC2
330
62ABD
100
AcDbEntity
  8
0
100
AcDbVertex
100
AcDbPolygonMeshVertex
 10
0.4882486382097385
 20
-2.224
 30
-0.0000000000000002
 70
    64
  0
VERTEX
  5
62AC3
330
62ABD
100
AcDbEntity
  8
0
100
AcDbVertex
100
AcDbPolygonMeshVertex
 10
0.4882486382097385
 20
-2.224
 30
-0.0000000000000002
 70
    64
  0
VERTEX
  5
62AC4
330
62ABD
100
AcDbEntity
  8
0
100
AcDbVertex
100
AcDbPolygonMeshVertex
 10
0.4882486382097385
 20
-2.027000000000001
 30
0.1869999999999998
 70
    64
  0
VERTEX
  5
62AC5
330
62ABD
100
AcDbEntity
  8
0
100
AcDbVertex
100
AcDbPolygonMeshVertex
 10
0.4882486382097385
 20
-2.027000000000001
 30
-0.0000000000000002
 70
    64
  0
VERTEX
  5
62AC6
330
62ABD
100
AcDbEntity
  8
0
100
AcDbVertex
100
AcDbPolygonMeshVertex
 10
0.4882486382097385
 20
-2.224
 30
-0.0000000000000002
 70
    64
  0
VERTEX
  5
62AC7
330
62ABD
100
AcDbEntity
  8
0
100
AcDbVertex
100
AcDbPolygonMeshVertex
 10
0.8229153048764036
 20
-2.027000000000001
 30
0.1869999999999998
 70
    64
  0
VERTEX
  5
62AC8
330
62ABD
100
AcDbEntity
  8
0
100
AcDbVertex
100
AcDbPolygonMeshVertex
 10
0.8229153048764036
 20
-2.027000000000001
 30
-0.0000000000000002
 70
    64
  0
VERTEX
  5
62AC9
330
62ABD
100
AcDbEntity
  8
0
100
AcDbVertex
100
AcDbPolygonMeshVertex
 10
0.8229153048764036
 20
-2.224
 30
-0.0000000000000002
 70
    64
  0
VERTEX
  5
62ACA
330
62ABD
100
AcDbEntity
  8
0
100
AcDbVertex
100
AcDbPolygonMeshVertex
 10
0.8229153048764036
 20
-2.027000000000001
 30
0.1869999999999998
 70
    64
  0
VERTEX
  5
62ACB
330
62ABD
100
AcDbEntity
  8
0
100
AcDbVertex
100
AcDbPolygonMeshVertex
 10
0.8229153048764036
 20
-2.027000000000001
 30
0.1869999999999998
 70
    64
  0
VERTEX
  5
62ACC
330
62ABD
100
AcDbEntity
  8
0
100
AcDbVertex
100
AcDbPolygonMeshVertex
 10
0.8229153048764036
 20
-2.224
 30
0.1869999999999998
 70
    64
  0
VERTEX
  5
62ACD
330
62ABD
100
AcDbEntity
  8
0
100
AcDbVertex
100
AcDbPolygonMeshVertex
 10
0.4882486382097385
 20
-2.027000000000001
 30
0.1869999999999998
 70
    64
  0
VERTEX
  5
62ACE
330
62ABD
100
AcDbEntity
  8
0
100
AcDbVertex
100
AcDbPolygonMeshVertex
 10
0.4882486382097385
 20
-2.027000000000001
 30
0.1869999999999998
 70
    64
  0
VERTEX
  5
62ACF
330
62ABD
100
AcDbEntity
  8
0
100
AcDbVertex
100
AcDbPolygonMeshVertex
 10
0.4882486382097385
 20
-2.224
 30
0.1869999999999998
 70
    64
  0
SEQEND
  5
62AD0
330
62ABD
100
AcDbEntity
  8
0
  0
LINE
  5
62AD1
330
458D6
100
AcDbEntity
  8
0
100
AcDbLine
 10
0.5502486382097378
 20
-2.089
 30
0.1869999999999998
 11
0.7609153048764044
 21
-2.089
 31
0.1869999999999998
  0
POLYLINE
  5
62AD2
330
458D6
100
AcDbEntity
  8
0
  6
Continuous
100
AcDb3dPolyline
 66
     1
 10
0.0
 20
0.0
 30
0.0
 70
     8
1001
ACAD
1000
R13OBJECT
1002
{
1005
0
1002
}
  0
VERTEX
  5
62AD3
330
62AD2
100
AcDbEntity
  8
0
  6
Continuous
100
AcDbVertex
100
AcDb3dPolylineVertex
 10
1.759999999999999
 20
-2.089
 30
1.318
 70
    32
1001
ACAD
1000
R13OBJECT
1002
{
1005
0
1002
}
  0
VERTEX
  5
62AD4
330
62AD2
100
AcDbEntity
  8
0
  6
Continuous
100
AcDbVertex
100
AcDb3dPolylineVertex
 10
0.0000000000000001
 20
-2.089
 30
1.318
 70
    32
1001
ACAD
1000
R13OBJECT
1002
{
1005
0
1002
}
  0
SEQEND
  5
62AD5
330
62AD2
100
AcDbEntity
  8
0
  6
Continuous
  0
POLYLINE
  5
62AD6
330
458D6
100
AcDbEntity
  8
0
  6
Continuous
100
AcDb3dPolyline
 66
     1
 10
0.0
 20
0.0
 30
0.0
 70
     8
1001
ACAD
1000
R13OBJECT
1002
{
1005
0
1002
}
  0
VERTEX
  5
62AD7
330
62AD6
100
AcDbEntity
  8
0
  6
Continuous
100
AcDbVertex
100
AcDb3dPolylineVertex
 10
1.759999999999999
 20
-2.089
 30
3.863399999999999
 70
    32
1001
ACAD
1000
R13OBJECT
1002
{
1005
0
1002
}
  0
VERTEX
  5
62AD8
330
62AD6
100
AcDbEntity
  8
0
  6
Continuous
100
AcDbVertex
100
AcDb3dPolylineVertex
 10
1.759999999999999
 20
-2.089
 30
1.318
 70
    32
1001
ACAD
1000
R13OBJECT
1002
{
1005
0
1002
}
  0
SEQEND
  5
62AD9
330
62AD6
100
AcDbEntity
  8
0
  6
Continuous
  0
POLYLINE
  5
62ADA
330
458D6
100
AcDbEntity
  8
0
  6
Continuous
100
AcDb3dPolyline
 66
     1
 10
0.0
 20
0.0
 30
0.0
 70
     8
1001
ACAD
1000
R13OBJECT
1002
{
1005
0
1002
}
  0
VERTEX
  5
62ADB
330
62ADA
100
AcDbEntity
  8
0
  6
Continuous
100
AcDbVertex
100
AcDb3dPolylineVertex
 10
0.0000000000000001
 20
-2.089
 30
1.318
 70
    32
1001
ACAD
1000
R13OBJECT
1002
{
1005
0
1002
}
  0
VERTEX
  5
62ADC
330
62ADA
100
AcDbEntity
  8
0
  6
Continuous
100
AcDbVertex
100
AcDb3dPolylineVertex
 10
0.0000000000000001
 20
0.4009999999999998
 30
1.318
 70
    32
1001
ACAD
1000
R13OBJECT
1002
{
1005
0
1002
}
  0
SEQEND
  5
62ADD
330
62ADA
100
AcDbEntity
  8
0
  6
Continuous
  0
POLYLINE
  5
62ADE
330
458D6
100
AcDbEntity
  8
0
  6
Continuous
100
AcDb3dPolyline
 66
     1
 10
0.0
 20
0.0
 30
0.0
 70
     8
  0
VERTEX
  5
62ADF
330
62ADE
100
AcDbEntity
  8
0
  6
Continuous
100
AcDbVertex
100
AcDb3dPolylineVertex
 10
1.759999999999999
 20
0.4009999999999998
 30
3.863399999999999
 70
    32
1001
ACAD
1000
R13OBJECT
1002
{
1005
62ADE
1002
}
  0
VERTEX
  5
62AE0
330
62ADE
100
AcDbEntity
  8
0
  6
Continuous
100
AcDbVertex
100
AcDb3dPolylineVertex
 10
1.759999999999999
 20
0.4009999999999998
 30
1.318
 70
    32
1001
ACAD
1000
R13OBJECT
1002
{
1005
62ADE
1002
}
  0
SEQEND
  5
62AE1
330
62ADE
100
AcDbEntity
  8
0
  6
Continuous
  0
POLYLINE
  5
62AE2
330
458D6
100
AcDbEntity
  8
0
  6
Continuous
100
AcDb3dPolyline
 66
     1
 10
0.0
 20
0.0
 30
0.0
 70
     8
1001
ACAD
1000
R13OBJECT
1002
{
1005
62ADE
1002
}
  0
VERTEX
  5
62AE3
330
62AE2
100
AcDbEntity
  8
0
  6
Continuous
100
AcDbVertex
100
AcDb3dPolylineVertex
 10
0.0000000000000001
 20
0.4009999999999998
 30
1.318
 70
    32
1001
ACAD
1000
R13OBJECT
1002
{
1005
62ADE
1002
}
  0
VERTEX
  5
62AE4
330
62AE2
100
AcDbEntity
  8
0
  6
Continuous
100
AcDbVertex
100
AcDb3dPolylineVertex
 10
1.759999999999999
 20
0.4009999999999998
 30
1.318
 70
    32
1001
ACAD
1000
R13OBJECT
1002
{
1005
62ADE
1002
}
  0
SEQEND
  5
62AE5
330
62AE2
100
AcDbEntity
  8
0
  6
Continuous
  0
POLYLINE
  5
62AE6
330
458D6
100
AcDbEntity
  8
0
  6
Continuous
100
AcDb3dPolyline
 66
     1
 10
0.0
 20
0.0
 30
0.0
 70
     8
  0
VERTEX
  5
62AE7
330
62AE6
100
AcDbEntity
  8
0
  6
Continuous
100
AcDbVertex
100
AcDb3dPolylineVertex
 10
1.759999999999999
 20
-2.089
 30
3.863399999999999
 70
    32
1001
ACAD
1000
R13OBJECT
1002
{
1005
62AE6
1002
}
  0
VERTEX
  5
62AE8
330
62AE6
100
AcDbEntity
  8
0
  6
Continuous
100
AcDbVertex
100
AcDb3dPolylineVertex
 10
1.759999999999999
 20
-2.089
 30
1.318
 70
    32
1001
ACAD
1000
R13OBJECT
1002
{
1005
62AE6
1002
}
  0
SEQEND
  5
62AE9
330
62AE6
100
AcDbEntity
  8
0
  6
Continuous
  0
POLYLINE
  5
62AEA
330
458D6
100
AcDbEntity
  8
0
  6
Continuous
100
AcDb3dPolyline
 66
     1
 10
0.0
 20
0.0
 30
0.0
 70
     8
1001
ACAD
1000
R13OBJECT
1002
{
1005
62AE6
1002
}
  0
VERTEX
  5
62AEB
330
62AEA
100
AcDbEntity
  8
0
  6
Continuous
100
AcDbVertex
100
AcDb3dPolylineVertex
 10
1.759999999999999
 20
0.4009999999999998
 30
1.318
 70
    32
1001
ACAD
1000
R13OBJECT
1002
{
1005
62AE6
1002
}
  0
VERTEX
  5
62AEC
330
62AEA
100
AcDbEntity
  8
0
  6
Continuous
100
AcDbVertex
100
AcDb3dPolylineVertex
 10
1.759999999999999
 20
-2.089
 30
1.318
 70
    32
1001
ACAD
1000
R13OBJECT
1002
{
1005
62AE6
1002
}
  0
SEQEND
  5
62AED
330
62AEA
100
AcDbEntity
  8
0
  6
Continuous
  0
POLYLINE
  5
62AEE
330
458D6
100
AcDbEntity
  8
0
  6
Continuous
100
AcDb3dPolyline
 66
     1
 10
0.0
 20
0.0
 30
0.0
 70
     8
1001
ACAD
1000
R13OBJECT
1002
{
1005
62AE6
1002
}
  0
VERTEX
  5
62AEF
330
62AEE
100
AcDbEntity
  8
0
  6
Continuous
100
AcDbVertex
100
AcDb3dPolylineVertex
 10
1.759999999999999
 20
0.4009999999999998
 30
3.863399999999999
 70
    32
1001
ACAD
1000
R13OBJECT
1002
{
1005
62AE6
1002
}
  0
VERTEX
  5
62AF0
330
62AEE
100
AcDbEntity
  8
0
  6
Continuous
100
AcDbVertex
100
AcDb3dPolylineVertex
 10
1.759999999999999
 20
0.4009999999999998
 30
1.318
 70
    32
1001
ACAD
1000
R13OBJECT
1002
{
1005
62AE6
1002
}
  0
SEQEND
  5
62AF1
330
62AEE
100
AcDbEntity
  8
0
  6
Continuous
  0
POLYLINE
  5
62AF2
330
458D6
100
AcDbEntity
  8
0
  6
Continuous
100
AcDb3dPolyline
 66
     1
 10
0.0
 20
0.0
 30
0.0
 70
     8
1001
ACAD
1000
R13OBJECT
1002
{
1005
62AE6
1002
}
  0
VERTEX
  5
62AF3
330
62AF2
100
AcDbEntity
  8
0
  6
Continuous
100
AcDbVertex
100
AcDb3dPolylineVertex
 10
1.759999999999999
 20
-2.089
 30
3.863399999999999
 70
    32
1001
ACAD
1000
R13OBJECT
1002
{
1005
62AE6
1002
}
  0
VERTEX
  5
62AF4
330
62AF2
100
AcDbEntity
  8
0
  6
Continuous
100
AcDbVertex
100
AcDb3dPolylineVertex
 10
1.759999999999999
 20
0.4009999999999998
 30
3.863399999999999
 70
    32
1001
ACAD
1000
R13OBJECT
1002
{
1005
62AE6
1002
}
  0
SEQEND
  5
62AF5
330
62AF2
100
AcDbEntity
  8
0
  6
Continuous
  0
3DFACE
  5
62AF6
330
458D6
100
AcDbEntity
  8
0
100
AcDbFace
 10
1.759999999999999
 20
-2.089
 30
1.318
 11
1.759999999999999
 21
-2.089
 31
1.318
 12
0.0000000000000001
 22
-2.089
 32
1.318
 13
0.0000000000000001
 23
-2.089
 33
1.318
  0
3DFACE
  5
62AF7
330
458D6
100
AcDbEntity
  8
0
100
AcDbFace
 10
0.0000000000000001
 20
-2.089
 30
1.318
 11
0.0000000000000001
 21
-2.089
 31
1.318
 12
0.0000000000000001
 22
-2.089
 32
1.318
 13
0.0000000000000001
 23
0.4009999999999998
 33
1.318
  0
3DFACE
  5
62AF8
330
458D6
100
AcDbEntity
  8
0
100
AcDbFace
 10
0.0000000000000001
 20
0.4009999999999998
 30
1.318
 11
0.0000000000000001
 21
-2.089
 31
1.318
 12
1.759999999999999
 22
-2.089
 32
1.318
 13
1.759999999999999
 23
0.4009999999999998
 33
1.318
  0
POLYLINE
  5
62AF9
330
458D6
100
AcDbEntity
  8
0
100
AcDbPolygonMesh
 66
     1
 10
0.0
 20
0.0
 30
0.0
 70
    16
 71
     6
 72
     3
  0
VERTEX
  5
62AFA
330
62AF9
100
AcDbEntity
  8
0
100
AcDbVertex
100
AcDbPolygonMeshVertex
 10
1.245499999999998
 20
-0.5670000000000002
 30
4.074399999999999
 70
    64
  0
VERTEX
  5
62AFB
330
62AF9
100
AcDbEntity
  8
0
100
AcDbVertex
100
AcDbPolygonMeshVertex
 10
1.245499999999998
 20
-0.5670000000000002
 30
3.897399999999999
 70
    64
  0
VERTEX
  5
62AFC
330
62AF9
100
AcDbEntity
  8
0
100
AcDbVertex
100
AcDbPolygonMeshVertex
 10
1.245499999999998
 20
-0.5670000000000002
 30
3.897399999999999
 70
    64
  0
VERTEX
  5
62AFD
330
62AF9
100
AcDbEntity
  8
0
100
AcDbVertex
100
AcDbPolygonMeshVertex
 10
1.075999999999998
 20
-0.5670000000000002
 30
4.074399999999999
 70
    64
  0
VERTEX
  5
62AFE
330
62AF9
100
AcDbEntity
  8
0
100
AcDbVertex
100
AcDbPolygonMeshVertex
 10
1.075999999999998
 20
-0.5670000000000002
 30
3.897399999999999
 70
    64
  0
VERTEX
  5
62AFF
330
62AF9
100
AcDbEntity
  8
0
100
AcDbVertex
100
AcDbPolygonMeshVertex
 10
1.075999999999998
 20
-0.5670000000000002
 30
3.897399999999999
 70
    64
  0
VERTEX
  5
62B00
330
62AF9
100
AcDbEntity
  8
0
100
AcDbVertex
100
AcDbPolygonMeshVertex
 10
1.075999999999998
 20
-0.2140000000000005
 30
4.074399999999999
 70
    64
  0
VERTEX
  5
62B01
330
62AF9
100
AcDbEntity
  8
0
100
AcDbVertex
100
AcDbPolygonMeshVertex
 10
1.075999999999998
 20
-0.2140000000000005
 30
3.897399999999999
 70
    64
  0
VERTEX
  5
62B02
330
62AF9
100
AcDbEntity
  8
0
100
AcDbVertex
100
AcDbPolygonMeshVertex
 10
1.075999999999998
 20
-0.5670000000000002
 30
3.897399999999999
 70
    64
  0
VERTEX
  5
62B03
330
62AF9
100
AcDbEntity
  8
0
100
AcDbVertex
100
AcDbPolygonMeshVertex
 10
1.245499999999998
 20
-0.2140000000000005
 30
4.074399999999999
 70
    64
  0
VERTEX
  5
62B04
330
62AF9
100
AcDbEntity
  8
0
100
AcDbVertex
100
AcDbPolygonMeshVertex
 10
1.245499999999998
 20
-0.2140000000000005
 30
3.897399999999999
 70
    64
  0
VERTEX
  5
62B05
330
62AF9
100
AcDbEntity
  8
0
100
AcDbVertex
100
AcDbPolygonMeshVertex
 10
1.245499999999998
 20
-0.5670000000000002
 30
3.897399999999999
 70
    64
  0
VERTEX
  5
62B06
330
62AF9
100
AcDbEntity
  8
0
100
AcDbVertex
100
AcDbPolygonMeshVertex
 10
1.245499999999998
 20
-0.2140000000000005
 30
4.074399999999999
 70
    64
  0
VERTEX
  5
62B07
330
62AF9
100
AcDbEntity
  8
0
100
AcDbVertex
100
AcDbPolygonMeshVertex
 10
1.245499999999998
 20
-0.2140000000000005
 30
4.074399999999999
 70
    64
  0
VERTEX
  5
62B08
330
62AF9
100
AcDbEntity
  8
0
100
AcDbVertex
100
AcDbPolygonMeshVertex
 10
1.245499999999998
 20
-0.5670000000000002
 30
4.074399999999999
 70
    64
  0
VERTEX
  5
62B09
330
62AF9
100
AcDbEntity
  8
0
100
AcDbVertex
100
AcDbPolygonMeshVertex
 10
1.075999999999998
 20
-0.2140000000000005
 30
4.074399999999999
 70
    64
  0
VERTEX
  5
62B0A
330
62AF9
100
AcDbEntity
  8
0
100
AcDbVertex
100
AcDbPolygonMeshVertex
 10
1.075999999999998
 20
-0.2140000000000005
 30
4.074399999999999
 70
    64
  0
VERTEX
  5
62B0B
330
62AF9
100
AcDbEntity
  8
0
100
AcDbVertex
100
AcDbPolygonMeshVertex
 10
1.075999999999998
 20
-0.5670000000000002
 30
4.074399999999999
 70
    64
  0
SEQEND
  5
62B0C
330
62AF9
100
AcDbEntity
  8
0
  0
POLYLINE
  5
62B0D
330
458D6
100
AcDbEntity
  8
0
100
AcDbPolygonMesh
 66
     1
 10
0.0
 20
0.0
 30
0.0
 70
    16
 71
     6
 72
     3
  0
VERTEX
  5
62B0E
330
62B0D
100
AcDbEntity
  8
0
100
AcDbVertex
100
AcDbPolygonMeshVertex
 10
1.245499999999998
 20
-0.5670000000000002
 30
3.897399999999999
 70
    64
  0
VERTEX
  5
62B0F
330
62B0D
100
AcDbEntity
  8
0
100
AcDbVertex
100
AcDbPolygonMeshVertex
 10
1.245499999999998
 20
-0.5670000000000002
 30
3.863399999999999
 70
    64
  0
VERTEX
  5
62B10
330
62B0D
100
AcDbEntity
  8
0
100
AcDbVertex
100
AcDbPolygonMeshVertex
 10
1.245499999999998
 20
-0.5670000000000002
 30
3.863399999999999
 70
    64
  0
VERTEX
  5
62B11
330
62B0D
100
AcDbEntity
  8
0
100
AcDbVertex
100
AcDbPolygonMeshVertex
 10
0.5144999999999991
 20
-0.5670000000000002
 30
3.897399999999999
 70
    64
  0
VERTEX
  5
62B12
330
62B0D
100
AcDbEntity
  8
0
100
AcDbVertex
100
AcDbPolygonMeshVertex
 10
0.5144999999999991
 20
-0.5670000000000002
 30
3.863399999999999
 70
    64
  0
VERTEX
  5
62B13
330
62B0D
100
AcDbEntity
  8
0
100
AcDbVertex
100
AcDbPolygonMeshVertex
 10
0.5144999999999991
 20
-0.5670000000000002
 30
3.863399999999999
 70
    64
  0
VERTEX
  5
62B14
330
62B0D
100
AcDbEntity
  8
0
100
AcDbVertex
100
AcDbPolygonMeshVertex
 10
0.5144999999999991
 20
-0.2140000000000005
 30
3.897399999999999
 70
    64
  0
VERTEX
  5
62B15
330
62B0D
100
AcDbEntity
  8
0
100
AcDbVertex
100
AcDbPolygonMeshVertex
 10
0.5144999999999991
 20
-0.2140000000000005
 30
3.863399999999999
 70
    64
  0
VERTEX
  5
62B16
330
62B0D
100
AcDbEntity
  8
0
100
AcDbVertex
100
AcDbPolygonMeshVertex
 10
0.5144999999999991
 20
-0.5670000000000002
 30
3.863399999999999
 70
    64
  0
VERTEX
  5
62B17
330
62B0D
100
AcDbEntity
  8
0
100
AcDbVertex
100
AcDbPolygonMeshVertex
 10
1.245499999999998
 20
-0.2140000000000005
 30
3.897399999999999
 70
    64
  0
VERTEX
  5
62B18
330
62B0D
100
AcDbEntity
  8
0
100
AcDbVertex
100
AcDbPolygonMeshVertex
 10
1.245499999999998
 20
-0.2140000000000005
 30
3.863399999999999
 70
    64
  0
VERTEX
  5
62B19
330
62B0D
100
AcDbEntity
  8
0
100
AcDbVertex
100
AcDbPolygonMeshVertex
 10
1.245499999999998
 20
-0.5670000000000002
 30
3.863399999999999
 70
    64
  0
VERTEX
  5
62B1A
330
62B0D
100
AcDbEntity
  8
0
100
AcDbVertex
100
AcDbPolygonMeshVertex
 10
1.245499999999998
 20
-0.2140000000000005
 30
3.897399999999999
 70
    64
  0
VERTEX
  5
62B1B
330
62B0D
100
AcDbEntity
  8
0
100
AcDbVertex
100
AcDbPolygonMeshVertex
 10
1.245499999999998
 20
-0.2140000000000005
 30
3.897399999999999
 70
    64
  0
VERTEX
  5
62B1C
330
62B0D
100
AcDbEntity
  8
0
100
AcDbVertex
100
AcDbPolygonMeshVertex
 10
1.245499999999998
 20
-0.5670000000000002
 30
3.897399999999999
 70
    64
  0
VERTEX
  5
62B1D
330
62B0D
100
AcDbEntity
  8
0
100
AcDbVertex
100
AcDbPolygonMeshVertex
 10
0.5144999999999991
 20
-0.2140000000000005
 30
3.897399999999999
 70
    64
  0
VERTEX
  5
62B1E
330
62B0D
100
AcDbEntity
  8
0
100
AcDbVertex
100
AcDbPolygonMeshVertex
 10
0.5144999999999991
 20
-0.2140000000000005
 30
3.897399999999999
 70
    64
  0
VERTEX
  5
62B1F
330
62B0D
100
AcDbEntity
  8
0
100
AcDbVertex
100
AcDbPolygonMeshVertex
 10
0.5144999999999991
 20
-0.5670000000000002
 30
3.897399999999999
 70
    64
  0
SEQEND
  5
62B20
330
62B0D
100
AcDbEntity
  8
0
  0
POLYLINE
  5
62B21
330
458D6
100
AcDbEntity
  8
0
100
AcDbPolygonMesh
 66
     1
 10
0.0
 20
0.0
 30
0.0
 70
    16
 71
     6
 72
     3
  0
VERTEX
  5
62B22
330
62B21
100
AcDbEntity
  8
0
100
AcDbVertex
100
AcDbPolygonMeshVertex
 10
1.117499999999998
 20
-1.021999999999999
 30
4.1134
 70
    64
  0
VERTEX
  5
62B23
330
62B21
100
AcDbEntity
  8
0
100
AcDbVertex
100
AcDbPolygonMeshVertex
 10
1.117499999999998
 20
-1.021999999999999
 30
3.8974
 70
    64
  0
VERTEX
  5
62B24
330
62B21
100
AcDbEntity
  8
0
100
AcDbVertex
100
AcDbPolygonMeshVertex
 10
1.117499999999998
 20
-1.021999999999999
 30
3.8974
 70
    64
  0
VERTEX
  5
62B25
330
62B21
100
AcDbEntity
  8
0
100
AcDbVertex
100
AcDbPolygonMeshVertex
 10
0.982499999999999
 20
-1.021999999999999
 30
4.1134
 70
    64
  0
VERTEX
  5
62B26
330
62B21
100
AcDbEntity
  8
0
100
AcDbVertex
100
AcDbPolygonMeshVertex
 10
0.982499999999999
 20
-1.021999999999999
 30
3.8974
 70
    64
  0
VERTEX
  5
62B27
330
62B21
100
AcDbEntity
  8
0
100
AcDbVertex
100
AcDbPolygonMeshVertex
 10
0.982499999999999
 20
-1.021999999999999
 30
3.8974
 70
    64
  0
VERTEX
  5
62B28
330
62B21
100
AcDbEntity
  8
0
100
AcDbVertex
100
AcDbPolygonMeshVertex
 10
0.982499999999999
 20
-0.6769999999999996
 30
4.1134
 70
    64
  0
VERTEX
  5
62B29
330
62B21
100
AcDbEntity
  8
0
100
AcDbVertex
100
AcDbPolygonMeshVertex
 10
0.982499999999999
 20
-0.6769999999999996
 30
3.8974
 70
    64
  0
VERTEX
  5
62B2A
330
62B21
100
AcDbEntity
  8
0
100
AcDbVertex
100
AcDbPolygonMeshVertex
 10
0.982499999999999
 20
-1.021999999999999
 30
3.8974
 70
    64
  0
VERTEX
  5
62B2B
330
62B21
100
AcDbEntity
  8
0
100
AcDbVertex
100
AcDbPolygonMeshVertex
 10
1.117499999999998
 20
-0.6769999999999996
 30
4.1134
 70
    64
  0
VERTEX
  5
62B2C
330
62B21
100
AcDbEntity
  8
0
100
AcDbVertex
100
AcDbPolygonMeshVertex
 10
1.117499999999998
 20
-0.6769999999999996
 30
3.8974
 70
    64
  0
VERTEX
  5
62B2D
330
62B21
100
AcDbEntity
  8
0
100
AcDbVertex
100
AcDbPolygonMeshVertex
 10
1.117499999999998
 20
-1.021999999999999
 30
3.8974
 70
    64
  0
VERTEX
  5
62B2E
330
62B21
100
AcDbEntity
  8
0
100
AcDbVertex
100
AcDbPolygonMeshVertex
 10
1.117499999999998
 20
-0.6769999999999996
 30
4.1134
 70
    64
  0
VERTEX
  5
62B2F
330
62B21
100
AcDbEntity
  8
0
100
AcDbVertex
100
AcDbPolygonMeshVertex
 10
1.117499999999998
 20
-0.6769999999999996
 30
4.1134
 70
    64
  0
VERTEX
  5
62B30
330
62B21
100
AcDbEntity
  8
0
100
AcDbVertex
100
AcDbPolygonMeshVertex
 10
1.117499999999998
 20
-1.021999999999999
 30
4.1134
 70
    64
  0
VERTEX
  5
62B31
330
62B21
100
AcDbEntity
  8
0
100
AcDbVertex
100
AcDbPolygonMeshVertex
 10
0.982499999999999
 20
-0.6769999999999996
 30
4.1134
 70
    64
  0
VERTEX
  5
62B32
330
62B21
100
AcDbEntity
  8
0
100
AcDbVertex
100
AcDbPolygonMeshVertex
 10
0.982499999999999
 20
-0.6769999999999996
 30
4.1134
 70
    64
  0
VERTEX
  5
62B33
330
62B21
100
AcDbEntity
  8
0
100
AcDbVertex
100
AcDbPolygonMeshVertex
 10
0.982499999999999
 20
-1.021999999999999
 30
4.1134
 70
    64
  0
SEQEND
  5
62B34
330
62B21
100
AcDbEntity
  8
0
  0
POLYLINE
  5
62B35
330
458D6
100
AcDbEntity
  8
0
100
AcDbPolygonMesh
 66
     1
 10
0.0
 20
0.0
 30
0.0
 70
    16
 71
     6
 72
     3
  0
VERTEX
  5
62B36
330
62B35
100
AcDbEntity
  8
0
100
AcDbVertex
100
AcDbPolygonMeshVertex
 10
0.777499999999999
 20
-1.021999999999999
 30
4.1134
 70
    64
  0
VERTEX
  5
62B37
330
62B35
100
AcDbEntity
  8
0
100
AcDbVertex
100
AcDbPolygonMeshVertex
 10
0.777499999999999
 20
-1.021999999999999
 30
3.8974
 70
    64
  0
VERTEX
  5
62B38
330
62B35
100
AcDbEntity
  8
0
100
AcDbVertex
100
AcDbPolygonMeshVertex
 10
0.777499999999999
 20
-1.021999999999999
 30
3.8974
 70
    64
  0
VERTEX
  5
62B39
330
62B35
100
AcDbEntity
  8
0
100
AcDbVertex
100
AcDbPolygonMeshVertex
 10
0.6424999999999992
 20
-1.021999999999999
 30
4.1134
 70
    64
  0
VERTEX
  5
62B3A
330
62B35
100
AcDbEntity
  8
0
100
AcDbVertex
100
AcDbPolygonMeshVertex
 10
0.6424999999999992
 20
-1.021999999999999
 30
3.8974
 70
    64
  0
VERTEX
  5
62B3B
330
62B35
100
AcDbEntity
  8
0
100
AcDbVertex
100
AcDbPolygonMeshVertex
 10
0.6424999999999992
 20
-1.021999999999999
 30
3.8974
 70
    64
  0
VERTEX
  5
62B3C
330
62B35
100
AcDbEntity
  8
0
100
AcDbVertex
100
AcDbPolygonMeshVertex
 10
0.6424999999999992
 20
-0.6769999999999996
 30
4.1134
 70
    64
  0
VERTEX
  5
62B3D
330
62B35
100
AcDbEntity
  8
0
100
AcDbVertex
100
AcDbPolygonMeshVertex
 10
0.6424999999999992
 20
-0.6769999999999996
 30
3.8974
 70
    64
  0
VERTEX
  5
62B3E
330
62B35
100
AcDbEntity
  8
0
100
AcDbVertex
100
AcDbPolygonMeshVertex
 10
0.6424999999999992
 20
-1.021999999999999
 30
3.8974
 70
    64
  0
VERTEX
  5
62B3F
330
62B35
100
AcDbEntity
  8
0
100
AcDbVertex
100
AcDbPolygonMeshVertex
 10
0.777499999999999
 20
-0.6769999999999996
 30
4.1134
 70
    64
  0
VERTEX
  5
62B40
330
62B35
100
AcDbEntity
  8
0
100
AcDbVertex
100
AcDbPolygonMeshVertex
 10
0.777499999999999
 20
-0.6769999999999996
 30
3.8974
 70
    64
  0
VERTEX
  5
62B41
330
62B35
100
AcDbEntity
  8
0
100
AcDbVertex
100
AcDbPolygonMeshVertex
 10
0.777499999999999
 20
-1.021999999999999
 30
3.8974
 70
    64
  0
VERTEX
  5
62B42
330
62B35
100
AcDbEntity
  8
0
100
AcDbVertex
100
AcDbPolygonMeshVertex
 10
0.777499999999999
 20
-0.6769999999999996
 30
4.1134
 70
    64
  0
VERTEX
  5
62B43
330
62B35
100
AcDbEntity
  8
0
100
AcDbVertex
100
AcDbPolygonMeshVertex
 10
0.777499999999999
 20
-0.6769999999999996
 30
4.1134
 70
    64
  0
VERTEX
  5
62B44
330
62B35
100
AcDbEntity
  8
0
100
AcDbVertex
100
AcDbPolygonMeshVertex
 10
0.777499999999999
 20
-1.021999999999999
 30
4.1134
 70
    64
  0
VERTEX
  5
62B45
330
62B35
100
AcDbEntity
  8
0
100
AcDbVertex
100
AcDbPolygonMeshVertex
 10
0.6424999999999992
 20
-0.6769999999999996
 30
4.1134
 70
    64
  0
VERTEX
  5
62B46
330
62B35
100
AcDbEntity
  8
0
100
AcDbVertex
100
AcDbPolygonMeshVertex
 10
0.6424999999999992
 20
-0.6769999999999996
 30
4.1134
 70
    64
  0
VERTEX
  5
62B47
330
62B35
100
AcDbEntity
  8
0
100
AcDbVertex
100
AcDbPolygonMeshVertex
 10
0.6424999999999992
 20
-1.021999999999999
 30
4.1134
 70
    64
  0
SEQEND
  5
62B48
330
62B35
100
AcDbEntity
  8
0
  0
LINE
  5
62B49
330
458D6
100
AcDbEntity
  8
0
100
AcDbLine
 10
0.777499999999999
 20
-1.021999999999999
 30
4.1134
 11
0.777499999999999
 21
-1.021999999999999
 31
3.8974
  0
POLYLINE
  5
62B4A
330
458D6
100
AcDbEntity
  8
0
100
AcDbPolygonMesh
 66
     1
 10
0.0
 20
0.0
 30
0.0
 70
    16
 71
     6
 72
     3
  0
VERTEX
  5
62B4B
330
62B4A
100
AcDbEntity
  8
0
100
AcDbVertex
100
AcDbPolygonMeshVertex
 10
0.6839999999999993
 20
-0.5670000000000002
 30
4.074399999999999
 70
    64
  0
VERTEX
  5
62B4C
330
62B4A
100
AcDbEntity
  8
0
100
AcDbVertex
100
AcDbPolygonMeshVertex
 10
0.6839999999999993
 20
-0.5670000000000002
 30
3.897399999999999
 70
    64
  0
VERTEX
  5
62B4D
330
62B4A
100
AcDbEntity
  8
0
100
AcDbVertex
100
AcDbPolygonMeshVertex
 10
0.6839999999999993
 20
-0.5670000000000002
 30
3.897399999999999
 70
    64
  0
VERTEX
  5
62B4E
330
62B4A
100
AcDbEntity
  8
0
100
AcDbVertex
100
AcDbPolygonMeshVertex
 10
0.5144999999999991
 20
-0.5670000000000002
 30
4.074399999999999
 70
    64
  0
VERTEX
  5
62B4F
330
62B4A
100
AcDbEntity
  8
0
100
AcDbVertex
100
AcDbPolygonMeshVertex
 10
0.5144999999999991
 20
-0.5670000000000002
 30
3.897399999999999
 70
    64
  0
VERTEX
  5
62B50
330
62B4A
100
AcDbEntity
  8
0
100
AcDbVertex
100
AcDbPolygonMeshVertex
 10
0.5144999999999991
 20
-0.5670000000000002
 30
3.897399999999999
 70
    64
  0
VERTEX
  5
62B51
330
62B4A
100
AcDbEntity
  8
0
100
AcDbVertex
100
AcDbPolygonMeshVertex
 10
0.5144999999999991
 20
-0.2140000000000005
 30
4.074399999999999
 70
    64
  0
VERTEX
  5
62B52
330
62B4A
100
AcDbEntity
  8
0
100
AcDbVertex
100
AcDbPolygonMeshVertex
 10
0.5144999999999991
 20
-0.2140000000000005
 30
3.897399999999999
 70
    64
  0
VERTEX
  5
62B53
330
62B4A
100
AcDbEntity
  8
0
100
AcDbVertex
100
AcDbPolygonMeshVertex
 10
0.5144999999999991
 20
-0.5670000000000002
 30
3.897399999999999
 70
    64
  0
VERTEX
  5
62B54
330
62B4A
100
AcDbEntity
  8
0
100
AcDbVertex
100
AcDbPolygonMeshVertex
 10
0.6839999999999993
 20
-0.2140000000000005
 30
4.074399999999999
 70
    64
  0
VERTEX
  5
62B55
330
62B4A
100
AcDbEntity
  8
0
100
AcDbVertex
100
AcDbPolygonMeshVertex
 10
0.6839999999999993
 20
-0.2140000000000005
 30
3.897399999999999
 70
    64
  0
VERTEX
  5
62B56
330
62B4A
100
AcDbEntity
  8
0
100
AcDbVertex
100
AcDbPolygonMeshVertex
 10
0.6839999999999993
 20
-0.5670000000000002
 30
3.897399999999999
 70
    64
  0
VERTEX
  5
62B57
330
62B4A
100
AcDbEntity
  8
0
100
AcDbVertex
100
AcDbPolygonMeshVertex
 10
0.6839999999999993
 20
-0.2140000000000005
 30
4.074399999999999
 70
    64
  0
VERTEX
  5
62B58
330
62B4A
100
AcDbEntity
  8
0
100
AcDbVertex
100
AcDbPolygonMeshVertex
 10
0.6839999999999993
 20
-0.2140000000000005
 30
4.074399999999999
 70
    64
  0
VERTEX
  5
62B59
330
62B4A
100
AcDbEntity
  8
0
100
AcDbVertex
100
AcDbPolygonMeshVertex
 10
0.6839999999999993
 20
-0.5670000000000002
 30
4.074399999999999
 70
    64
  0
VERTEX
  5
62B5A
330
62B4A
100
AcDbEntity
  8
0
100
AcDbVertex
100
AcDbPolygonMeshVertex
 10
0.5144999999999991
 20
-0.2140000000000005
 30
4.074399999999999
 70
    64
  0
VERTEX
  5
62B5B
330
62B4A
100
AcDbEntity
  8
0
100
AcDbVertex
100
AcDbPolygonMeshVertex
 10
0.5144999999999991
 20
-0.2140000000000005
 30
4.074399999999999
 70
    64
  0
VERTEX
  5
62B5C
330
62B4A
100
AcDbEntity
  8
0
100
AcDbVertex
100
AcDbPolygonMeshVertex
 10
0.5144999999999991
 20
-0.5670000000000002
 30
4.074399999999999
 70
    64
  0
SEQEND
  5
62B5D
330
62B4A
100
AcDbEntity
  8
0
  0
LINE
  5
62B5E
330
458D6
100
AcDbEntity
  8
0
100
AcDbLine
 10
0.6839999999999993
 20
-0.5670000000000002
 30
4.074399999999999
 11
0.6839999999999993
 21
-0.5670000000000002
 31
3.897399999999999
  0
POLYLINE
  5
62B5F
330
458D6
100
AcDbEntity
  8
0
100
AcDbPolygonMesh
 66
     1
 10
0.0
 20
0.0
 30
0.0
 70
    16
 71
     6
 72
     3
  0
VERTEX
  5
62B60
330
62B5F
100
AcDbEntity
  8
0
100
AcDbVertex
100
AcDbPolygonMeshVertex
 10
1.117499999999998
 20
-1.021999999999999
 30
3.8974
 70
    64
  0
VERTEX
  5
62B61
330
62B5F
100
AcDbEntity
  8
0
100
AcDbVertex
100
AcDbPolygonMeshVertex
 10
1.117499999999998
 20
-1.021999999999999
 30
3.863399999999999
 70
    64
  0
VERTEX
  5
62B62
330
62B5F
100
AcDbEntity
  8
0
100
AcDbVertex
100
AcDbPolygonMeshVertex
 10
1.117499999999998
 20
-1.021999999999999
 30
3.863399999999999
 70
    64
  0
VERTEX
  5
62B63
330
62B5F
100
AcDbEntity
  8
0
100
AcDbVertex
100
AcDbPolygonMeshVertex
 10
0.6424999999999992
 20
-1.021999999999999
 30
3.8974
 70
    64
  0
VERTEX
  5
62B64
330
62B5F
100
AcDbEntity
  8
0
100
AcDbVertex
100
AcDbPolygonMeshVertex
 10
0.6424999999999992
 20
-1.021999999999999
 30
3.863399999999999
 70
    64
  0
VERTEX
  5
62B65
330
62B5F
100
AcDbEntity
  8
0
100
AcDbVertex
100
AcDbPolygonMeshVertex
 10
0.6424999999999992
 20
-1.021999999999999
 30
3.863399999999999
 70
    64
  0
VERTEX
  5
62B66
330
62B5F
100
AcDbEntity
  8
0
100
AcDbVertex
100
AcDbPolygonMeshVertex
 10
0.6424999999999992
 20
-0.6769999999999996
 30
3.8974
 70
    64
  0
VERTEX
  5
62B67
330
62B5F
100
AcDbEntity
  8
0
100
AcDbVertex
100
AcDbPolygonMeshVertex
 10
0.6424999999999992
 20
-0.6769999999999996
 30
3.863399999999999
 70
    64
  0
VERTEX
  5
62B68
330
62B5F
100
AcDbEntity
  8
0
100
AcDbVertex
100
AcDbPolygonMeshVertex
 10
0.6424999999999992
 20
-1.021999999999999
 30
3.863399999999999
 70
    64
  0
VERTEX
  5
62B69
330
62B5F
100
AcDbEntity
  8
0
100
AcDbVertex
100
AcDbPolygonMeshVertex
 10
1.117499999999998
 20
-0.6769999999999996
 30
3.8974
 70
    64
  0
VERTEX
  5
62B6A
330
62B5F
100
AcDbEntity
  8
0
100
AcDbVertex
100
AcDbPolygonMeshVertex
 10
1.117499999999998
 20
-0.6769999999999996
 30
3.863399999999999
 70
    64
  0
VERTEX
  5
62B6B
330
62B5F
100
AcDbEntity
  8
0
100
AcDbVertex
100
AcDbPolygonMeshVertex
 10
1.117499999999998
 20
-1.021999999999999
 30
3.863399999999999
 70
    64
  0
VERTEX
  5
62B6C
330
62B5F
100
AcDbEntity
  8
0
100
AcDbVertex
100
AcDbPolygonMeshVertex
 10
1.117499999999998
 20
-0.6769999999999996
 30
3.8974
 70
    64
  0
VERTEX
  5
62B6D
330
62B5F
100
AcDbEntity
  8
0
100
AcDbVertex
100
AcDbPolygonMeshVertex
 10
1.117499999999998
 20
-0.6769999999999996
 30
3.8974
 70
    64
  0
VERTEX
  5
62B6E
330
62B5F
100
AcDbEntity
  8
0
100
AcDbVertex
100
AcDbPolygonMeshVertex
 10
1.117499999999998
 20
-1.021999999999999
 30
3.8974
 70
    64
  0
VERTEX
  5
62B6F
330
62B5F
100
AcDbEntity
  8
0
100
AcDbVertex
100
AcDbPolygonMeshVertex
 10
0.6424999999999992
 20
-0.6769999999999996
 30
3.8974
 70
    64
  0
VERTEX
  5
62B70
330
62B5F
100
AcDbEntity
  8
0
100
AcDbVertex
100
AcDbPolygonMeshVertex
 10
0.6424999999999992
 20
-0.6769999999999996
 30
3.8974
 70
    64
  0
VERTEX
  5
62B71
330
62B5F
100
AcDbEntity
  8
0
100
AcDbVertex
100
AcDbPolygonMeshVertex
 10
0.6424999999999992
 20
-1.021999999999999
 30
3.8974
 70
    64
  0
SEQEND
  5
62B72
330
62B5F
100
AcDbEntity
  8
0
  0
CIRCLE
  5
62B73
330
458D6
100
AcDbEntity
  8
0
100
AcDbCircle
 10
0.315999999999999
 20
0.1819999999999999
 30
3.863399999999999
 40
0.138
  0
TEXT
  5
62B74
330
458D6
100
AcDbEntity
  8
0
100
AcDbText
 10
0.067417189317153
 20
0.2811155340969122
 30
3.863399999999999
 40
0.0834654981097751
  1
1
100
AcDbText
  0
TEXT
  5
62B75
330
458D6
100
AcDbEntity
  8
0
100
AcDbText
 10
0.4534988136226553
 20
0.2802736679910658
 30
3.863399999999999
 40
0.0834654981097751
  1
L1
100
AcDbText
  0
CIRCLE
  5
62B76
330
458D6
100
AcDbEntity
  8
0
100
AcDbCircle
 10
0.8800000000000007
 20
0.1819999999999999
 30
3.863399999999999
 40
0.138
  0
TEXT
  5
62B77
330
458D6
100
AcDbEntity
  8
0
100
AcDbText
 10
0.6672258341164632
 20
0.2794318018852193
 30
3.863399999999999
 40
0.0834654981097751
  1
3
100
AcDbText
  0
TEXT
  5
62B78
330
458D6
100
AcDbEntity
  8
0
100
AcDbText
 10
1.006248111611726
 20
0.2808433009258362
 30
3.863399999999999
 40
0.0834654981097751
  1
L2
100
AcDbText
  0
LINE
  5
62B79
330
458D6
100
AcDbEntity
  8
0
100
AcDbLine
 10
0.6839999999999993
 20
-0.2140000000000005
 30
4.074399999999999
 11
0.6839999999999993
 21
-0.5670000000000002
 31
4.074399999999999
  0
TEXT
  5
62B7A
330
458D6
100
AcDbEntity
  8
0
100
AcDbText
 10
1.577134654616568
 20
-2.06163655604471
 30
3.863399999999999
 40
0.0834654981097751
  1
T3
100
AcDbText
  0
TEXT
  5
62B7B
330
458D6
100
AcDbEntity
  8
0
100
AcDbText
 10
1.248897233900002
 20
-2.063048055085326
 30
3.863399999999999
 40
0.0834654981097751
  1
6
100
AcDbText
  0
CIRCLE
  5
62B7C
330
458D6
100
AcDbEntity
  8
0
100
AcDbCircle
 10
1.444
 20
0.1819999999999999
 30
3.863399999999999
 40
0.138
  0
TEXT
  5
62B7D
330
458D6
100
AcDbEntity
  8
0
100
AcDbText
 10
1.253995160550572
 20
0.2822547999664535
 30
3.863399999999999
 40
0.0834654981097751
  1
5
100
AcDbText
  0
TEXT
  5
62B7E
330
458D6
100
AcDbEntity
  8
0
100
AcDbText
 10
1.592428434568278
 20
0.2842550160273163
 30
3.863399999999999
 40
0.0834654981097751
  1
L3
100
AcDbText
  0
POLYLINE
  5
62B7F
330
458D6
100
AcDbEntity
  8
0
100
AcDbPolygonMesh
 66
     1
 10
0.0
 20
0.0
 30
0.0
 70
    16
 71
     6
 72
     3
  0
VERTEX
  5
62B80
330
62B7F
100
AcDbEntity
  8
0
100
AcDbVertex
100
AcDbPolygonMeshVertex
 10
1.2655
 20
-1.504
 30
4.063399999999999
 70
    64
  0
VERTEX
  5
62B81
330
62B7F
100
AcDbEntity
  8
0
100
AcDbVertex
100
AcDbPolygonMeshVertex
 10
1.2655
 20
-1.504
 30
3.863399999999999
 70
    64
  0
VERTEX
  5
62B82
330
62B7F
100
AcDbEntity
  8
0
100
AcDbVertex
100
AcDbPolygonMeshVertex
 10
1.2655
 20
-1.504
 30
3.863399999999999
 70
    64
  0
VERTEX
  5
62B83
330
62B7F
100
AcDbEntity
  8
0
100
AcDbVertex
100
AcDbPolygonMeshVertex
 10
0.4944999999999996
 20
-1.504
 30
4.063399999999999
 70
    64
  0
VERTEX
  5
62B84
330
62B7F
100
AcDbEntity
  8
0
100
AcDbVertex
100
AcDbPolygonMeshVertex
 10
0.4944999999999996
 20
-1.504
 30
3.863399999999999
 70
    64
  0
VERTEX
  5
62B85
330
62B7F
100
AcDbEntity
  8
0
100
AcDbVertex
100
AcDbPolygonMeshVertex
 10
0.4944999999999996
 20
-1.504
 30
3.863399999999999
 70
    64
  0
VERTEX
  5
62B86
330
62B7F
100
AcDbEntity
  8
0
100
AcDbVertex
100
AcDbPolygonMeshVertex
 10
0.4944999999999996
 20
-1.221999999999999
 30
4.063399999999999
 70
    64
  0
VERTEX
  5
62B87
330
62B7F
100
AcDbEntity
  8
0
100
AcDbVertex
100
AcDbPolygonMeshVertex
 10
0.4944999999999996
 20
-1.221999999999999
 30
3.863399999999999
 70
    64
  0
VERTEX
  5
62B88
330
62B7F
100
AcDbEntity
  8
0
100
AcDbVertex
100
AcDbPolygonMeshVertex
 10
0.4944999999999996
 20
-1.504
 30
3.863399999999999
 70
    64
  0
VERTEX
  5
62B89
330
62B7F
100
AcDbEntity
  8
0
100
AcDbVertex
100
AcDbPolygonMeshVertex
 10
1.2655
 20
-1.221999999999999
 30
4.063399999999999
 70
    64
  0
VERTEX
  5
62B8A
330
62B7F
100
AcDbEntity
  8
0
100
AcDbVertex
100
AcDbPolygonMeshVertex
 10
1.2655
 20
-1.221999999999999
 30
3.863399999999999
 70
    64
  0
VERTEX
  5
62B8B
330
62B7F
100
AcDbEntity
  8
0
100
AcDbVertex
100
AcDbPolygonMeshVertex
 10
1.2655
 20
-1.504
 30
3.863399999999999
 70
    64
  0
VERTEX
  5
62B8C
330
62B7F
100
AcDbEntity
  8
0
100
AcDbVertex
100
AcDbPolygonMeshVertex
 10
1.2655
 20
-1.221999999999999
 30
4.063399999999999
 70
    64
  0
VERTEX
  5
62B8D
330
62B7F
100
AcDbEntity
  8
0
100
AcDbVertex
100
AcDbPolygonMeshVertex
 10
1.2655
 20
-1.221999999999999
 30
4.063399999999999
 70
    64
  0
VERTEX
  5
62B8E
330
62B7F
100
AcDbEntity
  8
0
100
AcDbVertex
100
AcDbPolygonMeshVertex
 10
1.2655
 20
-1.504
 30
4.063399999999999
 70
    64
  0
VERTEX
  5
62B8F
330
62B7F
100
AcDbEntity
  8
0
100
AcDbVertex
100
AcDbPolygonMeshVertex
 10
0.4944999999999996
 20
-1.221999999999999
 30
4.063399999999999
 70
    64
  0
VERTEX
  5
62B90
330
62B7F
100
AcDbEntity
  8
0
100
AcDbVertex
100
AcDbPolygonMeshVertex
 10
0.4944999999999996
 20
-1.221999999999999
 30
4.063399999999999
 70
    64
  0
VERTEX
  5
62B91
330
62B7F
100
AcDbEntity
  8
0
100
AcDbVertex
100
AcDbPolygonMeshVertex
 10
0.4944999999999996
 20
-1.504
 30
4.063399999999999
 70
    64
  0
SEQEND
  5
62B92
330
62B7F
100
AcDbEntity
  8
0
  0
TEXT
  5
62B93
330
458D6
100
AcDbEntity
  8
0
100
AcDbText
 10
0.4716360586384277
 20
-2.062775821914252
 30
3.863399999999999
 40
0.0834654981097751
  1
T1
100
AcDbText
  0
CIRCLE
  5
62B94
330
458D6
100
AcDbEntity
  8
0
100
AcDbCircle
 10
0.315999999999999
 20
-1.87
 30
3.863399999999999
 40
0.138
  0
TEXT
  5
62B95
330
458D6
100
AcDbEntity
  8
0
100
AcDbText
 10
1.027228821691561
 20
-2.06220618897948
 30
3.863399999999999
 40
0.0834654981097751
  1
T2
100
AcDbText
  0
TEXT
  5
62B96
330
458D6
100
AcDbEntity
  8
0
100
AcDbText
 10
0.6927154673693137
 20
-2.060775605853388
 30
3.863399999999999
 40
0.0834654981097751
  1
4
100
AcDbText
  0
TEXT
  5
62B97
330
458D6
100
AcDbEntity
  8
0
100
AcDbText
 10
0.075358581031785
 20
-2.064187320954868
 30
3.863399999999999
 40
0.0834654981097751
  1
2
100
AcDbText
  0
POINT
  5
62B98
330
458D6
100
AcDbEntity
  8
SNAP_POINTS
100
AcDbPoint
 10
0.0
 20
0.0
 30
0.0
  0
POLYLINE
  5
62B99
330
458D6
100
AcDbEntity
  8
0
  6
Continuous
100
AcDb3dPolyline
 66
     1
 10
0.0
 20
0.0
 30
0.0
 70
     8
  0
VERTEX
  5
62B9A
330
62B99
100
AcDbEntity
  8
0
  6
Continuous
100
AcDbVertex
100
AcDb3dPolylineVertex
 10
1.759999999999999
 20
-2.089
 30
1.318
 70
    32
1001
ACAD
1000
R13OBJECT
1002
{
1005
62B99
1002
}
  0
VERTEX
  5
62B9B
330
62B99
100
AcDbEntity
  8
0
  6
Continuous
100
AcDbVertex
100
AcDb3dPolylineVertex
 10
0.0
 20
-2.089
 30
1.318
 70
    32
1001
ACAD
1000
R13OBJECT
1002
{
1005
62B99
1002
}
  0
SEQEND
  5
62B9C
330
62B99
100
AcDbEntity
  8
0
  6
Continuous
  0
POLYLINE
  5
62B9D
330
458D6
100
AcDbEntity
  8
0
  6
Continuous
100
AcDb3dPolyline
 66
     1
 10
0.0
 20
0.0
 30
0.0
 70
     8
1001
ACAD
1000
R13OBJECT
1002
{
1005
62B99
1002
}
  0
VERTEX
  5
62B9E
330
62B9D
100
AcDbEntity
  8
0
  6
Continuous
100
AcDbVertex
100
AcDb3dPolylineVertex
 10
0.0
 20
-2.089
 30
1.318
 70
    32
1001
ACAD
1000
R13OBJECT
1002
{
1005
62B99
1002
}
  0
VERTEX
  5
62B9F
330
62B9D
100
AcDbEntity
  8
0
  6
Continuous
100
AcDbVertex
100
AcDb3dPolylineVertex
 10
0.0
 20
0.4009999999999998
 30
1.318
 70
    32
1001
ACAD
1000
R13OBJECT
1002
{
1005
62B99
1002
}
  0
SEQEND
  5
62BA0
330
62B9D
100
AcDbEntity
  8
0
  6
Continuous
  0
POLYLINE
  5
62BA1
330
458D6
100
AcDbEntity
  8
0
  6
Continuous
100
AcDb3dPolyline
 66
     1
 10
0.0
 20
0.0
 30
0.0
 70
     8
1001
ACAD
1000
R13OBJECT
1002
{
1005
62B99
1002
}
  0
VERTEX
  5
62BA2
330
62BA1
100
AcDbEntity
  8
0
  6
Continuous
100
AcDbVertex
100
AcDb3dPolylineVertex
 10
0.0
 20
0.4009999999999998
 30
1.318
 70
    32
1001
ACAD
1000
R13OBJECT
1002
{
1005
62B99
1002
}
  0
VERTEX
  5
62BA3
330
62BA1
100
AcDbEntity
  8
0
  6
Continuous
100
AcDbVertex
100
AcDb3dPolylineVertex
 10
1.759999999999999
 20
0.4009999999999998
 30
1.318
 70
    32
1001
ACAD
1000
R13OBJECT
1002
{
1005
62B99
1002
}
  0
SEQEND
  5
62BA4
330
62BA1
100
AcDbEntity
  8
0
  6
Continuous
  0
POLYLINE
  5
62BA5
330
458D6
100
AcDbEntity
  8
0
  6
Continuous
100
AcDb3dPolyline
 66
     1
 10
0.0
 20
0.0
 30
0.0
 70
     8
1001
ACAD
1000
R13OBJECT
1002
{
1005
62B99
1002
}
  0
VERTEX
  5
62BA6
330
62BA5
100
AcDbEntity
  8
0
  6
Continuous
100
AcDbVertex
100
AcDb3dPolylineVertex
 10
1.759999999999999
 20
-2.089
 30
3.863399999999999
 70
    32
1001
ACAD
1000
R13OBJECT
1002
{
1005
62B99
1002
}
  0
VERTEX
  5
62BA7
330
62BA5
100
AcDbEntity
  8
0
  6
Continuous
100
AcDbVertex
100
AcDb3dPolylineVertex
 10
1.759999999999999
 20
-2.089
 30
1.318
 70
    32
1001
ACAD
1000
R13OBJECT
1002
{
1005
62B99
1002
}
  0
SEQEND
  5
62BA8
330
62BA5
100
AcDbEntity
  8
0
  6
Continuous
  0
POLYLINE
  5
62BA9
330
458D6
100
AcDbEntity
  8
0
  6
Continuous
100
AcDb3dPolyline
 66
     1
 10
0.0
 20
0.0
 30
0.0
 70
     8
1001
ACAD
1000
R13OBJECT
1002
{
1005
62B99
1002
}
  0
VERTEX
  5
62BAA
330
62BA9
100
AcDbEntity
  8
0
  6
Continuous
100
AcDbVertex
100
AcDb3dPolylineVertex
 10
1.759999999999999
 20
0.4009999999999998
 30
1.318
 70
    32
1001
ACAD
1000
R13OBJECT
1002
{
1005
62B99
1002
}
  0
VERTEX
  5
62BAB
330
62BA9
100
AcDbEntity
  8
0
  6
Continuous
100
AcDbVertex
100
AcDb3dPolylineVertex
 10
1.759999999999999
 20
-2.089
 30
1.318
 70
    32
1001
ACAD
1000
R13OBJECT
1002
{
1005
62B99
1002
}
  0
SEQEND
  5
62BAC
330
62BA9
100
AcDbEntity
  8
0
  6
Continuous
  0
POLYLINE
  5
62BAD
330
458D6
100
AcDbEntity
  8
0
  6
Continuous
100
AcDb3dPolyline
 66
     1
 10
0.0
 20
0.0
 30
0.0
 70
     8
1001
ACAD
1000
R13OBJECT
1002
{
1005
62B99
1002
}
  0
VERTEX
  5
62BAE
330
62BAD
100
AcDbEntity
  8
0
  6
Continuous
100
AcDbVertex
100
AcDb3dPolylineVertex
 10
1.759999999999999
 20
0.4009999999999998
 30
3.863399999999999
 70
    32
1001
ACAD
1000
R13OBJECT
1002
{
1005
62B99
1002
}
  0
VERTEX
  5
62BAF
330
62BAD
100
AcDbEntity
  8
0
  6
Continuous
100
AcDbVertex
100
AcDb3dPolylineVertex
 10
1.759999999999999
 20
0.4009999999999998
 30
1.318
 70
    32
1001
ACAD
1000
R13OBJECT
1002
{
1005
62B99
1002
}
  0
SEQEND
  5
62BB0
330
62BAD
100
AcDbEntity
  8
0
  6
Continuous
  0
POLYLINE
  5
62BB1
330
458D6
100
AcDbEntity
  8
0
  6
Continuous
100
AcDb3dPolyline
 66
     1
 10
0.0
 20
0.0
 30
0.0
 70
     8
1001
ACAD
1000
R13OBJECT
1002
{
1005
62B99
1002
}
  0
VERTEX
  5
62BB2
330
62BB1
100
AcDbEntity
  8
0
  6
Continuous
100
AcDbVertex
100
AcDb3dPolylineVertex
 10
1.759999999999999
 20
-2.089
 30
3.863399999999999
 70
    32
1001
ACAD
1000
R13OBJECT
1002
{
1005
62B99
1002
}
  0
VERTEX
  5
62BB3
330
62BB1
100
AcDbEntity
  8
0
  6
Continuous
100
AcDbVertex
100
AcDb3dPolylineVertex
 10
1.759999999999999
 20
0.4009999999999998
 30
3.863399999999999
 70
    32
1001
ACAD
1000
R13OBJECT
1002
{
1005
62B99
1002
}
  0
SEQEND
  5
62BB4
330
62BB1
100
AcDbEntity
  8
0
  6
Continuous
  0
TEXT
  5
62BB5
330
458D6
100
AcDbEntity
  8
0
100
AcDbText
 39
0.0000001
 10
0.3493834523732882
 20
-2.496047911560165
 30
2.062
 40
0.0834654981097751
  1
A1
100
AcDbText
  0
TEXT
  5
62BB6
330
458D6
100
AcDbEntity
  8
0
100
AcDbText
 39
0.00000001
 10
1.281870060884228
 20
-2.494045266282064
 30
2.062
 40
0.0834654981097751
  1
A2
100
AcDbText
  0
POLYLINE
  5
62BB7
330
458D6
100
AcDbEntity
  8
0
 62
     7
100
AcDbPolygonMesh
 66
     1
 10
0.0
 20
0.0
 30
0.0
 70
    16
 71
     6
 72
     3
  0
VERTEX
  5
62BB8
330
62BB7
100
AcDbEntity
  8
0
 62
     7
100
AcDbVertex
100
AcDbPolygonMeshVertex
 10
0.3912113791658698
 20
-2.17180856146939
 30
0.3160000000000001
 70
    64
  0
VERTEX
  5
62BB9
330
62BB7
100
AcDbEntity
  8
0
 62
     7
100
AcDbVertex
100
AcDbPolygonMeshVertex
 10
0.3912113791658698
 20
-2.17180856146939
 30
-0.0000000579884615
 70
    64
  0
VERTEX
  5
62BBA
330
62BB7
100
AcDbEntity
  8
0
 62
     7
100
AcDbVertex
100
AcDbPolygonMeshVertex
 10
0.3912113791658698
 20
-2.17180856146939
 30
-0.0000000579884615
 70
    64
  0
VERTEX
  5
62BBB
330
62BB7
100
AcDbEntity
  8
0
 62
     7
100
AcDbVertex
100
AcDbPolygonMeshVertex
 10
-0.0000000000000001
 20
-2.17180856146939
 30
0.3160000000000001
 70
    64
  0
VERTEX
  5
62BBC
330
62BB7
100
AcDbEntity
  8
0
 62
     7
100
AcDbVertex
100
AcDbPolygonMeshVertex
 10
-0.0000000000000001
 20
-2.17180856146939
 30
-0.0000000579884615
 70
    64
  0
VERTEX
  5
62BBD
330
62BB7
100
AcDbEntity
  8
0
 62
     7
100
AcDbVertex
100
AcDbPolygonMeshVertex
 10
-0.0000000000000001
 20
-2.17180856146939
 30
-0.0000000579884615
 70
    64
  0
VERTEX
  5
62BBE
330
62BB7
100
AcDbEntity
  8
0
 62
     7
100
AcDbVertex
100
AcDbPolygonMeshVertex
 10
-0.0000000000000001
 20
-1.80580856146939
 30
0.3160000000000001
 70
    64
  0
VERTEX
  5
62BBF
330
62BB7
100
AcDbEntity
  8
0
 62
     7
100
AcDbVertex
100
AcDbPolygonMeshVertex
 10
-0.0000000000000001
 20
-1.80580856146939
 30
-0.0000000579884615
 70
    64
  0
VERTEX
  5
62BC0
330
62BB7
100
AcDbEntity
  8
0
 62
     7
100
AcDbVertex
100
AcDbPolygonMeshVertex
 10
-0.0000000000000001
 20
-2.17180856146939
 30
-0.0000000579884615
 70
    64
  0
VERTEX
  5
62BC1
330
62BB7
100
AcDbEntity
  8
0
 62
     7
100
AcDbVertex
100
AcDbPolygonMeshVertex
 10
0.3912113791658698
 20
-1.80580856146939
 30
0.3160000000000001
 70
    64
  0
VERTEX
  5
62BC2
330
62BB7
100
AcDbEntity
  8
0
 62
     7
100
AcDbVertex
100
AcDbPolygonMeshVertex
 10
0.3912113791658698
 20
-1.80580856146939
 30
-0.0000000579884615
 70
    64
  0
VERTEX
  5
62BC3
330
62BB7
100
AcDbEntity
  8
0
 62
     7
100
AcDbVertex
100
AcDbPolygonMeshVertex
 10
0.3912113791658698
 20
-2.17180856146939
 30
-0.0000000579884615
 70
    64
  0
VERTEX
  5
62BC4
330
62BB7
100
AcDbEntity
  8
0
 62
     7
100
AcDbVertex
100
AcDbPolygonMeshVertex
 10
0.3912113791658698
 20
-1.80580856146939
 30
0.3160000000000001
 70
    64
  0
VERTEX
  5
62BC5
330
62BB7
100
AcDbEntity
  8
0
 62
     7
100
AcDbVertex
100
AcDbPolygonMeshVertex
 10
0.3912113791658698
 20
-1.80580856146939
 30
0.3160000000000001
 70
    64
  0
VERTEX
  5
62BC6
330
62BB7
100
AcDbEntity
  8
0
 62
     7
100
AcDbVertex
100
AcDbPolygonMeshVertex
 10
0.3912113791658698
 20
-2.17180856146939
 30
0.3160000000000001
 70
    64
  0
VERTEX
  5
62BC7
330
62BB7
100
AcDbEntity
  8
0
 62
     7
100
AcDbVertex
100
AcDbPolygonMeshVertex
 10
-0.0000000000000001
 20
-1.80580856146939
 30
0.3160000000000001
 70
    64
  0
VERTEX
  5
62BC8
330
62BB7
100
AcDbEntity
  8
0
 62
     7
100
AcDbVertex
100
AcDbPolygonMeshVertex
 10
-0.0000000000000001
 20
-1.80580856146939
 30
0.3160000000000001
 70
    64
  0
VERTEX
  5
62BC9
330
62BB7
100
AcDbEntity
  8
0
 62
     7
100
AcDbVertex
100
AcDbPolygonMeshVertex
 10
-0.0000000000000001
 20
-2.17180856146939
 30
0.3160000000000001
 70
    64
  0
SEQEND
  5
62BCA
330
62BB7
100
AcDbEntity
  8
0
  0
POLYLINE
  5
62BCB
330
458D6
100
AcDbEntity
  8
0
100
AcDbPolygonMesh
 66
     1
 10
0.0
 20
0.0
 30
0.0
 70
    16
 71
     6
 72
     3
  0
VERTEX
  5
62BCC
330
62BCB
100
AcDbEntity
  8
0
100
AcDbVertex
100
AcDbPolygonMeshVertex
 10
1.759999999999999
 20
0.1179999999999994
 30
0.3160000000000001
 70
    64
  0
VERTEX
  5
62BCD
330
62BCB
100
AcDbEntity
  8
0
100
AcDbVertex
100
AcDbPolygonMeshVertex
 10
1.759999999999999
 20
0.1179999999999994
 30
0.0
 70
    64
  0
VERTEX
  5
62BCE
330
62BCB
100
AcDbEntity
  8
0
100
AcDbVertex
100
AcDbPolygonMeshVertex
 10
1.759999999999999
 20
0.1179999999999994
 30
0.0
 70
    64
  0
VERTEX
  5
62BCF
330
62BCB
100
AcDbEntity
  8
0
100
AcDbVertex
100
AcDbPolygonMeshVertex
 10
1.368999999999999
 20
0.1179999999999994
 30
0.3160000000000001
 70
    64
  0
VERTEX
  5
62BD0
330
62BCB
100
AcDbEntity
  8
0
100
AcDbVertex
100
AcDbPolygonMeshVertex
 10
1.368999999999999
 20
0.1179999999999994
 30
0.0
 70
    64
  0
VERTEX
  5
62BD1
330
62BCB
100
AcDbEntity
  8
0
100
AcDbVertex
100
AcDbPolygonMeshVertex
 10
1.368999999999999
 20
0.1179999999999994
 30
0.0
 70
    64
  0
VERTEX
  5
62BD2
330
62BCB
100
AcDbEntity
  8
0
100
AcDbVertex
100
AcDbPolygonMeshVertex
 10
1.368999999999999
 20
0.4819999999999994
 30
0.3160000000000001
 70
    64
  0
VERTEX
  5
62BD3
330
62BCB
100
AcDbEntity
  8
0
100
AcDbVertex
100
AcDbPolygonMeshVertex
 10
1.368999999999999
 20
0.4819999999999994
 30
0.0
 70
    64
  0
VERTEX
  5
62BD4
330
62BCB
100
AcDbEntity
  8
0
100
AcDbVertex
100
AcDbPolygonMeshVertex
 10
1.368999999999999
 20
0.1179999999999994
 30
0.0
 70
    64
  0
VERTEX
  5
62BD5
330
62BCB
100
AcDbEntity
  8
0
100
AcDbVertex
100
AcDbPolygonMeshVertex
 10
1.759999999999999
 20
0.4819999999999994
 30
0.3160000000000001
 70
    64
  0
VERTEX
  5
62BD6
330
62BCB
100
AcDbEntity
  8
0
100
AcDbVertex
100
AcDbPolygonMeshVertex
 10
1.759999999999999
 20
0.4819999999999994
 30
0.0
 70
    64
  0
VERTEX
  5
62BD7
330
62BCB
100
AcDbEntity
  8
0
100
AcDbVertex
100
AcDbPolygonMeshVertex
 10
1.759999999999999
 20
0.1179999999999994
 30
0.0
 70
    64
  0
VERTEX
  5
62BD8
330
62BCB
100
AcDbEntity
  8
0
100
AcDbVertex
100
AcDbPolygonMeshVertex
 10
1.759999999999999
 20
0.4819999999999994
 30
0.3160000000000001
 70
    64
  0
VERTEX
  5
62BD9
330
62BCB
100
AcDbEntity
  8
0
100
AcDbVertex
100
AcDbPolygonMeshVertex
 10
1.759999999999999
 20
0.4819999999999994
 30
0.3160000000000001
 70
    64
  0
VERTEX
  5
62BDA
330
62BCB
100
AcDbEntity
  8
0
100
AcDbVertex
100
AcDbPolygonMeshVertex
 10
1.759999999999999
 20
0.1179999999999994
 30
0.3160000000000001
 70
    64
  0
VERTEX
  5
62BDB
330
62BCB
100
AcDbEntity
  8
0
100
AcDbVertex
100
AcDbPolygonMeshVertex
 10
1.368999999999999
 20
0.4819999999999994
 30
0.3160000000000001
 70
    64
  0
VERTEX
  5
62BDC
330
62BCB
100
AcDbEntity
  8
0
100
AcDbVertex
100
AcDbPolygonMeshVertex
 10
1.368999999999999
 20
0.4819999999999994
 30
0.3160000000000001
 70
    64
  0
VERTEX
  5
62BDD
330
62BCB
100
AcDbEntity
  8
0
100
AcDbVertex
100
AcDbPolygonMeshVertex
 10
1.368999999999999
 20
0.1179999999999994
 30
0.3160000000000001
 70
    64
  0
SEQEND
  5
62BDE
330
62BCB
100
AcDbEntity
  8
0
  0
POLYLINE
  5
62BDF
330
458D6
100
AcDbEntity
  8
0
100
AcDbPolygonMesh
 66
     1
 10
0.0
 20
0.0
 30
0.0
 70
    16
 71
     6
 72
     3
  0
VERTEX
  5
62BE0
330
62BDF
100
AcDbEntity
  8
0
100
AcDbVertex
100
AcDbPolygonMeshVertex
 10
1.759999999999999
 20
-2.089
 30
3.8634
 70
    64
  0
VERTEX
  5
62BE1
330
62BDF
100
AcDbEntity
  8
0
100
AcDbVertex
100
AcDbPolygonMeshVertex
 10
1.759999999999999
 20
-2.089
 30
1.318
 70
    64
  0
VERTEX
  5
62BE2
330
62BDF
100
AcDbEntity
  8
0
100
AcDbVertex
100
AcDbPolygonMeshVertex
 10
1.759999999999999
 20
-2.089
 30
1.318
 70
    64
  0
VERTEX
  5
62BE3
330
62BDF
100
AcDbEntity
  8
0
100
AcDbVertex
100
AcDbPolygonMeshVertex
 10
0.0
 20
-2.089
 30
3.8634
 70
    64
  0
VERTEX
  5
62BE4
330
62BDF
100
AcDbEntity
  8
0
100
AcDbVertex
100
AcDbPolygonMeshVertex
 10
0.0
 20
-2.089
 30
1.318
 70
    64
  0
VERTEX
  5
62BE5
330
62BDF
100
AcDbEntity
  8
0
100
AcDbVertex
100
AcDbPolygonMeshVertex
 10
0.0
 20
-2.089
 30
1.318
 70
    64
  0
VERTEX
  5
62BE6
330
62BDF
100
AcDbEntity
  8
0
100
AcDbVertex
100
AcDbPolygonMeshVertex
 10
0.0
 20
0.4009999999999998
 30
3.8634
 70
    64
  0
VERTEX
  5
62BE7
330
62BDF
100
AcDbEntity
  8
0
100
AcDbVertex
100
AcDbPolygonMeshVertex
 10
0.0
 20
0.4009999999999998
 30
1.318
 70
    64
  0
VERTEX
  5
62BE8
330
62BDF
100
AcDbEntity
  8
0
100
AcDbVertex
100
AcDbPolygonMeshVertex
 10
0.0
 20
-2.089
 30
1.318
 70
    64
  0
VERTEX
  5
62BE9
330
62BDF
100
AcDbEntity
  8
0
100
AcDbVertex
100
AcDbPolygonMeshVertex
 10
1.759999999999999
 20
0.4009999999999998
 30
3.8634
 70
    64
  0
VERTEX
  5
62BEA
330
62BDF
100
AcDbEntity
  8
0
100
AcDbVertex
100
AcDbPolygonMeshVertex
 10
1.759999999999999
 20
0.4009999999999998
 30
1.318
 70
    64
  0
VERTEX
  5
62BEB
330
62BDF
100
AcDbEntity
  8
0
100
AcDbVertex
100
AcDbPolygonMeshVertex
 10
1.759999999999999
 20
-2.089
 30
1.318
 70
    64
  0
VERTEX
  5
62BEC
330
62BDF
100
AcDbEntity
  8
0
100
AcDbVertex
100
AcDbPolygonMeshVertex
 10
1.759999999999999
 20
0.4009999999999998
 30
3.8634
 70
    64
  0
VERTEX
  5
62BED
330
62BDF
100
AcDbEntity
  8
0
100
AcDbVertex
100
AcDbPolygonMeshVertex
 10
1.759999999999999
 20
0.4009999999999998
 30
3.8634
 70
    64
  0
VERTEX
  5
62BEE
330
62BDF
100
AcDbEntity
  8
0
100
AcDbVertex
100
AcDbPolygonMeshVertex
 10
1.759999999999999
 20
-2.089
 30
3.8634
 70
    64
  0
VERTEX
  5
62BEF
330
62BDF
100
AcDbEntity
  8
0
100
AcDbVertex
100
AcDbPolygonMeshVertex
 10
0.0
 20
0.4009999999999998
 30
3.8634
 70
    64
  0
VERTEX
  5
62BF0
330
62BDF
100
AcDbEntity
  8
0
100
AcDbVertex
100
AcDbPolygonMeshVertex
 10
0.0
 20
0.4009999999999998
 30
3.8634
 70
    64
  0
VERTEX
  5
62BF1
330
62BDF
100
AcDbEntity
  8
0
100
AcDbVertex
100
AcDbPolygonMeshVertex
 10
0.0
 20
-2.089
 30
3.8634
 70
    64
  0
SEQEND
  5
62BF2
330
62BDF
100
AcDbEntity
  8
0
  0
POINT
  5
62BF3
330
458D6
100
AcDbEntity
  8
SNAP_POINTS
100
AcDbPoint
 10
0.879999999999999
 20
-0.8494999999999997
 30
3.8974
  0
POINT
  5
62BF4
330
458D6
100
AcDbEntity
  8
SNAP_POINTS
100
AcDbPoint
 10
-0.0000000000000036
 20
-0.8940000000000001
 30
2.0685
  0
POINT
  5
62BF5
330
458D6
100
AcDbEntity
  8
SNAP_POINTS
100
AcDbPoint
 10
1.759999999999996
 20
-0.7940000000000003
 30
2.0685
  0
POINT
  5
62BF6
330
458D6
100
AcDbEntity
  8
SNAP_POINTS
100
AcDbPoint
 10
1.060499999999999
 20
-2.526
 30
1.641
  0
POINT
  5
62BF7
330
458D6
100
AcDbEntity
  8
DIMS-MTG-HOLES
100
AcDbPoint
 10
0.19
 20
-2.024999999999999
 30
0.0
  0
POINT
  5
62BF8
330
458D6
100
AcDbEntity
  8
DIMS-MTG-HOLES
100
AcDbPoint
 10
1.569999999999998
 20
0.3349999999999995
 30
0.0
  0
LWPOLYLINE
  5
62BF9
330
458D6
100
AcDbEntity
  8
0
100
AcDbPolyline
 90
        6
 70
     0
 43
0.0
 38
3.863399999999999
 10
1.424000000000001
 20
0.3185430335095871
 10
1.424000000000001
 20
0.2020000000000002
 10
1.364000000000001
 20
0.2020000000000004
 10
1.364000000000001
 20
0.1620000000000001
 10
1.424000000000001
 20
0.1620000000000006
 10
1.424000000000001
 20
0.0454569664904137
  0
LWPOLYLINE
  5
62BFA
330
458D6
100
AcDbEntity
  8
0
100
AcDbPolyline
 90
        6
 70
     0
 43
0.0
 38
3.863399999999999
 10
1.464000000000001
 20
0.3185430335095871
 10
1.464000000000001
 20
0.2020000000000002
 10
1.524000000000001
 20
0.2020000000000004
 10
1.524000000000001
 20
0.1620000000000001
 10
1.464000000000001
 20
0.1620000000000006
 10
1.464000000000001
 20
0.0454569664904137
  0
LWPOLYLINE
  5
62BFB
330
458D6
100
AcDbEntity
  8
0
100
AcDbPolyline
 90
        6
 70
     0
 43
0.0
 38
3.863399999999999
 10
0.900000000000001
 20
0.3185430335095871
 10
0.900000000000001
 20
0.2020000000000002
 10
0.960000000000001
 20
0.2020000000000004
 10
0.960000000000001
 20
0.1620000000000001
 10
0.900000000000001
 20
0.1620000000000006
 10
0.900000000000001
 20
0.0454569664904137
  0
LWPOLYLINE
  5
62BFC
330
458D6
100
AcDbEntity
  8
0
100
AcDbPolyline
 90
        6
 70
     0
 43
0.0
 38
3.863399999999999
 10
0.860000000000001
 20
0.3185430335095871
 10
0.860000000000001
 20
0.2020000000000002
 10
0.800000000000001
 20
0.2020000000000004
 10
0.800000000000001
 20
0.1620000000000001
 10
0.860000000000001
 20
0.1620000000000006
 10
0.860000000000001
 20
0.0454569664904137
  0
LWPOLYLINE
  5
62BFD
330
458D6
100
AcDbEntity
  8
0
100
AcDbPolyline
 90
        6
 70
     0
 43
0.0
 38
3.863399999999999
 10
0.3359999999999992
 20
0.3185430335095871
 10
0.3359999999999992
 20
0.2020000000000002
 10
0.3959999999999992
 20
0.2020000000000004
 10
0.3959999999999992
 20
0.1620000000000001
 10
0.3359999999999992
 20
0.1620000000000006
 10
0.3359999999999992
 20
0.0454569664904137
  0
LWPOLYLINE
  5
62BFE
330
458D6
100
AcDbEntity
  8
0
100
AcDbPolyline
 90
        6
 70
     0
 43
0.0
 38
3.863399999999999
 10
0.2959999999999991
 20
0.3185430335095871
 10
0.2959999999999991
 20
0.2020000000000002
 10
0.2359999999999993
 20
0.2020000000000004
 10
0.2359999999999993
 20
0.1620000000000001
 10
0.2959999999999991
 20
0.1620000000000006
 10
0.2959999999999991
 20
0.0454569664904137
  0
CIRCLE
  5
62BFF
330
458D6
100
AcDbEntity
  8
0
100
AcDbCircle
 10
0.8800000000000007
 20
-1.87
 30
3.863399999999999
 40
0.138
  0
LWPOLYLINE
  5
62C00
330
458D6
100
AcDbEntity
  8
0
100
AcDbPolyline
 90
        6
 70
     0
 43
0.0
 38
3.863399999999999
 10
0.860000000000001
 20
-1.733456966490412
 10
0.860000000000001
 20
-1.849999999999999
 10
0.800000000000001
 20
-1.849999999999999
 10
0.800000000000001
 20
-1.889999999999999
 10
0.860000000000001
 20
-1.889999999999999
 10
0.860000000000001
 20
-2.006543033509586
  0
LWPOLYLINE
  5
62C01
330
458D6
100
AcDbEntity
  8
0
100
AcDbPolyline
 90
        6
 70
     0
 43
0.0
 38
3.863399999999999
 10
0.900000000000001
 20
-1.733456966490412
 10
0.900000000000001
 20
-1.849999999999999
 10
0.960000000000001
 20
-1.849999999999999
 10
0.960000000000001
 20
-1.889999999999999
 10
0.900000000000001
 20
-1.889999999999999
 10
0.900000000000001
 20
-2.006543033509586
  0
LWPOLYLINE
  5
62C02
330
458D6
100
AcDbEntity
  8
0
100
AcDbPolyline
 90
        6
 70
     0
 43
0.0
 38
3.863399999999999
 10
1.464000000000001
 20
-1.733456966490412
 10
1.464000000000001
 20
-1.849999999999999
 10
1.524000000000001
 20
-1.849999999999999
 10
1.524000000000001
 20
-1.889999999999999
 10
1.464000000000001
 20
-1.889999999999999
 10
1.464000000000001
 20
-2.006543033509586
  0
CIRCLE
  5
62C03
330
458D6
100
AcDbEntity
  8
0
100
AcDbCircle
 10
1.444
 20
-1.87
 30
3.863399999999999
 40
0.138
  0
LWPOLYLINE
  5
62C04
330
458D6
100
AcDbEntity
  8
0
100
AcDbPolyline
 90
        6
 70
     0
 43
0.0
 38
3.863399999999999
 10
1.424000000000001
 20
-1.733456966490412
 10
1.424000000000001
 20
-1.849999999999999
 10
1.364000000000001
 20
-1.849999999999999
 10
1.364000000000001
 20
-1.889999999999999
 10
1.424000000000001
 20
-1.889999999999999
 10
1.424000000000001
 20
-2.006543033509586
  0
LWPOLYLINE
  5
62C05
330
458D6
100
AcDbEntity
  8
0
100
AcDbPolyline
 90
        6
 70
     0
 43
0.0
 38
3.863399999999999
 10
0.3359999999999992
 20
-1.733456966490412
 10
0.3359999999999992
 20
-1.849999999999999
 10
0.3959999999999992
 20
-1.849999999999999
 10
0.3959999999999992
 20
-1.889999999999999
 10
0.3359999999999992
 20
-1.889999999999999
 10
0.3359999999999992
 20
-2.006543033509586
  0
LWPOLYLINE
  5
62C06
330
458D6
100
AcDbEntity
  8
0
100
AcDbPolyline
 90
        6
 70
     0
 43
0.0
 38
3.863399999999999
 10
0.2959999999999991
 20
-1.733456966490412
 10
0.2959999999999991
 20
-1.849999999999999
 10
0.2359999999999993
 20
-1.849999999999999
 10
0.2359999999999993
 20
-1.889999999999999
 10
0.2959999999999991
 20
-1.889999999999999
 10
0.2959999999999991
 20
-2.006543033509586
  0
LWPOLYLINE
  5
62C07
330
458D6
100
AcDbEntity
  8
0
100
AcDbPolyline
 90
        6
 70
     0
 43
0.0
 38
2.062
 10
0.5609999999999971
 20
-2.189178404338003
 10
0.5609999999999971
 20
-2.287499999999999
 10
0.6209999999999971
 20
-2.287499999999999
 10
0.6209999999999971
 20
-2.327499999999999
 10
0.5609999999999971
 20
-2.327499999999999
 10
0.5609999999999971
 20
-2.425821595661988
  0
LWPOLYLINE
  5
62C08
330
458D6
100
AcDbEntity
  8
0
100
AcDbPolyline
 90
        6
 70
     0
 43
0.0
 38
2.062
 10
0.5209999999999971
 20
-2.189178404338012
 10
0.5209999999999971
 20
-2.287499999999999
 10
0.4609999999999972
 20
-2.287499999999999
 10
0.4609999999999972
 20
-2.327499999999999
 10
0.5209999999999971
 20
-2.327499999999999
 10
0.5209999999999971
 20
-2.425821595661996
  0
LWPOLYLINE
  5
62C09
330
458D6
100
AcDbEntity
  8
0
100
AcDbPolyline
 90
        6
 70
     0
 43
0.0
 38
2.062
 10
1.239000000000001
 20
-2.189178404338003
 10
1.239000000000001
 20
-2.287499999999999
 10
1.299000000000001
 20
-2.287499999999999
 10
1.299000000000001
 20
-2.327499999999999
 10
1.239000000000001
 20
-2.327499999999999
 10
1.239000000000001
 20
-2.425821595661988
  0
LWPOLYLINE
  5
62C0A
330
458D6
100
AcDbEntity
  8
0
100
AcDbPolyline
 90
        6
 70
     0
 43
0.0
 38
2.062
 10
1.199000000000001
 20
-2.189178404338012
 10
1.199000000000001
 20
-2.287499999999999
 10
1.139000000000001
 20
-2.287499999999999
 10
1.139000000000001
 20
-2.327499999999999
 10
1.199000000000001
 20
-2.327499999999999
 10
1.199000000000001
 20
-2.425821595661996
  0
DIMENSION
  5
62C0B
330
458D6
100
AcDbEntity
  8
AREA1
100
AcDbDimension
  2
*D0
 10
-0.6472185504850642
 20
-2.526
 30
0.0
 11
-0.6472185504850639
 21
-0.9613653496803298
 31
0.0
 70
   160
 71
     5
 42
-1.0
 73
     0
 74
     0
 75
     0
  3
ABECAD_3D
100
AcDbAlignedDimension
 13
0.6944999999999997
 23
0.654
 33
1.388
 14
0.3274999999999988
 24
-2.526
 34
1.388
 50
90.0
100
AcDbRotatedDimension
  0
DIMENSION
  5
62C19
330
458D6
100
AcDbEntity
  8
AREA1
100
AcDbDimension
  2
*D1
 10
1.759999999999996
 20
0.984951357628736
 30
0.0
 11
0.8764600145672364
 21
1.360725380102559
 31
0.0
 70
   160
 71
     5
 42
-1.0
 73
     0
 74
     0
 75
     0
  3
ABECAD_3D
100
AcDbAlignedDimension
 13
0.0000000000000001
 23
0.5979999999999999
 33
0.0
 14
1.759999999999996
 24
0.5259999999999998
 34
1.652
100
AcDbRotatedDimension
  0
LWPOLYLINE
  5
62C3E
330
458D6
100
AcDbEntity
  8
SCALE
100
AcDbPolyline
 90
        4
 70
     1
 43
0.0
 10
0.2977104388186835
 20
-2.672132206019578
 10
1.433339258360656
 20
-2.672132206019578
 10
1.433339258360656
 20
-3.513741772797593
 10
0.2977104388186835
 20
-3.513741772797593
  0
LINE
  5
62C3F
330
458D6
100
AcDbEntity
  8
SCALE
100
AcDbLine
 10
0.3557091030454456
 20
-3.052210524723793
 30
0.0
 11
1.355709103045445
 21
-3.052210524723793
 31
0.0
  0
LINE
  5
62C40
330
458D6
100
AcDbEntity
  8
SCALE
100
AcDbLine
 10
0.3557091030454456
 20
-3.352210524723793
 30
0.0
 11
0.7494091030454455
 21
-3.352210524723793
 31
0.0
  0
LINE
  5
62C41
330
458D6
100
AcDbEntity
  8
SCALE
100
AcDbLine
 10
0.3557091030454456
 20
-3.152210524723794
 30
0.0
 11
0.3557091030454456
 21
-2.952210524723793
 31
0.0
  0
TEXT
  5
62C42
330
458D6
100
AcDbEntity
  8
SCALE
100
AcDbText
 10
0.4116850849759204
 20
-3.304525434960951
 30
0.0
 40
0.0625
  1
[10mm]
100
AcDbText
  0
LINE
  5
62C43
330
458D6
100
AcDbEntity
  8
SCALE
100
AcDbLine
 10
0.3557091030454456
 20
-3.452210524723793
 30
0.0
 11
0.3557091030454456
 21
-3.252210524723794
 31
0.0
  0
TEXT
  5
62C44
330
458D6
100
AcDbEntity
  8
SCALE
100
AcDbText
 10
0.3572393682919714
 20
-2.77733340345018
 30
0.0
 40
0.0625
  1
SCALE:
100
AcDbText
  0
LINE
  5
62C45
330
458D6
100
AcDbEntity
  8
SCALE
100
AcDbLine
 10
0.7494091030454455
 20
-3.452210524723793
 30
0.0
 11
0.7494091030454455
 21
-3.252210524723794
 31
0.0
  0
TEXT
  5
62C46
330
458D6
100
AcDbEntity
  8
SCALE
100
AcDbText
 10
0.7189920915293553
 20
-2.983161829350592
 30
0.0
 40
0.0625
  1
1 Inch
100
AcDbText
  0
LINE
  5
62C47
330
458D6
100
AcDbEntity
  8
SCALE
100
AcDbLine
 10
1.355709103045445
 20
-3.052210524723793
 30
0.0
 11
1.355709103045445
 21
-3.152210524723794
 31
0.0
  0
LINE
  5
62C48
330
458D6
100
AcDbEntity
  8
SCALE
100
AcDbLine
 10
1.355709103045445
 20
-3.152210524723794
 30
0.0
 11
1.355709103045445
 21
-2.952210524723793
 31
0.0
  0
VIEWPORT
  5
5677D
330
458D3
100
AcDbEntity
 67
     1
  8
0
100
AcDbViewport
 10
5.249999639556163
 20
3.999999883606677
 30
0.0
 40
16.38686186943767
 41
8.992999745766947
 68
     1
 69
     1
 12
5.249999639556163
 22
3.999999883606677
 13
0.0
 23
0.0
 14
0.5
 24
0.5
 15
0.5
 25
0.5
 16
0.0
 26
0.0
 36
1.0
 17
0.0
 27
0.0
 37
0.0
 42
50.0
 43
0.0
 44
0.0
 45
8.992999745766947
 50
0.0
 51
0.0
 72
 20000
 90
    32800
  1

281
     0
 71
     1
 74
     0
110
0.0
120
0.0
130
0.0
111
1.0
121
0.0
131
0.0
112
0.0
122
1.0
132
0.0
 79
     0
146
0.0
170
     0
 61
     5
348
62CF0
292
     1
282
     1
141
0.0
142
0.0
 63
   250
421
  3355443
  0
VIEWPORT
  5
5677F
330
458D3
100
AcDbEntity
 67
     1
  8
AREA1
100
AcDbViewport
 10
5.24999976158142
 20
3.99999976158142
 30
0.0
 40
8.399999618530271
 41
6.399999618530272
 68
     2
 69
     2
 12
-1.017175299537903
 22
0.747812767808223
 13
0.0
 23
0.0
 14
0.25
 24
0.25
 15
0.25
 25
0.25
 16
0.0
 26
0.0
 36
1.0
 17
0.5634438949382106
 27
-0.8801371703728531
 37
1.68649307151727
 42
50.0
 43
0.0
 44
0.0
 45
4.58291448918931
 50
0.0
 51
0.0
 72
 20000
 90
    32800
  1

281
     1
 71
     1
 74
     0
110
0.0
120
0.0
130
0.0
111
1.0
121
0.0
131
0.0
112
0.0
122
1.0
132
0.0
 79
     1
146
0.0
170
     0
 61
     5
348
62CF1
292
     1
282
     1
141
0.0
142
0.0
 63
   250
421
  3355443
  0
ENDSEC
  0
SECTION
  2
OBJECTS
  0
DICTIONARY
  5
458CB
330
0
100
AcDbDictionary
281
     1
  3
ACAD_BACKGROUND
350
62D00
  3
ACAD_COLOR
350
62CFB
  3
ACAD_GROUP
350
458CC
  3
ACAD_LAYOUT
350
458FB
  3
ACAD_MATERIAL
350
62CE6
  3
ACAD_MLINESTYLE
350
458D9
  3
ACAD_PLOTSETTINGS
350
458FC
  3
ACAD_PLOTSTYLENAME
350
458F9
  3
ACAD_TABLESTYLE
350
62CFC
  3
ACAD_VISUALSTYLE
350
62CEA
  3
ACADE_WIRETYPE
350
62D15
  3
ACDBVARIABLEDICTIONARY
350
458E1
  3
ASE_INDEX_DICTIONARY
350
62D08
  0
DICTIONARY
  5
62D17
330
458C7
100
AcDbDictionary
280
     1
281
     1
  0
DICTIONARY
  5
62D05
330
62D04
100
AcDbDictionary
280
     1
281
     1
  3
ACADE_WIRETYPE
360
62D06
  0
DICTIONARY
  5
4592C
330
458D6
100
AcDbDictionary
280
     1
281
     1
  3
ACAD_LAYOUTSELFREF
360
62CDA
  0
DICTIONARY
  5
4592A
330
458D3
100
AcDbDictionary
280
     1
281
     1
  3
ACAD_LAYOUTSELFREF
360
62CD9
  0
DICTIONARY
  5
62D00
102
{ACAD_REACTORS
330
458CB
102
}
330
458CB
100
AcDbDictionary
281
     1
  0
DICTIONARY
  5
62CFB
102
{ACAD_REACTORS
330
458CB
102
}
330
458CB
100
AcDbDictionary
281
     1
  0
DICTIONARY
  5
458CC
102
{ACAD_REACTORS
330
458CB
102
}
330
458CB
100
AcDbDictionary
281
     1
  0
DICTIONARY
  5
458FB
102
{ACAD_REACTORS
330
458CB
102
}
330
458CB
100
AcDbDictionary
281
     1
  3
Layout1
350
458FE
  3
Model
350
458FD
  0
DICTIONARY
  5
62CE6
102
{ACAD_REACTORS
330
458CB
102
}
330
458CB
100
AcDbDictionary
281
     1
  3
ByBlock
350
62CE8
  3
ByLayer
350
62CE7
  3
Global
350
62CE9
  0
DICTIONARY
  5
458D9
102
{ACAD_REACTORS
330
458CB
102
}
330
458CB
100
AcDbDictionary
281
     1
  3
STANDARD
350
458DA
  0
DICTIONARY
  5
458FC
102
{ACAD_REACTORS
330
458CB
102
}
330
458CB
100
AcDbDictionary
281
     1
  0
ACDBDICTIONARYWDFLT
  5
458F9
102
{ACAD_REACTORS
330
458CB
102
}
330
458CB
100
AcDbDictionary
281
     1
  3
Normal
350
458FA
100
AcDbDictionaryWithDefault
340
458FA
  0
DICTIONARY
  5
62CFC
102
{ACAD_REACTORS
330
458CB
102
}
330
458CB
100
AcDbDictionary
281
     1
  3
Standard
350
62CFD
  0
DICTIONARY
  5
62CEA
102
{ACAD_REACTORS
330
458CB
102
}
330
458CB
100
AcDbDictionary
281
     1
  3
2dWireframe
350
62CF0
  3
3D Hidden
350
62CF2
  3
3dWireframe
350
62CF1
  3
Basic
350
62CEF
  3
Brighten
350
62CF6
  3
ColorChange
350
62CFA
  3
Conceptual
350
62CF3
  3
Dim
350
62CF5
  3
Facepattern
350
62CF9
  3
Flat
350
62CEB
  3
FlatWithEdges
350
62CEC
  3
Gouraud
350
62CED
  3
GouraudWithEdges
350
62CEE
  3
Linepattern
350
62CF8
  3
Realistic
350
62CF4
  3
Thicken
350
62CF7
  0
DICTIONARY
  5
62D15
102
{ACAD_REACTORS
330
458CB
102
}
330
458CB
100
AcDbDictionary
281
     1
  3
CURRENT_WIRELAY
350
62D16
  0
DICTIONARY
  5
458E1
102
{ACAD_REACTORS
330
458CB
102
}
330
458CB
100
AcDbDictionary
281
     1
  3
CTABLESTYLE
350
62D0B
  3
DIMADEC
350
458E2
  0
DICTIONARY
  5
62D08
102
{ACAD_REACTORS
330
458CB
102
}
330
458CB
100
AcDbDictionary
281
     1
  3
ASEBlockHierarchyIndexRecord
350
62D0A
1001
DCO15
1040
1582951400.892
  0
XRECORD
  5
62D06
102
{ACAD_REACTORS
330
62D05
102
}
330
62D05
100
AcDbXrecord
280
     1
  1

  2

  3
WIRE
 90
        0
  0
XRECORD
  5
62CDA
102
{ACAD_REACTORS
330
4592C
102
}
330
4592C
100
AcDbXrecord
280
     1
340
458D6
  0
XRECORD
  5
62CD9
102
{ACAD_REACTORS
330
4592A
102
}
330
4592A
100
AcDbXrecord
280
     1
340
458D3
  0
LAYOUT
  5
458FE
102
{ACAD_REACTORS
330
458FB
102
}
330
458FB
100
AcDbPlotSettings
  1

  2
none_device
  4
Letter_(8.50_x_11.00_Inches)
  6

 40
6.349999904632568
 41
6.349999904632568
 42
6.350006103515625
 43
6.350006103515625
 44
215.8999938964844
 45
279.3999938964844
 46
0.0
 47
0.0
 48
0.0
 49
0.0
140
0.0
141
0.0
142
1.0
143
1.0
 70
   688
 72
     0
 73
     1
 74
     5
  7
Default R14 pen assignments.ctb
 75
    16
147
1.0
 76
     0
 77
     2
 78
   300
148
0.0
149
0.0
100
AcDbLayout
  1
Layout1
 70
     1
 71
     1
 10
-0.2500002402958907
 20
-0.2499999962453767
 11
10.74999951940821
 21
8.249999763458731
 12
0.0
 22
0.0
 32
0.0
 14
1.049999952316284
 24
0.7999999523162842
 34
0.0
 15
9.449999570846555
 25
7.199999570846556
 35
0.0
146
0.0
 13
0.0
 23
0.0
 33
0.0
 16
1.0
 26
0.0
 36
0.0
 17
0.0
 27
1.0
 37
0.0
 76
     0
330
458D3
331
5677D
  0
LAYOUT
  5
458FD
102
{ACAD_REACTORS
330
458FB
102
}
330
458FB
100
AcDbPlotSettings
  1

  2
HP LaserJet 5000 Series PCL 6
  4

  6

 40
0.0
 41
0.0
 42
0.0
 43
0.0
 44
0.0
 45
0.0
 46
0.0
 47
0.0
 48
0.0
 49
0.0
140
0.0
141
0.0
142
1.0
143
1.0
 70
  1712
 72
     0
 73
     0
 74
     0
  7
Default R14 pen assignments.ctb
 75
     0
147
1.0
 76
     0
 77
     2
 78
   300
148
0.0
149
0.0
100
AcDbLayout
  1
Model
 70
     1
 71
     0
 10
0.0
 20
0.0
 11
12.0
 21
9.0
 12
0.0
 22
0.0
 32
0.0
 14
0.0
 24
0.0
 34
0.0
 15
0.0
 25
0.0
 35
0.0
146
0.0
 13
0.0
 23
0.0
 33
0.0
 16
1.0
 26
0.0
 36
0.0
 17
0.0
 27
1.0
 37
0.0
 76
     0
330
458D6
331
62CB3
  0
MATERIAL
  5
62CE8
102
{ACAD_REACTORS
330
62CE6
102
}
330
62CE6
100
AcDbMaterial
  1
ByBlock
  0
MATERIAL
  5
62CE7
102
{ACAD_REACTORS
330
62CE6
102
}
330
62CE6
100
AcDbMaterial
  1
ByLayer
  0
MATERIAL
  5
62CE9
102
{ACAD_REACTORS
330
62CE6
102
}
330
62CE6
100
AcDbMaterial
  1
Global
  0
MLINESTYLE
  5
458DA
102
{ACAD_REACTORS
330
458D9
102
}
330
458D9
100
AcDbMlineStyle
  2
STANDARD
 70
     0
  3

 62
   256
 51
90.0
 52
90.0
 71
     2
 49
0.5
 62
   256
  6
BYLAYER
 49
-0.5
 62
   256
  6
BYLAYER
  0
ACDBPLACEHOLDER
  5
458FA
102
{ACAD_REACTORS
330
458F9
102
}
330
458F9
  0
TABLESTYLE
  5
62CFD
102
{ACAD_REACTORS
330
62CFC
102
}
330
62CFC
100
AcDbTableStyle
  3
Standard
 70
     0
 71
     0
 40
0.06
 41
0.06
280
     0
281
     0
  7
STANDARD
140
0.18
170
     2
 62
     0
 63
     7
283
     0
 90
      512
 91
        0
  1

274
    -2
284
     1
 64
     0
275
    -2
285
     1
 65
     0
276
    -2
286
     1
 66
     0
277
    -2
287
     1
 67
     0
278
    -2
288
     1
 68
     0
279
    -2
289
     1
 69
     0
  7
STANDARD
140
0.25
170
     5
 62
     0
 63
     7
283
     0
 90
      512
 91
        0
  1

274
    -2
284
     1
 64
     0
275
    -2
285
     1
 65
     0
276
    -2
286
     1
 66
     0
277
    -2
287
     1
 67
     0
278
    -2
288
     1
 68
     0
279
    -2
289
     1
 69
     0
  7
STANDARD
140
0.18
170
     5
 62
     0
 63
     7
283
     0
 90
      512
 91
        0
  1

274
    -2
284
     1
 64
     0
275
    -2
285
     1
 65
     0
276
    -2
286
     1
 66
     0
277
    -2
287
     1
 67
     0
278
    -2
288
     1
 68
     0
279
    -2
289
     1
 69
     0
  0
VISUALSTYLE
  5
62CF0
102
{ACAD_REACTORS
330
62CEA
102
}
330
62CEA
100
AcDbVisualStyle
  2
2dWireframe
 70
     4
 71
     0
 72
     2
 73
     0
 90
        0
 40
-0.6
 41
-30.0
 62
     5
 63
     7
421
 16777215
 74
     1
 91
        4
 64
     7
 65
   257
 75
     1
175
     1
 42
1.0
 92
        0
 66
   257
 43
1.0
 76
     1
 77
     6
 78
     2
 67
     7
 79
     5
170
     0
171
     0
290
     0
174
     0
 93
        1
 44
0.0
173
     0
291
     0
 45
0.0
  0
VISUALSTYLE
  5
62CF2
102
{ACAD_REACTORS
330
62CEA
102
}
330
62CEA
100
AcDbVisualStyle
  2
3D Hidden
 70
     6
 71
     1
 72
     2
 73
     2
 90
        0
 40
-0.6
 41
-30.0
 62
     5
 63
     7
421
 16777215
 74
     2
 91
        2
 64
     7
 65
   257
 75
     2
175
     1
 42
40.0
 92
        0
 66
   257
 43
1.0
 76
     1
 77
     6
 78
     2
 67
     7
 79
     3
170
     0
171
     0
290
     0
174
     0
 93
        1
 44
0.0
173
     0
291
     0
 45
0.0
  0
VISUALSTYLE
  5
62CF1
102
{ACAD_REACTORS
330
62CEA
102
}
330
62CEA
100
AcDbVisualStyle
  2
3dWireframe
 70
     5
 71
     0
 72
     2
 73
     0
 90
        0
 40
-0.6
 41
-30.0
 62
     5
 63
     7
421
 16777215
 74
     1
 91
        4
 64
     7
 65
   257
 75
     1
175
     1
 42
1.0
 92
        0
 66
   257
 43
1.0
 76
     1
 77
     6
 78
     2
 67
     7
 79
     5
170
     0
171
     0
290
     0
174
     0
 93
        1
 44
0.0
173
     0
291
     0
 45
0.0
  0
VISUALSTYLE
  5
62CEF
102
{ACAD_REACTORS
330
62CEA
102
}
330
62CEA
100
AcDbVisualStyle
  2
Basic
 70
     7
 71
     1
 72
     0
 73
     1
 90
        0
 40
-0.6
 41
-30.0
 62
     5
 63
     7
421
 16777215
 74
     0
 91
        4
 64
     7
 65
   257
 75
     1
175
     1
 42
1.0
 92
        8
 66
     7
 43
1.0
 76
     1
 77
     6
 78
     2
 67
     7
 79
     5
170
     0
171
     0
290
     0
174
     0
 93
        1
 44
0.0
173
     0
291
     1
 45
0.0
  0
VISUALSTYLE
  5
62CF6
102
{ACAD_REACTORS
330
62CEA
102
}
330
62CEA
100
AcDbVisualStyle
  2
Brighten
 70
    12
 71
     2
 72
     2
 73
     0
 90
        0
 40
-0.6
 41
-30.0
 62
     5
 63
     7
421
 16777215
 74
     1
 91
        4
 64
     7
 65
   257
 75
     1
175
     1
 42
1.0
 92
        8
 66
     7
 43
1.0
 76
     1
 77
     6
 78
     2
 67
     7
 79
     5
170
     0
171
     0
290
     0
174
     0
 93
        1
 44
50.0
173
     0
291
     1
 45
0.0
  0
VISUALSTYLE
  5
62CFA
102
{ACAD_REACTORS
330
62CEA
102
}
330
62CEA
100
AcDbVisualStyle
  2
ColorChange
 70
    16
 71
     2
 72
     2
 73
     3
 90
        0
 40
-0.6
 41
-30.0
 62
     5
 63
     8
421
  8421504
 74
     1
 91
        4
 64
     7
 65
   257
 75
     1
175
     1
 42
1.0
 92
        8
 66
     8
424
  8421504
 43
1.0
 76
     1
 77
     6
 78
     2
 67
     7
 79
     5
170
     0
171
     0
290
     0
174
     0
 93
        1
 44
0.0
173
     0
291
     1
 45
0.0
  0
VISUALSTYLE
  5
62CF3
102
{ACAD_REACTORS
330
62CEA
102
}
330
62CEA
100
AcDbVisualStyle
  2
Conceptual
 70
     9
 71
     3
 72
     2
 73
     0
 90
        0
 40
-0.6
 41
-30.0
 62
     5
 63
     7
421
 16777215
 74
     2
 91
        2
 64
     7
 65
   257
 75
     1
175
     1
 42
40.0
 92
        8
 66
     7
 43
1.0
 76
     1
 77
     6
 78
     2
 67
     7
 79
     3
170
     0
171
     0
290
     0
174
     0
 93
        1
 44
0.0
173
     0
291
     0
 45
0.0
  0
VISUALSTYLE
  5
62CF5
102
{ACAD_REACTORS
330
62CEA
102
}
330
62CEA
100
AcDbVisualStyle
  2
Dim
 70
    11
 71
     2
 72
     2
 73
     0
 90
        0
 40
-0.6
 41
-30.0
 62
     5
 63
     7
421
 16777215
 74
     1
 91
        4
 64
     7
 65
   257
 75
     1
175
     1
 42
1.0
 92
        8
 66
     7
 43
1.0
 76
     1
 77
     6
 78
     2
 67
     7
 79
     5
170
     0
171
     0
290
     0
174
     0
 93
        1
 44
-50.0
173
     0
291
     1
 45
0.0
  0
VISUALSTYLE
  5
62CF9
102
{ACAD_REACTORS
330
62CEA
102
}
330
62CEA
100
AcDbVisualStyle
  2
Facepattern
 70
    15
 71
     2
 72
     2
 73
     0
 90
        0
 40
-0.6
 41
-30.0
 62
     5
 63
     7
421
 16777215
 74
     1
 91
        4
 64
     7
 65
   257
 75
     1
175
     1
 42
1.0
 92
        8
 66
     7
 43
1.0
 76
     1
 77
     6
 78
     2
 67
     7
 79
     5
170
     0
171
     0
290
     0
174
     0
 93
        1
 44
0.0
173
     0
291
     1
 45
0.0
  0
VISUALSTYLE
  5
62CEB
102
{ACAD_REACTORS
330
62CEA
102
}
330
62CEA
100
AcDbVisualStyle
  2
Flat
 70
     0
 71
     2
 72
     1
 73
     1
 90
        2
 40
-0.6
 41
30.0
 62
     5
 63
     7
421
 16777215
 74
     0
 91
        4
 64
     7
 65
   257
 75
     1
175
     1
 42
1.0
 92
        8
 66
     7
 43
1.0
 76
     1
 77
     6
 78
     2
 67
     7
 79
     5
170
     0
171
     0
290
     0
174
     0
 93
       13
 44
0.0
173
     0
291
     1
 45
0.0
  0
VISUALSTYLE
  5
62CEC
102
{ACAD_REACTORS
330
62CEA
102
}
330
62CEA
100
AcDbVisualStyle
  2
FlatWithEdges
 70
     1
 71
     2
 72
     1
 73
     1
 90
        2
 40
-0.6
 41
30.0
 62
     5
 63
     7
421
 16777215
 74
     1
 91
        4
 64
     7
 65
   257
 75
     1
175
     1
 42
1.0
 92
        0
 66
   257
 43
1.0
 76
     1
 77
     6
 78
     2
 67
     7
 79
     5
170
     0
171
     0
290
     0
174
     0
 93
       13
 44
0.0
173
     0
291
     1
 45
0.0
  0
VISUALSTYLE
  5
62CED
102
{ACAD_REACTORS
330
62CEA
102
}
330
62CEA
100
AcDbVisualStyle
  2
Gouraud
 70
     2
 71
     2
 72
     2
 73
     1
 90
        2
 40
-0.6
 41
30.0
 62
     5
 63
     7
421
 16777215
 74
     0
 91
        4
 64
     7
 65
   257
 75
     1
175
     1
 42
1.0
 92
        0
 66
     7
 43
1.0
 76
     1
 77
     6
 78
     2
 67
     7
 79
     5
170
     0
171
     0
290
     0
174
     0
 93
       13
 44
0.0
173
     0
291
     1
 45
0.0
  0
VISUALSTYLE
  5
62CEE
102
{ACAD_REACTORS
330
62CEA
102
}
330
62CEA
100
AcDbVisualStyle
  2
GouraudWithEdges
 70
     3
 71
     2
 72
     2
 73
     1
 90
        2
 40
-0.6
 41
30.0
 62
     5
 63
     7
421
 16777215
 74
     1
 91
        4
 64
     7
 65
   257
 75
     1
175
     1
 42
1.0
 92
        0
 66
   257
 43
1.0
 76
     1
 77
     6
 78
     2
 67
     7
 79
     5
170
     0
171
     0
290
     0
174
     0
 93
       13
 44
0.0
173
     0
291
     1
 45
0.0
  0
VISUALSTYLE
  5
62CF8
102
{ACAD_REACTORS
330
62CEA
102
}
330
62CEA
100
AcDbVisualStyle
  2
Linepattern
 70
    14
 71
     2
 72
     2
 73
     0
 90
        0
 40
-0.6
 41
-30.0
 62
     5
 63
     7
421
 16777215
 74
     1
 91
        4
 64
     7
 65
   257
 75
     7
175
     7
 42
1.0
 92
        8
 66
     7
 43
1.0
 76
     1
 77
     6
 78
     2
 67
     7
 79
     5
170
     0
171
     0
290
     0
174
     0
 93
        1
 44
0.0
173
     0
291
     1
 45
0.0
  0
VISUALSTYLE
  5
62CF4
102
{ACAD_REACTORS
330
62CEA
102
}
330
62CEA
100
AcDbVisualStyle
  2
Realistic
 70
     8
 71
     2
 72
     2
 73
     0
 90
        0
 40
-0.6
 41
-30.0
 62
     5
 63
     7
421
 16777215
 74
     1
 91
        0
 64
     7
 65
   257
 75
     1
175
     1
 42
1.0
 92
        8
 66
     8
424
  7895160
 43
1.0
 76
     1
 77
     6
 78
     2
 67
     7
 79
     5
170
     0
171
     0
290
     0
174
     0
 93
       13
 44
0.0
173
     0
291
     0
 45
0.0
  0
VISUALSTYLE
  5
62CF7
102
{ACAD_REACTORS
330
62CEA
102
}
330
62CEA
100
AcDbVisualStyle
  2
Thicken
 70
    13
 71
     2
 72
     2
 73
     0
 90
        0
 40
-0.6
 41
-30.0
 62
     5
 63
     7
421
 16777215
 74
     1
 91
        4
 64
     7
 65
   257
 75
     1
175
     1
 42
1.0
 92
       12
 66
     7
 43
1.0
 76
     1
 77
     6
 78
     2
 67
     7
 79
     5
170
     0
171
     0
290
     0
174
     0
 93
        1
 44
0.0
173
     0
291
     1
 45
0.0
  0
XRECORD
  5
62D16
102
{ACAD_REACTORS
330
62D15
102
}
330
62D15
100
AcDbXrecord
280
     1
  1
WIRES
  1
WIRES
  1

290
     0
  0
DICTIONARYVAR
  5
62D0B
102
{ACAD_REACTORS
330
458E1
102
}
330
458E1
100
DictionaryVariables
280
     0
  1
STANDARD
  0
DICTIONARYVAR
  5
458E2
102
{ACAD_REACTORS
330
458E1
102
}
330
458E1
100
DictionaryVariables
280
     0
  1
0
  0
XRECORD
  5
62D0A
102
{ACAD_REACTORS
330
62D08
102
}
330
62D08
100
AcDbXrecord
280
     1
  0
ENDSEC
  0
EOF
