  0
SECTION
  2
HEADER
  9
$ACADVER
  1
AC1021
  9
$ACADMAINTVER
 70
     1
  9
$DWGCODEPAGE
  3
ANSI_1252
  9
$LASTSAVEDBY
  1
gdseiver
  9
$INSBASE
 10
0.0
 20
0.0
 30
0.0
  9
$EXTMIN
 10
-0.0000103494035411
 20
-2.4055
 30
-0.0000000000000003
  9
$EXTMAX
 10
1.765410349403541
 20
0.7744999999999998
 30
4.859375000000001
  9
$LIMMIN
 10
0.0
 20
0.0
  9
$LIMMAX
 10
12.0
 20
9.0
  9
$ORTHOMODE
 70
     0
  9
$REGENMODE
 70
     1
  9
$FILLMODE
 70
     1
  9
$QTEXTMODE
 70
     0
  9
$MIRRTEXT
 70
     1
  9
$LTSCALE
 40
1.0
  9
$ATTMODE
 70
     1
  9
$TEXTSIZE
 40
0.12
  9
$TRACEWID
 40
0.05
  9
$TEXTSTYLE
  7
STANDARD
  9
$CLAYER
  8
0
  9
$CELTYPE
  6
BYLAYER
  9
$CECOLOR
 62
   256
  9
$CELTSCALE
 40
1.0
  9
$DISPSILH
 70
     0
  9
$DIMSCALE
 40
1.0
  9
$DIMASZ
 40
0.125
  9
$DIMEXO
 40
0.0625
  9
$DIMDLI
 40
0.375
  9
$DIMRND
 40
0.0
  9
$DIMDLE
 40
0.0
  9
$DIMEXE
 40
0.1
  9
$DIMTP
 40
0.0
  9
$DIMTM
 40
0.0
  9
$DIMTXT
 40
0.125
  9
$DIMCEN
 40
0.09
  9
$DIMTSZ
 40
0.0
  9
$DIMTOL
 70
     0
  9
$DIMLIM
 70
     0
  9
$DIMTIH
 70
     0
  9
$DIMTOH
 70
     1
  9
$DIMSE1
 70
     0
  9
$DIMSE2
 70
     0
  9
$DIMTAD
 70
     0
  9
$DIMZIN
 70
     4
  9
$DIMBLK
  1

  9
$DIMASO
 70
     1
  9
$DIMSHO
 70
     1
  9
$DIMPOST
  1

  9
$DIMAPOST
  1

  9
$DIMALT
 70
     1
  9
$DIMALTD
 70
     2
  9
$DIMALTF
 40
25.4
  9
$DIMLFAC
 40
1.0
  9
$DIMTOFL
 70
     0
  9
$DIMTVP
 40
0.0
  9
$DIMTIX
 70
     0
  9
$DIMSOXD
 70
     0
  9
$DIMSAH
 70
     0
  9
$DIMBLK1
  1

  9
$DIMBLK2
  1

  9
$DIMSTYLE
  2
ABECAD_3D
  9
$DIMCLRD
 70
     0
  9
$DIMCLRE
 70
     0
  9
$DIMCLRT
 70
     0
  9
$DIMTFAC
 40
1.5
  9
$DIMGAP
 40
0.09
  9
$DIMJUST
 70
     0
  9
$DIMSD1
 70
     0
  9
$DIMSD2
 70
     0
  9
$DIMTOLJ
 70
     1
  9
$DIMTZIN
 70
     4
  9
$DIMALTZ
 70
     4
  9
$DIMALTTZ
 70
     4
  9
$DIMUPT
 70
     1
  9
$DIMDEC
 70
     6
  9
$DIMTDEC
 70
     6
  9
$DIMALTU
 70
     2
  9
$DIMALTTD
 70
     2
  9
$DIMTXSTY
  7
STANDARD
  9
$DIMAUNIT
 70
     0
  9
$DIMADEC
 70
     0
  9
$DIMALTRND
 40
0.0
  9
$DIMAZIN
 70
     0
  9
$DIMDSEP
 70
    46
  9
$DIMATFIT
 70
     2
  9
$DIMFRAC
 70
     2
  9
$DIMLDRBLK
  1

  9
$DIMLUNIT
 70
     5
  9
$DIMLWD
 70
    -2
  9
$DIMLWE
 70
    -2
  9
$DIMTMOVE
 70
     2
  9
$DIMFXL
 40
1.0
  9
$DIMFXLON
 70
     0
  9
$DIMJOGANG
 40
0.7853981633974483
  9
$DIMTFILL
 70
     0
  9
$DIMTFILLCLR
 70
     0
  9
$DIMARCSYM
 70
     0
  9
$DIMLTYPE
  6

  9
$DIMLTEX1
  6

  9
$DIMLTEX2
  6

  9
$LUNITS
 70
     2
  9
$LUPREC
 70
     4
  9
$SKETCHINC
 40
0.1
  9
$FILLETRAD
 40
0.0
  9
$AUNITS
 70
     0
  9
$AUPREC
 70
     0
  9
$MENU
  1
ACAD
  9
$ELEVATION
 40
0.0
  9
$PELEVATION
 40
0.0
  9
$THICKNESS
 40
0.0
  9
$LIMCHECK
 70
     0
  9
$CHAMFERA
 40
0.0
  9
$CHAMFERB
 40
0.0
  9
$CHAMFERC
 40
0.0
  9
$CHAMFERD
 40
0.0
  9
$SKPOLY
 70
     0
  9
$TDCREATE
 40
2451726.480055787
  9
$TDUCREATE
 40
2451726.688389120
  9
$TDUPDATE
 40
2454229.679659109
  9
$TDUUPDATE
 40
2454229.887992442
  9
$TDINDWG
 40
0.9751338542
  9
$TDUSRTIMER
 40
0.9751338542
  9
$USRTIMER
 70
     1
  9
$ANGBASE
 50
0.0
  9
$ANGDIR
 70
     0
  9
$PDMODE
 70
     3
  9
$PDSIZE
 40
0.09
  9
$PLINEWID
 40
0.0
  9
$SPLFRAME
 70
     1
  9
$SPLINETYPE
 70
     6
  9
$SPLINESEGS
 70
     8
  9
$HANDSEED
  5
78A28
  9
$SURFTAB1
 70
     6
  9
$SURFTAB2
 70
     6
  9
$SURFTYPE
 70
     6
  9
$SURFU
 70
     6
  9
$SURFV
 70
     6
  9
$UCSBASE
  2

  9
$UCSNAME
  2

  9
$UCSORG
 10
0.0
 20
0.0
 30
0.0
  9
$UCSXDIR
 10
1.0
 20
0.0
 30
0.0
  9
$UCSYDIR
 10
0.0
 20
1.0
 30
0.0
  9
$UCSORTHOREF
  2

  9
$UCSORTHOVIEW
 70
     1
  9
$UCSORGTOP
 10
0.0
 20
0.0
 30
0.0
  9
$UCSORGBOTTOM
 10
0.0
 20
0.0
 30
0.0
  9
$UCSORGLEFT
 10
0.0
 20
0.0
 30
0.0
  9
$UCSORGRIGHT
 10
0.0
 20
0.0
 30
0.0
  9
$UCSORGFRONT
 10
0.0
 20
0.0
 30
0.0
  9
$UCSORGBACK
 10
0.0
 20
0.0
 30
0.0
  9
$PUCSBASE
  2

  9
$PUCSNAME
  2

  9
$PUCSORG
 10
0.0
 20
0.0
 30
0.0
  9
$PUCSXDIR
 10
1.0
 20
0.0
 30
0.0
  9
$PUCSYDIR
 10
0.0
 20
1.0
 30
0.0
  9
$PUCSORTHOREF
  2

  9
$PUCSORTHOVIEW
 70
     0
  9
$PUCSORGTOP
 10
0.0
 20
0.0
 30
0.0
  9
$PUCSORGBOTTOM
 10
0.0
 20
0.0
 30
0.0
  9
$PUCSORGLEFT
 10
0.0
 20
0.0
 30
0.0
  9
$PUCSORGRIGHT
 10
0.0
 20
0.0
 30
0.0
  9
$PUCSORGFRONT
 10
0.0
 20
0.0
 30
0.0
  9
$PUCSORGBACK
 10
0.0
 20
0.0
 30
0.0
  9
$USERI1
 70
     0
  9
$USERI2
 70
     0
  9
$USERI3
 70
     0
  9
$USERI4
 70
     0
  9
$USERI5
 70
     0
  9
$USERR1
 40
0.0
  9
$USERR2
 40
0.0
  9
$USERR3
 40
0.0
  9
$USERR4
 40
0.0
  9
$USERR5
 40
0.0
  9
$WORLDVIEW
 70
     1
  9
$SHADEDGE
 70
     3
  9
$SHADEDIF
 70
    70
  9
$TILEMODE
 70
     1
  9
$MAXACTVP
 70
    16
  9
$PINSBASE
 10
0.0
 20
0.0
 30
0.0
  9
$PLIMCHECK
 70
     0
  9
$PEXTMIN
 10
1.049999952316284
 20
0.7999999523162842
 30
0.0
  9
$PEXTMAX
 10
9.449999570846555
 20
7.199999570846556
 30
0.0
  9
$PLIMMIN
 10
-0.2500002402958907
 20
-0.2499999962453767
  9
$PLIMMAX
 10
10.74999951940821
 20
8.249999763458731
  9
$UNITMODE
 70
     0
  9
$VISRETAIN
 70
     0
  9
$PLINEGEN
 70
     0
  9
$PSLTSCALE
 70
     1
  9
$TREEDEPTH
 70
  3020
  9
$CMLSTYLE
  2
STANDARD
  9
$CMLJUST
 70
     0
  9
$CMLSCALE
 40
1.0
  9
$PROXYGRAPHICS
 70
     1
  9
$MEASUREMENT
 70
     0
  9
$CELWEIGHT
370
    -1
  9
$ENDCAPS
280
     0
  9
$JOINSTYLE
280
     0
  9
$LWDISPLAY
290
     0
  9
$INSUNITS
 70
     0
  9
$HYPERLINKBASE
  1

  9
$STYLESHEET
  1

  9
$XEDIT
290
     1
  9
$CEPSNTYPE
380
     0
  9
$PSTYLEMODE
290
     1
  9
$FINGERPRINTGUID
  2
{6E0CF4B8-225E-11D4-A150-00A0CC3303EC}
  9
$VERSIONGUID
  2
{E54713BF-BD98-4DE0-ADE3-C6979E06C571}
  9
$EXTNAMES
290
     1
  9
$PSVPSCALE
 40
0.0
  9
$OLESTARTUP
290
     0
  9
$SORTENTS
280
   127
  9
$INDEXCTL
280
     0
  9
$HIDETEXT
280
     0
  9
$XCLIPFRAME
290
     0
  9
$HALOGAP
280
     0
  9
$OBSCOLOR
 70
   257
  9
$OBSLTYPE
280
     0
  9
$INTERSECTIONDISPLAY
280
     0
  9
$INTERSECTIONCOLOR
 70
   257
  9
$DIMASSOC
280
     1
  9
$PROJECTNAME
  1

  9
$CAMERADISPLAY
290
     0
  9
$LENSLENGTH
 40
50.0
  9
$CAMERAHEIGHT
 40
0.0
  9
$STEPSPERSEC
 40
2.0
  9
$STEPSIZE
 40
6.0
  9
$3DDWFPREC
 40
2.0
  9
$PSOLWIDTH
 40
0.25
  9
$PSOLHEIGHT
 40
4.0
  9
$LOFTANG1
 40
1.570796326794896
  9
$LOFTANG2
 40
1.570796326794896
  9
$LOFTMAG1
 40
0.0
  9
$LOFTMAG2
 40
0.0
  9
$LOFTPARAM
 70
     7
  9
$LOFTNORMALS
280
     1
  9
$LATITUDE
 40
37.795
  9
$LONGITUDE
 40
-122.394
  9
$NORTHDIRECTION
 40
0.0
  9
$TIMEZONE
 70
 -8000
  9
$LIGHTGLYPHDISPLAY
280
     1
  9
$TILEMODELIGHTSYNCH
280
     1
  9
$CMATERIAL
347
789D2
  9
$SOLIDHIST
280
     1
  9
$SHOWHIST
280
     1
  9
$DWFFRAME
280
     2
  9
$DGNFRAME
280
     0
  9
$REALWORLDSCALE
290
     1
  9
$INTERFERECOLOR
 62
     1
  9
$INTERFEREOBJVS
345
789DF
  9
$INTERFEREVPVS
346
789DC
  9
$CSHADOW
280
     0
  9
$SHADOWPLANELOCATION
 40
0.0
  0
ENDSEC
  0
SECTION
  2
CLASSES
  0
CLASS
  1
DICTIONARYVAR
  2
AcDbDictionaryVar
  3
ObjectDBX Classes
 90
        0
 91
        2
280
     0
281
     0
  0
CLASS
  1
ACDBDICTIONARYWDFLT
  2
AcDbDictionaryWithDefault
  3
ObjectDBX Classes
 90
        0
 91
        1
280
     0
281
     0
  0
CLASS
  1
MATERIAL
  2
AcDbMaterial
  3
ObjectDBX Classes
 90
     1024
 91
        3
280
     0
281
     0
  0
CLASS
  1
VISUALSTYLE
  2
AcDbVisualStyle
  3
ObjectDBX Classes
 90
     4095
 91
       16
280
     0
281
     0
  0
CLASS
  1
TABLESTYLE
  2
AcDbTableStyle
  3
ObjectDBX Classes
 90
     4095
 91
        1
280
     0
281
     0
  0
CLASS
  1
SOLID_BACKGROUND
  2
AcDbSolidBackground
  3
SCENEOE
 90
     4095
 91
        1
280
     0
281
     0
  0
CLASS
  1
NPOCOLLECTION
  2
AcDbImpNonPersistentObjectsCollection
  3
ObjectDBX Classes
 90
     1153
 91
        1
280
     0
281
     0
  0
CLASS
  1
EXACXREFPANELOBJECT
  2
ExAcXREFPanelObject
  3
EXAC_ESW
 90
     1025
 91
        0
280
     0
281
     0
  0
ENDSEC
  0
SECTION
  2
TABLES
  0
TABLE
  2
VPORT
  5
458C7
102
{ACAD_XDICTIONARY
360
78A02
102
}
330
0
100
AcDbSymbolTable
 70
     1
  0
VPORT
  5
7899E
330
458C7
100
AcDbSymbolTableRecord
100
AcDbViewportTableRecord
  2
*Active
 70
     0
 10
0.0
 20
0.0
 11
1.0
 21
1.0
 12
0.3195900722340668
 22
0.0649371238981811
 13
0.0
 23
0.0
 14
0.25
 24
0.25
 15
0.25
 25
0.25
 16
0.0
 26
0.0
 36
1.0
 17
0.5634438949382106
 27
-0.8801371703728531
 37
1.68649307151727
 40
3.20476993669906
 41
1.421818181818181
 42
50.0
 43
0.0
 44
0.0
 50
0.0
 51
0.0
 71
     0
 72
 20000
 73
     1
 74
     1
 75
     0
 76
     0
 77
     0
 78
     0
281
     1
 65
     1
110
0.0
120
0.0
130
0.0
111
1.0
121
0.0
131
0.0
112
0.0
122
1.0
132
0.0
 79
     0
146
0.0
348
789DC
 60
     3
 61
     5
292
     1
282
     1
141
0.0
142
0.0
 63
   250
421
  3355443
  0
ENDTAB
  0
TABLE
  2
LTYPE
  5
458C4
330
0
100
AcDbSymbolTable
 70
     1
  0
LTYPE
  5
458D0
330
458C4
100
AcDbSymbolTableRecord
100
AcDbLinetypeTableRecord
  2
BYBLOCK
 70
     0
  3

 72
    65
 73
     0
 40
0.0
  0
LTYPE
  5
458D1
330
458C4
100
AcDbSymbolTableRecord
100
AcDbLinetypeTableRecord
  2
BYLAYER
 70
     0
  3

 72
    65
 73
     0
 40
0.0
  0
LTYPE
  5
458D2
330
458C4
100
AcDbSymbolTableRecord
100
AcDbLinetypeTableRecord
  2
CONTINUOUS
 70
     0
  3
Solid line
 72
    65
 73
     0
 40
0.0
  0
ENDTAB
  0
TABLE
  2
LAYER
  5
458C1
330
0
100
AcDbSymbolTable
 70
     8
  0
LAYER
  5
458CD
330
458C1
100
AcDbSymbolTableRecord
100
AcDbLayerTableRecord
  2
0
 70
     0
 62
     7
  6
CONTINUOUS
370
    -3
390
458FA
347
789D4
  0
LAYER
  5
458EA
330
458C1
100
AcDbSymbolTableRecord
100
AcDbLayerTableRecord
  2
DIMS-MTG-HOLES
 70
     0
 62
     1
  6
CONTINUOUS
370
    -3
390
458FA
347
789D4
  0
LAYER
  5
458EB
330
458C1
100
AcDbSymbolTableRecord
100
AcDbLayerTableRecord
  2
ATTRIBUTES
 70
     0
 62
     7
  6
CONTINUOUS
370
    -3
390
458FA
347
789D4
  0
LAYER
  5
4593B
330
458C1
100
AcDbSymbolTableRecord
100
AcDbLayerTableRecord
  2
AREA1
 70
     1
 62
     7
  6
CONTINUOUS
290
     0
370
    -3
390
458FA
347
789D4
  0
LAYER
  5
45940
330
458C1
100
AcDbSymbolTableRecord
100
AcDbLayerTableRecord
  2
Defpoints
 70
     1
 62
     7
  6
CONTINUOUS
290
     0
370
    -3
390
458FA
347
789D4
  0
LAYER
  5
45954
330
458C1
100
AcDbSymbolTableRecord
100
AcDbLayerTableRecord
  2
SCALE
 70
     1
 62
     7
  6
CONTINUOUS
370
    -3
390
458FA
347
789D4
  0
LAYER
  5
4D59A
330
458C1
100
AcDbSymbolTableRecord
100
AcDbLayerTableRecord
  2
SNAP_POINTS
 70
     1
 62
     1
  6
CONTINUOUS
370
    -3
390
458FA
347
789D4
  0
LAYER
  5
789EF
102
{ACAD_XDICTIONARY
360
789F0
102
}
330
458C1
100
AcDbSymbolTableRecord
100
AcDbLayerTableRecord
  2
WIRES
 70
     0
 62
     7
  6
CONTINUOUS
370
    -3
390
458FA
347
789D4
  0
ENDTAB
  0
TABLE
  2
STYLE
  5
458C2
330
0
100
AcDbSymbolTable
 70
     1
  0
STYLE
  5
458CE
330
458C2
100
AcDbSymbolTableRecord
100
AcDbTextStyleTableRecord
  2
STANDARD
 70
     0
 40
0.0
 41
1.0
 50
0.0
 71
     0
 42
0.12
  3
txt
  4

  0
ENDTAB
  0
TABLE
  2
VIEW
  5
458C5
330
0
100
AcDbSymbolTable
 70
     0
  0
ENDTAB
  0
TABLE
  2
UCS
  5
458C6
330
0
100
AcDbSymbolTable
 70
     0
  0
ENDTAB
  0
TABLE
  2
APPID
  5
458C8
330
0
100
AcDbSymbolTable
 70
     3
  0
APPID
  5
458CF
330
458C8
100
AcDbSymbolTableRecord
100
AcDbRegAppTableRecord
  2
ACAD
 70
     0
  0
APPID
  5
5FD5B
330
458C8
100
AcDbSymbolTableRecord
100
AcDbRegAppTableRecord
  2
AVE_RENDER
 70
     0
  0
APPID
  5
789F4
330
458C8
100
AcDbSymbolTableRecord
100
AcDbRegAppTableRecord
  2
DCO15
 70
     0
  0
ENDTAB
  0
TABLE
  2
DIMSTYLE
  5
458C9
330
0
100
AcDbSymbolTable
 70
     1
100
AcDbDimStyleTable
 71
     0
  0
DIMSTYLE
105
458F6
102
{ACAD_REACTORS
330
788F5
330
78903
102
}
330
458C9
100
AcDbSymbolTableRecord
100
AcDbDimStyleTableRecord
  2
ABECAD_3D
 70
     0
 41
0.125
 43
0.375
 44
0.1
 73
     0
 78
     4
140
0.125
146
1.5
170
     1
271
     6
272
     6
276
     2
277
     5
279
     2
284
     4
285
     4
286
     4
288
     1
289
     2
340
458CE
  0
ENDTAB
  0
TABLE
  2
BLOCK_RECORD
  5
458C0
330
0
100
AcDbSymbolTable
 70
     3
  0
BLOCK_RECORD
  5
458D6
102
{ACAD_XDICTIONARY
360
4592C
102
}
330
458C0
100
AcDbSymbolTableRecord
100
AcDbBlockTableRecord
  2
*MODEL_SPACE
340
458FD
 70
     0
280
     1
281
     0
  0
BLOCK_RECORD
  5
458D3
102
{ACAD_XDICTIONARY
360
4592A
102
}
330
458C0
100
AcDbSymbolTableRecord
100
AcDbBlockTableRecord
  2
*PAPER_SPACE
340
458FE
 70
     0
280
     1
281
     0
  0
BLOCK_RECORD
  5
73745
330
458C0
100
AcDbSymbolTableRecord
100
AcDbBlockTableRecord
  2
AVE_RENDER
340
0
102
{BLKREFS
331
785B3
331
785B4
331
785B5
102
}
 70
     0
280
     1
281
     0
  0
BLOCK_RECORD
  5
788F6
330
458C0
100
AcDbSymbolTableRecord
100
AcDbBlockTableRecord
  2
*D1
340
0
 70
     0
280
     1
281
     0
  0
BLOCK_RECORD
  5
78904
330
458C0
100
AcDbSymbolTableRecord
100
AcDbBlockTableRecord
  2
*D2
340
0
 70
     0
280
     1
281
     0
  0
ENDTAB
  0
ENDSEC
  0
SECTION
  2
BLOCKS
  0
BLOCK
  5
458DF
330
458D6
100
AcDbEntity
  8
0
100
AcDbBlockBegin
  2
*MODEL_SPACE
 70
     0
 10
0.0
 20
0.0
 30
0.0
  3
*MODEL_SPACE
  1

  0
ENDBLK
  5
458E0
330
458D6
100
AcDbEntity
  8
0
100
AcDbBlockEnd
  0
BLOCK
  5
458DD
330
458D3
100
AcDbEntity
 67
     1
  8
0
100
AcDbBlockBegin
  2
*PAPER_SPACE
 70
     0
 10
0.0
 20
0.0
 30
0.0
  3
*PAPER_SPACE
  1

  0
ENDBLK
  5
458DE
330
458D3
100
AcDbEntity
 67
     1
  8
0
100
AcDbBlockEnd
  0
BLOCK
  5
73746
330
73745
100
AcDbEntity
  8
0
100
AcDbBlockBegin
  2
AVE_RENDER
 70
     0
 10
0.0
 20
0.0
 30
0.0
  3
AVE_RENDER
  1
AVE_RENDER
  0
ENDBLK
  5
73747
330
73745
100
AcDbEntity
  8
0
100
AcDbBlockEnd
  0
BLOCK
  5
78901
330
788F6
100
AcDbEntity
  8
0
100
AcDbBlockBegin
  2
*D1
 70
     1
 10
0.0
 20
0.0
 30
0.0
  3
*D1
  1

  0
LINE
  5
788F7
330
788F6
100
AcDbEntity
  8
AREA1
 62
     0
370
    -2
100
AcDbLine
 10
0.6347000000000002
 20
0.7744999999999998
 30
0.0
 11
-0.4985764655990239
 21
0.7745000000000001
 31
0.0
  0
LINE
  5
788F8
330
788F6
100
AcDbEntity
  8
AREA1
 62
     0
370
    -2
100
AcDbLine
 10
0.2701999999999992
 20
-2.4055
 30
0.0
 11
-0.4985764655990243
 21
-2.4055
 31
0.0
  0
LINE
  5
788F9
330
788F6
100
AcDbEntity
  8
AREA1
 62
     0
370
    -2
100
AcDbLine
 10
-0.3985764655990237
 20
0.6495000000000001
 30
0.0
 11
-0.3985764655990239
 21
-0.0414161053682958
 31
0.0
  0
LINE
  5
788FA
330
788F6
100
AcDbEntity
  8
AREA1
 62
     0
370
    -2
100
AcDbLine
 10
-0.3985764655990244
 20
-2.2805
 30
0.0
 11
-0.3985764655990243
 21
-1.700582772034962
 31
0.0
  0
MTEXT
  5
788FB
330
788F6
100
AcDbEntity
  8
AREA1
 62
     0
100
AcDbMText
 10
-0.398576465599024
 20
-0.8709994387016291
 30
0.0
 40
0.125
 41
0.0
 46
0.0
 71
     5
 72
     1
  1
\A1;3 3/16 [80.77]
 11
0.0000000000000001
 21
1.0
 31
0.0
 73
     1
 44
1.0
  0
SOLID
  5
788FC
330
788F6
100
AcDbEntity
  8
AREA1
 62
     0
100
AcDbTrace
 10
-0.419409798932357
 20
0.6495000000000001
 30
0.0
 11
-0.3777431322656904
 21
0.6495000000000001
 31
0.0
 12
-0.3985764655990237
 22
0.7745000000000001
 32
0.0
 13
-0.3985764655990237
 23
0.7745000000000001
 33
0.0
  0
SOLID
  5
788FD
330
788F6
100
AcDbEntity
  8
AREA1
 62
     0
100
AcDbTrace
 10
-0.4194097989323577
 20
-2.2805
 30
0.0
 11
-0.377743132265691
 21
-2.2805
 31
0.0
 12
-0.3985764655990244
 22
-2.4055
 32
0.0
 13
-0.3985764655990244
 23
-2.4055
 33
0.0
  0
POINT
  5
788FE
330
788F6
100
AcDbEntity
  8
Defpoints
 62
     0
100
AcDbPoint
 10
0.6972000000000002
 20
0.7744999999999998
 30
2.913375
  0
POINT
  5
788FF
330
788F6
100
AcDbEntity
  8
Defpoints
 62
     0
100
AcDbPoint
 10
0.3326999999999992
 20
-2.4055
 30
2.913375
  0
POINT
  5
78900
330
788F6
100
AcDbEntity
  8
Defpoints
 62
     0
100
AcDbPoint
 10
-0.3985764655990244
 20
-2.4055
 30
0.0
  0
ENDBLK
  5
78902
330
788F6
100
AcDbEntity
  8
0
100
AcDbBlockEnd
  0
BLOCK
  5
7890F
330
78904
100
AcDbEntity
  8
0
100
AcDbBlockBegin
  2
*D2
 70
     1
 10
0.0
 20
0.0
 30
0.0
  3
*D2
  1

  0
LINE
  5
78911
330
78904
100
AcDbEntity
  8
AREA1
 62
     0
370
    -2
100
AcDbLine
 10
0.0052
 20
0.7809999999999994
 30
0.0
 11
0.0052
 21
1.242199443918132
 31
0.0
  0
LINE
  5
78912
330
78904
100
AcDbEntity
  8
AREA1
 62
     0
370
    -2
100
AcDbLine
 10
1.765199999999999
 20
0.637
 30
0.0
 11
1.765199999999999
 21
1.242199443918132
 31
0.0
  0
LINE
  5
78913
330
78904
100
AcDbEntity
  8
AREA1
 62
     0
370
    -2
100
AcDbLine
 10
0.1302
 20
1.142199443918132
 30
0.0
 11
1.640199999999999
 21
1.142199443918132
 31
0.0
  0
MTEXT
  5
78914
330
78904
100
AcDbEntity
  8
AREA1
 62
     0
100
AcDbMText
 10
0.8687349029939465
 20
1.406374860490561
 30
0.0
 40
0.125
 41
0.0
 46
0.0
 71
     5
 72
     1
  1
\A1;1 49/64 [44.70]
 73
     1
 44
1.0
  0
SOLID
  5
78915
330
78904
100
AcDbEntity
  8
AREA1
 62
     0
100
AcDbTrace
 10
0.1302
 20
1.163032777251465
 30
0.0
 11
0.1302
 21
1.121366110584798
 31
0.0
 12
0.0052
 22
1.142199443918132
 32
0.0
 13
0.0052
 23
1.142199443918132
 33
0.0
  0
SOLID
  5
78916
330
78904
100
AcDbEntity
  8
AREA1
 62
     0
100
AcDbTrace
 10
1.640199999999999
 20
1.163032777251465
 30
0.0
 11
1.640199999999999
 21
1.121366110584798
 31
0.0
 12
1.765199999999999
 22
1.142199443918132
 32
0.0
 13
1.765199999999999
 23
1.142199443918132
 33
0.0
  0
POINT
  5
78917
330
78904
100
AcDbEntity
  8
Defpoints
 62
     0
100
AcDbPoint
 10
0.0052
 20
0.7184999999999994
 30
0.8555000000000001
  0
POINT
  5
78918
330
78904
100
AcDbEntity
  8
Defpoints
 62
     0
100
AcDbPoint
 10
1.765199999999999
 20
0.5745
 30
0.0
  0
POINT
  5
78919
330
78904
100
AcDbEntity
  8
Defpoints
 62
     0
100
AcDbPoint
 10
1.765199999999999
 20
1.142199443918132
 30
0.0
  0
ENDBLK
  5
78910
330
78904
100
AcDbEntity
  8
0
100
AcDbBlockEnd
  0
ENDSEC
  0
SECTION
  2
ENTITIES
  0
ATTDEF
  5
7851E
330
458D6
100
AcDbEntity
  8
ATTRIBUTES
100
AcDbText
 10
0.1000944536306815
 20
-0.1342429569443211
 30
0.0
 40
0.0805203758744914
  1
SPRECHER+SCHUH
100
AcDbAttributeDefinition
  3
MANUFACTURER NAME?
  2
AC_VND_LABEL
 70
     1
280
     0
  0
ATTDEF
  5
7851F
330
458D6
100
AcDbEntity
  8
ATTRIBUTES
100
AcDbText
 10
0.1000944536306815
 20
-0.3019937400161781
 30
0.0
 40
0.0805203758744914
  1
CA7-23C-M40-_U
100
AcDbAttributeDefinition
  3
CATALOG NUMBER?
  2
AC_PART_NO
 70
     1
280
     0
  0
ATTDEF
  5
78520
330
458D6
100
AcDbEntity
  8
ATTRIBUTES
100
AcDbText
 10
0.1000944536306815
 20
-0.4697445230880351
 30
0.0
 40
0.0805203758744914
  1
IEC DC CONTACTOR; 23A; 4 Pole
100
AcDbAttributeDefinition
  3
PART DESCRIPTION?
  2
AC_DESCRIPTION
 70
     1
280
     0
  0
ATTDEF
  5
78521
330
458D6
100
AcDbEntity
  8
ATTRIBUTES
100
AcDbText
 10
0.1000944536306815
 20
-0.6374953061598921
 30
0.0
 40
0.0805203758744914
  1

100
AcDbAttributeDefinition
  3
DEVICE ID?
  2
DEVICE_ID
 70
     1
280
     0
  0
ATTDEF
  5
78522
330
458D6
100
AcDbEntity
  8
ATTRIBUTES
100
AcDbText
 10
0.1000944536306815
 20
-0.805246089231749
 30
0.0
 40
0.0805203758744914
  1

100
AcDbAttributeDefinition
  3
CUSTOMER PART NUMBER?
  2
AC_CPART_NO
 70
     1
280
     0
  0
ATTDEF
  5
78523
330
458D6
100
AcDbEntity
  8
ATTRIBUTES
100
AcDbText
 10
0.1000944536306815
 20
-0.9729968723036069
 30
0.0
 40
0.0805203758744914
  1

100
AcDbAttributeDefinition
  3
CUSTOMER NOTE?
  2
AC_NOTE
 70
     1
280
     0
  0
ATTDEF
  5
78524
330
458D6
100
AcDbEntity
  8
ATTRIBUTES
100
AcDbText
 10
0.1000944536306815
 20
-1.140747655375463
 30
0.0
 40
0.0805203758744914
  1

100
AcDbAttributeDefinition
  3
FASTENER DATA?
  2
FASTENER
 70
     1
280
     0
  0
ATTDEF
  5
78525
330
458D6
100
AcDbEntity
  8
ATTRIBUTES
100
AcDbText
 10
0.1000944536306815
 20
-1.30849843844732
 30
0.0
 40
0.0805203758744914
  1
INCH
100
AcDbAttributeDefinition
  3
UNIT OF SCALE?
  2
AC_SCALE_UNIT
 70
     1
280
     0
  0
ATTDEF
  5
78526
330
458D6
100
AcDbEntity
  8
ATTRIBUTES
100
AcDbText
 10
0.1000944536306815
 20
-1.476249221519177
 30
0.0
 40
0.0805203758744914
  1
0
100
AcDbAttributeDefinition
  3
VIEW CODE?
  2
AC_VIEW_CODE
 70
     1
280
     0
  0
POLYLINE
  5
78527
330
458D6
100
AcDbEntity
  8
0
100
AcDbPolygonMesh
 66
     1
 10
0.0
 20
0.0
 30
0.0
 70
    16
 71
     6
 72
     3
  0
VERTEX
  5
78528
330
78527
100
AcDbEntity
  8
0
100
AcDbVertex
100
AcDbPolygonMeshVertex
 10
1.765199999999999
 20
0.2384999999999997
 30
0.316
 70
    64
  0
VERTEX
  5
78529
330
78527
100
AcDbEntity
  8
0
100
AcDbVertex
100
AcDbPolygonMeshVertex
 10
1.765199999999999
 20
0.2384999999999997
 30
0.0
 70
    64
  0
VERTEX
  5
7852A
330
78527
100
AcDbEntity
  8
0
100
AcDbVertex
100
AcDbPolygonMeshVertex
 10
1.765199999999999
 20
0.2384999999999997
 30
0.0
 70
    64
  0
VERTEX
  5
7852B
330
78527
100
AcDbEntity
  8
0
100
AcDbVertex
100
AcDbPolygonMeshVertex
 10
1.374199999999999
 20
0.2384999999999997
 30
0.316
 70
    64
  0
VERTEX
  5
7852C
330
78527
100
AcDbEntity
  8
0
100
AcDbVertex
100
AcDbPolygonMeshVertex
 10
1.374199999999999
 20
0.2384999999999997
 30
0.0
 70
    64
  0
VERTEX
  5
7852D
330
78527
100
AcDbEntity
  8
0
100
AcDbVertex
100
AcDbPolygonMeshVertex
 10
1.374199999999999
 20
0.2384999999999997
 30
0.0
 70
    64
  0
VERTEX
  5
7852E
330
78527
100
AcDbEntity
  8
0
100
AcDbVertex
100
AcDbPolygonMeshVertex
 10
1.374199999999999
 20
0.5745
 30
0.316
 70
    64
  0
VERTEX
  5
7852F
330
78527
100
AcDbEntity
  8
0
100
AcDbVertex
100
AcDbPolygonMeshVertex
 10
1.374199999999999
 20
0.5745
 30
0.0
 70
    64
  0
VERTEX
  5
78530
330
78527
100
AcDbEntity
  8
0
100
AcDbVertex
100
AcDbPolygonMeshVertex
 10
1.374199999999999
 20
0.2384999999999997
 30
0.0
 70
    64
  0
VERTEX
  5
78531
330
78527
100
AcDbEntity
  8
0
100
AcDbVertex
100
AcDbPolygonMeshVertex
 10
1.765199999999999
 20
0.5745
 30
0.316
 70
    64
  0
VERTEX
  5
78532
330
78527
100
AcDbEntity
  8
0
100
AcDbVertex
100
AcDbPolygonMeshVertex
 10
1.765199999999999
 20
0.5745
 30
0.0
 70
    64
  0
VERTEX
  5
78533
330
78527
100
AcDbEntity
  8
0
100
AcDbVertex
100
AcDbPolygonMeshVertex
 10
1.765199999999999
 20
0.2384999999999997
 30
0.0
 70
    64
  0
VERTEX
  5
78534
330
78527
100
AcDbEntity
  8
0
100
AcDbVertex
100
AcDbPolygonMeshVertex
 10
1.765199999999999
 20
0.5745
 30
0.316
 70
    64
  0
VERTEX
  5
78535
330
78527
100
AcDbEntity
  8
0
100
AcDbVertex
100
AcDbPolygonMeshVertex
 10
1.765199999999999
 20
0.5745
 30
0.316
 70
    64
  0
VERTEX
  5
78536
330
78527
100
AcDbEntity
  8
0
100
AcDbVertex
100
AcDbPolygonMeshVertex
 10
1.765199999999999
 20
0.2384999999999997
 30
0.316
 70
    64
  0
VERTEX
  5
78537
330
78527
100
AcDbEntity
  8
0
100
AcDbVertex
100
AcDbPolygonMeshVertex
 10
1.374199999999999
 20
0.5745
 30
0.316
 70
    64
  0
VERTEX
  5
78538
330
78527
100
AcDbEntity
  8
0
100
AcDbVertex
100
AcDbPolygonMeshVertex
 10
1.374199999999999
 20
0.5745
 30
0.316
 70
    64
  0
VERTEX
  5
78539
330
78527
100
AcDbEntity
  8
0
100
AcDbVertex
100
AcDbPolygonMeshVertex
 10
1.374199999999999
 20
0.2384999999999997
 30
0.316
 70
    64
  0
SEQEND
  5
7853A
330
78527
100
AcDbEntity
  8
0
  0
POLYLINE
  5
7853B
330
458D6
100
AcDbEntity
  8
0
100
AcDbPolygonMesh
 66
     1
 10
0.0
 20
0.0
 30
0.0
 70
    16
 71
     6
 72
     3
  0
VERTEX
  5
7853C
330
7853B
100
AcDbEntity
  8
0
100
AcDbVertex
100
AcDbPolygonMeshVertex
 10
0.3962
 20
-1.685499999999999
 30
1.318
 70
    64
  0
VERTEX
  5
7853D
330
7853B
100
AcDbEntity
  8
0
100
AcDbVertex
100
AcDbPolygonMeshVertex
 10
0.3962
 20
-1.685499999999999
 30
0.187
 70
    64
  0
VERTEX
  5
7853E
330
7853B
100
AcDbEntity
  8
0
100
AcDbVertex
100
AcDbPolygonMeshVertex
 10
0.3962
 20
-1.685499999999999
 30
0.187
 70
    64
  0
VERTEX
  5
7853F
330
7853B
100
AcDbEntity
  8
0
100
AcDbVertex
100
AcDbPolygonMeshVertex
 10
0.0052
 20
-1.685499999999999
 30
1.318
 70
    64
  0
VERTEX
  5
78540
330
7853B
100
AcDbEntity
  8
0
100
AcDbVertex
100
AcDbPolygonMeshVertex
 10
0.0052
 20
-1.685499999999999
 30
0.187
 70
    64
  0
VERTEX
  5
78541
330
7853B
100
AcDbEntity
  8
0
100
AcDbVertex
100
AcDbPolygonMeshVertex
 10
0.0052
 20
-1.685499999999999
 30
0.187
 70
    64
  0
VERTEX
  5
78542
330
7853B
100
AcDbEntity
  8
0
100
AcDbVertex
100
AcDbPolygonMeshVertex
 10
0.0052
 20
0.5215000000000001
 30
1.318
 70
    64
  0
VERTEX
  5
78543
330
7853B
100
AcDbEntity
  8
0
100
AcDbVertex
100
AcDbPolygonMeshVertex
 10
0.0052
 20
0.5215000000000001
 30
0.187
 70
    64
  0
VERTEX
  5
78544
330
7853B
100
AcDbEntity
  8
0
100
AcDbVertex
100
AcDbPolygonMeshVertex
 10
0.0052
 20
-1.685499999999999
 30
0.187
 70
    64
  0
VERTEX
  5
78545
330
7853B
100
AcDbEntity
  8
0
100
AcDbVertex
100
AcDbPolygonMeshVertex
 10
0.3962
 20
0.5215000000000001
 30
1.318
 70
    64
  0
VERTEX
  5
78546
330
7853B
100
AcDbEntity
  8
0
100
AcDbVertex
100
AcDbPolygonMeshVertex
 10
0.3962
 20
0.5215000000000001
 30
0.187
 70
    64
  0
VERTEX
  5
78547
330
7853B
100
AcDbEntity
  8
0
100
AcDbVertex
100
AcDbPolygonMeshVertex
 10
0.3962
 20
-1.685499999999999
 30
0.187
 70
    64
  0
VERTEX
  5
78548
330
7853B
100
AcDbEntity
  8
0
100
AcDbVertex
100
AcDbPolygonMeshVertex
 10
0.3962
 20
0.5215000000000001
 30
1.318
 70
    64
  0
VERTEX
  5
78549
330
7853B
100
AcDbEntity
  8
0
100
AcDbVertex
100
AcDbPolygonMeshVertex
 10
0.3962
 20
0.5215000000000001
 30
1.318
 70
    64
  0
VERTEX
  5
7854A
330
7853B
100
AcDbEntity
  8
0
100
AcDbVertex
100
AcDbPolygonMeshVertex
 10
0.3962
 20
-1.685499999999999
 30
1.318
 70
    64
  0
VERTEX
  5
7854B
330
7853B
100
AcDbEntity
  8
0
100
AcDbVertex
100
AcDbPolygonMeshVertex
 10
0.0052
 20
0.5215000000000001
 30
1.318
 70
    64
  0
VERTEX
  5
7854C
330
7853B
100
AcDbEntity
  8
0
100
AcDbVertex
100
AcDbPolygonMeshVertex
 10
0.0052
 20
0.5215000000000001
 30
1.318
 70
    64
  0
VERTEX
  5
7854D
330
7853B
100
AcDbEntity
  8
0
100
AcDbVertex
100
AcDbPolygonMeshVertex
 10
0.0052
 20
-1.685499999999999
 30
1.318
 70
    64
  0
SEQEND
  5
7854E
330
7853B
100
AcDbEntity
  8
0
  0
POLYLINE
  5
7854F
330
458D6
100
AcDbEntity
  8
0
100
AcDbPolygonMesh
 66
     1
 10
0.0
 20
0.0
 30
0.0
 70
    16
 71
     6
 72
     3
  0
VERTEX
  5
78550
330
7854F
100
AcDbEntity
  8
0
100
AcDbVertex
100
AcDbPolygonMeshVertex
 10
1.765199999999999
 20
-1.9685
 30
1.318
 70
    64
  0
VERTEX
  5
78551
330
7854F
100
AcDbEntity
  8
0
100
AcDbVertex
100
AcDbPolygonMeshVertex
 10
1.765199999999999
 20
-1.9685
 30
0.187
 70
    64
  0
VERTEX
  5
78552
330
7854F
100
AcDbEntity
  8
0
100
AcDbVertex
100
AcDbPolygonMeshVertex
 10
1.765199999999999
 20
-1.9685
 30
0.187
 70
    64
  0
VERTEX
  5
78553
330
7854F
100
AcDbEntity
  8
0
100
AcDbVertex
100
AcDbPolygonMeshVertex
 10
1.374199999999999
 20
-1.9685
 30
1.318
 70
    64
  0
VERTEX
  5
78554
330
7854F
100
AcDbEntity
  8
0
100
AcDbVertex
100
AcDbPolygonMeshVertex
 10
1.374199999999999
 20
-1.9685
 30
0.187
 70
    64
  0
VERTEX
  5
78555
330
7854F
100
AcDbEntity
  8
0
100
AcDbVertex
100
AcDbPolygonMeshVertex
 10
1.374199999999999
 20
-1.9685
 30
0.187
 70
    64
  0
VERTEX
  5
78556
330
7854F
100
AcDbEntity
  8
0
100
AcDbVertex
100
AcDbPolygonMeshVertex
 10
1.374199999999999
 20
0.2384999999999997
 30
1.318
 70
    64
  0
VERTEX
  5
78557
330
7854F
100
AcDbEntity
  8
0
100
AcDbVertex
100
AcDbPolygonMeshVertex
 10
1.374199999999999
 20
0.2384999999999997
 30
0.187
 70
    64
  0
VERTEX
  5
78558
330
7854F
100
AcDbEntity
  8
0
100
AcDbVertex
100
AcDbPolygonMeshVertex
 10
1.374199999999999
 20
-1.9685
 30
0.187
 70
    64
  0
VERTEX
  5
78559
330
7854F
100
AcDbEntity
  8
0
100
AcDbVertex
100
AcDbPolygonMeshVertex
 10
1.765199999999999
 20
0.2384999999999997
 30
1.318
 70
    64
  0
VERTEX
  5
7855A
330
7854F
100
AcDbEntity
  8
0
100
AcDbVertex
100
AcDbPolygonMeshVertex
 10
1.765199999999999
 20
0.2384999999999997
 30
0.187
 70
    64
  0
VERTEX
  5
7855B
330
7854F
100
AcDbEntity
  8
0
100
AcDbVertex
100
AcDbPolygonMeshVertex
 10
1.765199999999999
 20
-1.9685
 30
0.187
 70
    64
  0
VERTEX
  5
7855C
330
7854F
100
AcDbEntity
  8
0
100
AcDbVertex
100
AcDbPolygonMeshVertex
 10
1.765199999999999
 20
0.2384999999999997
 30
1.318
 70
    64
  0
VERTEX
  5
7855D
330
7854F
100
AcDbEntity
  8
0
100
AcDbVertex
100
AcDbPolygonMeshVertex
 10
1.765199999999999
 20
0.2384999999999997
 30
1.318
 70
    64
  0
VERTEX
  5
7855E
330
7854F
100
AcDbEntity
  8
0
100
AcDbVertex
100
AcDbPolygonMeshVertex
 10
1.765199999999999
 20
-1.9685
 30
1.318
 70
    64
  0
VERTEX
  5
7855F
330
7854F
100
AcDbEntity
  8
0
100
AcDbVertex
100
AcDbPolygonMeshVertex
 10
1.374199999999999
 20
0.2384999999999997
 30
1.318
 70
    64
  0
VERTEX
  5
78560
330
7854F
100
AcDbEntity
  8
0
100
AcDbVertex
100
AcDbPolygonMeshVertex
 10
1.374199999999999
 20
0.2384999999999997
 30
1.318
 70
    64
  0
VERTEX
  5
78561
330
7854F
100
AcDbEntity
  8
0
100
AcDbVertex
100
AcDbPolygonMeshVertex
 10
1.374199999999999
 20
-1.9685
 30
1.318
 70
    64
  0
SEQEND
  5
78562
330
7854F
100
AcDbEntity
  8
0
  0
POLYLINE
  5
78563
330
458D6
100
AcDbEntity
  8
0
100
AcDbPolygonMesh
 66
     1
 10
0.0
 20
0.0
 30
0.0
 70
    16
 71
     6
 72
     3
  0
VERTEX
  5
78564
330
78563
100
AcDbEntity
  8
0
100
AcDbVertex
100
AcDbPolygonMeshVertex
 10
1.374199999999999
 20
-1.9685
 30
1.318
 70
    64
  0
VERTEX
  5
78565
330
78563
100
AcDbEntity
  8
0
100
AcDbVertex
100
AcDbPolygonMeshVertex
 10
1.374199999999999
 20
-1.9685
 30
0.187
 70
    64
  0
VERTEX
  5
78566
330
78563
100
AcDbEntity
  8
0
100
AcDbVertex
100
AcDbPolygonMeshVertex
 10
1.374199999999999
 20
-1.9685
 30
0.187
 70
    64
  0
VERTEX
  5
78567
330
78563
100
AcDbEntity
  8
0
100
AcDbVertex
100
AcDbPolygonMeshVertex
 10
0.3962
 20
-1.9685
 30
1.318
 70
    64
  0
VERTEX
  5
78568
330
78563
100
AcDbEntity
  8
0
100
AcDbVertex
100
AcDbPolygonMeshVertex
 10
0.3962
 20
-1.9685
 30
0.187
 70
    64
  0
VERTEX
  5
78569
330
78563
100
AcDbEntity
  8
0
100
AcDbVertex
100
AcDbPolygonMeshVertex
 10
0.3962
 20
-1.9685
 30
0.187
 70
    64
  0
VERTEX
  5
7856A
330
78563
100
AcDbEntity
  8
0
100
AcDbVertex
100
AcDbPolygonMeshVertex
 10
0.3962
 20
0.5215000000000001
 30
1.318
 70
    64
  0
VERTEX
  5
7856B
330
78563
100
AcDbEntity
  8
0
100
AcDbVertex
100
AcDbPolygonMeshVertex
 10
0.3962
 20
0.5215000000000001
 30
0.187
 70
    64
  0
VERTEX
  5
7856C
330
78563
100
AcDbEntity
  8
0
100
AcDbVertex
100
AcDbPolygonMeshVertex
 10
0.3962
 20
-1.9685
 30
0.187
 70
    64
  0
VERTEX
  5
7856D
330
78563
100
AcDbEntity
  8
0
100
AcDbVertex
100
AcDbPolygonMeshVertex
 10
1.374199999999999
 20
0.5215000000000001
 30
1.318
 70
    64
  0
VERTEX
  5
7856E
330
78563
100
AcDbEntity
  8
0
100
AcDbVertex
100
AcDbPolygonMeshVertex
 10
1.374199999999999
 20
0.5215000000000001
 30
0.187
 70
    64
  0
VERTEX
  5
7856F
330
78563
100
AcDbEntity
  8
0
100
AcDbVertex
100
AcDbPolygonMeshVertex
 10
1.374199999999999
 20
-1.9685
 30
0.187
 70
    64
  0
VERTEX
  5
78570
330
78563
100
AcDbEntity
  8
0
100
AcDbVertex
100
AcDbPolygonMeshVertex
 10
1.374199999999999
 20
0.5215000000000001
 30
1.318
 70
    64
  0
VERTEX
  5
78571
330
78563
100
AcDbEntity
  8
0
100
AcDbVertex
100
AcDbPolygonMeshVertex
 10
1.374199999999999
 20
0.5215000000000001
 30
1.318
 70
    64
  0
VERTEX
  5
78572
330
78563
100
AcDbEntity
  8
0
100
AcDbVertex
100
AcDbPolygonMeshVertex
 10
1.374199999999999
 20
-1.9685
 30
1.318
 70
    64
  0
VERTEX
  5
78573
330
78563
100
AcDbEntity
  8
0
100
AcDbVertex
100
AcDbPolygonMeshVertex
 10
0.3962
 20
0.5215000000000001
 30
1.318
 70
    64
  0
VERTEX
  5
78574
330
78563
100
AcDbEntity
  8
0
100
AcDbVertex
100
AcDbPolygonMeshVertex
 10
0.3962
 20
0.5215000000000001
 30
1.318
 70
    64
  0
VERTEX
  5
78575
330
78563
100
AcDbEntity
  8
0
100
AcDbVertex
100
AcDbPolygonMeshVertex
 10
0.3962
 20
-1.9685
 30
1.318
 70
    64
  0
SEQEND
  5
78576
330
78563
100
AcDbEntity
  8
0
  0
LWPOLYLINE
  5
78577
330
458D6
100
AcDbEntity
  8
0
100
AcDbPolyline
 90
        4
 70
     1
 43
0.0
 38
3.589375
 10
0.7517000000000002
 20
-2.020499999999999
 10
1.0187
 20
-2.020499999999999
 10
1.0187
 20
-2.169499999999999
 10
0.7517000000000002
 20
-2.169499999999999
  0
POLYLINE
  5
78578
330
458D6
100
AcDbEntity
  8
0
100
AcDb3dPolyline
 66
     1
 10
0.0
 20
0.0
 30
0.0
 70
     8
  0
VERTEX
  5
78579
330
78578
100
AcDbEntity
  8
0
100
AcDbVertex
100
AcDb3dPolylineVertex
 10
1.765199999999999
 20
-1.352499999999999
 30
0.187
 70
    32
  0
VERTEX
  5
7857A
330
78578
100
AcDbEntity
  8
0
100
AcDbVertex
100
AcDb3dPolylineVertex
 10
1.765199999999999
 20
-1.352499999999999
 30
1.056999999999999
 70
    32
  0
VERTEX
  5
7857B
330
78578
100
AcDbEntity
  8
0
100
AcDbVertex
100
AcDb3dPolylineVertex
 10
1.765199999999999
 20
-1.507499999999999
 30
1.056999999999999
 70
    32
  0
VERTEX
  5
7857C
330
78578
100
AcDbEntity
  8
0
100
AcDbVertex
100
AcDb3dPolylineVertex
 10
1.765199999999999
 20
-1.507499999999999
 30
0.187
 70
    32
  0
SEQEND
  5
7857D
330
78578
100
AcDbEntity
  8
0
  0
POLYLINE
  5
7857E
330
458D6
100
AcDbEntity
  8
0
100
AcDb3dPolyline
 66
     1
 10
0.0
 20
0.0
 30
0.0
 70
     8
  0
VERTEX
  5
7857F
330
7857E
100
AcDbEntity
  8
0
100
AcDbVertex
100
AcDb3dPolylineVertex
 10
1.765199999999999
 20
0.0265
 30
0.187
 70
    32
  0
VERTEX
  5
78580
330
7857E
100
AcDbEntity
  8
0
100
AcDbVertex
100
AcDb3dPolylineVertex
 10
1.765199999999999
 20
0.0265
 30
1.056999999999999
 70
    32
  0
VERTEX
  5
78581
330
7857E
100
AcDbEntity
  8
0
100
AcDbVertex
100
AcDb3dPolylineVertex
 10
1.765199999999999
 20
-0.1285000000000003
 30
1.056999999999999
 70
    32
  0
VERTEX
  5
78582
330
7857E
100
AcDbEntity
  8
0
100
AcDbVertex
100
AcDb3dPolylineVertex
 10
1.765199999999999
 20
-0.1285000000000003
 30
0.187
 70
    32
  0
SEQEND
  5
78583
330
7857E
100
AcDbEntity
  8
0
  0
LINE
  5
78584
330
458D6
100
AcDbEntity
  8
0
100
AcDbLine
 10
1.765199999999999
 20
-0.6294999999999998
 30
0.5170000000000002
 11
1.765199999999999
 21
-0.8515
 31
0.5170000000000002
  0
LINE
  5
78585
330
458D6
100
AcDbEntity
  8
0
100
AcDbLine
 10
1.765199999999999
 20
-0.8515
 30
0.5170000000000002
 11
1.765199999999999
 21
-0.8515
 31
0.187
  0
LINE
  5
78586
330
458D6
100
AcDbEntity
  8
0
100
AcDbLine
 10
1.765199999999999
 20
-0.6294999999999998
 30
0.5170000000000002
 11
1.765199999999999
 21
-0.6294999999999998
 31
0.187
  0
POLYLINE
  5
78587
330
458D6
100
AcDbEntity
  8
0
100
AcDb3dPolyline
 66
     1
 10
0.0
 20
0.0
 30
0.0
 70
     8
  0
VERTEX
  5
78588
330
78587
100
AcDbEntity
  8
0
100
AcDbVertex
100
AcDb3dPolylineVertex
 10
0.0052
 20
0.0265
 30
0.187
 70
    32
  0
VERTEX
  5
78589
330
78587
100
AcDbEntity
  8
0
100
AcDbVertex
100
AcDb3dPolylineVertex
 10
0.0052
 20
0.0265
 30
1.056999999999999
 70
    32
  0
VERTEX
  5
7858A
330
78587
100
AcDbEntity
  8
0
100
AcDbVertex
100
AcDb3dPolylineVertex
 10
0.0052
 20
-0.1285000000000003
 30
1.056999999999999
 70
    32
  0
VERTEX
  5
7858B
330
78587
100
AcDbEntity
  8
0
100
AcDbVertex
100
AcDb3dPolylineVertex
 10
0.0052
 20
-0.1285000000000003
 30
0.187
 70
    32
  0
SEQEND
  5
7858C
330
78587
100
AcDbEntity
  8
0
  0
POLYLINE
  5
7858D
330
458D6
100
AcDbEntity
  8
0
100
AcDb3dPolyline
 66
     1
 10
0.0
 20
0.0
 30
0.0
 70
     8
  0
VERTEX
  5
7858E
330
7858D
100
AcDbEntity
  8
0
100
AcDbVertex
100
AcDb3dPolylineVertex
 10
0.0052
 20
-1.352499999999999
 30
0.187
 70
    32
  0
VERTEX
  5
7858F
330
7858D
100
AcDbEntity
  8
0
100
AcDbVertex
100
AcDb3dPolylineVertex
 10
0.0052
 20
-1.352499999999999
 30
1.056999999999999
 70
    32
  0
VERTEX
  5
78590
330
7858D
100
AcDbEntity
  8
0
100
AcDbVertex
100
AcDb3dPolylineVertex
 10
0.0052
 20
-1.507499999999999
 30
1.056999999999999
 70
    32
  0
VERTEX
  5
78591
330
7858D
100
AcDbEntity
  8
0
100
AcDbVertex
100
AcDb3dPolylineVertex
 10
0.0052
 20
-1.507499999999999
 30
0.187
 70
    32
  0
SEQEND
  5
78592
330
7858D
100
AcDbEntity
  8
0
  0
LINE
  5
78593
330
458D6
100
AcDbEntity
  8
0
100
AcDbLine
 10
1.765199999999999
 20
-1.5675
 30
0.187
 11
1.765199999999999
 21
-1.5675
 31
0.0
  0
LINE
  5
78594
330
458D6
100
AcDbEntity
  8
0
100
AcDbLine
 10
1.765199999999999
 20
-1.5675
 30
0.0
 11
0.8851999999999998
 21
-1.5675
 31
0.0
  0
LINE
  5
78595
330
458D6
100
AcDbEntity
  8
0
100
AcDbLine
 10
1.765199999999996
 20
-0.8065000000000001
 30
3.405874999999999
 11
1.765199999999996
 21
-0.6404999999999999
 31
3.405874999999999
  0
POLYLINE
  5
78596
330
458D6
100
AcDbEntity
  8
0
100
AcDb3dPolyline
 66
     1
 10
0.0
 20
0.0
 30
0.0
 70
     8
  0
VERTEX
  5
78597
330
78596
100
AcDbEntity
  8
0
100
AcDbVertex
100
AcDb3dPolylineVertex
 10
-0.0000103494035411
 20
-0.6404999999999999
 30
3.119375
 70
    32
  0
VERTEX
  5
78598
330
78596
100
AcDbEntity
  8
0
100
AcDbVertex
100
AcDb3dPolylineVertex
 10
-0.0000103494035411
 20
-0.6404999999999999
 30
3.692375
 70
    32
  0
VERTEX
  5
78599
330
78596
100
AcDbEntity
  8
0
100
AcDbVertex
100
AcDb3dPolylineVertex
 10
-0.0000103494035411
 20
-0.8064999999999997
 30
3.692375
 70
    32
  0
VERTEX
  5
7859A
330
78596
100
AcDbEntity
  8
0
100
AcDbVertex
100
AcDb3dPolylineVertex
 10
-0.0000103494035411
 20
-0.8065000000000001
 30
3.119375
 70
    32
  0
VERTEX
  5
7859B
330
78596
100
AcDbEntity
  8
0
100
AcDbVertex
100
AcDb3dPolylineVertex
 10
-0.0000103494035411
 20
-0.6404999999999999
 30
3.119375
 70
    32
  0
SEQEND
  5
7859C
330
78596
100
AcDbEntity
  8
0
  0
LINE
  5
7859D
330
458D6
100
AcDbEntity
  8
0
100
AcDbLine
 10
-0.0000103494035411
 20
-0.8065000000000001
 30
3.405874999999999
 11
-0.0000103494035411
 21
-0.6404999999999999
 31
3.405874999999999
  0
LINE
  5
7859E
330
458D6
100
AcDbEntity
  8
0
100
AcDbLine
 10
-0.0000103494035411
 20
-0.8065000000000001
 30
3.595875
 11
-0.0000103494035411
 21
-0.6404999999999999
 31
3.595875
  0
CIRCLE
  5
7859F
330
458D6
100
AcDbEntity
  8
0
100
AcDbCircle
 10
1.571199999999999
 20
0.4255
 30
0.316
 40
0.086
  0
POLYLINE
  5
785A0
330
458D6
100
AcDbEntity
  8
0
100
AcDb3dPolyline
 66
     1
 10
0.0
 20
0.0
 30
0.0
 70
     8
  0
VERTEX
  5
785A1
330
785A0
100
AcDbEntity
  8
0
100
AcDbVertex
100
AcDb3dPolylineVertex
 10
1.492533333333333
 20
-1.9685
 30
1.042499999999999
 70
    32
  0
VERTEX
  5
785A2
330
785A0
100
AcDbEntity
  8
0
100
AcDbVertex
100
AcDb3dPolylineVertex
 10
1.492533333333333
 20
-2.103499999999999
 30
1.042499999999999
 70
    32
  0
VERTEX
  5
785A3
330
785A0
100
AcDbEntity
  8
0
100
AcDbVertex
100
AcDb3dPolylineVertex
 10
1.703199999999998
 20
-2.103499999999999
 30
1.042499999999999
 70
    32
  0
VERTEX
  5
785A4
330
785A0
100
AcDbEntity
  8
0
100
AcDbVertex
100
AcDb3dPolylineVertex
 10
1.703199999999998
 20
-1.9685
 30
1.042499999999999
 70
    32
  0
SEQEND
  5
785A5
330
785A0
100
AcDbEntity
  8
0
  0
POLYLINE
  5
785A6
330
458D6
100
AcDbEntity
  8
0
100
AcDb3dPolyline
 66
     1
 10
0.0
 20
0.0
 30
0.0
 70
     8
  0
VERTEX
  5
785A7
330
785A6
100
AcDbEntity
  8
0
100
AcDbVertex
100
AcDb3dPolylineVertex
 10
1.219866666666667
 20
-1.9685
 30
1.042499999999999
 70
    32
  0
VERTEX
  5
785A8
330
785A6
100
AcDbEntity
  8
0
100
AcDbVertex
100
AcDb3dPolylineVertex
 10
1.219866666666667
 20
-2.103499999999999
 30
1.042499999999999
 70
    32
  0
VERTEX
  5
785A9
330
785A6
100
AcDbEntity
  8
0
100
AcDbVertex
100
AcDb3dPolylineVertex
 10
1.430533333333332
 20
-2.103499999999999
 30
1.042499999999999
 70
    32
  0
VERTEX
  5
785AA
330
785A6
100
AcDbEntity
  8
0
100
AcDbVertex
100
AcDb3dPolylineVertex
 10
1.430533333333332
 20
-1.9685
 30
1.042499999999999
 70
    32
  0
SEQEND
  5
785AB
330
785A6
100
AcDbEntity
  8
0
  0
POLYLINE
  5
785AC
330
458D6
100
AcDbEntity
  8
0
100
AcDb3dPolyline
 66
     1
 10
0.0
 20
0.0
 30
0.0
 70
     8
  0
VERTEX
  5
785AD
330
785AC
100
AcDbEntity
  8
0
100
AcDbVertex
100
AcDb3dPolylineVertex
 10
0.9472000000000019
 20
-1.9685
 30
1.042499999999999
 70
    32
  0
VERTEX
  5
785AE
330
785AC
100
AcDbEntity
  8
0
100
AcDbVertex
100
AcDb3dPolylineVertex
 10
0.9472000000000019
 20
-2.103499999999999
 30
1.042499999999999
 70
    32
  0
VERTEX
  5
785AF
330
785AC
100
AcDbEntity
  8
0
100
AcDbVertex
100
AcDb3dPolylineVertex
 10
1.157866666666666
 20
-2.103499999999999
 30
1.042499999999999
 70
    32
  0
VERTEX
  5
785B0
330
785AC
100
AcDbEntity
  8
0
100
AcDbVertex
100
AcDb3dPolylineVertex
 10
1.157866666666666
 20
-1.9685
 30
1.042499999999999
 70
    32
  0
SEQEND
  5
785B1
330
785AC
100
AcDbEntity
  8
0
  0
CIRCLE
  5
785B2
330
458D6
100
AcDbEntity
  8
0
100
AcDbCircle
 10
0.1912000000000008
 20
-1.934499999999999
 30
0.316
 40
0.086
  0
INSERT
  5
785B3
330
458D6
100
AcDbEntity
  8
0
 62
     1
100
AcDbBlockReference
  2
AVE_RENDER
 10
-6.627509659116597
 20
-2.735105295632668
 30
0.0
1001
AVE_RENDER
1002
{
1070
     2
1000
Pref
1070
    30
1070
    20
1070
     0
1070
     0
1000

1070
    10
1070
     0
1070
    30
1040
1.0
1070
     1
1040
0.3
1040
0.4
1040
0.76
1040
1.538461538461538
1010
-1.0
1020
-1.0
1030
-1.0
1040
0.3
1070
    49
1002
}
  0
INSERT
  5
785B4
330
458D6
100
AcDbEntity
  8
0
 62
     3
100
AcDbBlockReference
  2
AVE_RENDER
 10
-6.627509659116597
 20
-2.735105295632668
 30
0.0
1001
AVE_RENDER
1002
{
1070
     0
1000
Full Opt
1070
     0
1070
     1
1070
     1
1070
     1
1070
     0
1070
     0
1070
     0
1070
     1
1070
     1
1040
0.0001
1040
0.0001
1002
}
  0
INSERT
  5
785B5
330
458D6
100
AcDbEntity
  8
0
 62
     4
100
AcDbBlockReference
  2
AVE_RENDER
 10
-6.627509659116597
 20
-2.735105295632668
 30
0.0
1001
AVE_RENDER
1002
{
1070
     0
1000
Quick Opt
1070
     0
1070
     1
1070
     1
1070
     1
1070
     0
1070
     0
1070
     1
1002
}
  0
CIRCLE
  5
785B6
330
458D6
100
AcDbEntity
  8
0
100
AcDbCircle
 10
0.1911999999999999
 20
-1.934499999999999
 30
0.0
 40
0.086
  0
CIRCLE
  5
785B7
330
458D6
100
AcDbEntity
  8
0
100
AcDbCircle
 10
1.571199999999999
 20
0.4255
 30
0.0
 40
0.086
  0
POLYLINE
  5
785B8
330
458D6
100
AcDbEntity
  8
0
100
AcDb3dPolyline
 66
     1
 10
0.0
 20
0.0
 30
0.0
 70
     8
  0
VERTEX
  5
785B9
330
785B8
100
AcDbEntity
  8
0
100
AcDbVertex
100
AcDb3dPolylineVertex
 10
0.9472000000000019
 20
-1.9685
 30
0.8554999999999999
 70
    32
  0
VERTEX
  5
785BA
330
785B8
100
AcDbEntity
  8
0
100
AcDbVertex
100
AcDb3dPolylineVertex
 10
0.9472000000000019
 20
-2.103499999999999
 30
0.8554999999999999
 70
    32
  0
VERTEX
  5
785BB
330
785B8
100
AcDbEntity
  8
0
100
AcDbVertex
100
AcDb3dPolylineVertex
 10
1.157866666666666
 20
-2.103499999999999
 30
0.8554999999999999
 70
    32
  0
VERTEX
  5
785BC
330
785B8
100
AcDbEntity
  8
0
100
AcDbVertex
100
AcDb3dPolylineVertex
 10
1.157866666666666
 20
-1.9685
 30
0.8554999999999999
 70
    32
  0
SEQEND
  5
785BD
330
785B8
100
AcDbEntity
  8
0
  0
POLYLINE
  5
785BE
330
458D6
100
AcDbEntity
  8
0
100
AcDb3dPolyline
 66
     1
 10
0.0
 20
0.0
 30
0.0
 70
     8
  0
VERTEX
  5
785BF
330
785BE
100
AcDbEntity
  8
0
100
AcDbVertex
100
AcDb3dPolylineVertex
 10
1.219866666666667
 20
-1.9685
 30
0.8554999999999999
 70
    32
  0
VERTEX
  5
785C0
330
785BE
100
AcDbEntity
  8
0
100
AcDbVertex
100
AcDb3dPolylineVertex
 10
1.219866666666667
 20
-2.103499999999999
 30
0.8554999999999999
 70
    32
  0
VERTEX
  5
785C1
330
785BE
100
AcDbEntity
  8
0
100
AcDbVertex
100
AcDb3dPolylineVertex
 10
1.430533333333332
 20
-2.103499999999999
 30
0.8554999999999999
 70
    32
  0
VERTEX
  5
785C2
330
785BE
100
AcDbEntity
  8
0
100
AcDbVertex
100
AcDb3dPolylineVertex
 10
1.430533333333332
 20
-1.9685
 30
0.8554999999999999
 70
    32
  0
SEQEND
  5
785C3
330
785BE
100
AcDbEntity
  8
0
  0
POLYLINE
  5
785C4
330
458D6
100
AcDbEntity
  8
0
100
AcDb3dPolyline
 66
     1
 10
0.0
 20
0.0
 30
0.0
 70
     8
  0
VERTEX
  5
785C5
330
785C4
100
AcDbEntity
  8
0
100
AcDbVertex
100
AcDb3dPolylineVertex
 10
1.492533333333333
 20
-1.9685
 30
0.8554999999999999
 70
    32
  0
VERTEX
  5
785C6
330
785C4
100
AcDbEntity
  8
0
100
AcDbVertex
100
AcDb3dPolylineVertex
 10
1.492533333333333
 20
-2.103499999999999
 30
0.8554999999999999
 70
    32
  0
VERTEX
  5
785C7
330
785C4
100
AcDbEntity
  8
0
100
AcDbVertex
100
AcDb3dPolylineVertex
 10
1.703199999999998
 20
-2.103499999999999
 30
0.8554999999999999
 70
    32
  0
VERTEX
  5
785C8
330
785C4
100
AcDbEntity
  8
0
100
AcDbVertex
100
AcDb3dPolylineVertex
 10
1.703199999999998
 20
-1.9685
 30
0.8554999999999999
 70
    32
  0
SEQEND
  5
785C9
330
785C4
100
AcDbEntity
  8
0
  0
LINE
  5
785CA
330
458D6
100
AcDbEntity
  8
0
100
AcDbLine
 10
1.703199999999998
 20
-1.9685
 30
0.8554999999999999
 11
1.492533333333333
 21
-1.9685
 31
0.8554999999999999
  0
LINE
  5
785CB
330
458D6
100
AcDbEntity
  8
0
100
AcDbLine
 10
1.430533333333332
 20
-1.9685
 30
0.8554999999999999
 11
1.219866666666667
 21
-1.9685
 31
0.8554999999999999
  0
LINE
  5
785CC
330
458D6
100
AcDbEntity
  8
0
100
AcDbLine
 10
1.157866666666666
 20
-1.9685
 30
0.8554999999999999
 11
0.9472000000000019
 21
-1.9685
 31
0.8554999999999999
  0
POLYLINE
  5
785CD
330
458D6
100
AcDbEntity
  8
0
100
AcDbPolygonMesh
 66
     1
 10
0.0
 20
0.0
 30
0.0
 70
    16
 71
     6
 72
     3
  0
VERTEX
  5
785CE
330
785CD
100
AcDbEntity
  8
0
100
AcDbVertex
100
AcDbPolygonMeshVertex
 10
0.9057
 20
-1.985499999999999
 30
4.456375
 70
    64
  0
VERTEX
  5
785CF
330
785CD
100
AcDbEntity
  8
0
100
AcDbVertex
100
AcDbPolygonMeshVertex
 10
0.9057
 20
-1.985499999999999
 30
3.846375
 70
    64
  0
VERTEX
  5
785D0
330
785CD
100
AcDbEntity
  8
0
100
AcDbVertex
100
AcDbPolygonMeshVertex
 10
0.9057
 20
-1.985499999999999
 30
3.846375
 70
    64
  0
VERTEX
  5
785D1
330
785CD
100
AcDbEntity
  8
0
100
AcDbVertex
100
AcDbPolygonMeshVertex
 10
0.8596999999999997
 20
-1.985499999999999
 30
4.456375
 70
    64
  0
VERTEX
  5
785D2
330
785CD
100
AcDbEntity
  8
0
100
AcDbVertex
100
AcDbPolygonMeshVertex
 10
0.8596999999999997
 20
-1.985499999999999
 30
3.846375
 70
    64
  0
VERTEX
  5
785D3
330
785CD
100
AcDbEntity
  8
0
100
AcDbVertex
100
AcDbPolygonMeshVertex
 10
0.8596999999999997
 20
-1.985499999999999
 30
3.846375
 70
    64
  0
VERTEX
  5
785D4
330
785CD
100
AcDbEntity
  8
0
100
AcDbVertex
100
AcDbPolygonMeshVertex
 10
0.8596999999999997
 20
-1.845499999999999
 30
4.456375
 70
    64
  0
VERTEX
  5
785D5
330
785CD
100
AcDbEntity
  8
0
100
AcDbVertex
100
AcDbPolygonMeshVertex
 10
0.8596999999999997
 20
-1.845499999999999
 30
3.846375
 70
    64
  0
VERTEX
  5
785D6
330
785CD
100
AcDbEntity
  8
0
100
AcDbVertex
100
AcDbPolygonMeshVertex
 10
0.8596999999999997
 20
-1.985499999999999
 30
3.846375
 70
    64
  0
VERTEX
  5
785D7
330
785CD
100
AcDbEntity
  8
0
100
AcDbVertex
100
AcDbPolygonMeshVertex
 10
0.9057
 20
-1.845499999999999
 30
4.456375
 70
    64
  0
VERTEX
  5
785D8
330
785CD
100
AcDbEntity
  8
0
100
AcDbVertex
100
AcDbPolygonMeshVertex
 10
0.9057
 20
-1.845499999999999
 30
3.846375
 70
    64
  0
VERTEX
  5
785D9
330
785CD
100
AcDbEntity
  8
0
100
AcDbVertex
100
AcDbPolygonMeshVertex
 10
0.9057
 20
-1.985499999999999
 30
3.846375
 70
    64
  0
VERTEX
  5
785DA
330
785CD
100
AcDbEntity
  8
0
100
AcDbVertex
100
AcDbPolygonMeshVertex
 10
0.9057
 20
-1.845499999999999
 30
4.456375
 70
    64
  0
VERTEX
  5
785DB
330
785CD
100
AcDbEntity
  8
0
100
AcDbVertex
100
AcDbPolygonMeshVertex
 10
0.9057
 20
-1.845499999999999
 30
4.456375
 70
    64
  0
VERTEX
  5
785DC
330
785CD
100
AcDbEntity
  8
0
100
AcDbVertex
100
AcDbPolygonMeshVertex
 10
0.9057
 20
-1.985499999999999
 30
4.456375
 70
    64
  0
VERTEX
  5
785DD
330
785CD
100
AcDbEntity
  8
0
100
AcDbVertex
100
AcDbPolygonMeshVertex
 10
0.8596999999999997
 20
-1.845499999999999
 30
4.456375
 70
    64
  0
VERTEX
  5
785DE
330
785CD
100
AcDbEntity
  8
0
100
AcDbVertex
100
AcDbPolygonMeshVertex
 10
0.8596999999999997
 20
-1.845499999999999
 30
4.456375
 70
    64
  0
VERTEX
  5
785DF
330
785CD
100
AcDbEntity
  8
0
100
AcDbVertex
100
AcDbPolygonMeshVertex
 10
0.8596999999999997
 20
-1.985499999999999
 30
4.456375
 70
    64
  0
SEQEND
  5
785E0
330
785CD
100
AcDbEntity
  8
0
  0
POLYLINE
  5
785E1
330
458D6
100
AcDbEntity
  8
0
100
AcDbPolygonMesh
 66
     1
 10
0.0
 20
0.0
 30
0.0
 70
    16
 71
     6
 72
     3
  0
VERTEX
  5
785E2
330
785E1
100
AcDbEntity
  8
0
100
AcDbVertex
100
AcDbPolygonMeshVertex
 10
1.33545
 20
-1.985499999999999
 30
4.456375
 70
    64
  0
VERTEX
  5
785E3
330
785E1
100
AcDbEntity
  8
0
100
AcDbVertex
100
AcDbPolygonMeshVertex
 10
1.33545
 20
-1.985499999999999
 30
3.846375
 70
    64
  0
VERTEX
  5
785E4
330
785E1
100
AcDbEntity
  8
0
100
AcDbVertex
100
AcDbPolygonMeshVertex
 10
1.33545
 20
-1.985499999999999
 30
3.846375
 70
    64
  0
VERTEX
  5
785E5
330
785E1
100
AcDbEntity
  8
0
100
AcDbVertex
100
AcDbPolygonMeshVertex
 10
1.28945
 20
-1.985499999999999
 30
4.456375
 70
    64
  0
VERTEX
  5
785E6
330
785E1
100
AcDbEntity
  8
0
100
AcDbVertex
100
AcDbPolygonMeshVertex
 10
1.28945
 20
-1.985499999999999
 30
3.846375
 70
    64
  0
VERTEX
  5
785E7
330
785E1
100
AcDbEntity
  8
0
100
AcDbVertex
100
AcDbPolygonMeshVertex
 10
1.28945
 20
-1.985499999999999
 30
3.846375
 70
    64
  0
VERTEX
  5
785E8
330
785E1
100
AcDbEntity
  8
0
100
AcDbVertex
100
AcDbPolygonMeshVertex
 10
1.28945
 20
-1.845499999999999
 30
4.456375
 70
    64
  0
VERTEX
  5
785E9
330
785E1
100
AcDbEntity
  8
0
100
AcDbVertex
100
AcDbPolygonMeshVertex
 10
1.28945
 20
-1.845499999999999
 30
3.846375
 70
    64
  0
VERTEX
  5
785EA
330
785E1
100
AcDbEntity
  8
0
100
AcDbVertex
100
AcDbPolygonMeshVertex
 10
1.28945
 20
-1.985499999999999
 30
3.846375
 70
    64
  0
VERTEX
  5
785EB
330
785E1
100
AcDbEntity
  8
0
100
AcDbVertex
100
AcDbPolygonMeshVertex
 10
1.33545
 20
-1.845499999999999
 30
4.456375
 70
    64
  0
VERTEX
  5
785EC
330
785E1
100
AcDbEntity
  8
0
100
AcDbVertex
100
AcDbPolygonMeshVertex
 10
1.33545
 20
-1.845499999999999
 30
3.846375
 70
    64
  0
VERTEX
  5
785ED
330
785E1
100
AcDbEntity
  8
0
100
AcDbVertex
100
AcDbPolygonMeshVertex
 10
1.33545
 20
-1.985499999999999
 30
3.846375
 70
    64
  0
VERTEX
  5
785EE
330
785E1
100
AcDbEntity
  8
0
100
AcDbVertex
100
AcDbPolygonMeshVertex
 10
1.33545
 20
-1.845499999999999
 30
4.456375
 70
    64
  0
VERTEX
  5
785EF
330
785E1
100
AcDbEntity
  8
0
100
AcDbVertex
100
AcDbPolygonMeshVertex
 10
1.33545
 20
-1.845499999999999
 30
4.456375
 70
    64
  0
VERTEX
  5
785F0
330
785E1
100
AcDbEntity
  8
0
100
AcDbVertex
100
AcDbPolygonMeshVertex
 10
1.33545
 20
-1.985499999999999
 30
4.456375
 70
    64
  0
VERTEX
  5
785F1
330
785E1
100
AcDbEntity
  8
0
100
AcDbVertex
100
AcDbPolygonMeshVertex
 10
1.28945
 20
-1.845499999999999
 30
4.456375
 70
    64
  0
VERTEX
  5
785F2
330
785E1
100
AcDbEntity
  8
0
100
AcDbVertex
100
AcDbPolygonMeshVertex
 10
1.28945
 20
-1.845499999999999
 30
4.456375
 70
    64
  0
VERTEX
  5
785F3
330
785E1
100
AcDbEntity
  8
0
100
AcDbVertex
100
AcDbPolygonMeshVertex
 10
1.28945
 20
-1.985499999999999
 30
4.456375
 70
    64
  0
SEQEND
  5
785F4
330
785E1
100
AcDbEntity
  8
0
  0
POLYLINE
  5
785F5
330
458D6
100
AcDbEntity
  8
0
100
AcDbPolygonMesh
 66
     1
 10
0.0
 20
0.0
 30
0.0
 70
    16
 71
     6
 72
     3
  0
VERTEX
  5
785F6
330
785F5
100
AcDbEntity
  8
0
100
AcDbVertex
100
AcDbPolygonMeshVertex
 10
1.719199999999999
 20
-2.057499999999999
 30
3.846375
 70
    64
  0
VERTEX
  5
785F7
330
785F5
100
AcDbEntity
  8
0
100
AcDbVertex
100
AcDbPolygonMeshVertex
 10
1.719199999999999
 20
-2.057499999999999
 30
3.587375
 70
    64
  0
VERTEX
  5
785F8
330
785F5
100
AcDbEntity
  8
0
100
AcDbVertex
100
AcDbPolygonMeshVertex
 10
1.719199999999999
 20
-2.057499999999999
 30
3.587375
 70
    64
  0
VERTEX
  5
785F9
330
785F5
100
AcDbEntity
  8
0
100
AcDbVertex
100
AcDbPolygonMeshVertex
 10
0.0461999999999999
 20
-2.057499999999999
 30
3.846375
 70
    64
  0
VERTEX
  5
785FA
330
785F5
100
AcDbEntity
  8
0
100
AcDbVertex
100
AcDbPolygonMeshVertex
 10
0.0461999999999999
 20
-2.057499999999999
 30
3.587375
 70
    64
  0
VERTEX
  5
785FB
330
785F5
100
AcDbEntity
  8
0
100
AcDbVertex
100
AcDbPolygonMeshVertex
 10
0.0461999999999999
 20
-2.057499999999999
 30
3.587375
 70
    64
  0
VERTEX
  5
785FC
330
785F5
100
AcDbEntity
  8
0
100
AcDbVertex
100
AcDbPolygonMeshVertex
 10
0.0461999999999999
 20
-1.845499999999999
 30
3.846375
 70
    64
  0
VERTEX
  5
785FD
330
785F5
100
AcDbEntity
  8
0
100
AcDbVertex
100
AcDbPolygonMeshVertex
 10
0.0461999999999999
 20
-1.845499999999999
 30
3.587375
 70
    64
  0
VERTEX
  5
785FE
330
785F5
100
AcDbEntity
  8
0
100
AcDbVertex
100
AcDbPolygonMeshVertex
 10
0.0461999999999999
 20
-2.057499999999999
 30
3.587375
 70
    64
  0
VERTEX
  5
785FF
330
785F5
100
AcDbEntity
  8
0
100
AcDbVertex
100
AcDbPolygonMeshVertex
 10
1.719199999999999
 20
-1.845499999999999
 30
3.846375
 70
    64
  0
VERTEX
  5
78600
330
785F5
100
AcDbEntity
  8
0
100
AcDbVertex
100
AcDbPolygonMeshVertex
 10
1.719199999999999
 20
-1.845499999999999
 30
3.587375
 70
    64
  0
VERTEX
  5
78601
330
785F5
100
AcDbEntity
  8
0
100
AcDbVertex
100
AcDbPolygonMeshVertex
 10
1.719199999999999
 20
-2.057499999999999
 30
3.587375
 70
    64
  0
VERTEX
  5
78602
330
785F5
100
AcDbEntity
  8
0
100
AcDbVertex
100
AcDbPolygonMeshVertex
 10
1.719199999999999
 20
-1.845499999999999
 30
3.846375
 70
    64
  0
VERTEX
  5
78603
330
785F5
100
AcDbEntity
  8
0
100
AcDbVertex
100
AcDbPolygonMeshVertex
 10
1.719199999999999
 20
-1.845499999999999
 30
3.846375
 70
    64
  0
VERTEX
  5
78604
330
785F5
100
AcDbEntity
  8
0
100
AcDbVertex
100
AcDbPolygonMeshVertex
 10
1.719199999999999
 20
-2.057499999999999
 30
3.846375
 70
    64
  0
VERTEX
  5
78605
330
785F5
100
AcDbEntity
  8
0
100
AcDbVertex
100
AcDbPolygonMeshVertex
 10
0.0461999999999999
 20
-1.845499999999999
 30
3.846375
 70
    64
  0
VERTEX
  5
78606
330
785F5
100
AcDbEntity
  8
0
100
AcDbVertex
100
AcDbPolygonMeshVertex
 10
0.0461999999999999
 20
-1.845499999999999
 30
3.846375
 70
    64
  0
VERTEX
  5
78607
330
785F5
100
AcDbEntity
  8
0
100
AcDbVertex
100
AcDbPolygonMeshVertex
 10
0.0461999999999999
 20
-2.057499999999999
 30
3.846375
 70
    64
  0
SEQEND
  5
78608
330
785F5
100
AcDbEntity
  8
0
  0
POLYLINE
  5
78609
330
458D6
100
AcDbEntity
  8
0
100
AcDbPolygonMesh
 66
     1
 10
0.0
 20
0.0
 30
0.0
 70
    16
 71
     6
 72
     3
  0
VERTEX
  5
7860A
330
78609
100
AcDbEntity
  8
0
100
AcDbVertex
100
AcDbPolygonMeshVertex
 10
0.42995
 20
-1.985499999999999
 30
4.456375
 70
    64
  0
VERTEX
  5
7860B
330
78609
100
AcDbEntity
  8
0
100
AcDbVertex
100
AcDbPolygonMeshVertex
 10
0.42995
 20
-1.985499999999999
 30
3.846375
 70
    64
  0
VERTEX
  5
7860C
330
78609
100
AcDbEntity
  8
0
100
AcDbVertex
100
AcDbPolygonMeshVertex
 10
0.42995
 20
-1.985499999999999
 30
3.846375
 70
    64
  0
VERTEX
  5
7860D
330
78609
100
AcDbEntity
  8
0
100
AcDbVertex
100
AcDbPolygonMeshVertex
 10
0.4759499999999998
 20
-1.985499999999999
 30
4.456375
 70
    64
  0
VERTEX
  5
7860E
330
78609
100
AcDbEntity
  8
0
100
AcDbVertex
100
AcDbPolygonMeshVertex
 10
0.4759499999999998
 20
-1.985499999999999
 30
3.846375
 70
    64
  0
VERTEX
  5
7860F
330
78609
100
AcDbEntity
  8
0
100
AcDbVertex
100
AcDbPolygonMeshVertex
 10
0.4759499999999998
 20
-1.985499999999999
 30
3.846375
 70
    64
  0
VERTEX
  5
78610
330
78609
100
AcDbEntity
  8
0
100
AcDbVertex
100
AcDbPolygonMeshVertex
 10
0.4759499999999998
 20
-1.845499999999999
 30
4.456375
 70
    64
  0
VERTEX
  5
78611
330
78609
100
AcDbEntity
  8
0
100
AcDbVertex
100
AcDbPolygonMeshVertex
 10
0.4759499999999998
 20
-1.845499999999999
 30
3.846375
 70
    64
  0
VERTEX
  5
78612
330
78609
100
AcDbEntity
  8
0
100
AcDbVertex
100
AcDbPolygonMeshVertex
 10
0.4759499999999998
 20
-1.985499999999999
 30
3.846375
 70
    64
  0
VERTEX
  5
78613
330
78609
100
AcDbEntity
  8
0
100
AcDbVertex
100
AcDbPolygonMeshVertex
 10
0.42995
 20
-1.845499999999999
 30
4.456375
 70
    64
  0
VERTEX
  5
78614
330
78609
100
AcDbEntity
  8
0
100
AcDbVertex
100
AcDbPolygonMeshVertex
 10
0.42995
 20
-1.845499999999999
 30
3.846375
 70
    64
  0
VERTEX
  5
78615
330
78609
100
AcDbEntity
  8
0
100
AcDbVertex
100
AcDbPolygonMeshVertex
 10
0.42995
 20
-1.985499999999999
 30
3.846375
 70
    64
  0
VERTEX
  5
78616
330
78609
100
AcDbEntity
  8
0
100
AcDbVertex
100
AcDbPolygonMeshVertex
 10
0.42995
 20
-1.845499999999999
 30
4.456375
 70
    64
  0
VERTEX
  5
78617
330
78609
100
AcDbEntity
  8
0
100
AcDbVertex
100
AcDbPolygonMeshVertex
 10
0.42995
 20
-1.845499999999999
 30
4.456375
 70
    64
  0
VERTEX
  5
78618
330
78609
100
AcDbEntity
  8
0
100
AcDbVertex
100
AcDbPolygonMeshVertex
 10
0.42995
 20
-1.985499999999999
 30
4.456375
 70
    64
  0
VERTEX
  5
78619
330
78609
100
AcDbEntity
  8
0
100
AcDbVertex
100
AcDbPolygonMeshVertex
 10
0.4759499999999998
 20
-1.845499999999999
 30
4.456375
 70
    64
  0
VERTEX
  5
7861A
330
78609
100
AcDbEntity
  8
0
100
AcDbVertex
100
AcDbPolygonMeshVertex
 10
0.4759499999999998
 20
-1.845499999999999
 30
4.456375
 70
    64
  0
VERTEX
  5
7861B
330
78609
100
AcDbEntity
  8
0
100
AcDbVertex
100
AcDbPolygonMeshVertex
 10
0.4759499999999998
 20
-1.985499999999999
 30
4.456375
 70
    64
  0
SEQEND
  5
7861C
330
78609
100
AcDbEntity
  8
0
  0
LINE
  5
7861D
330
458D6
100
AcDbEntity
  8
0
100
AcDbLine
 10
0.9057
 20
-1.845499999999999
 30
4.173375
 11
1.28945
 21
-1.845499999999999
 31
4.173375
  0
LINE
  5
7861E
330
458D6
100
AcDbEntity
  8
0
100
AcDbLine
 10
1.33545
 20
-1.845499999999999
 30
4.173375
 11
1.719199999999999
 21
-1.845499999999999
 31
4.173375
  0
LINE
  5
7861F
330
458D6
100
AcDbEntity
  8
0
100
AcDbLine
 10
0.4759499999999998
 20
-1.845499999999999
 30
4.173375
 11
0.8596999999999997
 21
-1.845499999999999
 31
4.173375
  0
LINE
  5
78620
330
458D6
100
AcDbEntity
  8
0
100
AcDbLine
 10
0.0462000000000004
 20
-1.845499999999999
 30
4.173375
 11
0.42995
 21
-1.845499999999999
 31
4.173375
  0
POLYLINE
  5
78621
330
458D6
100
AcDbEntity
  8
0
100
AcDbPolygonMesh
 66
     1
 10
0.0
 20
0.0
 30
0.0
 70
    16
 71
     6
 72
     3
  0
VERTEX
  5
78622
330
78621
100
AcDbEntity
  8
0
100
AcDbVertex
100
AcDbPolygonMeshVertex
 10
0.0461999999999999
 20
-1.985499999999999
 30
4.456375
 70
    64
  0
VERTEX
  5
78623
330
78621
100
AcDbEntity
  8
0
100
AcDbVertex
100
AcDbPolygonMeshVertex
 10
0.0461999999999999
 20
-1.985499999999999
 30
3.587375
 70
    64
  0
VERTEX
  5
78624
330
78621
100
AcDbEntity
  8
0
100
AcDbVertex
100
AcDbPolygonMeshVertex
 10
0.0461999999999999
 20
-1.985499999999999
 30
3.587375
 70
    64
  0
VERTEX
  5
78625
330
78621
100
AcDbEntity
  8
0
100
AcDbVertex
100
AcDbPolygonMeshVertex
 10
0.0002000000000001
 20
-1.985499999999999
 30
4.456375
 70
    64
  0
VERTEX
  5
78626
330
78621
100
AcDbEntity
  8
0
100
AcDbVertex
100
AcDbPolygonMeshVertex
 10
0.0002000000000001
 20
-1.985499999999999
 30
3.587375
 70
    64
  0
VERTEX
  5
78627
330
78621
100
AcDbEntity
  8
0
100
AcDbVertex
100
AcDbPolygonMeshVertex
 10
0.0002000000000001
 20
-1.985499999999999
 30
3.587375
 70
    64
  0
VERTEX
  5
78628
330
78621
100
AcDbEntity
  8
0
100
AcDbVertex
100
AcDbPolygonMeshVertex
 10
0.0002000000000001
 20
-1.845499999999999
 30
4.456375
 70
    64
  0
VERTEX
  5
78629
330
78621
100
AcDbEntity
  8
0
100
AcDbVertex
100
AcDbPolygonMeshVertex
 10
0.0002000000000001
 20
-1.845499999999999
 30
3.587375
 70
    64
  0
VERTEX
  5
7862A
330
78621
100
AcDbEntity
  8
0
100
AcDbVertex
100
AcDbPolygonMeshVertex
 10
0.0002000000000001
 20
-1.985499999999999
 30
3.587375
 70
    64
  0
VERTEX
  5
7862B
330
78621
100
AcDbEntity
  8
0
100
AcDbVertex
100
AcDbPolygonMeshVertex
 10
0.0461999999999999
 20
-1.845499999999999
 30
4.456375
 70
    64
  0
VERTEX
  5
7862C
330
78621
100
AcDbEntity
  8
0
100
AcDbVertex
100
AcDbPolygonMeshVertex
 10
0.0461999999999999
 20
-1.845499999999999
 30
3.587375
 70
    64
  0
VERTEX
  5
7862D
330
78621
100
AcDbEntity
  8
0
100
AcDbVertex
100
AcDbPolygonMeshVertex
 10
0.0461999999999999
 20
-1.985499999999999
 30
3.587375
 70
    64
  0
VERTEX
  5
7862E
330
78621
100
AcDbEntity
  8
0
100
AcDbVertex
100
AcDbPolygonMeshVertex
 10
0.0461999999999999
 20
-1.845499999999999
 30
4.456375
 70
    64
  0
VERTEX
  5
7862F
330
78621
100
AcDbEntity
  8
0
100
AcDbVertex
100
AcDbPolygonMeshVertex
 10
0.0461999999999999
 20
-1.845499999999999
 30
4.456375
 70
    64
  0
VERTEX
  5
78630
330
78621
100
AcDbEntity
  8
0
100
AcDbVertex
100
AcDbPolygonMeshVertex
 10
0.0461999999999999
 20
-1.985499999999999
 30
4.456375
 70
    64
  0
VERTEX
  5
78631
330
78621
100
AcDbEntity
  8
0
100
AcDbVertex
100
AcDbPolygonMeshVertex
 10
0.0002000000000001
 20
-1.845499999999999
 30
4.456375
 70
    64
  0
VERTEX
  5
78632
330
78621
100
AcDbEntity
  8
0
100
AcDbVertex
100
AcDbPolygonMeshVertex
 10
0.0002000000000001
 20
-1.845499999999999
 30
4.456375
 70
    64
  0
VERTEX
  5
78633
330
78621
100
AcDbEntity
  8
0
100
AcDbVertex
100
AcDbPolygonMeshVertex
 10
0.0002000000000001
 20
-1.985499999999999
 30
4.456375
 70
    64
  0
SEQEND
  5
78634
330
78621
100
AcDbEntity
  8
0
  0
POLYLINE
  5
78635
330
458D6
100
AcDbEntity
  8
0
100
AcDbPolygonMesh
 66
     1
 10
0.0
 20
0.0
 30
0.0
 70
    16
 71
     6
 72
     3
  0
VERTEX
  5
78636
330
78635
100
AcDbEntity
  8
0
100
AcDbVertex
100
AcDbPolygonMeshVertex
 10
1.765199999999999
 20
-1.985499999999999
 30
4.456375
 70
    64
  0
VERTEX
  5
78637
330
78635
100
AcDbEntity
  8
0
100
AcDbVertex
100
AcDbPolygonMeshVertex
 10
1.765199999999999
 20
-1.985499999999999
 30
3.587375
 70
    64
  0
VERTEX
  5
78638
330
78635
100
AcDbEntity
  8
0
100
AcDbVertex
100
AcDbPolygonMeshVertex
 10
1.765199999999999
 20
-1.985499999999999
 30
3.587375
 70
    64
  0
VERTEX
  5
78639
330
78635
100
AcDbEntity
  8
0
100
AcDbVertex
100
AcDbPolygonMeshVertex
 10
1.7192
 20
-1.985499999999999
 30
4.456375
 70
    64
  0
VERTEX
  5
7863A
330
78635
100
AcDbEntity
  8
0
100
AcDbVertex
100
AcDbPolygonMeshVertex
 10
1.7192
 20
-1.985499999999999
 30
3.587375
 70
    64
  0
VERTEX
  5
7863B
330
78635
100
AcDbEntity
  8
0
100
AcDbVertex
100
AcDbPolygonMeshVertex
 10
1.7192
 20
-1.985499999999999
 30
3.587375
 70
    64
  0
VERTEX
  5
7863C
330
78635
100
AcDbEntity
  8
0
100
AcDbVertex
100
AcDbPolygonMeshVertex
 10
1.7192
 20
-1.845499999999999
 30
4.456375
 70
    64
  0
VERTEX
  5
7863D
330
78635
100
AcDbEntity
  8
0
100
AcDbVertex
100
AcDbPolygonMeshVertex
 10
1.7192
 20
-1.845499999999999
 30
3.587375
 70
    64
  0
VERTEX
  5
7863E
330
78635
100
AcDbEntity
  8
0
100
AcDbVertex
100
AcDbPolygonMeshVertex
 10
1.7192
 20
-1.985499999999999
 30
3.587375
 70
    64
  0
VERTEX
  5
7863F
330
78635
100
AcDbEntity
  8
0
100
AcDbVertex
100
AcDbPolygonMeshVertex
 10
1.765199999999999
 20
-1.845499999999999
 30
4.456375
 70
    64
  0
VERTEX
  5
78640
330
78635
100
AcDbEntity
  8
0
100
AcDbVertex
100
AcDbPolygonMeshVertex
 10
1.765199999999999
 20
-1.845499999999999
 30
3.587375
 70
    64
  0
VERTEX
  5
78641
330
78635
100
AcDbEntity
  8
0
100
AcDbVertex
100
AcDbPolygonMeshVertex
 10
1.765199999999999
 20
-1.985499999999999
 30
3.587375
 70
    64
  0
VERTEX
  5
78642
330
78635
100
AcDbEntity
  8
0
100
AcDbVertex
100
AcDbPolygonMeshVertex
 10
1.765199999999999
 20
-1.845499999999999
 30
4.456375
 70
    64
  0
VERTEX
  5
78643
330
78635
100
AcDbEntity
  8
0
100
AcDbVertex
100
AcDbPolygonMeshVertex
 10
1.765199999999999
 20
-1.845499999999999
 30
4.456375
 70
    64
  0
VERTEX
  5
78644
330
78635
100
AcDbEntity
  8
0
100
AcDbVertex
100
AcDbPolygonMeshVertex
 10
1.765199999999999
 20
-1.985499999999999
 30
4.456375
 70
    64
  0
VERTEX
  5
78645
330
78635
100
AcDbEntity
  8
0
100
AcDbVertex
100
AcDbPolygonMeshVertex
 10
1.7192
 20
-1.845499999999999
 30
4.456375
 70
    64
  0
VERTEX
  5
78646
330
78635
100
AcDbEntity
  8
0
100
AcDbVertex
100
AcDbPolygonMeshVertex
 10
1.7192
 20
-1.845499999999999
 30
4.456375
 70
    64
  0
VERTEX
  5
78647
330
78635
100
AcDbEntity
  8
0
100
AcDbVertex
100
AcDbPolygonMeshVertex
 10
1.7192
 20
-1.985499999999999
 30
4.456375
 70
    64
  0
SEQEND
  5
78648
330
78635
100
AcDbEntity
  8
0
  0
POLYLINE
  5
78649
330
458D6
100
AcDbEntity
  8
0
100
AcDbPolygonMesh
 66
     1
 10
0.0
 20
0.0
 30
0.0
 70
    16
 71
     6
 72
     3
  0
VERTEX
  5
7864A
330
78649
100
AcDbEntity
  8
0
100
AcDbVertex
100
AcDbPolygonMeshVertex
 10
1.765199999999999
 20
0.5384999999999991
 30
4.456375
 70
    64
  0
VERTEX
  5
7864B
330
78649
100
AcDbEntity
  8
0
100
AcDbVertex
100
AcDbPolygonMeshVertex
 10
1.765199999999999
 20
0.5384999999999991
 30
3.587375
 70
    64
  0
VERTEX
  5
7864C
330
78649
100
AcDbEntity
  8
0
100
AcDbVertex
100
AcDbPolygonMeshVertex
 10
1.765199999999999
 20
0.5384999999999991
 30
3.587375
 70
    64
  0
VERTEX
  5
7864D
330
78649
100
AcDbEntity
  8
0
100
AcDbVertex
100
AcDbPolygonMeshVertex
 10
1.7192
 20
0.5384999999999991
 30
4.456375
 70
    64
  0
VERTEX
  5
7864E
330
78649
100
AcDbEntity
  8
0
100
AcDbVertex
100
AcDbPolygonMeshVertex
 10
1.7192
 20
0.5384999999999991
 30
3.587375
 70
    64
  0
VERTEX
  5
7864F
330
78649
100
AcDbEntity
  8
0
100
AcDbVertex
100
AcDbPolygonMeshVertex
 10
1.7192
 20
0.5384999999999991
 30
3.587375
 70
    64
  0
VERTEX
  5
78650
330
78649
100
AcDbEntity
  8
0
100
AcDbVertex
100
AcDbPolygonMeshVertex
 10
1.7192
 20
0.3984999999999994
 30
4.456375
 70
    64
  0
VERTEX
  5
78651
330
78649
100
AcDbEntity
  8
0
100
AcDbVertex
100
AcDbPolygonMeshVertex
 10
1.7192
 20
0.3984999999999994
 30
3.587375
 70
    64
  0
VERTEX
  5
78652
330
78649
100
AcDbEntity
  8
0
100
AcDbVertex
100
AcDbPolygonMeshVertex
 10
1.7192
 20
0.5384999999999991
 30
3.587375
 70
    64
  0
VERTEX
  5
78653
330
78649
100
AcDbEntity
  8
0
100
AcDbVertex
100
AcDbPolygonMeshVertex
 10
1.765199999999999
 20
0.3984999999999994
 30
4.456375
 70
    64
  0
VERTEX
  5
78654
330
78649
100
AcDbEntity
  8
0
100
AcDbVertex
100
AcDbPolygonMeshVertex
 10
1.765199999999999
 20
0.3984999999999994
 30
3.587375
 70
    64
  0
VERTEX
  5
78655
330
78649
100
AcDbEntity
  8
0
100
AcDbVertex
100
AcDbPolygonMeshVertex
 10
1.765199999999999
 20
0.5384999999999991
 30
3.587375
 70
    64
  0
VERTEX
  5
78656
330
78649
100
AcDbEntity
  8
0
100
AcDbVertex
100
AcDbPolygonMeshVertex
 10
1.765199999999999
 20
0.3984999999999994
 30
4.456375
 70
    64
  0
VERTEX
  5
78657
330
78649
100
AcDbEntity
  8
0
100
AcDbVertex
100
AcDbPolygonMeshVertex
 10
1.765199999999999
 20
0.3984999999999994
 30
4.456375
 70
    64
  0
VERTEX
  5
78658
330
78649
100
AcDbEntity
  8
0
100
AcDbVertex
100
AcDbPolygonMeshVertex
 10
1.765199999999999
 20
0.5384999999999991
 30
4.456375
 70
    64
  0
VERTEX
  5
78659
330
78649
100
AcDbEntity
  8
0
100
AcDbVertex
100
AcDbPolygonMeshVertex
 10
1.7192
 20
0.3984999999999994
 30
4.456375
 70
    64
  0
VERTEX
  5
7865A
330
78649
100
AcDbEntity
  8
0
100
AcDbVertex
100
AcDbPolygonMeshVertex
 10
1.7192
 20
0.3984999999999994
 30
4.456375
 70
    64
  0
VERTEX
  5
7865B
330
78649
100
AcDbEntity
  8
0
100
AcDbVertex
100
AcDbPolygonMeshVertex
 10
1.7192
 20
0.5384999999999991
 30
4.456375
 70
    64
  0
SEQEND
  5
7865C
330
78649
100
AcDbEntity
  8
0
  0
LINE
  5
7865D
330
458D6
100
AcDbEntity
  8
0
100
AcDbLine
 10
1.33545
 20
0.3984999999999994
 30
4.173375
 11
1.719199999999999
 21
0.3984999999999994
 31
4.173375
  0
POLYLINE
  5
7865E
330
458D6
100
AcDbEntity
  8
0
100
AcDbPolygonMesh
 66
     1
 10
0.0
 20
0.0
 30
0.0
 70
    16
 71
     6
 72
     3
  0
VERTEX
  5
7865F
330
7865E
100
AcDbEntity
  8
0
100
AcDbVertex
100
AcDbPolygonMeshVertex
 10
1.33545
 20
0.5384999999999991
 30
4.456375
 70
    64
  0
VERTEX
  5
78660
330
7865E
100
AcDbEntity
  8
0
100
AcDbVertex
100
AcDbPolygonMeshVertex
 10
1.33545
 20
0.5384999999999991
 30
3.846375
 70
    64
  0
VERTEX
  5
78661
330
7865E
100
AcDbEntity
  8
0
100
AcDbVertex
100
AcDbPolygonMeshVertex
 10
1.33545
 20
0.5384999999999991
 30
3.846375
 70
    64
  0
VERTEX
  5
78662
330
7865E
100
AcDbEntity
  8
0
100
AcDbVertex
100
AcDbPolygonMeshVertex
 10
1.28945
 20
0.5384999999999991
 30
4.456375
 70
    64
  0
VERTEX
  5
78663
330
7865E
100
AcDbEntity
  8
0
100
AcDbVertex
100
AcDbPolygonMeshVertex
 10
1.28945
 20
0.5384999999999991
 30
3.846375
 70
    64
  0
VERTEX
  5
78664
330
7865E
100
AcDbEntity
  8
0
100
AcDbVertex
100
AcDbPolygonMeshVertex
 10
1.28945
 20
0.5384999999999991
 30
3.846375
 70
    64
  0
VERTEX
  5
78665
330
7865E
100
AcDbEntity
  8
0
100
AcDbVertex
100
AcDbPolygonMeshVertex
 10
1.28945
 20
0.3984999999999994
 30
4.456375
 70
    64
  0
VERTEX
  5
78666
330
7865E
100
AcDbEntity
  8
0
100
AcDbVertex
100
AcDbPolygonMeshVertex
 10
1.28945
 20
0.3984999999999994
 30
3.846375
 70
    64
  0
VERTEX
  5
78667
330
7865E
100
AcDbEntity
  8
0
100
AcDbVertex
100
AcDbPolygonMeshVertex
 10
1.28945
 20
0.5384999999999991
 30
3.846375
 70
    64
  0
VERTEX
  5
78668
330
7865E
100
AcDbEntity
  8
0
100
AcDbVertex
100
AcDbPolygonMeshVertex
 10
1.33545
 20
0.3984999999999994
 30
4.456375
 70
    64
  0
VERTEX
  5
78669
330
7865E
100
AcDbEntity
  8
0
100
AcDbVertex
100
AcDbPolygonMeshVertex
 10
1.33545
 20
0.3984999999999994
 30
3.846375
 70
    64
  0
VERTEX
  5
7866A
330
7865E
100
AcDbEntity
  8
0
100
AcDbVertex
100
AcDbPolygonMeshVertex
 10
1.33545
 20
0.5384999999999991
 30
3.846375
 70
    64
  0
VERTEX
  5
7866B
330
7865E
100
AcDbEntity
  8
0
100
AcDbVertex
100
AcDbPolygonMeshVertex
 10
1.33545
 20
0.3984999999999994
 30
4.456375
 70
    64
  0
VERTEX
  5
7866C
330
7865E
100
AcDbEntity
  8
0
100
AcDbVertex
100
AcDbPolygonMeshVertex
 10
1.33545
 20
0.3984999999999994
 30
4.456375
 70
    64
  0
VERTEX
  5
7866D
330
7865E
100
AcDbEntity
  8
0
100
AcDbVertex
100
AcDbPolygonMeshVertex
 10
1.33545
 20
0.5384999999999991
 30
4.456375
 70
    64
  0
VERTEX
  5
7866E
330
7865E
100
AcDbEntity
  8
0
100
AcDbVertex
100
AcDbPolygonMeshVertex
 10
1.28945
 20
0.3984999999999994
 30
4.456375
 70
    64
  0
VERTEX
  5
7866F
330
7865E
100
AcDbEntity
  8
0
100
AcDbVertex
100
AcDbPolygonMeshVertex
 10
1.28945
 20
0.3984999999999994
 30
4.456375
 70
    64
  0
VERTEX
  5
78670
330
7865E
100
AcDbEntity
  8
0
100
AcDbVertex
100
AcDbPolygonMeshVertex
 10
1.28945
 20
0.5384999999999991
 30
4.456375
 70
    64
  0
SEQEND
  5
78671
330
7865E
100
AcDbEntity
  8
0
  0
LINE
  5
78672
330
458D6
100
AcDbEntity
  8
0
100
AcDbLine
 10
0.9057
 20
0.3984999999999994
 30
4.173375
 11
1.28945
 21
0.3984999999999994
 31
4.173375
  0
POLYLINE
  5
78673
330
458D6
100
AcDbEntity
  8
0
100
AcDbPolygonMesh
 66
     1
 10
0.0
 20
0.0
 30
0.0
 70
    16
 71
     6
 72
     3
  0
VERTEX
  5
78674
330
78673
100
AcDbEntity
  8
0
100
AcDbVertex
100
AcDbPolygonMeshVertex
 10
0.9057
 20
0.5384999999999991
 30
4.456375
 70
    64
  0
VERTEX
  5
78675
330
78673
100
AcDbEntity
  8
0
100
AcDbVertex
100
AcDbPolygonMeshVertex
 10
0.9057
 20
0.5384999999999991
 30
3.846375
 70
    64
  0
VERTEX
  5
78676
330
78673
100
AcDbEntity
  8
0
100
AcDbVertex
100
AcDbPolygonMeshVertex
 10
0.9057
 20
0.5384999999999991
 30
3.846375
 70
    64
  0
VERTEX
  5
78677
330
78673
100
AcDbEntity
  8
0
100
AcDbVertex
100
AcDbPolygonMeshVertex
 10
0.8596999999999997
 20
0.5384999999999991
 30
4.456375
 70
    64
  0
VERTEX
  5
78678
330
78673
100
AcDbEntity
  8
0
100
AcDbVertex
100
AcDbPolygonMeshVertex
 10
0.8596999999999997
 20
0.5384999999999991
 30
3.846375
 70
    64
  0
VERTEX
  5
78679
330
78673
100
AcDbEntity
  8
0
100
AcDbVertex
100
AcDbPolygonMeshVertex
 10
0.8596999999999997
 20
0.5384999999999991
 30
3.846375
 70
    64
  0
VERTEX
  5
7867A
330
78673
100
AcDbEntity
  8
0
100
AcDbVertex
100
AcDbPolygonMeshVertex
 10
0.8596999999999997
 20
0.3984999999999994
 30
4.456375
 70
    64
  0
VERTEX
  5
7867B
330
78673
100
AcDbEntity
  8
0
100
AcDbVertex
100
AcDbPolygonMeshVertex
 10
0.8596999999999997
 20
0.3984999999999994
 30
3.846375
 70
    64
  0
VERTEX
  5
7867C
330
78673
100
AcDbEntity
  8
0
100
AcDbVertex
100
AcDbPolygonMeshVertex
 10
0.8596999999999997
 20
0.5384999999999991
 30
3.846375
 70
    64
  0
VERTEX
  5
7867D
330
78673
100
AcDbEntity
  8
0
100
AcDbVertex
100
AcDbPolygonMeshVertex
 10
0.9057
 20
0.3984999999999994
 30
4.456375
 70
    64
  0
VERTEX
  5
7867E
330
78673
100
AcDbEntity
  8
0
100
AcDbVertex
100
AcDbPolygonMeshVertex
 10
0.9057
 20
0.3984999999999994
 30
3.846375
 70
    64
  0
VERTEX
  5
7867F
330
78673
100
AcDbEntity
  8
0
100
AcDbVertex
100
AcDbPolygonMeshVertex
 10
0.9057
 20
0.5384999999999991
 30
3.846375
 70
    64
  0
VERTEX
  5
78680
330
78673
100
AcDbEntity
  8
0
100
AcDbVertex
100
AcDbPolygonMeshVertex
 10
0.9057
 20
0.3984999999999994
 30
4.456375
 70
    64
  0
VERTEX
  5
78681
330
78673
100
AcDbEntity
  8
0
100
AcDbVertex
100
AcDbPolygonMeshVertex
 10
0.9057
 20
0.3984999999999994
 30
4.456375
 70
    64
  0
VERTEX
  5
78682
330
78673
100
AcDbEntity
  8
0
100
AcDbVertex
100
AcDbPolygonMeshVertex
 10
0.9057
 20
0.5384999999999991
 30
4.456375
 70
    64
  0
VERTEX
  5
78683
330
78673
100
AcDbEntity
  8
0
100
AcDbVertex
100
AcDbPolygonMeshVertex
 10
0.8596999999999997
 20
0.3984999999999994
 30
4.456375
 70
    64
  0
VERTEX
  5
78684
330
78673
100
AcDbEntity
  8
0
100
AcDbVertex
100
AcDbPolygonMeshVertex
 10
0.8596999999999997
 20
0.3984999999999994
 30
4.456375
 70
    64
  0
VERTEX
  5
78685
330
78673
100
AcDbEntity
  8
0
100
AcDbVertex
100
AcDbPolygonMeshVertex
 10
0.8596999999999997
 20
0.5384999999999991
 30
4.456375
 70
    64
  0
SEQEND
  5
78686
330
78673
100
AcDbEntity
  8
0
  0
POLYLINE
  5
78687
330
458D6
100
AcDbEntity
  8
0
100
AcDbPolygonMesh
 66
     1
 10
0.0
 20
0.0
 30
0.0
 70
    16
 71
     6
 72
     3
  0
VERTEX
  5
78688
330
78687
100
AcDbEntity
  8
0
100
AcDbVertex
100
AcDbPolygonMeshVertex
 10
0.42995
 20
0.5384999999999991
 30
4.456375
 70
    64
  0
VERTEX
  5
78689
330
78687
100
AcDbEntity
  8
0
100
AcDbVertex
100
AcDbPolygonMeshVertex
 10
0.42995
 20
0.5384999999999991
 30
3.846375
 70
    64
  0
VERTEX
  5
7868A
330
78687
100
AcDbEntity
  8
0
100
AcDbVertex
100
AcDbPolygonMeshVertex
 10
0.42995
 20
0.5384999999999991
 30
3.846375
 70
    64
  0
VERTEX
  5
7868B
330
78687
100
AcDbEntity
  8
0
100
AcDbVertex
100
AcDbPolygonMeshVertex
 10
0.4759499999999998
 20
0.5384999999999991
 30
4.456375
 70
    64
  0
VERTEX
  5
7868C
330
78687
100
AcDbEntity
  8
0
100
AcDbVertex
100
AcDbPolygonMeshVertex
 10
0.4759499999999998
 20
0.5384999999999991
 30
3.846375
 70
    64
  0
VERTEX
  5
7868D
330
78687
100
AcDbEntity
  8
0
100
AcDbVertex
100
AcDbPolygonMeshVertex
 10
0.4759499999999998
 20
0.5384999999999991
 30
3.846375
 70
    64
  0
VERTEX
  5
7868E
330
78687
100
AcDbEntity
  8
0
100
AcDbVertex
100
AcDbPolygonMeshVertex
 10
0.4759499999999998
 20
0.3984999999999994
 30
4.456375
 70
    64
  0
VERTEX
  5
7868F
330
78687
100
AcDbEntity
  8
0
100
AcDbVertex
100
AcDbPolygonMeshVertex
 10
0.4759499999999998
 20
0.3984999999999994
 30
3.846375
 70
    64
  0
VERTEX
  5
78690
330
78687
100
AcDbEntity
  8
0
100
AcDbVertex
100
AcDbPolygonMeshVertex
 10
0.4759499999999998
 20
0.5384999999999991
 30
3.846375
 70
    64
  0
VERTEX
  5
78691
330
78687
100
AcDbEntity
  8
0
100
AcDbVertex
100
AcDbPolygonMeshVertex
 10
0.42995
 20
0.3984999999999994
 30
4.456375
 70
    64
  0
VERTEX
  5
78692
330
78687
100
AcDbEntity
  8
0
100
AcDbVertex
100
AcDbPolygonMeshVertex
 10
0.42995
 20
0.3984999999999994
 30
3.846375
 70
    64
  0
VERTEX
  5
78693
330
78687
100
AcDbEntity
  8
0
100
AcDbVertex
100
AcDbPolygonMeshVertex
 10
0.42995
 20
0.5384999999999991
 30
3.846375
 70
    64
  0
VERTEX
  5
78694
330
78687
100
AcDbEntity
  8
0
100
AcDbVertex
100
AcDbPolygonMeshVertex
 10
0.42995
 20
0.3984999999999994
 30
4.456375
 70
    64
  0
VERTEX
  5
78695
330
78687
100
AcDbEntity
  8
0
100
AcDbVertex
100
AcDbPolygonMeshVertex
 10
0.42995
 20
0.3984999999999994
 30
4.456375
 70
    64
  0
VERTEX
  5
78696
330
78687
100
AcDbEntity
  8
0
100
AcDbVertex
100
AcDbPolygonMeshVertex
 10
0.42995
 20
0.5384999999999991
 30
4.456375
 70
    64
  0
VERTEX
  5
78697
330
78687
100
AcDbEntity
  8
0
100
AcDbVertex
100
AcDbPolygonMeshVertex
 10
0.4759499999999998
 20
0.3984999999999994
 30
4.456375
 70
    64
  0
VERTEX
  5
78698
330
78687
100
AcDbEntity
  8
0
100
AcDbVertex
100
AcDbPolygonMeshVertex
 10
0.4759499999999998
 20
0.3984999999999994
 30
4.456375
 70
    64
  0
VERTEX
  5
78699
330
78687
100
AcDbEntity
  8
0
100
AcDbVertex
100
AcDbPolygonMeshVertex
 10
0.4759499999999998
 20
0.5384999999999991
 30
4.456375
 70
    64
  0
SEQEND
  5
7869A
330
78687
100
AcDbEntity
  8
0
  0
LINE
  5
7869B
330
458D6
100
AcDbEntity
  8
0
100
AcDbLine
 10
0.0462000000000004
 20
0.3984999999999994
 30
4.173375
 11
0.42995
 21
0.3984999999999994
 31
4.173375
  0
LINE
  5
7869C
330
458D6
100
AcDbEntity
  8
0
100
AcDbLine
 10
0.4759499999999998
 20
0.3984999999999994
 30
4.173375
 11
0.8596999999999997
 21
0.3984999999999994
 31
4.173375
  0
POLYLINE
  5
7869D
330
458D6
100
AcDbEntity
  8
0
100
AcDbPolygonMesh
 66
     1
 10
0.0
 20
0.0
 30
0.0
 70
    16
 71
     6
 72
     3
  0
VERTEX
  5
7869E
330
7869D
100
AcDbEntity
  8
0
100
AcDbVertex
100
AcDbPolygonMeshVertex
 10
0.0461999999999999
 20
0.5384999999999991
 30
4.456375
 70
    64
  0
VERTEX
  5
7869F
330
7869D
100
AcDbEntity
  8
0
100
AcDbVertex
100
AcDbPolygonMeshVertex
 10
0.0461999999999999
 20
0.5384999999999991
 30
3.587375
 70
    64
  0
VERTEX
  5
786A0
330
7869D
100
AcDbEntity
  8
0
100
AcDbVertex
100
AcDbPolygonMeshVertex
 10
0.0461999999999999
 20
0.5384999999999991
 30
3.587375
 70
    64
  0
VERTEX
  5
786A1
330
7869D
100
AcDbEntity
  8
0
100
AcDbVertex
100
AcDbPolygonMeshVertex
 10
0.0002000000000001
 20
0.5384999999999991
 30
4.456375
 70
    64
  0
VERTEX
  5
786A2
330
7869D
100
AcDbEntity
  8
0
100
AcDbVertex
100
AcDbPolygonMeshVertex
 10
0.0002000000000001
 20
0.5384999999999991
 30
3.587375
 70
    64
  0
VERTEX
  5
786A3
330
7869D
100
AcDbEntity
  8
0
100
AcDbVertex
100
AcDbPolygonMeshVertex
 10
0.0002000000000001
 20
0.5384999999999991
 30
3.587375
 70
    64
  0
VERTEX
  5
786A4
330
7869D
100
AcDbEntity
  8
0
100
AcDbVertex
100
AcDbPolygonMeshVertex
 10
0.0002000000000001
 20
0.3984999999999994
 30
4.456375
 70
    64
  0
VERTEX
  5
786A5
330
7869D
100
AcDbEntity
  8
0
100
AcDbVertex
100
AcDbPolygonMeshVertex
 10
0.0002000000000001
 20
0.3984999999999994
 30
3.587375
 70
    64
  0
VERTEX
  5
786A6
330
7869D
100
AcDbEntity
  8
0
100
AcDbVertex
100
AcDbPolygonMeshVertex
 10
0.0002000000000001
 20
0.5384999999999991
 30
3.587375
 70
    64
  0
VERTEX
  5
786A7
330
7869D
100
AcDbEntity
  8
0
100
AcDbVertex
100
AcDbPolygonMeshVertex
 10
0.0461999999999999
 20
0.3984999999999994
 30
4.456375
 70
    64
  0
VERTEX
  5
786A8
330
7869D
100
AcDbEntity
  8
0
100
AcDbVertex
100
AcDbPolygonMeshVertex
 10
0.0461999999999999
 20
0.3984999999999994
 30
3.587375
 70
    64
  0
VERTEX
  5
786A9
330
7869D
100
AcDbEntity
  8
0
100
AcDbVertex
100
AcDbPolygonMeshVertex
 10
0.0461999999999999
 20
0.5384999999999991
 30
3.587375
 70
    64
  0
VERTEX
  5
786AA
330
7869D
100
AcDbEntity
  8
0
100
AcDbVertex
100
AcDbPolygonMeshVertex
 10
0.0461999999999999
 20
0.3984999999999994
 30
4.456375
 70
    64
  0
VERTEX
  5
786AB
330
7869D
100
AcDbEntity
  8
0
100
AcDbVertex
100
AcDbPolygonMeshVertex
 10
0.0461999999999999
 20
0.3984999999999994
 30
4.456375
 70
    64
  0
VERTEX
  5
786AC
330
7869D
100
AcDbEntity
  8
0
100
AcDbVertex
100
AcDbPolygonMeshVertex
 10
0.0461999999999999
 20
0.5384999999999991
 30
4.456375
 70
    64
  0
VERTEX
  5
786AD
330
7869D
100
AcDbEntity
  8
0
100
AcDbVertex
100
AcDbPolygonMeshVertex
 10
0.0002000000000001
 20
0.3984999999999994
 30
4.456375
 70
    64
  0
VERTEX
  5
786AE
330
7869D
100
AcDbEntity
  8
0
100
AcDbVertex
100
AcDbPolygonMeshVertex
 10
0.0002000000000001
 20
0.3984999999999994
 30
4.456375
 70
    64
  0
VERTEX
  5
786AF
330
7869D
100
AcDbEntity
  8
0
100
AcDbVertex
100
AcDbPolygonMeshVertex
 10
0.0002000000000001
 20
0.5384999999999991
 30
4.456375
 70
    64
  0
SEQEND
  5
786B0
330
7869D
100
AcDbEntity
  8
0
  0
POLYLINE
  5
786B1
330
458D6
100
AcDbEntity
  8
0
100
AcDbPolygonMesh
 66
     1
 10
0.0
 20
0.0
 30
0.0
 70
    16
 71
     6
 72
     3
  0
VERTEX
  5
786B2
330
786B1
100
AcDbEntity
  8
0
100
AcDbVertex
100
AcDbPolygonMeshVertex
 10
1.719199999999999
 20
0.6104999999999992
 30
3.846375
 70
    64
  0
VERTEX
  5
786B3
330
786B1
100
AcDbEntity
  8
0
100
AcDbVertex
100
AcDbPolygonMeshVertex
 10
1.719199999999999
 20
0.6104999999999992
 30
3.587375
 70
    64
  0
VERTEX
  5
786B4
330
786B1
100
AcDbEntity
  8
0
100
AcDbVertex
100
AcDbPolygonMeshVertex
 10
1.719199999999999
 20
0.6104999999999992
 30
3.587375
 70
    64
  0
VERTEX
  5
786B5
330
786B1
100
AcDbEntity
  8
0
100
AcDbVertex
100
AcDbPolygonMeshVertex
 10
0.0461999999999999
 20
0.6104999999999992
 30
3.846375
 70
    64
  0
VERTEX
  5
786B6
330
786B1
100
AcDbEntity
  8
0
100
AcDbVertex
100
AcDbPolygonMeshVertex
 10
0.0461999999999999
 20
0.6104999999999992
 30
3.587375
 70
    64
  0
VERTEX
  5
786B7
330
786B1
100
AcDbEntity
  8
0
100
AcDbVertex
100
AcDbPolygonMeshVertex
 10
0.0461999999999999
 20
0.6104999999999992
 30
3.587375
 70
    64
  0
VERTEX
  5
786B8
330
786B1
100
AcDbEntity
  8
0
100
AcDbVertex
100
AcDbPolygonMeshVertex
 10
0.0461999999999999
 20
0.3984999999999994
 30
3.846375
 70
    64
  0
VERTEX
  5
786B9
330
786B1
100
AcDbEntity
  8
0
100
AcDbVertex
100
AcDbPolygonMeshVertex
 10
0.0461999999999999
 20
0.3984999999999994
 30
3.587375
 70
    64
  0
VERTEX
  5
786BA
330
786B1
100
AcDbEntity
  8
0
100
AcDbVertex
100
AcDbPolygonMeshVertex
 10
0.0461999999999999
 20
0.6104999999999992
 30
3.587375
 70
    64
  0
VERTEX
  5
786BB
330
786B1
100
AcDbEntity
  8
0
100
AcDbVertex
100
AcDbPolygonMeshVertex
 10
1.719199999999999
 20
0.3984999999999994
 30
3.846375
 70
    64
  0
VERTEX
  5
786BC
330
786B1
100
AcDbEntity
  8
0
100
AcDbVertex
100
AcDbPolygonMeshVertex
 10
1.719199999999999
 20
0.3984999999999994
 30
3.587375
 70
    64
  0
VERTEX
  5
786BD
330
786B1
100
AcDbEntity
  8
0
100
AcDbVertex
100
AcDbPolygonMeshVertex
 10
1.719199999999999
 20
0.6104999999999992
 30
3.587375
 70
    64
  0
VERTEX
  5
786BE
330
786B1
100
AcDbEntity
  8
0
100
AcDbVertex
100
AcDbPolygonMeshVertex
 10
1.719199999999999
 20
0.3984999999999994
 30
3.846375
 70
    64
  0
VERTEX
  5
786BF
330
786B1
100
AcDbEntity
  8
0
100
AcDbVertex
100
AcDbPolygonMeshVertex
 10
1.719199999999999
 20
0.3984999999999994
 30
3.846375
 70
    64
  0
VERTEX
  5
786C0
330
786B1
100
AcDbEntity
  8
0
100
AcDbVertex
100
AcDbPolygonMeshVertex
 10
1.719199999999999
 20
0.6104999999999992
 30
3.846375
 70
    64
  0
VERTEX
  5
786C1
330
786B1
100
AcDbEntity
  8
0
100
AcDbVertex
100
AcDbPolygonMeshVertex
 10
0.0461999999999999
 20
0.3984999999999994
 30
3.846375
 70
    64
  0
VERTEX
  5
786C2
330
786B1
100
AcDbEntity
  8
0
100
AcDbVertex
100
AcDbPolygonMeshVertex
 10
0.0461999999999999
 20
0.3984999999999994
 30
3.846375
 70
    64
  0
VERTEX
  5
786C3
330
786B1
100
AcDbEntity
  8
0
100
AcDbVertex
100
AcDbPolygonMeshVertex
 10
0.0461999999999999
 20
0.6104999999999992
 30
3.846375
 70
    64
  0
SEQEND
  5
786C4
330
786B1
100
AcDbEntity
  8
0
  0
LINE
  5
786C5
330
458D6
100
AcDbEntity
  8
0
100
AcDbLine
 10
0.652923391696637
 20
-1.9685
 30
-0.0000000000000003
 11
0.8635900583633034
 21
-1.9685
 31
-0.0000000000000003
  0
POLYLINE
  5
786C6
330
458D6
100
AcDbEntity
  8
0
100
AcDb3dPolyline
 66
     1
 10
0.0
 20
0.0
 30
0.0
 70
     8
  0
VERTEX
  5
786C7
330
786C6
100
AcDbEntity
  8
0
100
AcDbVertex
100
AcDb3dPolylineVertex
 10
0.652923391696637
 20
-1.9685
 30
-0.0000000000000003
 70
    32
  0
VERTEX
  5
786C8
330
786C6
100
AcDbEntity
  8
0
100
AcDbVertex
100
AcDb3dPolylineVertex
 10
0.652923391696637
 20
-2.103499999999999
 30
-0.0000000000000002
 70
    32
  0
VERTEX
  5
786C9
330
786C6
100
AcDbEntity
  8
0
100
AcDbVertex
100
AcDb3dPolylineVertex
 10
0.8635900583633034
 20
-2.103499999999999
 30
-0.0000000000000002
 70
    32
  0
VERTEX
  5
786CA
330
786C6
100
AcDbEntity
  8
0
100
AcDbVertex
100
AcDb3dPolylineVertex
 10
0.8635900583633034
 20
-1.9685
 30
-0.0000000000000003
 70
    32
  0
SEQEND
  5
786CB
330
786C6
100
AcDbEntity
  8
0
  0
POLYLINE
  5
786CC
330
458D6
100
AcDbEntity
  8
0
100
AcDb3dPolyline
 66
     1
 10
0.0
 20
0.0
 30
0.0
 70
     8
  0
VERTEX
  5
786CD
330
786CC
100
AcDbEntity
  8
0
100
AcDbVertex
100
AcDb3dPolylineVertex
 10
0.581132708066341
 20
-1.9685
 30
0.1869999999999998
 70
    32
  0
VERTEX
  5
786CE
330
786CC
100
AcDbEntity
  8
0
100
AcDbVertex
100
AcDb3dPolylineVertex
 10
0.581132708066341
 20
-2.103499999999999
 30
0.1869999999999998
 70
    32
  0
VERTEX
  5
786CF
330
786CC
100
AcDbEntity
  8
0
100
AcDbVertex
100
AcDb3dPolylineVertex
 10
0.7917993747330076
 20
-2.103499999999999
 30
0.1869999999999998
 70
    32
  0
VERTEX
  5
786D0
330
786CC
100
AcDbEntity
  8
0
100
AcDbVertex
100
AcDb3dPolylineVertex
 10
0.7917993747330076
 20
-1.9685
 30
0.1869999999999998
 70
    32
  0
SEQEND
  5
786D1
330
786CC
100
AcDbEntity
  8
0
  0
POLYLINE
  5
786D2
330
458D6
100
AcDbEntity
  8
0
100
AcDbPolygonMesh
 66
     1
 10
0.0
 20
0.0
 30
0.0
 70
    16
 71
     6
 72
     3
  0
VERTEX
  5
786D3
330
786D2
100
AcDbEntity
  8
0
100
AcDbVertex
100
AcDbPolygonMeshVertex
 10
0.8537993747330069
 20
-2.1655
 30
0.1869999999999998
 70
    64
  0
VERTEX
  5
786D4
330
786D2
100
AcDbEntity
  8
0
100
AcDbVertex
100
AcDbPolygonMeshVertex
 10
0.8537993747330069
 20
-2.1655
 30
0.0
 70
    64
  0
VERTEX
  5
786D5
330
786D2
100
AcDbEntity
  8
0
100
AcDbVertex
100
AcDbPolygonMeshVertex
 10
0.8537993747330069
 20
-2.1655
 30
0.0
 70
    64
  0
VERTEX
  5
786D6
330
786D2
100
AcDbEntity
  8
0
100
AcDbVertex
100
AcDbPolygonMeshVertex
 10
0.2464660413996739
 20
-2.1655
 30
0.1869999999999998
 70
    64
  0
VERTEX
  5
786D7
330
786D2
100
AcDbEntity
  8
0
100
AcDbVertex
100
AcDbPolygonMeshVertex
 10
0.2464660413996739
 20
-2.1655
 30
0.0
 70
    64
  0
VERTEX
  5
786D8
330
786D2
100
AcDbEntity
  8
0
100
AcDbVertex
100
AcDbPolygonMeshVertex
 10
0.2464660413996739
 20
-2.1655
 30
0.0
 70
    64
  0
VERTEX
  5
786D9
330
786D2
100
AcDbEntity
  8
0
100
AcDbVertex
100
AcDbPolygonMeshVertex
 10
0.2464660413996739
 20
-2.103499999999999
 30
0.1869999999999998
 70
    64
  0
VERTEX
  5
786DA
330
786D2
100
AcDbEntity
  8
0
100
AcDbVertex
100
AcDbPolygonMeshVertex
 10
0.2464660413996739
 20
-2.103499999999999
 30
0.0
 70
    64
  0
VERTEX
  5
786DB
330
786D2
100
AcDbEntity
  8
0
100
AcDbVertex
100
AcDbPolygonMeshVertex
 10
0.2464660413996739
 20
-2.1655
 30
0.0
 70
    64
  0
VERTEX
  5
786DC
330
786D2
100
AcDbEntity
  8
0
100
AcDbVertex
100
AcDbPolygonMeshVertex
 10
0.8537993747330069
 20
-2.103499999999999
 30
0.1869999999999998
 70
    64
  0
VERTEX
  5
786DD
330
786D2
100
AcDbEntity
  8
0
100
AcDbVertex
100
AcDbPolygonMeshVertex
 10
0.8537993747330069
 20
-2.103499999999999
 30
0.0
 70
    64
  0
VERTEX
  5
786DE
330
786D2
100
AcDbEntity
  8
0
100
AcDbVertex
100
AcDbPolygonMeshVertex
 10
0.8537993747330069
 20
-2.1655
 30
0.0
 70
    64
  0
VERTEX
  5
786DF
330
786D2
100
AcDbEntity
  8
0
100
AcDbVertex
100
AcDbPolygonMeshVertex
 10
0.8537993747330069
 20
-2.103499999999999
 30
0.1869999999999998
 70
    64
  0
VERTEX
  5
786E0
330
786D2
100
AcDbEntity
  8
0
100
AcDbVertex
100
AcDbPolygonMeshVertex
 10
0.8537993747330069
 20
-2.103499999999999
 30
0.1869999999999998
 70
    64
  0
VERTEX
  5
786E1
330
786D2
100
AcDbEntity
  8
0
100
AcDbVertex
100
AcDbPolygonMeshVertex
 10
0.8537993747330069
 20
-2.1655
 30
0.1869999999999998
 70
    64
  0
VERTEX
  5
786E2
330
786D2
100
AcDbEntity
  8
0
100
AcDbVertex
100
AcDbPolygonMeshVertex
 10
0.2464660413996739
 20
-2.103499999999999
 30
0.1869999999999998
 70
    64
  0
VERTEX
  5
786E3
330
786D2
100
AcDbEntity
  8
0
100
AcDbVertex
100
AcDbPolygonMeshVertex
 10
0.2464660413996739
 20
-2.103499999999999
 30
0.1869999999999998
 70
    64
  0
VERTEX
  5
786E4
330
786D2
100
AcDbEntity
  8
0
100
AcDbVertex
100
AcDbPolygonMeshVertex
 10
0.2464660413996739
 20
-2.1655
 30
0.1869999999999998
 70
    64
  0
SEQEND
  5
786E5
330
786D2
100
AcDbEntity
  8
0
  0
POLYLINE
  5
786E6
330
458D6
100
AcDbEntity
  8
0
100
AcDbPolygonMesh
 66
     1
 10
0.0
 20
0.0
 30
0.0
 70
    16
 71
     6
 72
     3
  0
VERTEX
  5
786E7
330
786E6
100
AcDbEntity
  8
0
100
AcDbVertex
100
AcDbPolygonMeshVertex
 10
0.8537993747330069
 20
-2.103499999999999
 30
0.1869999999999998
 70
    64
  0
VERTEX
  5
786E8
330
786E6
100
AcDbEntity
  8
0
100
AcDbVertex
100
AcDbPolygonMeshVertex
 10
0.8537993747330069
 20
-2.103499999999999
 30
0.0
 70
    64
  0
VERTEX
  5
786E9
330
786E6
100
AcDbEntity
  8
0
100
AcDbVertex
100
AcDbPolygonMeshVertex
 10
0.8537993747330069
 20
-2.103499999999999
 30
0.0
 70
    64
  0
VERTEX
  5
786EA
330
786E6
100
AcDbEntity
  8
0
100
AcDbVertex
100
AcDbPolygonMeshVertex
 10
0.5191327080663416
 20
-2.103499999999999
 30
0.1869999999999998
 70
    64
  0
VERTEX
  5
786EB
330
786E6
100
AcDbEntity
  8
0
100
AcDbVertex
100
AcDbPolygonMeshVertex
 10
0.5191327080663416
 20
-2.103499999999999
 30
0.0
 70
    64
  0
VERTEX
  5
786EC
330
786E6
100
AcDbEntity
  8
0
100
AcDbVertex
100
AcDbPolygonMeshVertex
 10
0.5191327080663416
 20
-2.103499999999999
 30
0.0
 70
    64
  0
VERTEX
  5
786ED
330
786E6
100
AcDbEntity
  8
0
100
AcDbVertex
100
AcDbPolygonMeshVertex
 10
0.5191327080663416
 20
-1.9065
 30
0.1869999999999998
 70
    64
  0
VERTEX
  5
786EE
330
786E6
100
AcDbEntity
  8
0
100
AcDbVertex
100
AcDbPolygonMeshVertex
 10
0.5191327080663416
 20
-1.9065
 30
0.0
 70
    64
  0
VERTEX
  5
786EF
330
786E6
100
AcDbEntity
  8
0
100
AcDbVertex
100
AcDbPolygonMeshVertex
 10
0.5191327080663416
 20
-2.103499999999999
 30
0.0
 70
    64
  0
VERTEX
  5
786F0
330
786E6
100
AcDbEntity
  8
0
100
AcDbVertex
100
AcDbPolygonMeshVertex
 10
0.8537993747330069
 20
-1.9065
 30
0.1869999999999998
 70
    64
  0
VERTEX
  5
786F1
330
786E6
100
AcDbEntity
  8
0
100
AcDbVertex
100
AcDbPolygonMeshVertex
 10
0.8537993747330069
 20
-1.9065
 30
0.0
 70
    64
  0
VERTEX
  5
786F2
330
786E6
100
AcDbEntity
  8
0
100
AcDbVertex
100
AcDbPolygonMeshVertex
 10
0.8537993747330069
 20
-2.103499999999999
 30
0.0
 70
    64
  0
VERTEX
  5
786F3
330
786E6
100
AcDbEntity
  8
0
100
AcDbVertex
100
AcDbPolygonMeshVertex
 10
0.8537993747330069
 20
-1.9065
 30
0.1869999999999998
 70
    64
  0
VERTEX
  5
786F4
330
786E6
100
AcDbEntity
  8
0
100
AcDbVertex
100
AcDbPolygonMeshVertex
 10
0.8537993747330069
 20
-1.9065
 30
0.1869999999999998
 70
    64
  0
VERTEX
  5
786F5
330
786E6
100
AcDbEntity
  8
0
100
AcDbVertex
100
AcDbPolygonMeshVertex
 10
0.8537993747330069
 20
-2.103499999999999
 30
0.1869999999999998
 70
    64
  0
VERTEX
  5
786F6
330
786E6
100
AcDbEntity
  8
0
100
AcDbVertex
100
AcDbPolygonMeshVertex
 10
0.5191327080663416
 20
-1.9065
 30
0.1869999999999998
 70
    64
  0
VERTEX
  5
786F7
330
786E6
100
AcDbEntity
  8
0
100
AcDbVertex
100
AcDbPolygonMeshVertex
 10
0.5191327080663416
 20
-1.9065
 30
0.1869999999999998
 70
    64
  0
VERTEX
  5
786F8
330
786E6
100
AcDbEntity
  8
0
100
AcDbVertex
100
AcDbPolygonMeshVertex
 10
0.5191327080663416
 20
-2.103499999999999
 30
0.1869999999999998
 70
    64
  0
SEQEND
  5
786F9
330
786E6
100
AcDbEntity
  8
0
  0
LINE
  5
786FA
330
458D6
100
AcDbEntity
  8
0
100
AcDbLine
 10
0.652923391696637
 20
-1.9685
 30
0.1869999999999998
 11
0.8635900583633034
 21
-1.9685
 31
0.1869999999999998
  0
POLYLINE
  5
786FB
330
458D6
100
AcDbEntity
  8
0
100
AcDbPolygonMesh
 66
     1
 10
0.0
 20
0.0
 30
0.0
 70
    16
 71
     6
 72
     3
  0
VERTEX
  5
786FC
330
786FB
100
AcDbEntity
  8
0
100
AcDbVertex
100
AcDbPolygonMeshVertex
 10
1.765199999999999
 20
-1.685499999999999
 30
0.187
 70
    64
  0
VERTEX
  5
786FD
330
786FB
100
AcDbEntity
  8
0
100
AcDbVertex
100
AcDbPolygonMeshVertex
 10
1.765199999999999
 20
-1.685499999999999
 30
0.0
 70
    64
  0
VERTEX
  5
786FE
330
786FB
100
AcDbEntity
  8
0
100
AcDbVertex
100
AcDbPolygonMeshVertex
 10
1.765199999999999
 20
-1.685499999999999
 30
0.0
 70
    64
  0
VERTEX
  5
786FF
330
786FB
100
AcDbEntity
  8
0
100
AcDbVertex
100
AcDbPolygonMeshVertex
 10
0.0052
 20
-1.685499999999999
 30
0.187
 70
    64
  0
VERTEX
  5
78700
330
786FB
100
AcDbEntity
  8
0
100
AcDbVertex
100
AcDbPolygonMeshVertex
 10
0.0052
 20
-1.685499999999999
 30
0.0
 70
    64
  0
VERTEX
  5
78701
330
786FB
100
AcDbEntity
  8
0
100
AcDbVertex
100
AcDbPolygonMeshVertex
 10
0.0052
 20
-1.685499999999999
 30
0.0
 70
    64
  0
VERTEX
  5
78702
330
786FB
100
AcDbEntity
  8
0
100
AcDbVertex
100
AcDbPolygonMeshVertex
 10
0.0052
 20
-1.480999999999999
 30
0.187
 70
    64
  0
VERTEX
  5
78703
330
786FB
100
AcDbEntity
  8
0
100
AcDbVertex
100
AcDbPolygonMeshVertex
 10
0.0052
 20
-1.480999999999999
 30
0.0
 70
    64
  0
VERTEX
  5
78704
330
786FB
100
AcDbEntity
  8
0
100
AcDbVertex
100
AcDbPolygonMeshVertex
 10
0.0052
 20
-1.685499999999999
 30
0.0
 70
    64
  0
VERTEX
  5
78705
330
786FB
100
AcDbEntity
  8
0
100
AcDbVertex
100
AcDbPolygonMeshVertex
 10
1.765199999999999
 20
-1.480999999999999
 30
0.187
 70
    64
  0
VERTEX
  5
78706
330
786FB
100
AcDbEntity
  8
0
100
AcDbVertex
100
AcDbPolygonMeshVertex
 10
1.765199999999999
 20
-1.480999999999999
 30
0.0
 70
    64
  0
VERTEX
  5
78707
330
786FB
100
AcDbEntity
  8
0
100
AcDbVertex
100
AcDbPolygonMeshVertex
 10
1.765199999999999
 20
-1.685499999999999
 30
0.0
 70
    64
  0
VERTEX
  5
78708
330
786FB
100
AcDbEntity
  8
0
100
AcDbVertex
100
AcDbPolygonMeshVertex
 10
1.765199999999999
 20
-1.480999999999999
 30
0.187
 70
    64
  0
VERTEX
  5
78709
330
786FB
100
AcDbEntity
  8
0
100
AcDbVertex
100
AcDbPolygonMeshVertex
 10
1.765199999999999
 20
-1.480999999999999
 30
0.187
 70
    64
  0
VERTEX
  5
7870A
330
786FB
100
AcDbEntity
  8
0
100
AcDbVertex
100
AcDbPolygonMeshVertex
 10
1.765199999999999
 20
-1.685499999999999
 30
0.187
 70
    64
  0
VERTEX
  5
7870B
330
786FB
100
AcDbEntity
  8
0
100
AcDbVertex
100
AcDbPolygonMeshVertex
 10
0.0052
 20
-1.480999999999999
 30
0.187
 70
    64
  0
VERTEX
  5
7870C
330
786FB
100
AcDbEntity
  8
0
100
AcDbVertex
100
AcDbPolygonMeshVertex
 10
0.0052
 20
-1.480999999999999
 30
0.187
 70
    64
  0
VERTEX
  5
7870D
330
786FB
100
AcDbEntity
  8
0
100
AcDbVertex
100
AcDbPolygonMeshVertex
 10
0.0052
 20
-1.685499999999999
 30
0.187
 70
    64
  0
SEQEND
  5
7870E
330
786FB
100
AcDbEntity
  8
0
  0
POLYLINE
  5
7870F
330
458D6
100
AcDbEntity
  8
0
100
AcDbPolygonMesh
 66
     1
 10
0.0
 20
0.0
 30
0.0
 70
    16
 71
     6
 72
     3
  0
VERTEX
  5
78710
330
7870F
100
AcDbEntity
  8
0
100
AcDbVertex
100
AcDbPolygonMeshVertex
 10
1.765199999999999
 20
0.2044999999999999
 30
0.187
 70
    64
  0
VERTEX
  5
78711
330
7870F
100
AcDbEntity
  8
0
100
AcDbVertex
100
AcDbPolygonMeshVertex
 10
1.765199999999999
 20
0.2044999999999999
 30
0.0
 70
    64
  0
VERTEX
  5
78712
330
7870F
100
AcDbEntity
  8
0
100
AcDbVertex
100
AcDbPolygonMeshVertex
 10
1.765199999999999
 20
0.2044999999999999
 30
0.0
 70
    64
  0
VERTEX
  5
78713
330
7870F
100
AcDbEntity
  8
0
100
AcDbVertex
100
AcDbPolygonMeshVertex
 10
0.0052
 20
0.2044999999999999
 30
0.187
 70
    64
  0
VERTEX
  5
78714
330
7870F
100
AcDbEntity
  8
0
100
AcDbVertex
100
AcDbPolygonMeshVertex
 10
0.0052
 20
0.2044999999999999
 30
0.0
 70
    64
  0
VERTEX
  5
78715
330
7870F
100
AcDbEntity
  8
0
100
AcDbVertex
100
AcDbPolygonMeshVertex
 10
0.0052
 20
0.2044999999999999
 30
0.0
 70
    64
  0
VERTEX
  5
78716
330
7870F
100
AcDbEntity
  8
0
100
AcDbVertex
100
AcDbPolygonMeshVertex
 10
0.0052
 20
0.0
 30
0.187
 70
    64
  0
VERTEX
  5
78717
330
7870F
100
AcDbEntity
  8
0
100
AcDbVertex
100
AcDbPolygonMeshVertex
 10
0.0052
 20
0.0
 30
0.0
 70
    64
  0
VERTEX
  5
78718
330
7870F
100
AcDbEntity
  8
0
100
AcDbVertex
100
AcDbPolygonMeshVertex
 10
0.0052
 20
0.2044999999999999
 30
0.0
 70
    64
  0
VERTEX
  5
78719
330
7870F
100
AcDbEntity
  8
0
100
AcDbVertex
100
AcDbPolygonMeshVertex
 10
1.765199999999999
 20
0.0
 30
0.187
 70
    64
  0
VERTEX
  5
7871A
330
7870F
100
AcDbEntity
  8
0
100
AcDbVertex
100
AcDbPolygonMeshVertex
 10
1.765199999999999
 20
0.0
 30
0.0
 70
    64
  0
VERTEX
  5
7871B
330
7870F
100
AcDbEntity
  8
0
100
AcDbVertex
100
AcDbPolygonMeshVertex
 10
1.765199999999999
 20
0.2044999999999999
 30
0.0
 70
    64
  0
VERTEX
  5
7871C
330
7870F
100
AcDbEntity
  8
0
100
AcDbVertex
100
AcDbPolygonMeshVertex
 10
1.765199999999999
 20
0.0
 30
0.187
 70
    64
  0
VERTEX
  5
7871D
330
7870F
100
AcDbEntity
  8
0
100
AcDbVertex
100
AcDbPolygonMeshVertex
 10
1.765199999999999
 20
0.0
 30
0.187
 70
    64
  0
VERTEX
  5
7871E
330
7870F
100
AcDbEntity
  8
0
100
AcDbVertex
100
AcDbPolygonMeshVertex
 10
1.765199999999999
 20
0.2044999999999999
 30
0.187
 70
    64
  0
VERTEX
  5
7871F
330
7870F
100
AcDbEntity
  8
0
100
AcDbVertex
100
AcDbPolygonMeshVertex
 10
0.0052
 20
0.0
 30
0.187
 70
    64
  0
VERTEX
  5
78720
330
7870F
100
AcDbEntity
  8
0
100
AcDbVertex
100
AcDbPolygonMeshVertex
 10
0.0052
 20
0.0
 30
0.187
 70
    64
  0
VERTEX
  5
78721
330
7870F
100
AcDbEntity
  8
0
100
AcDbVertex
100
AcDbPolygonMeshVertex
 10
0.0052
 20
0.2044999999999999
 30
0.187
 70
    64
  0
SEQEND
  5
78722
330
7870F
100
AcDbEntity
  8
0
  0
POLYLINE
  5
78723
330
458D6
100
AcDbEntity
  8
0
100
AcDbPolygonMesh
 66
     1
 10
0.0
 20
0.0
 30
0.0
 70
    16
 71
     6
 72
     3
  0
VERTEX
  5
78724
330
78723
100
AcDbEntity
  8
0
100
AcDbVertex
100
AcDbPolygonMeshVertex
 10
0.3962
 20
-2.081499999999999
 30
0.316
 70
    64
  0
VERTEX
  5
78725
330
78723
100
AcDbEntity
  8
0
100
AcDbVertex
100
AcDbPolygonMeshVertex
 10
0.3962
 20
-2.081499999999999
 30
0.0
 70
    64
  0
VERTEX
  5
78726
330
78723
100
AcDbEntity
  8
0
100
AcDbVertex
100
AcDbPolygonMeshVertex
 10
0.3962
 20
-2.081499999999999
 30
0.0
 70
    64
  0
VERTEX
  5
78727
330
78723
100
AcDbEntity
  8
0
100
AcDbVertex
100
AcDbPolygonMeshVertex
 10
0.0052
 20
-2.081499999999999
 30
0.316
 70
    64
  0
VERTEX
  5
78728
330
78723
100
AcDbEntity
  8
0
100
AcDbVertex
100
AcDbPolygonMeshVertex
 10
0.0052
 20
-2.081499999999999
 30
0.0
 70
    64
  0
VERTEX
  5
78729
330
78723
100
AcDbEntity
  8
0
100
AcDbVertex
100
AcDbPolygonMeshVertex
 10
0.0052
 20
-2.081499999999999
 30
0.0
 70
    64
  0
VERTEX
  5
7872A
330
78723
100
AcDbEntity
  8
0
100
AcDbVertex
100
AcDbPolygonMeshVertex
 10
0.0052
 20
-1.685499999999999
 30
0.316
 70
    64
  0
VERTEX
  5
7872B
330
78723
100
AcDbEntity
  8
0
100
AcDbVertex
100
AcDbPolygonMeshVertex
 10
0.0052
 20
-1.685499999999999
 30
0.0
 70
    64
  0
VERTEX
  5
7872C
330
78723
100
AcDbEntity
  8
0
100
AcDbVertex
100
AcDbPolygonMeshVertex
 10
0.0052
 20
-2.081499999999999
 30
0.0
 70
    64
  0
VERTEX
  5
7872D
330
78723
100
AcDbEntity
  8
0
100
AcDbVertex
100
AcDbPolygonMeshVertex
 10
0.3962
 20
-1.685499999999999
 30
0.316
 70
    64
  0
VERTEX
  5
7872E
330
78723
100
AcDbEntity
  8
0
100
AcDbVertex
100
AcDbPolygonMeshVertex
 10
0.3962
 20
-1.685499999999999
 30
0.0
 70
    64
  0
VERTEX
  5
7872F
330
78723
100
AcDbEntity
  8
0
100
AcDbVertex
100
AcDbPolygonMeshVertex
 10
0.3962
 20
-2.081499999999999
 30
0.0
 70
    64
  0
VERTEX
  5
78730
330
78723
100
AcDbEntity
  8
0
100
AcDbVertex
100
AcDbPolygonMeshVertex
 10
0.3962
 20
-1.685499999999999
 30
0.316
 70
    64
  0
VERTEX
  5
78731
330
78723
100
AcDbEntity
  8
0
100
AcDbVertex
100
AcDbPolygonMeshVertex
 10
0.3962
 20
-1.685499999999999
 30
0.316
 70
    64
  0
VERTEX
  5
78732
330
78723
100
AcDbEntity
  8
0
100
AcDbVertex
100
AcDbPolygonMeshVertex
 10
0.3962
 20
-2.081499999999999
 30
0.316
 70
    64
  0
VERTEX
  5
78733
330
78723
100
AcDbEntity
  8
0
100
AcDbVertex
100
AcDbPolygonMeshVertex
 10
0.0052
 20
-1.685499999999999
 30
0.316
 70
    64
  0
VERTEX
  5
78734
330
78723
100
AcDbEntity
  8
0
100
AcDbVertex
100
AcDbPolygonMeshVertex
 10
0.0052
 20
-1.685499999999999
 30
0.316
 70
    64
  0
VERTEX
  5
78735
330
78723
100
AcDbEntity
  8
0
100
AcDbVertex
100
AcDbPolygonMeshVertex
 10
0.0052
 20
-2.081499999999999
 30
0.316
 70
    64
  0
SEQEND
  5
78736
330
78723
100
AcDbEntity
  8
0
  0
POINT
  5
78737
330
458D6
100
AcDbEntity
  8
SNAP_POINTS
100
AcDbPoint
 10
0.0
 20
0.0
 30
0.0
  0
3DFACE
  5
78738
330
458D6
100
AcDbEntity
  8
0
100
AcDbFace
 10
1.765199999999999
 20
-1.845499999999999
 30
3.587375
 11
1.765199999999999
 21
-1.845499999999999
 31
3.587375
 12
0.0002000000000001
 22
-1.845499999999999
 32
3.587375
 13
0.0002000000000001
 23
-1.845499999999999
 33
3.587375
  0
3DFACE
  5
78739
330
458D6
100
AcDbEntity
  8
0
100
AcDbFace
 10
0.0002000000000001
 20
-1.845499999999999
 30
3.587375
 11
0.0002000000000001
 21
-1.845499999999999
 31
3.587375
 12
0.0002000000000001
 22
-1.845499999999999
 32
3.587375
 13
0.0002000000000001
 23
0.3984999999999994
 33
3.587375
  0
3DFACE
  5
7873A
330
458D6
100
AcDbEntity
  8
0
100
AcDbFace
 10
0.0002000000000001
 20
0.3984999999999994
 30
3.587375
 11
0.0002000000000001
 21
-1.845499999999999
 31
3.587375
 12
1.765199999999999
 22
-1.845499999999999
 32
3.587375
 13
1.765199999999999
 23
0.3984999999999994
 33
3.587375
  0
POLYLINE
  5
7873B
330
458D6
100
AcDbEntity
  8
0
  6
Continuous
100
AcDb3dPolyline
 66
     1
 10
0.0
 20
0.0
 30
0.0
 70
     8
  0
VERTEX
  5
7873C
330
7873B
100
AcDbEntity
  8
0
  6
Continuous
100
AcDbVertex
100
AcDb3dPolylineVertex
 10
1.765199999999999
 20
0.3984999999999994
 30
3.587375
 70
    32
1001
ACAD
1000
R13OBJECT
1002
{
1005
7873B
1002
}
  0
VERTEX
  5
7873D
330
7873B
100
AcDbEntity
  8
0
  6
Continuous
100
AcDbVertex
100
AcDb3dPolylineVertex
 10
1.765199999999999
 20
-1.845500000000001
 30
3.587375
 70
    32
1001
ACAD
1000
R13OBJECT
1002
{
1005
7873B
1002
}
  0
SEQEND
  5
7873E
330
7873B
100
AcDbEntity
  8
0
  6
Continuous
  0
POLYLINE
  5
7873F
330
458D6
100
AcDbEntity
  8
0
  6
Continuous
100
AcDb3dPolyline
 66
     1
 10
0.0
 20
0.0
 30
0.0
 70
     8
1001
ACAD
1000
R13OBJECT
1002
{
1005
7873B
1002
}
  0
VERTEX
  5
78740
330
7873F
100
AcDbEntity
  8
0
  6
Continuous
100
AcDbVertex
100
AcDb3dPolylineVertex
 10
1.765199999999999
 20
-1.845500000000001
 30
3.587375
 70
    32
1001
ACAD
1000
R13OBJECT
1002
{
1005
7873B
1002
}
  0
VERTEX
  5
78741
330
7873F
100
AcDbEntity
  8
0
  6
Continuous
100
AcDbVertex
100
AcDb3dPolylineVertex
 10
0.0002000000000001
 20
-1.845500000000001
 30
3.587375
 70
    32
1001
ACAD
1000
R13OBJECT
1002
{
1005
7873B
1002
}
  0
SEQEND
  5
78742
330
7873F
100
AcDbEntity
  8
0
  6
Continuous
  0
POLYLINE
  5
78743
330
458D6
100
AcDbEntity
  8
0
  6
Continuous
100
AcDb3dPolyline
 66
     1
 10
0.0
 20
0.0
 30
0.0
 70
     8
1001
ACAD
1000
R13OBJECT
1002
{
1005
7873B
1002
}
  0
VERTEX
  5
78744
330
78743
100
AcDbEntity
  8
0
  6
Continuous
100
AcDbVertex
100
AcDb3dPolylineVertex
 10
0.0002000000000001
 20
-1.845500000000001
 30
3.587375
 70
    32
1001
ACAD
1000
R13OBJECT
1002
{
1005
7873B
1002
}
  0
VERTEX
  5
78745
330
78743
100
AcDbEntity
  8
0
  6
Continuous
100
AcDbVertex
100
AcDb3dPolylineVertex
 10
0.0002000000000001
 20
0.3984999999999994
 30
3.587375
 70
    32
1001
ACAD
1000
R13OBJECT
1002
{
1005
7873B
1002
}
  0
SEQEND
  5
78746
330
78743
100
AcDbEntity
  8
0
  6
Continuous
  0
POLYLINE
  5
78747
330
458D6
100
AcDbEntity
  8
0
  6
Continuous
100
AcDb3dPolyline
 66
     1
 10
0.0
 20
0.0
 30
0.0
 70
     8
1001
ACAD
1000
R13OBJECT
1002
{
1005
7873B
1002
}
  0
VERTEX
  5
78748
330
78747
100
AcDbEntity
  8
0
  6
Continuous
100
AcDbVertex
100
AcDb3dPolylineVertex
 10
0.0002000000000001
 20
0.3984999999999994
 30
3.587375
 70
    32
1001
ACAD
1000
R13OBJECT
1002
{
1005
7873B
1002
}
  0
VERTEX
  5
78749
330
78747
100
AcDbEntity
  8
0
  6
Continuous
100
AcDbVertex
100
AcDb3dPolylineVertex
 10
1.765199999999999
 20
0.3984999999999994
 30
3.587375
 70
    32
1001
ACAD
1000
R13OBJECT
1002
{
1005
7873B
1002
}
  0
SEQEND
  5
7874A
330
78747
100
AcDbEntity
  8
0
  6
Continuous
  0
POLYLINE
  5
7874B
330
458D6
100
AcDbEntity
  8
0
  6
Continuous
100
AcDb3dPolyline
 66
     1
 10
0.0
 20
0.0
 30
0.0
 70
     8
  0
VERTEX
  5
7874C
330
7874B
100
AcDbEntity
  8
0
  6
Continuous
100
AcDbVertex
100
AcDb3dPolylineVertex
 10
0.0002000000000001
 20
-1.845500000000001
 30
4.609375
 70
    32
1001
ACAD
1000
R13OBJECT
1002
{
1005
7874B
1002
}
  0
VERTEX
  5
7874D
330
7874B
100
AcDbEntity
  8
0
  6
Continuous
100
AcDbVertex
100
AcDb3dPolylineVertex
 10
0.0002000000000001
 20
-1.845500000000001
 30
3.587375
 70
    32
1001
ACAD
1000
R13OBJECT
1002
{
1005
7874B
1002
}
  0
SEQEND
  5
7874E
330
7874B
100
AcDbEntity
  8
0
  6
Continuous
  0
POLYLINE
  5
7874F
330
458D6
100
AcDbEntity
  8
0
  6
Continuous
100
AcDb3dPolyline
 66
     1
 10
0.0
 20
0.0
 30
0.0
 70
     8
1001
ACAD
1000
R13OBJECT
1002
{
1005
7874B
1002
}
  0
VERTEX
  5
78750
330
7874F
100
AcDbEntity
  8
0
  6
Continuous
100
AcDbVertex
100
AcDb3dPolylineVertex
 10
1.765199999999999
 20
-1.845500000000001
 30
3.587375
 70
    32
1001
ACAD
1000
R13OBJECT
1002
{
1005
7874B
1002
}
  0
VERTEX
  5
78751
330
7874F
100
AcDbEntity
  8
0
  6
Continuous
100
AcDbVertex
100
AcDb3dPolylineVertex
 10
0.0002000000000001
 20
-1.845500000000001
 30
3.587375
 70
    32
1001
ACAD
1000
R13OBJECT
1002
{
1005
7874B
1002
}
  0
SEQEND
  5
78752
330
7874F
100
AcDbEntity
  8
0
  6
Continuous
  0
POLYLINE
  5
78753
330
458D6
100
AcDbEntity
  8
0
  6
Continuous
100
AcDb3dPolyline
 66
     1
 10
0.0
 20
0.0
 30
0.0
 70
     8
1001
ACAD
1000
R13OBJECT
1002
{
1005
7874B
1002
}
  0
VERTEX
  5
78754
330
78753
100
AcDbEntity
  8
0
  6
Continuous
100
AcDbVertex
100
AcDb3dPolylineVertex
 10
1.765199999999999
 20
-1.845500000000001
 30
4.609375
 70
    32
1001
ACAD
1000
R13OBJECT
1002
{
1005
7874B
1002
}
  0
VERTEX
  5
78755
330
78753
100
AcDbEntity
  8
0
  6
Continuous
100
AcDbVertex
100
AcDb3dPolylineVertex
 10
1.765199999999999
 20
-1.845500000000001
 30
3.587375
 70
    32
1001
ACAD
1000
R13OBJECT
1002
{
1005
7874B
1002
}
  0
SEQEND
  5
78756
330
78753
100
AcDbEntity
  8
0
  6
Continuous
  0
POLYLINE
  5
78757
330
458D6
100
AcDbEntity
  8
0
  6
Continuous
100
AcDb3dPolyline
 66
     1
 10
0.0
 20
0.0
 30
0.0
 70
     8
1001
ACAD
1000
R13OBJECT
1002
{
1005
7874B
1002
}
  0
VERTEX
  5
78758
330
78757
100
AcDbEntity
  8
0
  6
Continuous
100
AcDbVertex
100
AcDb3dPolylineVertex
 10
0.0002000000000001
 20
-1.845500000000001
 30
4.609375
 70
    32
1001
ACAD
1000
R13OBJECT
1002
{
1005
7874B
1002
}
  0
VERTEX
  5
78759
330
78757
100
AcDbEntity
  8
0
  6
Continuous
100
AcDbVertex
100
AcDb3dPolylineVertex
 10
1.765199999999999
 20
-1.845500000000001
 30
4.609375
 70
    32
1001
ACAD
1000
R13OBJECT
1002
{
1005
7874B
1002
}
  0
SEQEND
  5
7875A
330
78757
100
AcDbEntity
  8
0
  6
Continuous
  0
POLYLINE
  5
7875B
330
458D6
100
AcDbEntity
  8
0
  6
Continuous
100
AcDb3dPolyline
 66
     1
 10
0.0
 20
0.0
 30
0.0
 70
     8
  0
VERTEX
  5
7875C
330
7875B
100
AcDbEntity
  8
0
  6
Continuous
100
AcDbVertex
100
AcDb3dPolylineVertex
 10
1.765199999999999
 20
0.3984999999999994
 30
4.609375
 70
    32
1001
ACAD
1000
R13OBJECT
1002
{
1005
7875B
1002
}
  0
VERTEX
  5
7875D
330
7875B
100
AcDbEntity
  8
0
  6
Continuous
100
AcDbVertex
100
AcDb3dPolylineVertex
 10
1.765199999999999
 20
0.3984999999999994
 30
3.587375
 70
    32
1001
ACAD
1000
R13OBJECT
1002
{
1005
7875B
1002
}
  0
SEQEND
  5
7875E
330
7875B
100
AcDbEntity
  8
0
  6
Continuous
  0
POLYLINE
  5
7875F
330
458D6
100
AcDbEntity
  8
0
  6
Continuous
100
AcDb3dPolyline
 66
     1
 10
0.0
 20
0.0
 30
0.0
 70
     8
1001
ACAD
1000
R13OBJECT
1002
{
1005
7875B
1002
}
  0
VERTEX
  5
78760
330
7875F
100
AcDbEntity
  8
0
  6
Continuous
100
AcDbVertex
100
AcDb3dPolylineVertex
 10
0.0002000000000001
 20
0.3984999999999994
 30
3.587375
 70
    32
1001
ACAD
1000
R13OBJECT
1002
{
1005
7875B
1002
}
  0
VERTEX
  5
78761
330
7875F
100
AcDbEntity
  8
0
  6
Continuous
100
AcDbVertex
100
AcDb3dPolylineVertex
 10
1.765199999999999
 20
0.3984999999999994
 30
3.587375
 70
    32
1001
ACAD
1000
R13OBJECT
1002
{
1005
7875B
1002
}
  0
SEQEND
  5
78762
330
7875F
100
AcDbEntity
  8
0
  6
Continuous
  0
POLYLINE
  5
78763
330
458D6
100
AcDbEntity
  8
0
  6
Continuous
100
AcDb3dPolyline
 66
     1
 10
0.0
 20
0.0
 30
0.0
 70
     8
1001
ACAD
1000
R13OBJECT
1002
{
1005
7875B
1002
}
  0
VERTEX
  5
78764
330
78763
100
AcDbEntity
  8
0
  6
Continuous
100
AcDbVertex
100
AcDb3dPolylineVertex
 10
0.0002000000000001
 20
0.3984999999999994
 30
4.609375
 70
    32
1001
ACAD
1000
R13OBJECT
1002
{
1005
7875B
1002
}
  0
VERTEX
  5
78765
330
78763
100
AcDbEntity
  8
0
  6
Continuous
100
AcDbVertex
100
AcDb3dPolylineVertex
 10
0.0002000000000001
 20
0.3984999999999994
 30
3.587375
 70
    32
1001
ACAD
1000
R13OBJECT
1002
{
1005
7875B
1002
}
  0
SEQEND
  5
78766
330
78763
100
AcDbEntity
  8
0
  6
Continuous
  0
POLYLINE
  5
78767
330
458D6
100
AcDbEntity
  8
0
  6
Continuous
100
AcDb3dPolyline
 66
     1
 10
0.0
 20
0.0
 30
0.0
 70
     8
1001
ACAD
1000
R13OBJECT
1002
{
1005
7875B
1002
}
  0
VERTEX
  5
78768
330
78767
100
AcDbEntity
  8
0
  6
Continuous
100
AcDbVertex
100
AcDb3dPolylineVertex
 10
1.765199999999999
 20
0.3984999999999994
 30
4.609375
 70
    32
1001
ACAD
1000
R13OBJECT
1002
{
1005
7875B
1002
}
  0
VERTEX
  5
78769
330
78767
100
AcDbEntity
  8
0
  6
Continuous
100
AcDbVertex
100
AcDb3dPolylineVertex
 10
0.0002000000000001
 20
0.3984999999999994
 30
4.609375
 70
    32
1001
ACAD
1000
R13OBJECT
1002
{
1005
7875B
1002
}
  0
SEQEND
  5
7876A
330
78767
100
AcDbEntity
  8
0
  6
Continuous
  0
POLYLINE
  5
7876B
330
458D6
100
AcDbEntity
  8
0
  6
Continuous
100
AcDb3dPolyline
 66
     1
 10
0.0
 20
0.0
 30
0.0
 70
     8
  0
VERTEX
  5
7876C
330
7876B
100
AcDbEntity
  8
0
  6
Continuous
100
AcDbVertex
100
AcDb3dPolylineVertex
 10
1.765199999999999
 20
-1.845500000000001
 30
4.609375
 70
    32
1001
ACAD
1000
R13OBJECT
1002
{
1005
7876B
1002
}
  0
VERTEX
  5
7876D
330
7876B
100
AcDbEntity
  8
0
  6
Continuous
100
AcDbVertex
100
AcDb3dPolylineVertex
 10
1.765199999999999
 20
-1.845500000000001
 30
3.587375
 70
    32
1001
ACAD
1000
R13OBJECT
1002
{
1005
7876B
1002
}
  0
SEQEND
  5
7876E
330
7876B
100
AcDbEntity
  8
0
  6
Continuous
  0
POLYLINE
  5
7876F
330
458D6
100
AcDbEntity
  8
0
  6
Continuous
100
AcDb3dPolyline
 66
     1
 10
0.0
 20
0.0
 30
0.0
 70
     8
1001
ACAD
1000
R13OBJECT
1002
{
1005
7876B
1002
}
  0
VERTEX
  5
78770
330
7876F
100
AcDbEntity
  8
0
  6
Continuous
100
AcDbVertex
100
AcDb3dPolylineVertex
 10
1.765199999999999
 20
0.3984999999999994
 30
3.587375
 70
    32
1001
ACAD
1000
R13OBJECT
1002
{
1005
7876B
1002
}
  0
VERTEX
  5
78771
330
7876F
100
AcDbEntity
  8
0
  6
Continuous
100
AcDbVertex
100
AcDb3dPolylineVertex
 10
1.765199999999999
 20
-1.845500000000001
 30
3.587375
 70
    32
1001
ACAD
1000
R13OBJECT
1002
{
1005
7876B
1002
}
  0
SEQEND
  5
78772
330
7876F
100
AcDbEntity
  8
0
  6
Continuous
  0
POLYLINE
  5
78773
330
458D6
100
AcDbEntity
  8
0
  6
Continuous
100
AcDb3dPolyline
 66
     1
 10
0.0
 20
0.0
 30
0.0
 70
     8
1001
ACAD
1000
R13OBJECT
1002
{
1005
7876B
1002
}
  0
VERTEX
  5
78774
330
78773
100
AcDbEntity
  8
0
  6
Continuous
100
AcDbVertex
100
AcDb3dPolylineVertex
 10
1.765199999999999
 20
0.3984999999999994
 30
4.609375
 70
    32
1001
ACAD
1000
R13OBJECT
1002
{
1005
7876B
1002
}
  0
VERTEX
  5
78775
330
78773
100
AcDbEntity
  8
0
  6
Continuous
100
AcDbVertex
100
AcDb3dPolylineVertex
 10
1.765199999999999
 20
0.3984999999999994
 30
3.587375
 70
    32
1001
ACAD
1000
R13OBJECT
1002
{
1005
7876B
1002
}
  0
SEQEND
  5
78776
330
78773
100
AcDbEntity
  8
0
  6
Continuous
  0
POLYLINE
  5
78777
330
458D6
100
AcDbEntity
  8
0
  6
Continuous
100
AcDb3dPolyline
 66
     1
 10
0.0
 20
0.0
 30
0.0
 70
     8
1001
ACAD
1000
R13OBJECT
1002
{
1005
7876B
1002
}
  0
VERTEX
  5
78778
330
78777
100
AcDbEntity
  8
0
  6
Continuous
100
AcDbVertex
100
AcDb3dPolylineVertex
 10
1.765199999999999
 20
-1.845500000000001
 30
4.609375
 70
    32
1001
ACAD
1000
R13OBJECT
1002
{
1005
7876B
1002
}
  0
VERTEX
  5
78779
330
78777
100
AcDbEntity
  8
0
  6
Continuous
100
AcDbVertex
100
AcDb3dPolylineVertex
 10
1.765199999999999
 20
0.3984999999999994
 30
4.609375
 70
    32
1001
ACAD
1000
R13OBJECT
1002
{
1005
7876B
1002
}
  0
SEQEND
  5
7877A
330
78777
100
AcDbEntity
  8
0
  6
Continuous
  0
LINE
  5
7877B
330
458D6
100
AcDbEntity
  8
0
100
AcDbLine
 10
0.0002000000000001
 20
0.3984999999999994
 30
4.609375
 11
0.0002000000000001
 21
0.3984999999999994
 31
3.587375
210
-1.0
220
0.0
230
0.0
  0
LINE
  5
7877C
330
458D6
100
AcDbEntity
  8
0
100
AcDbLine
 10
0.0002000000000001
 20
0.3984999999999994
 30
4.609375
 11
0.0002000000000001
 21
-1.845500000000001
 31
4.609375
210
-1.0
220
0.0
230
0.0
  0
LINE
  5
7877D
330
458D6
100
AcDbEntity
  8
0
100
AcDbLine
 10
0.0002000000000001
 20
-1.845500000000001
 30
4.609375
 11
0.0002000000000001
 21
-1.845500000000001
 31
3.587375
210
-1.0
220
0.0
230
0.0
  0
3DFACE
  5
7877E
330
458D6
100
AcDbEntity
  8
0
100
AcDbFace
 10
1.765199999999999
 20
0.3984999999999985
 30
4.609375
 11
1.765199999999999
 21
-1.845500000000001
 31
4.609375
 12
0.0002000000000001
 22
-1.845500000000001
 32
4.609375
 13
0.0002000000000001
 23
0.3984999999999985
 33
4.609375
  0
POLYLINE
  5
7877F
330
458D6
100
AcDbEntity
  8
0
100
AcDbPolygonMesh
 66
     1
 10
0.0
 20
0.0
 30
0.0
 70
    16
 71
     6
 72
     3
  0
VERTEX
  5
78780
330
7877F
100
AcDbEntity
  8
0
100
AcDbVertex
100
AcDbPolygonMeshVertex
 10
1.250699999999999
 20
-0.4394862069696881
 30
4.820375
 70
    64
  0
VERTEX
  5
78781
330
7877F
100
AcDbEntity
  8
0
100
AcDbVertex
100
AcDbPolygonMeshVertex
 10
1.250699999999999
 20
-0.4394862069696881
 30
4.643375
 70
    64
  0
VERTEX
  5
78782
330
7877F
100
AcDbEntity
  8
0
100
AcDbVertex
100
AcDbPolygonMeshVertex
 10
1.250699999999999
 20
-0.4394862069696881
 30
4.643375
 70
    64
  0
VERTEX
  5
78783
330
7877F
100
AcDbEntity
  8
0
100
AcDbVertex
100
AcDbPolygonMeshVertex
 10
1.081199999999998
 20
-0.4394862069696881
 30
4.820375
 70
    64
  0
VERTEX
  5
78784
330
7877F
100
AcDbEntity
  8
0
100
AcDbVertex
100
AcDbPolygonMeshVertex
 10
1.081199999999998
 20
-0.4394862069696881
 30
4.643375
 70
    64
  0
VERTEX
  5
78785
330
7877F
100
AcDbEntity
  8
0
100
AcDbVertex
100
AcDbPolygonMeshVertex
 10
1.081199999999998
 20
-0.4394862069696881
 30
4.643375
 70
    64
  0
VERTEX
  5
78786
330
7877F
100
AcDbEntity
  8
0
100
AcDbVertex
100
AcDbPolygonMeshVertex
 10
1.081199999999998
 20
-0.0864862069696884
 30
4.820375
 70
    64
  0
VERTEX
  5
78787
330
7877F
100
AcDbEntity
  8
0
100
AcDbVertex
100
AcDbPolygonMeshVertex
 10
1.081199999999998
 20
-0.0864862069696884
 30
4.643375
 70
    64
  0
VERTEX
  5
78788
330
7877F
100
AcDbEntity
  8
0
100
AcDbVertex
100
AcDbPolygonMeshVertex
 10
1.081199999999998
 20
-0.4394862069696881
 30
4.643375
 70
    64
  0
VERTEX
  5
78789
330
7877F
100
AcDbEntity
  8
0
100
AcDbVertex
100
AcDbPolygonMeshVertex
 10
1.250699999999999
 20
-0.0864862069696884
 30
4.820375
 70
    64
  0
VERTEX
  5
7878A
330
7877F
100
AcDbEntity
  8
0
100
AcDbVertex
100
AcDbPolygonMeshVertex
 10
1.250699999999999
 20
-0.0864862069696884
 30
4.643375
 70
    64
  0
VERTEX
  5
7878B
330
7877F
100
AcDbEntity
  8
0
100
AcDbVertex
100
AcDbPolygonMeshVertex
 10
1.250699999999999
 20
-0.4394862069696881
 30
4.643375
 70
    64
  0
VERTEX
  5
7878C
330
7877F
100
AcDbEntity
  8
0
100
AcDbVertex
100
AcDbPolygonMeshVertex
 10
1.250699999999999
 20
-0.0864862069696884
 30
4.820375
 70
    64
  0
VERTEX
  5
7878D
330
7877F
100
AcDbEntity
  8
0
100
AcDbVertex
100
AcDbPolygonMeshVertex
 10
1.250699999999999
 20
-0.0864862069696884
 30
4.820375
 70
    64
  0
VERTEX
  5
7878E
330
7877F
100
AcDbEntity
  8
0
100
AcDbVertex
100
AcDbPolygonMeshVertex
 10
1.250699999999999
 20
-0.4394862069696881
 30
4.820375
 70
    64
  0
VERTEX
  5
7878F
330
7877F
100
AcDbEntity
  8
0
100
AcDbVertex
100
AcDbPolygonMeshVertex
 10
1.081199999999998
 20
-0.0864862069696884
 30
4.820375
 70
    64
  0
VERTEX
  5
78790
330
7877F
100
AcDbEntity
  8
0
100
AcDbVertex
100
AcDbPolygonMeshVertex
 10
1.081199999999998
 20
-0.0864862069696884
 30
4.820375
 70
    64
  0
VERTEX
  5
78791
330
7877F
100
AcDbEntity
  8
0
100
AcDbVertex
100
AcDbPolygonMeshVertex
 10
1.081199999999998
 20
-0.4394862069696881
 30
4.820375
 70
    64
  0
SEQEND
  5
78792
330
7877F
100
AcDbEntity
  8
0
  0
POLYLINE
  5
78793
330
458D6
100
AcDbEntity
  8
0
100
AcDbPolygonMesh
 66
     1
 10
0.0
 20
0.0
 30
0.0
 70
    16
 71
     6
 72
     3
  0
VERTEX
  5
78794
330
78793
100
AcDbEntity
  8
0
100
AcDbVertex
100
AcDbPolygonMeshVertex
 10
1.122699999999998
 20
-0.8944862069696878
 30
4.859375000000001
 70
    64
  0
VERTEX
  5
78795
330
78793
100
AcDbEntity
  8
0
100
AcDbVertex
100
AcDbPolygonMeshVertex
 10
1.122699999999998
 20
-0.8944862069696878
 30
4.643375
 70
    64
  0
VERTEX
  5
78796
330
78793
100
AcDbEntity
  8
0
100
AcDbVertex
100
AcDbPolygonMeshVertex
 10
1.122699999999998
 20
-0.8944862069696878
 30
4.643375
 70
    64
  0
VERTEX
  5
78797
330
78793
100
AcDbEntity
  8
0
100
AcDbVertex
100
AcDbPolygonMeshVertex
 10
0.987699999999999
 20
-0.8944862069696878
 30
4.859375000000001
 70
    64
  0
VERTEX
  5
78798
330
78793
100
AcDbEntity
  8
0
100
AcDbVertex
100
AcDbPolygonMeshVertex
 10
0.987699999999999
 20
-0.8944862069696878
 30
4.643375
 70
    64
  0
VERTEX
  5
78799
330
78793
100
AcDbEntity
  8
0
100
AcDbVertex
100
AcDbPolygonMeshVertex
 10
0.987699999999999
 20
-0.8944862069696878
 30
4.643375
 70
    64
  0
VERTEX
  5
7879A
330
78793
100
AcDbEntity
  8
0
100
AcDbVertex
100
AcDbPolygonMeshVertex
 10
0.987699999999999
 20
-0.5494862069696876
 30
4.859375000000001
 70
    64
  0
VERTEX
  5
7879B
330
78793
100
AcDbEntity
  8
0
100
AcDbVertex
100
AcDbPolygonMeshVertex
 10
0.987699999999999
 20
-0.5494862069696876
 30
4.643375
 70
    64
  0
VERTEX
  5
7879C
330
78793
100
AcDbEntity
  8
0
100
AcDbVertex
100
AcDbPolygonMeshVertex
 10
0.987699999999999
 20
-0.8944862069696878
 30
4.643375
 70
    64
  0
VERTEX
  5
7879D
330
78793
100
AcDbEntity
  8
0
100
AcDbVertex
100
AcDbPolygonMeshVertex
 10
1.122699999999998
 20
-0.5494862069696876
 30
4.859375000000001
 70
    64
  0
VERTEX
  5
7879E
330
78793
100
AcDbEntity
  8
0
100
AcDbVertex
100
AcDbPolygonMeshVertex
 10
1.122699999999998
 20
-0.5494862069696876
 30
4.643375
 70
    64
  0
VERTEX
  5
7879F
330
78793
100
AcDbEntity
  8
0
100
AcDbVertex
100
AcDbPolygonMeshVertex
 10
1.122699999999998
 20
-0.8944862069696878
 30
4.643375
 70
    64
  0
VERTEX
  5
787A0
330
78793
100
AcDbEntity
  8
0
100
AcDbVertex
100
AcDbPolygonMeshVertex
 10
1.122699999999998
 20
-0.5494862069696876
 30
4.859375000000001
 70
    64
  0
VERTEX
  5
787A1
330
78793
100
AcDbEntity
  8
0
100
AcDbVertex
100
AcDbPolygonMeshVertex
 10
1.122699999999998
 20
-0.5494862069696876
 30
4.859375000000001
 70
    64
  0
VERTEX
  5
787A2
330
78793
100
AcDbEntity
  8
0
100
AcDbVertex
100
AcDbPolygonMeshVertex
 10
1.122699999999998
 20
-0.8944862069696878
 30
4.859375000000001
 70
    64
  0
VERTEX
  5
787A3
330
78793
100
AcDbEntity
  8
0
100
AcDbVertex
100
AcDbPolygonMeshVertex
 10
0.987699999999999
 20
-0.5494862069696876
 30
4.859375000000001
 70
    64
  0
VERTEX
  5
787A4
330
78793
100
AcDbEntity
  8
0
100
AcDbVertex
100
AcDbPolygonMeshVertex
 10
0.987699999999999
 20
-0.5494862069696876
 30
4.859375000000001
 70
    64
  0
VERTEX
  5
787A5
330
78793
100
AcDbEntity
  8
0
100
AcDbVertex
100
AcDbPolygonMeshVertex
 10
0.987699999999999
 20
-0.8944862069696878
 30
4.859375000000001
 70
    64
  0
SEQEND
  5
787A6
330
78793
100
AcDbEntity
  8
0
  0
3DFACE
  5
787A7
330
458D6
100
AcDbEntity
  8
0
100
AcDbFace
 10
1.765199999999999
 20
0.3984999999999985
 30
4.609375
 11
1.765199999999999
 21
0.3984999999999985
 31
4.609375
 12
0.0002000000000001
 22
0.3984999999999985
 32
4.609375
 13
0.0002000000000001
 23
0.3984999999999985
 33
4.609375
  0
CIRCLE
  5
787A8
330
458D6
100
AcDbEntity
  8
0
100
AcDbCircle
 10
0.2380749999999995
 20
0.1549075779401257
 30
4.609375
 40
0.138
  0
TEXT
  5
787A9
330
458D6
100
AcDbEntity
  8
0
100
AcDbText
 10
0.0726171893171534
 20
0.301596169847989
 30
4.609375
 40
0.0834654981097751
  1
1
100
AcDbText
  0
TEXT
  5
787AA
330
458D6
100
AcDbEntity
  8
0
100
AcDbText
 10
1.169566170998377
 20
0.304735651778393
 30
4.609375
 40
0.0834654981097751
  1
L3
100
AcDbText
  0
TEXT
  5
787AB
330
458D6
100
AcDbEntity
  8
0
100
AcDbText
 10
0.7630191193613373
 20
0.3013239366769129
 30
4.609375
 40
0.0834654981097751
  1
L2
100
AcDbText
  0
TEXT
  5
787AC
330
458D6
100
AcDbEntity
  8
0
100
AcDbText
 10
0.3363953097455404
 20
0.3007543037421421
 30
4.609375
 40
0.0834654981097751
  1
L1
100
AcDbText
  0
TEXT
  5
787AD
330
458D6
100
AcDbEntity
  8
0
100
AcDbText
 10
0.5233684387662298
 20
0.299912437636296
 30
4.609375
 40
0.0834654981097751
  1
3
100
AcDbText
  0
TEXT
  5
787AE
330
458D6
100
AcDbEntity
  8
0
100
AcDbText
 10
0.9649023543462657
 20
0.3027354357175298
 30
4.609375
 40
0.0834654981097751
  1
5
100
AcDbText
  0
TEXT
  5
787AF
330
458D6
100
AcDbEntity
  8
0
100
AcDbText
 10
1.599316170998377
 20
0.304735651778393
 30
4.609375
 40
0.0834654981097751
  1
L4
100
AcDbText
  0
TEXT
  5
787B0
330
458D6
100
AcDbEntity
  8
0
100
AcDbText
 10
1.370108047435937
 20
0.3027354357175298
 30
4.609375
 40
0.0834654981097751
  1
7
100
AcDbText
  0
POLYLINE
  5
787B1
330
458D6
100
AcDbEntity
  8
0
100
AcDbPolygonMesh
 66
     1
 10
0.0
 20
0.0
 30
0.0
 70
    16
 71
     6
 72
     3
  0
VERTEX
  5
787B2
330
787B1
100
AcDbEntity
  8
0
100
AcDbVertex
100
AcDbPolygonMeshVertex
 10
1.2707
 20
-1.376486206969687
 30
4.809375000000001
 70
    64
  0
VERTEX
  5
787B3
330
787B1
100
AcDbEntity
  8
0
100
AcDbVertex
100
AcDbPolygonMeshVertex
 10
1.2707
 20
-1.376486206969687
 30
4.609375
 70
    64
  0
VERTEX
  5
787B4
330
787B1
100
AcDbEntity
  8
0
100
AcDbVertex
100
AcDbPolygonMeshVertex
 10
1.2707
 20
-1.376486206969687
 30
4.609375
 70
    64
  0
VERTEX
  5
787B5
330
787B1
100
AcDbEntity
  8
0
100
AcDbVertex
100
AcDbPolygonMeshVertex
 10
0.4996999999999995
 20
-1.376486206969687
 30
4.809375000000001
 70
    64
  0
VERTEX
  5
787B6
330
787B1
100
AcDbEntity
  8
0
100
AcDbVertex
100
AcDbPolygonMeshVertex
 10
0.4996999999999995
 20
-1.376486206969687
 30
4.609375
 70
    64
  0
VERTEX
  5
787B7
330
787B1
100
AcDbEntity
  8
0
100
AcDbVertex
100
AcDbPolygonMeshVertex
 10
0.4996999999999995
 20
-1.376486206969687
 30
4.609375
 70
    64
  0
VERTEX
  5
787B8
330
787B1
100
AcDbEntity
  8
0
100
AcDbVertex
100
AcDbPolygonMeshVertex
 10
0.4996999999999995
 20
-1.094486206969687
 30
4.809375000000001
 70
    64
  0
VERTEX
  5
787B9
330
787B1
100
AcDbEntity
  8
0
100
AcDbVertex
100
AcDbPolygonMeshVertex
 10
0.4996999999999995
 20
-1.094486206969687
 30
4.609375
 70
    64
  0
VERTEX
  5
787BA
330
787B1
100
AcDbEntity
  8
0
100
AcDbVertex
100
AcDbPolygonMeshVertex
 10
0.4996999999999995
 20
-1.376486206969687
 30
4.609375
 70
    64
  0
VERTEX
  5
787BB
330
787B1
100
AcDbEntity
  8
0
100
AcDbVertex
100
AcDbPolygonMeshVertex
 10
1.2707
 20
-1.094486206969687
 30
4.809375000000001
 70
    64
  0
VERTEX
  5
787BC
330
787B1
100
AcDbEntity
  8
0
100
AcDbVertex
100
AcDbPolygonMeshVertex
 10
1.2707
 20
-1.094486206969687
 30
4.609375
 70
    64
  0
VERTEX
  5
787BD
330
787B1
100
AcDbEntity
  8
0
100
AcDbVertex
100
AcDbPolygonMeshVertex
 10
1.2707
 20
-1.376486206969687
 30
4.609375
 70
    64
  0
VERTEX
  5
787BE
330
787B1
100
AcDbEntity
  8
0
100
AcDbVertex
100
AcDbPolygonMeshVertex
 10
1.2707
 20
-1.094486206969687
 30
4.809375000000001
 70
    64
  0
VERTEX
  5
787BF
330
787B1
100
AcDbEntity
  8
0
100
AcDbVertex
100
AcDbPolygonMeshVertex
 10
1.2707
 20
-1.094486206969687
 30
4.809375000000001
 70
    64
  0
VERTEX
  5
787C0
330
787B1
100
AcDbEntity
  8
0
100
AcDbVertex
100
AcDbPolygonMeshVertex
 10
1.2707
 20
-1.376486206969687
 30
4.809375000000001
 70
    64
  0
VERTEX
  5
787C1
330
787B1
100
AcDbEntity
  8
0
100
AcDbVertex
100
AcDbPolygonMeshVertex
 10
0.4996999999999995
 20
-1.094486206969687
 30
4.809375000000001
 70
    64
  0
VERTEX
  5
787C2
330
787B1
100
AcDbEntity
  8
0
100
AcDbVertex
100
AcDbPolygonMeshVertex
 10
0.4996999999999995
 20
-1.094486206969687
 30
4.809375000000001
 70
    64
  0
VERTEX
  5
787C3
330
787B1
100
AcDbEntity
  8
0
100
AcDbVertex
100
AcDbPolygonMeshVertex
 10
0.4996999999999995
 20
-1.376486206969687
 30
4.809375000000001
 70
    64
  0
SEQEND
  5
787C4
330
787B1
100
AcDbEntity
  8
0
  0
POLYLINE
  5
787C5
330
458D6
100
AcDbEntity
  8
0
100
AcDbPolygonMesh
 66
     1
 10
0.0
 20
0.0
 30
0.0
 70
    16
 71
     6
 72
     3
  0
VERTEX
  5
787C6
330
787C5
100
AcDbEntity
  8
0
100
AcDbVertex
100
AcDbPolygonMeshVertex
 10
1.250699999999999
 20
-0.4394862069696881
 30
4.643375
 70
    64
  0
VERTEX
  5
787C7
330
787C5
100
AcDbEntity
  8
0
100
AcDbVertex
100
AcDbPolygonMeshVertex
 10
1.250699999999999
 20
-0.4394862069696881
 30
4.609375
 70
    64
  0
VERTEX
  5
787C8
330
787C5
100
AcDbEntity
  8
0
100
AcDbVertex
100
AcDbPolygonMeshVertex
 10
1.250699999999999
 20
-0.4394862069696881
 30
4.609375
 70
    64
  0
VERTEX
  5
787C9
330
787C5
100
AcDbEntity
  8
0
100
AcDbVertex
100
AcDbPolygonMeshVertex
 10
0.5196999999999991
 20
-0.4394862069696881
 30
4.643375
 70
    64
  0
VERTEX
  5
787CA
330
787C5
100
AcDbEntity
  8
0
100
AcDbVertex
100
AcDbPolygonMeshVertex
 10
0.5196999999999991
 20
-0.4394862069696881
 30
4.609375
 70
    64
  0
VERTEX
  5
787CB
330
787C5
100
AcDbEntity
  8
0
100
AcDbVertex
100
AcDbPolygonMeshVertex
 10
0.5196999999999991
 20
-0.4394862069696881
 30
4.609375
 70
    64
  0
VERTEX
  5
787CC
330
787C5
100
AcDbEntity
  8
0
100
AcDbVertex
100
AcDbPolygonMeshVertex
 10
0.5196999999999991
 20
-0.0864862069696884
 30
4.643375
 70
    64
  0
VERTEX
  5
787CD
330
787C5
100
AcDbEntity
  8
0
100
AcDbVertex
100
AcDbPolygonMeshVertex
 10
0.5196999999999991
 20
-0.0864862069696884
 30
4.609375
 70
    64
  0
VERTEX
  5
787CE
330
787C5
100
AcDbEntity
  8
0
100
AcDbVertex
100
AcDbPolygonMeshVertex
 10
0.5196999999999991
 20
-0.4394862069696881
 30
4.609375
 70
    64
  0
VERTEX
  5
787CF
330
787C5
100
AcDbEntity
  8
0
100
AcDbVertex
100
AcDbPolygonMeshVertex
 10
1.250699999999999
 20
-0.0864862069696884
 30
4.643375
 70
    64
  0
VERTEX
  5
787D0
330
787C5
100
AcDbEntity
  8
0
100
AcDbVertex
100
AcDbPolygonMeshVertex
 10
1.250699999999999
 20
-0.0864862069696884
 30
4.609375
 70
    64
  0
VERTEX
  5
787D1
330
787C5
100
AcDbEntity
  8
0
100
AcDbVertex
100
AcDbPolygonMeshVertex
 10
1.250699999999999
 20
-0.4394862069696881
 30
4.609375
 70
    64
  0
VERTEX
  5
787D2
330
787C5
100
AcDbEntity
  8
0
100
AcDbVertex
100
AcDbPolygonMeshVertex
 10
1.250699999999999
 20
-0.0864862069696884
 30
4.643375
 70
    64
  0
VERTEX
  5
787D3
330
787C5
100
AcDbEntity
  8
0
100
AcDbVertex
100
AcDbPolygonMeshVertex
 10
1.250699999999999
 20
-0.0864862069696884
 30
4.643375
 70
    64
  0
VERTEX
  5
787D4
330
787C5
100
AcDbEntity
  8
0
100
AcDbVertex
100
AcDbPolygonMeshVertex
 10
1.250699999999999
 20
-0.4394862069696881
 30
4.643375
 70
    64
  0
VERTEX
  5
787D5
330
787C5
100
AcDbEntity
  8
0
100
AcDbVertex
100
AcDbPolygonMeshVertex
 10
0.5196999999999991
 20
-0.0864862069696884
 30
4.643375
 70
    64
  0
VERTEX
  5
787D6
330
787C5
100
AcDbEntity
  8
0
100
AcDbVertex
100
AcDbPolygonMeshVertex
 10
0.5196999999999991
 20
-0.0864862069696884
 30
4.643375
 70
    64
  0
VERTEX
  5
787D7
330
787C5
100
AcDbEntity
  8
0
100
AcDbVertex
100
AcDbPolygonMeshVertex
 10
0.5196999999999991
 20
-0.4394862069696881
 30
4.643375
 70
    64
  0
SEQEND
  5
787D8
330
787C5
100
AcDbEntity
  8
0
  0
POLYLINE
  5
787D9
330
458D6
100
AcDbEntity
  8
0
100
AcDbPolygonMesh
 66
     1
 10
0.0
 20
0.0
 30
0.0
 70
    16
 71
     6
 72
     3
  0
VERTEX
  5
787DA
330
787D9
100
AcDbEntity
  8
0
100
AcDbVertex
100
AcDbPolygonMeshVertex
 10
0.6891999999999993
 20
-0.4394862069696881
 30
4.820375
 70
    64
  0
VERTEX
  5
787DB
330
787D9
100
AcDbEntity
  8
0
100
AcDbVertex
100
AcDbPolygonMeshVertex
 10
0.6891999999999993
 20
-0.4394862069696881
 30
4.643375
 70
    64
  0
VERTEX
  5
787DC
330
787D9
100
AcDbEntity
  8
0
100
AcDbVertex
100
AcDbPolygonMeshVertex
 10
0.6891999999999993
 20
-0.4394862069696881
 30
4.643375
 70
    64
  0
VERTEX
  5
787DD
330
787D9
100
AcDbEntity
  8
0
100
AcDbVertex
100
AcDbPolygonMeshVertex
 10
0.5196999999999991
 20
-0.4394862069696881
 30
4.820375
 70
    64
  0
VERTEX
  5
787DE
330
787D9
100
AcDbEntity
  8
0
100
AcDbVertex
100
AcDbPolygonMeshVertex
 10
0.5196999999999991
 20
-0.4394862069696881
 30
4.643375
 70
    64
  0
VERTEX
  5
787DF
330
787D9
100
AcDbEntity
  8
0
100
AcDbVertex
100
AcDbPolygonMeshVertex
 10
0.5196999999999991
 20
-0.4394862069696881
 30
4.643375
 70
    64
  0
VERTEX
  5
787E0
330
787D9
100
AcDbEntity
  8
0
100
AcDbVertex
100
AcDbPolygonMeshVertex
 10
0.5196999999999991
 20
-0.0864862069696884
 30
4.820375
 70
    64
  0
VERTEX
  5
787E1
330
787D9
100
AcDbEntity
  8
0
100
AcDbVertex
100
AcDbPolygonMeshVertex
 10
0.5196999999999991
 20
-0.0864862069696884
 30
4.643375
 70
    64
  0
VERTEX
  5
787E2
330
787D9
100
AcDbEntity
  8
0
100
AcDbVertex
100
AcDbPolygonMeshVertex
 10
0.5196999999999991
 20
-0.4394862069696881
 30
4.643375
 70
    64
  0
VERTEX
  5
787E3
330
787D9
100
AcDbEntity
  8
0
100
AcDbVertex
100
AcDbPolygonMeshVertex
 10
0.6891999999999993
 20
-0.0864862069696884
 30
4.820375
 70
    64
  0
VERTEX
  5
787E4
330
787D9
100
AcDbEntity
  8
0
100
AcDbVertex
100
AcDbPolygonMeshVertex
 10
0.6891999999999993
 20
-0.0864862069696884
 30
4.643375
 70
    64
  0
VERTEX
  5
787E5
330
787D9
100
AcDbEntity
  8
0
100
AcDbVertex
100
AcDbPolygonMeshVertex
 10
0.6891999999999993
 20
-0.4394862069696881
 30
4.643375
 70
    64
  0
VERTEX
  5
787E6
330
787D9
100
AcDbEntity
  8
0
100
AcDbVertex
100
AcDbPolygonMeshVertex
 10
0.6891999999999993
 20
-0.0864862069696884
 30
4.820375
 70
    64
  0
VERTEX
  5
787E7
330
787D9
100
AcDbEntity
  8
0
100
AcDbVertex
100
AcDbPolygonMeshVertex
 10
0.6891999999999993
 20
-0.0864862069696884
 30
4.820375
 70
    64
  0
VERTEX
  5
787E8
330
787D9
100
AcDbEntity
  8
0
100
AcDbVertex
100
AcDbPolygonMeshVertex
 10
0.6891999999999993
 20
-0.4394862069696881
 30
4.820375
 70
    64
  0
VERTEX
  5
787E9
330
787D9
100
AcDbEntity
  8
0
100
AcDbVertex
100
AcDbPolygonMeshVertex
 10
0.5196999999999991
 20
-0.0864862069696884
 30
4.820375
 70
    64
  0
VERTEX
  5
787EA
330
787D9
100
AcDbEntity
  8
0
100
AcDbVertex
100
AcDbPolygonMeshVertex
 10
0.5196999999999991
 20
-0.0864862069696884
 30
4.820375
 70
    64
  0
VERTEX
  5
787EB
330
787D9
100
AcDbEntity
  8
0
100
AcDbVertex
100
AcDbPolygonMeshVertex
 10
0.5196999999999991
 20
-0.4394862069696881
 30
4.820375
 70
    64
  0
SEQEND
  5
787EC
330
787D9
100
AcDbEntity
  8
0
  0
POLYLINE
  5
787ED
330
458D6
100
AcDbEntity
  8
0
100
AcDbPolygonMesh
 66
     1
 10
0.0
 20
0.0
 30
0.0
 70
    16
 71
     6
 72
     3
  0
VERTEX
  5
787EE
330
787ED
100
AcDbEntity
  8
0
100
AcDbVertex
100
AcDbPolygonMeshVertex
 10
0.782699999999999
 20
-0.8944862069696878
 30
4.859375000000001
 70
    64
  0
VERTEX
  5
787EF
330
787ED
100
AcDbEntity
  8
0
100
AcDbVertex
100
AcDbPolygonMeshVertex
 10
0.782699999999999
 20
-0.8944862069696878
 30
4.643375
 70
    64
  0
VERTEX
  5
787F0
330
787ED
100
AcDbEntity
  8
0
100
AcDbVertex
100
AcDbPolygonMeshVertex
 10
0.782699999999999
 20
-0.8944862069696878
 30
4.643375
 70
    64
  0
VERTEX
  5
787F1
330
787ED
100
AcDbEntity
  8
0
100
AcDbVertex
100
AcDbPolygonMeshVertex
 10
0.6476999999999992
 20
-0.8944862069696878
 30
4.859375000000001
 70
    64
  0
VERTEX
  5
787F2
330
787ED
100
AcDbEntity
  8
0
100
AcDbVertex
100
AcDbPolygonMeshVertex
 10
0.6476999999999992
 20
-0.8944862069696878
 30
4.643375
 70
    64
  0
VERTEX
  5
787F3
330
787ED
100
AcDbEntity
  8
0
100
AcDbVertex
100
AcDbPolygonMeshVertex
 10
0.6476999999999992
 20
-0.8944862069696878
 30
4.643375
 70
    64
  0
VERTEX
  5
787F4
330
787ED
100
AcDbEntity
  8
0
100
AcDbVertex
100
AcDbPolygonMeshVertex
 10
0.6476999999999992
 20
-0.5494862069696876
 30
4.859375000000001
 70
    64
  0
VERTEX
  5
787F5
330
787ED
100
AcDbEntity
  8
0
100
AcDbVertex
100
AcDbPolygonMeshVertex
 10
0.6476999999999992
 20
-0.5494862069696876
 30
4.643375
 70
    64
  0
VERTEX
  5
787F6
330
787ED
100
AcDbEntity
  8
0
100
AcDbVertex
100
AcDbPolygonMeshVertex
 10
0.6476999999999992
 20
-0.8944862069696878
 30
4.643375
 70
    64
  0
VERTEX
  5
787F7
330
787ED
100
AcDbEntity
  8
0
100
AcDbVertex
100
AcDbPolygonMeshVertex
 10
0.782699999999999
 20
-0.5494862069696876
 30
4.859375000000001
 70
    64
  0
VERTEX
  5
787F8
330
787ED
100
AcDbEntity
  8
0
100
AcDbVertex
100
AcDbPolygonMeshVertex
 10
0.782699999999999
 20
-0.5494862069696876
 30
4.643375
 70
    64
  0
VERTEX
  5
787F9
330
787ED
100
AcDbEntity
  8
0
100
AcDbVertex
100
AcDbPolygonMeshVertex
 10
0.782699999999999
 20
-0.8944862069696878
 30
4.643375
 70
    64
  0
VERTEX
  5
787FA
330
787ED
100
AcDbEntity
  8
0
100
AcDbVertex
100
AcDbPolygonMeshVertex
 10
0.782699999999999
 20
-0.5494862069696876
 30
4.859375000000001
 70
    64
  0
VERTEX
  5
787FB
330
787ED
100
AcDbEntity
  8
0
100
AcDbVertex
100
AcDbPolygonMeshVertex
 10
0.782699999999999
 20
-0.5494862069696876
 30
4.859375000000001
 70
    64
  0
VERTEX
  5
787FC
330
787ED
100
AcDbEntity
  8
0
100
AcDbVertex
100
AcDbPolygonMeshVertex
 10
0.782699999999999
 20
-0.8944862069696878
 30
4.859375000000001
 70
    64
  0
VERTEX
  5
787FD
330
787ED
100
AcDbEntity
  8
0
100
AcDbVertex
100
AcDbPolygonMeshVertex
 10
0.6476999999999992
 20
-0.5494862069696876
 30
4.859375000000001
 70
    64
  0
VERTEX
  5
787FE
330
787ED
100
AcDbEntity
  8
0
100
AcDbVertex
100
AcDbPolygonMeshVertex
 10
0.6476999999999992
 20
-0.5494862069696876
 30
4.859375000000001
 70
    64
  0
VERTEX
  5
787FF
330
787ED
100
AcDbEntity
  8
0
100
AcDbVertex
100
AcDbPolygonMeshVertex
 10
0.6476999999999992
 20
-0.8944862069696878
 30
4.859375000000001
 70
    64
  0
SEQEND
  5
78800
330
787ED
100
AcDbEntity
  8
0
  0
CIRCLE
  5
78801
330
458D6
100
AcDbEntity
  8
0
100
AcDbCircle
 10
0.6678249999999998
 20
-1.587879991879503
 30
4.609375
 40
0.138
  0
TEXT
  5
78802
330
458D6
100
AcDbEntity
  8
0
100
AcDbText
 10
0.7497214061352758
 20
-1.81957131621648
 30
4.609375
 40
0.0834654981097751
  1
T2
100
AcDbText
  0
TEXT
  5
78803
330
458D6
100
AcDbEntity
  8
0
100
AcDbText
 10
0.9687721570885658
 20
-1.820413182322326
 30
4.609375
 40
0.0834654981097751
  1
6
100
AcDbText
  0
CIRCLE
  5
78804
330
458D6
100
AcDbEntity
  8
0
100
AcDbCircle
 10
1.097574999999999
 20
-1.587879991879503
 30
4.609375
 40
0.138
  0
POLYLINE
  5
78805
330
458D6
100
AcDbEntity
  8
0
100
AcDbPolygonMesh
 66
     1
 10
0.0
 20
0.0
 30
0.0
 70
    16
 71
     6
 72
     3
  0
VERTEX
  5
78806
330
78805
100
AcDbEntity
  8
0
100
AcDbVertex
100
AcDbPolygonMeshVertex
 10
1.122699999999998
 20
-0.8944862069696878
 30
4.643375
 70
    64
  0
VERTEX
  5
78807
330
78805
100
AcDbEntity
  8
0
100
AcDbVertex
100
AcDbPolygonMeshVertex
 10
1.122699999999998
 20
-0.8944862069696878
 30
4.609375
 70
    64
  0
VERTEX
  5
78808
330
78805
100
AcDbEntity
  8
0
100
AcDbVertex
100
AcDbPolygonMeshVertex
 10
1.122699999999998
 20
-0.8944862069696878
 30
4.609375
 70
    64
  0
VERTEX
  5
78809
330
78805
100
AcDbEntity
  8
0
100
AcDbVertex
100
AcDbPolygonMeshVertex
 10
0.6476999999999992
 20
-0.8944862069696878
 30
4.643375
 70
    64
  0
VERTEX
  5
7880A
330
78805
100
AcDbEntity
  8
0
100
AcDbVertex
100
AcDbPolygonMeshVertex
 10
0.6476999999999992
 20
-0.8944862069696878
 30
4.609375
 70
    64
  0
VERTEX
  5
7880B
330
78805
100
AcDbEntity
  8
0
100
AcDbVertex
100
AcDbPolygonMeshVertex
 10
0.6476999999999992
 20
-0.8944862069696878
 30
4.609375
 70
    64
  0
VERTEX
  5
7880C
330
78805
100
AcDbEntity
  8
0
100
AcDbVertex
100
AcDbPolygonMeshVertex
 10
0.6476999999999992
 20
-0.5494862069696876
 30
4.643375
 70
    64
  0
VERTEX
  5
7880D
330
78805
100
AcDbEntity
  8
0
100
AcDbVertex
100
AcDbPolygonMeshVertex
 10
0.6476999999999992
 20
-0.5494862069696876
 30
4.609375
 70
    64
  0
VERTEX
  5
7880E
330
78805
100
AcDbEntity
  8
0
100
AcDbVertex
100
AcDbPolygonMeshVertex
 10
0.6476999999999992
 20
-0.8944862069696878
 30
4.609375
 70
    64
  0
VERTEX
  5
7880F
330
78805
100
AcDbEntity
  8
0
100
AcDbVertex
100
AcDbPolygonMeshVertex
 10
1.122699999999998
 20
-0.5494862069696876
 30
4.643375
 70
    64
  0
VERTEX
  5
78810
330
78805
100
AcDbEntity
  8
0
100
AcDbVertex
100
AcDbPolygonMeshVertex
 10
1.122699999999998
 20
-0.5494862069696876
 30
4.609375
 70
    64
  0
VERTEX
  5
78811
330
78805
100
AcDbEntity
  8
0
100
AcDbVertex
100
AcDbPolygonMeshVertex
 10
1.122699999999998
 20
-0.8944862069696878
 30
4.609375
 70
    64
  0
VERTEX
  5
78812
330
78805
100
AcDbEntity
  8
0
100
AcDbVertex
100
AcDbPolygonMeshVertex
 10
1.122699999999998
 20
-0.5494862069696876
 30
4.643375
 70
    64
  0
VERTEX
  5
78813
330
78805
100
AcDbEntity
  8
0
100
AcDbVertex
100
AcDbPolygonMeshVertex
 10
1.122699999999998
 20
-0.5494862069696876
 30
4.643375
 70
    64
  0
VERTEX
  5
78814
330
78805
100
AcDbEntity
  8
0
100
AcDbVertex
100
AcDbPolygonMeshVertex
 10
1.122699999999998
 20
-0.8944862069696878
 30
4.643375
 70
    64
  0
VERTEX
  5
78815
330
78805
100
AcDbEntity
  8
0
100
AcDbVertex
100
AcDbPolygonMeshVertex
 10
0.6476999999999992
 20
-0.5494862069696876
 30
4.643375
 70
    64
  0
VERTEX
  5
78816
330
78805
100
AcDbEntity
  8
0
100
AcDbVertex
100
AcDbPolygonMeshVertex
 10
0.6476999999999992
 20
-0.5494862069696876
 30
4.643375
 70
    64
  0
VERTEX
  5
78817
330
78805
100
AcDbEntity
  8
0
100
AcDbVertex
100
AcDbPolygonMeshVertex
 10
0.6476999999999992
 20
-0.8944862069696878
 30
4.643375
 70
    64
  0
SEQEND
  5
78818
330
78805
100
AcDbEntity
  8
0
  0
TEXT
  5
78819
330
458D6
100
AcDbEntity
  8
0
100
AcDbText
 10
1.168744176302742
 20
-1.81900168328171
 30
4.609375
 40
0.0834654981097751
  1
T3
100
AcDbText
  0
TEXT
  5
7881A
330
458D6
100
AcDbEntity
  8
0
100
AcDbText
 10
0.3250117058396814
 20
-1.817524560975508
 30
4.609375
 40
0.0834654981097751
  1
T1
100
AcDbText
  0
CIRCLE
  5
7881B
330
458D6
100
AcDbEntity
  8
0
100
AcDbCircle
 10
0.2380749999999995
 20
-1.587879991879503
 30
4.609375
 40
0.138
  0
TEXT
  5
7881C
330
458D6
100
AcDbEntity
  8
0
100
AcDbText
 10
0.080558581031785
 20
-1.821552448191868
 30
4.609375
 40
0.0834654981097751
  1
2
100
AcDbText
  0
TEXT
  5
7881D
330
458D6
100
AcDbEntity
  8
0
100
AcDbText
 10
1.598494176302742
 20
-1.81900168328171
 30
4.609375
 40
0.0834654981097751
  1
T4
100
AcDbText
  0
TEXT
  5
7881E
330
458D6
100
AcDbEntity
  8
0
100
AcDbText
 10
1.398522157088566
 20
-1.820413182322326
 30
4.609375
 40
0.0834654981097751
  1
8
100
AcDbText
  0
CIRCLE
  5
7881F
330
458D6
100
AcDbEntity
  8
0
100
AcDbCircle
 10
1.527325
 20
-1.587879991879503
 30
4.609375
 40
0.138
  0
LWPOLYLINE
  5
78820
330
458D6
100
AcDbEntity
  8
0
100
AcDbPolyline
 90
        2
 70
     0
 43
0.0
 38
3.587375
 10
0.0002000000000001
 20
-1.845500000000001
 10
0.0002000000000001
 20
0.3984999999999994
  0
POLYLINE
  5
78821
330
458D6
100
AcDbEntity
  8
0
100
AcDbPolygonMesh
 66
     1
 10
0.0
 20
0.0
 30
0.0
 70
    16
 71
     6
 72
     3
  0
VERTEX
  5
78822
330
78821
100
AcDbEntity
  8
0
100
AcDbVertex
100
AcDbPolygonMeshVertex
 10
1.765199999999999
 20
-1.845499999999999
 30
4.609375
 70
    64
  0
VERTEX
  5
78823
330
78821
100
AcDbEntity
  8
0
100
AcDbVertex
100
AcDbPolygonMeshVertex
 10
1.765199999999999
 20
-1.845499999999999
 30
3.587375
 70
    64
  0
VERTEX
  5
78824
330
78821
100
AcDbEntity
  8
0
100
AcDbVertex
100
AcDbPolygonMeshVertex
 10
1.765199999999999
 20
-1.845499999999999
 30
3.587375
 70
    64
  0
VERTEX
  5
78825
330
78821
100
AcDbEntity
  8
0
100
AcDbVertex
100
AcDbPolygonMeshVertex
 10
0.0002000000000001
 20
-1.845500000000001
 30
4.609375
 70
    64
  0
VERTEX
  5
78826
330
78821
100
AcDbEntity
  8
0
100
AcDbVertex
100
AcDbPolygonMeshVertex
 10
0.0002000000000001
 20
-1.845500000000001
 30
3.587375
 70
    64
  0
VERTEX
  5
78827
330
78821
100
AcDbEntity
  8
0
100
AcDbVertex
100
AcDbPolygonMeshVertex
 10
0.0002000000000001
 20
-1.845500000000001
 30
3.587375
 70
    64
  0
VERTEX
  5
78828
330
78821
100
AcDbEntity
  8
0
100
AcDbVertex
100
AcDbPolygonMeshVertex
 10
0.0001999999999984
 20
0.3984999999999994
 30
4.609375
 70
    64
  0
VERTEX
  5
78829
330
78821
100
AcDbEntity
  8
0
100
AcDbVertex
100
AcDbPolygonMeshVertex
 10
0.0001999999999984
 20
0.3984999999999994
 30
3.587375
 70
    64
  0
VERTEX
  5
7882A
330
78821
100
AcDbEntity
  8
0
100
AcDbVertex
100
AcDbPolygonMeshVertex
 10
0.0002000000000001
 20
-1.845500000000001
 30
3.587375
 70
    64
  0
VERTEX
  5
7882B
330
78821
100
AcDbEntity
  8
0
100
AcDbVertex
100
AcDbPolygonMeshVertex
 10
1.765199999999998
 20
0.3985000000000003
 30
4.609375
 70
    64
  0
VERTEX
  5
7882C
330
78821
100
AcDbEntity
  8
0
100
AcDbVertex
100
AcDbPolygonMeshVertex
 10
1.765199999999998
 20
0.3985000000000003
 30
3.587375
 70
    64
  0
VERTEX
  5
7882D
330
78821
100
AcDbEntity
  8
0
100
AcDbVertex
100
AcDbPolygonMeshVertex
 10
1.765199999999999
 20
-1.845499999999999
 30
3.587375
 70
    64
  0
VERTEX
  5
7882E
330
78821
100
AcDbEntity
  8
0
100
AcDbVertex
100
AcDbPolygonMeshVertex
 10
1.765199999999998
 20
0.3985000000000003
 30
4.609375
 70
    64
  0
VERTEX
  5
7882F
330
78821
100
AcDbEntity
  8
0
100
AcDbVertex
100
AcDbPolygonMeshVertex
 10
1.765199999999998
 20
0.3985000000000003
 30
4.609375
 70
    64
  0
VERTEX
  5
78830
330
78821
100
AcDbEntity
  8
0
100
AcDbVertex
100
AcDbPolygonMeshVertex
 10
1.765199999999999
 20
-1.845499999999999
 30
4.609375
 70
    64
  0
VERTEX
  5
78831
330
78821
100
AcDbEntity
  8
0
100
AcDbVertex
100
AcDbPolygonMeshVertex
 10
0.0001999999999984
 20
0.3984999999999994
 30
4.609375
 70
    64
  0
VERTEX
  5
78832
330
78821
100
AcDbEntity
  8
0
100
AcDbVertex
100
AcDbPolygonMeshVertex
 10
0.0001999999999984
 20
0.3984999999999994
 30
4.609375
 70
    64
  0
VERTEX
  5
78833
330
78821
100
AcDbEntity
  8
0
100
AcDbVertex
100
AcDbPolygonMeshVertex
 10
0.0002000000000001
 20
-1.845500000000001
 30
4.609375
 70
    64
  0
SEQEND
  5
78834
330
78821
100
AcDbEntity
  8
0
  0
POLYLINE
  5
78835
330
458D6
100
AcDbEntity
  8
0
100
AcDb3dPolyline
 66
     1
 10
0.0
 20
0.0
 30
0.0
 70
     8
  0
VERTEX
  5
78836
330
78835
100
AcDbEntity
  8
0
100
AcDbVertex
100
AcDb3dPolylineVertex
 10
1.765410349403541
 20
-0.6404999999999999
 30
3.119375
 70
    32
  0
VERTEX
  5
78837
330
78835
100
AcDbEntity
  8
0
100
AcDbVertex
100
AcDb3dPolylineVertex
 10
1.765410349403541
 20
-0.6404999999999999
 30
3.692375
 70
    32
  0
VERTEX
  5
78838
330
78835
100
AcDbEntity
  8
0
100
AcDbVertex
100
AcDb3dPolylineVertex
 10
1.765410349403541
 20
-0.8064999999999997
 30
3.692375
 70
    32
  0
VERTEX
  5
78839
330
78835
100
AcDbEntity
  8
0
100
AcDbVertex
100
AcDb3dPolylineVertex
 10
1.765410349403541
 20
-0.8065000000000001
 30
3.119375
 70
    32
  0
VERTEX
  5
7883A
330
78835
100
AcDbEntity
  8
0
100
AcDbVertex
100
AcDb3dPolylineVertex
 10
1.765410349403541
 20
-0.6404999999999999
 30
3.119375
 70
    32
  0
SEQEND
  5
7883B
330
78835
100
AcDbEntity
  8
0
  0
LINE
  5
7883C
330
458D6
100
AcDbEntity
  8
0
100
AcDbLine
 10
1.765410349403541
 20
-0.8065000000000001
 30
3.405874999999999
 11
1.765410349403541
 21
-0.6404999999999999
 31
3.405874999999999
  0
LINE
  5
7883D
330
458D6
100
AcDbEntity
  8
0
100
AcDbLine
 10
1.765410349403541
 20
-0.8065000000000001
 30
3.595875
 11
1.765410349403541
 21
-0.6404999999999999
 31
3.595875
  0
POINT
  5
7883E
330
458D6
100
AcDbEntity
  8
SNAP_POINTS
100
AcDbPoint
 10
0.8851999999999989
 20
-0.7219862069696879
 30
4.643375
  0
POINT
  5
7883F
330
458D6
100
AcDbEntity
  8
SNAP_POINTS
100
AcDbPoint
 10
-0.0000103494035411
 20
-0.7734999999999999
 30
3.595875
  0
POINT
  5
78840
330
458D6
100
AcDbEntity
  8
SNAP_POINTS
100
AcDbPoint
 10
1.765410349403541
 20
-0.6734999999999998
 30
3.595875
  0
POLYLINE
  5
78841
330
458D6
100
AcDbEntity
  8
0
100
AcDbPolygonMesh
 66
     1
 10
0.0
 20
0.0
 30
0.0
 70
    16
 71
     6
 72
     3
  0
VERTEX
  5
78842
330
78841
100
AcDbEntity
  8
0
100
AcDbVertex
100
AcDbPolygonMeshVertex
 10
1.765199999999999
 20
-2.165499999999999
 30
1.042499999999999
 70
    64
  0
VERTEX
  5
78843
330
78841
100
AcDbEntity
  8
0
100
AcDbVertex
100
AcDbPolygonMeshVertex
 10
1.765199999999999
 20
-2.165499999999999
 30
0.8554999999999999
 70
    64
  0
VERTEX
  5
78844
330
78841
100
AcDbEntity
  8
0
100
AcDbVertex
100
AcDbPolygonMeshVertex
 10
1.765199999999999
 20
-2.165499999999999
 30
0.8554999999999999
 70
    64
  0
VERTEX
  5
78845
330
78841
100
AcDbEntity
  8
0
100
AcDbVertex
100
AcDbPolygonMeshVertex
 10
0.8852000000000007
 20
-2.165499999999999
 30
1.042499999999999
 70
    64
  0
VERTEX
  5
78846
330
78841
100
AcDbEntity
  8
0
100
AcDbVertex
100
AcDbPolygonMeshVertex
 10
0.8852000000000007
 20
-2.165499999999999
 30
0.8554999999999999
 70
    64
  0
VERTEX
  5
78847
330
78841
100
AcDbEntity
  8
0
100
AcDbVertex
100
AcDbPolygonMeshVertex
 10
0.8852000000000007
 20
-2.165499999999999
 30
0.8554999999999999
 70
    64
  0
VERTEX
  5
78848
330
78841
100
AcDbEntity
  8
0
100
AcDbVertex
100
AcDbPolygonMeshVertex
 10
0.8852000000000007
 20
-1.9685
 30
1.042499999999999
 70
    64
  0
VERTEX
  5
78849
330
78841
100
AcDbEntity
  8
0
100
AcDbVertex
100
AcDbPolygonMeshVertex
 10
0.8852000000000007
 20
-1.9685
 30
0.8554999999999999
 70
    64
  0
VERTEX
  5
7884A
330
78841
100
AcDbEntity
  8
0
100
AcDbVertex
100
AcDbPolygonMeshVertex
 10
0.8852000000000007
 20
-2.165499999999999
 30
0.8554999999999999
 70
    64
  0
VERTEX
  5
7884B
330
78841
100
AcDbEntity
  8
0
100
AcDbVertex
100
AcDbPolygonMeshVertex
 10
1.765199999999999
 20
-1.9685
 30
1.042499999999999
 70
    64
  0
VERTEX
  5
7884C
330
78841
100
AcDbEntity
  8
0
100
AcDbVertex
100
AcDbPolygonMeshVertex
 10
1.765199999999999
 20
-1.9685
 30
0.8554999999999999
 70
    64
  0
VERTEX
  5
7884D
330
78841
100
AcDbEntity
  8
0
100
AcDbVertex
100
AcDbPolygonMeshVertex
 10
1.765199999999999
 20
-2.165499999999999
 30
0.8554999999999999
 70
    64
  0
VERTEX
  5
7884E
330
78841
100
AcDbEntity
  8
0
100
AcDbVertex
100
AcDbPolygonMeshVertex
 10
1.765199999999999
 20
-1.9685
 30
1.042499999999999
 70
    64
  0
VERTEX
  5
7884F
330
78841
100
AcDbEntity
  8
0
100
AcDbVertex
100
AcDbPolygonMeshVertex
 10
1.765199999999999
 20
-1.9685
 30
1.042499999999999
 70
    64
  0
VERTEX
  5
78850
330
78841
100
AcDbEntity
  8
0
100
AcDbVertex
100
AcDbPolygonMeshVertex
 10
1.765199999999999
 20
-2.165499999999999
 30
1.042499999999999
 70
    64
  0
VERTEX
  5
78851
330
78841
100
AcDbEntity
  8
0
100
AcDbVertex
100
AcDbPolygonMeshVertex
 10
0.8852000000000007
 20
-1.9685
 30
1.042499999999999
 70
    64
  0
VERTEX
  5
78852
330
78841
100
AcDbEntity
  8
0
100
AcDbVertex
100
AcDbPolygonMeshVertex
 10
0.8852000000000007
 20
-1.9685
 30
1.042499999999999
 70
    64
  0
VERTEX
  5
78853
330
78841
100
AcDbEntity
  8
0
100
AcDbVertex
100
AcDbPolygonMeshVertex
 10
0.8852000000000007
 20
-2.165499999999999
 30
1.042499999999999
 70
    64
  0
SEQEND
  5
78854
330
78841
100
AcDbEntity
  8
0
  0
POLYLINE
  5
78855
330
458D6
100
AcDbEntity
  8
0
100
AcDbPolygonMesh
 66
     1
 10
0.0
 20
0.0
 30
0.0
 70
    16
 71
     6
 72
     3
  0
VERTEX
  5
78856
330
78855
100
AcDbEntity
  8
0
100
AcDbVertex
100
AcDbPolygonMeshVertex
 10
0.0052
 20
0.7184999999999994
 30
1.042499999999999
 70
    64
  0
VERTEX
  5
78857
330
78855
100
AcDbEntity
  8
0
100
AcDbVertex
100
AcDbPolygonMeshVertex
 10
0.0052
 20
0.7184999999999994
 30
0.8555000000000001
 70
    64
  0
VERTEX
  5
78858
330
78855
100
AcDbEntity
  8
0
100
AcDbVertex
100
AcDbPolygonMeshVertex
 10
0.0052
 20
0.7184999999999994
 30
0.8555000000000001
 70
    64
  0
VERTEX
  5
78859
330
78855
100
AcDbEntity
  8
0
100
AcDbVertex
100
AcDbPolygonMeshVertex
 10
0.885199999999998
 20
0.7184999999999994
 30
1.042499999999999
 70
    64
  0
VERTEX
  5
7885A
330
78855
100
AcDbEntity
  8
0
100
AcDbVertex
100
AcDbPolygonMeshVertex
 10
0.885199999999998
 20
0.7184999999999994
 30
0.8555000000000001
 70
    64
  0
VERTEX
  5
7885B
330
78855
100
AcDbEntity
  8
0
100
AcDbVertex
100
AcDbPolygonMeshVertex
 10
0.885199999999998
 20
0.7184999999999994
 30
0.8555000000000001
 70
    64
  0
VERTEX
  5
7885C
330
78855
100
AcDbEntity
  8
0
100
AcDbVertex
100
AcDbPolygonMeshVertex
 10
0.885199999999998
 20
0.5215000000000002
 30
1.042499999999999
 70
    64
  0
VERTEX
  5
7885D
330
78855
100
AcDbEntity
  8
0
100
AcDbVertex
100
AcDbPolygonMeshVertex
 10
0.885199999999998
 20
0.5215000000000002
 30
0.8555000000000001
 70
    64
  0
VERTEX
  5
7885E
330
78855
100
AcDbEntity
  8
0
100
AcDbVertex
100
AcDbPolygonMeshVertex
 10
0.885199999999998
 20
0.7184999999999994
 30
0.8555000000000001
 70
    64
  0
VERTEX
  5
7885F
330
78855
100
AcDbEntity
  8
0
100
AcDbVertex
100
AcDbPolygonMeshVertex
 10
0.0052
 20
0.5215000000000002
 30
1.042499999999999
 70
    64
  0
VERTEX
  5
78860
330
78855
100
AcDbEntity
  8
0
100
AcDbVertex
100
AcDbPolygonMeshVertex
 10
0.0052
 20
0.5215000000000002
 30
0.8555000000000001
 70
    64
  0
VERTEX
  5
78861
330
78855
100
AcDbEntity
  8
0
100
AcDbVertex
100
AcDbPolygonMeshVertex
 10
0.0052
 20
0.7184999999999994
 30
0.8555000000000001
 70
    64
  0
VERTEX
  5
78862
330
78855
100
AcDbEntity
  8
0
100
AcDbVertex
100
AcDbPolygonMeshVertex
 10
0.0052
 20
0.5215000000000002
 30
1.042499999999999
 70
    64
  0
VERTEX
  5
78863
330
78855
100
AcDbEntity
  8
0
100
AcDbVertex
100
AcDbPolygonMeshVertex
 10
0.0052
 20
0.5215000000000002
 30
1.042499999999999
 70
    64
  0
VERTEX
  5
78864
330
78855
100
AcDbEntity
  8
0
100
AcDbVertex
100
AcDbPolygonMeshVertex
 10
0.0052
 20
0.7184999999999994
 30
1.042499999999999
 70
    64
  0
VERTEX
  5
78865
330
78855
100
AcDbEntity
  8
0
100
AcDbVertex
100
AcDbPolygonMeshVertex
 10
0.885199999999998
 20
0.5215000000000002
 30
1.042499999999999
 70
    64
  0
VERTEX
  5
78866
330
78855
100
AcDbEntity
  8
0
100
AcDbVertex
100
AcDbPolygonMeshVertex
 10
0.885199999999998
 20
0.5215000000000002
 30
1.042499999999999
 70
    64
  0
VERTEX
  5
78867
330
78855
100
AcDbEntity
  8
0
100
AcDbVertex
100
AcDbPolygonMeshVertex
 10
0.885199999999998
 20
0.7184999999999994
 30
1.042499999999999
 70
    64
  0
SEQEND
  5
78868
330
78855
100
AcDbEntity
  8
0
  0
POLYLINE
  5
78869
330
458D6
100
AcDbEntity
  8
0
100
AcDb3dPolyline
 66
     1
 10
0.0
 20
0.0
 30
0.0
 70
     8
  0
VERTEX
  5
7886A
330
78869
100
AcDbEntity
  8
0
100
AcDbVertex
100
AcDb3dPolylineVertex
 10
0.2778666666666655
 20
0.5215000000000002
 30
0.8554999999999999
 70
    32
  0
VERTEX
  5
7886B
330
78869
100
AcDbEntity
  8
0
100
AcDbVertex
100
AcDb3dPolylineVertex
 10
0.2778666666666655
 20
0.6565
 30
0.8555000000000001
 70
    32
  0
VERTEX
  5
7886C
330
78869
100
AcDbEntity
  8
0
100
AcDbVertex
100
AcDb3dPolylineVertex
 10
0.0672000000000007
 20
0.6565
 30
0.8555000000000001
 70
    32
  0
VERTEX
  5
7886D
330
78869
100
AcDbEntity
  8
0
100
AcDbVertex
100
AcDb3dPolylineVertex
 10
0.0672000000000007
 20
0.5215000000000002
 30
0.8554999999999999
 70
    32
  0
SEQEND
  5
7886E
330
78869
100
AcDbEntity
  8
0
  0
LINE
  5
7886F
330
458D6
100
AcDbEntity
  8
0
100
AcDbLine
 10
0.0672000000000007
 20
0.5215000000000002
 30
0.8554999999999999
 11
0.2778666666666655
 21
0.5215000000000002
 31
0.8554999999999999
  0
POLYLINE
  5
78870
330
458D6
100
AcDbEntity
  8
0
100
AcDb3dPolyline
 66
     1
 10
0.0
 20
0.0
 30
0.0
 70
     8
  0
VERTEX
  5
78871
330
78870
100
AcDbEntity
  8
0
100
AcDbVertex
100
AcDb3dPolylineVertex
 10
0.2778666666666655
 20
0.5215000000000002
 30
1.042499999999999
 70
    32
  0
VERTEX
  5
78872
330
78870
100
AcDbEntity
  8
0
100
AcDbVertex
100
AcDb3dPolylineVertex
 10
0.2778666666666655
 20
0.6565
 30
1.042499999999999
 70
    32
  0
VERTEX
  5
78873
330
78870
100
AcDbEntity
  8
0
100
AcDbVertex
100
AcDb3dPolylineVertex
 10
0.0672000000000007
 20
0.6565
 30
1.042499999999999
 70
    32
  0
VERTEX
  5
78874
330
78870
100
AcDbEntity
  8
0
100
AcDbVertex
100
AcDb3dPolylineVertex
 10
0.0672000000000007
 20
0.5215000000000002
 30
1.042499999999999
 70
    32
  0
SEQEND
  5
78875
330
78870
100
AcDbEntity
  8
0
  0
POLYLINE
  5
78876
330
458D6
100
AcDbEntity
  8
0
100
AcDb3dPolyline
 66
     1
 10
0.0
 20
0.0
 30
0.0
 70
     8
  0
VERTEX
  5
78877
330
78876
100
AcDbEntity
  8
0
100
AcDbVertex
100
AcDb3dPolylineVertex
 10
0.5505333333333314
 20
0.5215000000000002
 30
1.042499999999999
 70
    32
  0
VERTEX
  5
78878
330
78876
100
AcDbEntity
  8
0
100
AcDbVertex
100
AcDb3dPolylineVertex
 10
0.5505333333333314
 20
0.6565
 30
1.042499999999999
 70
    32
  0
VERTEX
  5
78879
330
78876
100
AcDbEntity
  8
0
100
AcDbVertex
100
AcDb3dPolylineVertex
 10
0.3398666666666666
 20
0.6565
 30
1.042499999999999
 70
    32
  0
VERTEX
  5
7887A
330
78876
100
AcDbEntity
  8
0
100
AcDbVertex
100
AcDb3dPolylineVertex
 10
0.3398666666666666
 20
0.5215000000000002
 30
1.042499999999999
 70
    32
  0
SEQEND
  5
7887B
330
78876
100
AcDbEntity
  8
0
  0
POLYLINE
  5
7887C
330
458D6
100
AcDbEntity
  8
0
100
AcDb3dPolyline
 66
     1
 10
0.0
 20
0.0
 30
0.0
 70
     8
  0
VERTEX
  5
7887D
330
7887C
100
AcDbEntity
  8
0
100
AcDbVertex
100
AcDb3dPolylineVertex
 10
0.5505333333333314
 20
0.5215000000000002
 30
0.8554999999999999
 70
    32
  0
VERTEX
  5
7887E
330
7887C
100
AcDbEntity
  8
0
100
AcDbVertex
100
AcDb3dPolylineVertex
 10
0.5505333333333314
 20
0.6565
 30
0.8555000000000001
 70
    32
  0
VERTEX
  5
7887F
330
7887C
100
AcDbEntity
  8
0
100
AcDbVertex
100
AcDb3dPolylineVertex
 10
0.3398666666666666
 20
0.6565
 30
0.8555000000000001
 70
    32
  0
VERTEX
  5
78880
330
7887C
100
AcDbEntity
  8
0
100
AcDbVertex
100
AcDb3dPolylineVertex
 10
0.3398666666666666
 20
0.5215000000000002
 30
0.8554999999999999
 70
    32
  0
SEQEND
  5
78881
330
7887C
100
AcDbEntity
  8
0
  0
LINE
  5
78882
330
458D6
100
AcDbEntity
  8
0
100
AcDbLine
 10
0.3398666666666666
 20
0.5215000000000002
 30
0.8554999999999999
 11
0.5505333333333314
 21
0.5215000000000002
 31
0.8554999999999999
  0
POLYLINE
  5
78883
330
458D6
100
AcDbEntity
  8
0
100
AcDb3dPolyline
 66
     1
 10
0.0
 20
0.0
 30
0.0
 70
     8
  0
VERTEX
  5
78884
330
78883
100
AcDbEntity
  8
0
100
AcDbVertex
100
AcDb3dPolylineVertex
 10
0.8231999999999969
 20
0.5215000000000002
 30
0.8554999999999999
 70
    32
  0
VERTEX
  5
78885
330
78883
100
AcDbEntity
  8
0
100
AcDbVertex
100
AcDb3dPolylineVertex
 10
0.8231999999999969
 20
0.6565
 30
0.8555000000000001
 70
    32
  0
VERTEX
  5
78886
330
78883
100
AcDbEntity
  8
0
100
AcDbVertex
100
AcDb3dPolylineVertex
 10
0.6125333333333326
 20
0.6565
 30
0.8555000000000001
 70
    32
  0
VERTEX
  5
78887
330
78883
100
AcDbEntity
  8
0
100
AcDbVertex
100
AcDb3dPolylineVertex
 10
0.6125333333333326
 20
0.5215000000000002
 30
0.8554999999999999
 70
    32
  0
SEQEND
  5
78888
330
78883
100
AcDbEntity
  8
0
  0
LINE
  5
78889
330
458D6
100
AcDbEntity
  8
0
100
AcDbLine
 10
0.6125333333333326
 20
0.5215000000000002
 30
0.8554999999999999
 11
0.8231999999999969
 21
0.5215000000000002
 31
0.8554999999999999
  0
POLYLINE
  5
7888A
330
458D6
100
AcDbEntity
  8
0
100
AcDb3dPolyline
 66
     1
 10
0.0
 20
0.0
 30
0.0
 70
     8
  0
VERTEX
  5
7888B
330
7888A
100
AcDbEntity
  8
0
100
AcDbVertex
100
AcDb3dPolylineVertex
 10
0.8231999999999969
 20
0.5215000000000002
 30
1.042499999999999
 70
    32
  0
VERTEX
  5
7888C
330
7888A
100
AcDbEntity
  8
0
100
AcDbVertex
100
AcDb3dPolylineVertex
 10
0.8231999999999969
 20
0.6565
 30
1.042499999999999
 70
    32
  0
VERTEX
  5
7888D
330
7888A
100
AcDbEntity
  8
0
100
AcDbVertex
100
AcDb3dPolylineVertex
 10
0.6125333333333326
 20
0.6565
 30
1.042499999999999
 70
    32
  0
VERTEX
  5
7888E
330
7888A
100
AcDbEntity
  8
0
100
AcDbVertex
100
AcDb3dPolylineVertex
 10
0.6125333333333326
 20
0.5215000000000002
 30
1.042499999999999
 70
    32
  0
SEQEND
  5
7888F
330
7888A
100
AcDbEntity
  8
0
  0
LWPOLYLINE
  5
78890
330
458D6
100
AcDbEntity
  8
0
100
AcDbPolyline
 90
        4
 70
     1
 43
0.0
 38
3.589375
 10
0.7492000000000007
 20
0.7224999999999993
 10
1.016200000000001
 20
0.7224999999999993
 10
1.016200000000001
 20
0.5734999999999993
 10
0.7492000000000007
 20
0.5734999999999993
  0
POLYLINE
  5
78891
330
458D6
100
AcDbEntity
  8
0
100
AcDbPolygonMesh
 66
     1
 10
0.0
 20
0.0
 30
0.0
 70
    16
 71
     6
 72
     3
  0
VERTEX
  5
78892
330
78891
100
AcDbEntity
  8
0
100
AcDbVertex
100
AcDbPolygonMeshVertex
 10
1.068199999999999
 20
0.5214999999999997
 30
3.587375
 70
    64
  0
VERTEX
  5
78893
330
78891
100
AcDbEntity
  8
0
100
AcDbVertex
100
AcDbPolygonMeshVertex
 10
1.068199999999999
 20
0.5214999999999997
 30
2.913375
 70
    64
  0
VERTEX
  5
78894
330
78891
100
AcDbEntity
  8
0
100
AcDbVertex
100
AcDbPolygonMeshVertex
 10
1.068199999999999
 20
0.5214999999999997
 30
2.913375
 70
    64
  0
VERTEX
  5
78895
330
78891
100
AcDbEntity
  8
0
100
AcDbVertex
100
AcDbPolygonMeshVertex
 10
0.6972000000000002
 20
0.5214999999999997
 30
3.587375
 70
    64
  0
VERTEX
  5
78896
330
78891
100
AcDbEntity
  8
0
100
AcDbVertex
100
AcDbPolygonMeshVertex
 10
0.6972000000000002
 20
0.5214999999999997
 30
2.913375
 70
    64
  0
VERTEX
  5
78897
330
78891
100
AcDbEntity
  8
0
100
AcDbVertex
100
AcDbPolygonMeshVertex
 10
0.6972000000000002
 20
0.5214999999999997
 30
2.913375
 70
    64
  0
VERTEX
  5
78898
330
78891
100
AcDbEntity
  8
0
100
AcDbVertex
100
AcDbPolygonMeshVertex
 10
0.6972000000000002
 20
0.7744999999999998
 30
3.587375
 70
    64
  0
VERTEX
  5
78899
330
78891
100
AcDbEntity
  8
0
100
AcDbVertex
100
AcDbPolygonMeshVertex
 10
0.6972000000000002
 20
0.7744999999999998
 30
2.913375
 70
    64
  0
VERTEX
  5
7889A
330
78891
100
AcDbEntity
  8
0
100
AcDbVertex
100
AcDbPolygonMeshVertex
 10
0.6972000000000002
 20
0.5214999999999997
 30
2.913375
 70
    64
  0
VERTEX
  5
7889B
330
78891
100
AcDbEntity
  8
0
100
AcDbVertex
100
AcDbPolygonMeshVertex
 10
1.068199999999999
 20
0.7744999999999998
 30
3.587375
 70
    64
  0
VERTEX
  5
7889C
330
78891
100
AcDbEntity
  8
0
100
AcDbVertex
100
AcDbPolygonMeshVertex
 10
1.068199999999999
 20
0.7744999999999998
 30
2.913375
 70
    64
  0
VERTEX
  5
7889D
330
78891
100
AcDbEntity
  8
0
100
AcDbVertex
100
AcDbPolygonMeshVertex
 10
1.068199999999999
 20
0.5214999999999997
 30
2.913375
 70
    64
  0
VERTEX
  5
7889E
330
78891
100
AcDbEntity
  8
0
100
AcDbVertex
100
AcDbPolygonMeshVertex
 10
1.068199999999999
 20
0.7744999999999998
 30
3.587375
 70
    64
  0
VERTEX
  5
7889F
330
78891
100
AcDbEntity
  8
0
100
AcDbVertex
100
AcDbPolygonMeshVertex
 10
1.068199999999999
 20
0.7744999999999998
 30
3.587375
 70
    64
  0
VERTEX
  5
788A0
330
78891
100
AcDbEntity
  8
0
100
AcDbVertex
100
AcDbPolygonMeshVertex
 10
1.068199999999999
 20
0.5214999999999997
 30
3.587375
 70
    64
  0
VERTEX
  5
788A1
330
78891
100
AcDbEntity
  8
0
100
AcDbVertex
100
AcDbPolygonMeshVertex
 10
0.6972000000000002
 20
0.7744999999999998
 30
3.587375
 70
    64
  0
VERTEX
  5
788A2
330
78891
100
AcDbEntity
  8
0
100
AcDbVertex
100
AcDbPolygonMeshVertex
 10
0.6972000000000002
 20
0.7744999999999998
 30
3.587375
 70
    64
  0
VERTEX
  5
788A3
330
78891
100
AcDbEntity
  8
0
100
AcDbVertex
100
AcDbPolygonMeshVertex
 10
0.6972000000000002
 20
0.5214999999999997
 30
3.587375
 70
    64
  0
SEQEND
  5
788A4
330
78891
100
AcDbEntity
  8
0
  0
LWPOLYLINE
  5
788A5
330
458D6
100
AcDbEntity
  8
0
100
AcDbPolyline
 90
        4
 70
     1
 43
0.0
 38
2.915375
 10
0.7492000000000007
 20
0.7224999999999993
 10
1.016200000000001
 20
0.7224999999999993
 10
1.016200000000001
 20
0.5734999999999993
 10
0.7492000000000007
 20
0.5734999999999993
  0
POLYLINE
  5
788A6
330
458D6
100
AcDbEntity
  8
0
100
AcDbPolygonMesh
 66
     1
 10
0.0
 20
0.0
 30
0.0
 70
    16
 71
     6
 72
     3
  0
VERTEX
  5
788A7
330
788A6
100
AcDbEntity
  8
0
100
AcDbVertex
100
AcDbPolygonMeshVertex
 10
1.437699999999999
 20
-2.4055
 30
3.587375
 70
    64
  0
VERTEX
  5
788A8
330
788A6
100
AcDbEntity
  8
0
100
AcDbVertex
100
AcDbPolygonMeshVertex
 10
1.437699999999999
 20
-2.4055
 30
2.913375
 70
    64
  0
VERTEX
  5
788A9
330
788A6
100
AcDbEntity
  8
0
100
AcDbVertex
100
AcDbPolygonMeshVertex
 10
1.437699999999999
 20
-2.4055
 30
2.913375
 70
    64
  0
VERTEX
  5
788AA
330
788A6
100
AcDbEntity
  8
0
100
AcDbVertex
100
AcDbPolygonMeshVertex
 10
0.3326999999999992
 20
-2.4055
 30
3.587375
 70
    64
  0
VERTEX
  5
788AB
330
788A6
100
AcDbEntity
  8
0
100
AcDbVertex
100
AcDbPolygonMeshVertex
 10
0.3326999999999992
 20
-2.4055
 30
2.913375
 70
    64
  0
VERTEX
  5
788AC
330
788A6
100
AcDbEntity
  8
0
100
AcDbVertex
100
AcDbPolygonMeshVertex
 10
0.3326999999999992
 20
-2.4055
 30
2.913375
 70
    64
  0
VERTEX
  5
788AD
330
788A6
100
AcDbEntity
  8
0
100
AcDbVertex
100
AcDbPolygonMeshVertex
 10
0.3326999999999992
 20
-1.968499999999999
 30
3.587375
 70
    64
  0
VERTEX
  5
788AE
330
788A6
100
AcDbEntity
  8
0
100
AcDbVertex
100
AcDbPolygonMeshVertex
 10
0.3326999999999992
 20
-1.968499999999999
 30
2.913375
 70
    64
  0
VERTEX
  5
788AF
330
788A6
100
AcDbEntity
  8
0
100
AcDbVertex
100
AcDbPolygonMeshVertex
 10
0.3326999999999992
 20
-2.4055
 30
2.913375
 70
    64
  0
VERTEX
  5
788B0
330
788A6
100
AcDbEntity
  8
0
100
AcDbVertex
100
AcDbPolygonMeshVertex
 10
1.437699999999999
 20
-1.968499999999999
 30
3.587375
 70
    64
  0
VERTEX
  5
788B1
330
788A6
100
AcDbEntity
  8
0
100
AcDbVertex
100
AcDbPolygonMeshVertex
 10
1.437699999999999
 20
-1.968499999999999
 30
2.913375
 70
    64
  0
VERTEX
  5
788B2
330
788A6
100
AcDbEntity
  8
0
100
AcDbVertex
100
AcDbPolygonMeshVertex
 10
1.437699999999999
 20
-2.4055
 30
2.913375
 70
    64
  0
VERTEX
  5
788B3
330
788A6
100
AcDbEntity
  8
0
100
AcDbVertex
100
AcDbPolygonMeshVertex
 10
1.437699999999999
 20
-1.968499999999999
 30
3.587375
 70
    64
  0
VERTEX
  5
788B4
330
788A6
100
AcDbEntity
  8
0
100
AcDbVertex
100
AcDbPolygonMeshVertex
 10
1.437699999999999
 20
-1.968499999999999
 30
3.587375
 70
    64
  0
VERTEX
  5
788B5
330
788A6
100
AcDbEntity
  8
0
100
AcDbVertex
100
AcDbPolygonMeshVertex
 10
1.437699999999999
 20
-2.4055
 30
3.587375
 70
    64
  0
VERTEX
  5
788B6
330
788A6
100
AcDbEntity
  8
0
100
AcDbVertex
100
AcDbPolygonMeshVertex
 10
0.3326999999999992
 20
-1.968499999999999
 30
3.587375
 70
    64
  0
VERTEX
  5
788B7
330
788A6
100
AcDbEntity
  8
0
100
AcDbVertex
100
AcDbPolygonMeshVertex
 10
0.3326999999999992
 20
-1.968499999999999
 30
3.587375
 70
    64
  0
VERTEX
  5
788B8
330
788A6
100
AcDbEntity
  8
0
100
AcDbVertex
100
AcDbPolygonMeshVertex
 10
0.3326999999999992
 20
-2.4055
 30
3.587375
 70
    64
  0
SEQEND
  5
788B9
330
788A6
100
AcDbEntity
  8
0
  0
CIRCLE
  5
788BA
330
458D6
100
AcDbEntity
  8
0
100
AcDbCircle
 10
0.5461999999999973
 20
-2.186999999999999
 30
3.587375
 40
0.12
  0
TEXT
  5
788BB
330
458D6
100
AcDbEntity
  8
0
100
AcDbText
 39
0.0000001
 10
0.3583342008449784
 20
-2.381974306253014
 30
3.587375
 40
0.0834654981097751
  1
A1
100
AcDbText
  0
TEXT
  5
788BC
330
458D6
100
AcDbEntity
  8
0
100
AcDbText
 39
0.0000001
 10
1.274128940335714
 20
-2.369060193513128
 30
3.587375
 40
0.0834654981097751
  1
A2
100
AcDbText
  0
CIRCLE
  5
788BD
330
458D6
100
AcDbEntity
  8
0
100
AcDbCircle
 10
1.224200000000001
 20
-2.186999999999999
 30
3.587375
 40
0.12
  0
LINE
  5
788BE
330
458D6
100
AcDbEntity
  8
0
100
AcDbLine
 10
0.7046999999999991
 20
-2.4055
 30
3.166375
 11
0.3876999999999989
 21
-2.4055
 31
3.166375
  0
LINE
  5
788BF
330
458D6
100
AcDbEntity
  8
0
100
AcDbLine
 10
0.3876999999999989
 20
-2.4055
 30
3.366375
 11
0.3876999999999989
 21
-2.4055
 31
3.166375
  0
LINE
  5
788C0
330
458D6
100
AcDbEntity
  8
0
100
AcDbLine
 10
0.7046999999999991
 20
-2.4055
 30
3.366375
 11
0.3876999999999989
 21
-2.4055
 31
3.366375
  0
LINE
  5
788C1
330
458D6
100
AcDbEntity
  8
0
100
AcDbLine
 10
0.7046999999999991
 20
-2.4055
 30
3.366375
 11
0.7046999999999991
 21
-2.4055
 31
3.166375
  0
POINT
  5
788C2
330
458D6
100
AcDbEntity
  8
SNAP_POINTS
100
AcDbPoint
 10
1.065699999999999
 20
-2.4055
 30
3.166375
  0
LINE
  5
788C3
330
458D6
100
AcDbEntity
  8
0
100
AcDbLine
 10
1.065699999999999
 20
-2.4055
 30
3.366375
 11
1.065699999999999
 21
-2.4055
 31
3.166375
  0
LINE
  5
788C4
330
458D6
100
AcDbEntity
  8
0
100
AcDbLine
 10
1.065699999999999
 20
-2.4055
 30
3.166375
 11
1.3827
 21
-2.4055
 31
3.166375
  0
LINE
  5
788C5
330
458D6
100
AcDbEntity
  8
0
100
AcDbLine
 10
1.065699999999999
 20
-2.4055
 30
3.366375
 11
1.3827
 21
-2.4055
 31
3.366375
  0
LINE
  5
788C6
330
458D6
100
AcDbEntity
  8
0
100
AcDbLine
 10
1.3827
 20
-2.4055
 30
3.366375
 11
1.3827
 21
-2.4055
 31
3.166375
  0
POINT
  5
788C7
330
458D6
100
AcDbEntity
  8
DIMS-MTG-HOLES
100
AcDbPoint
 10
0.1911999999999991
 20
-1.934499999999999
 30
0.0
  0
POINT
  5
788C8
330
458D6
100
AcDbEntity
  8
DIMS-MTG-HOLES
100
AcDbPoint
 10
1.571199999999999
 20
0.4255
 30
0.0
  0
LWPOLYLINE
  5
788C9
330
458D6
100
AcDbEntity
  8
0
100
AcDbPolyline
 90
        6
 70
     0
 43
0.0
 38
3.587375
 10
0.5661999999999973
 20
-2.068678404338003
 10
0.5661999999999973
 20
-2.166999999999999
 10
0.6261999999999973
 20
-2.166999999999999
 10
0.6261999999999973
 20
-2.206999999999999
 10
0.5661999999999973
 20
-2.206999999999999
 10
0.5661999999999973
 20
-2.305321595661987
  0
LWPOLYLINE
  5
788CA
330
458D6
100
AcDbEntity
  8
0
100
AcDbPolyline
 90
        6
 70
     0
 43
0.0
 38
3.587375
 10
0.5261999999999972
 20
-2.068678404338011
 10
0.5261999999999972
 20
-2.166999999999999
 10
0.4661999999999972
 20
-2.166999999999999
 10
0.4661999999999972
 20
-2.206999999999999
 10
0.5261999999999972
 20
-2.206999999999999
 10
0.5261999999999972
 20
-2.305321595661996
  0
LWPOLYLINE
  5
788CB
330
458D6
100
AcDbEntity
  8
0
100
AcDbPolyline
 90
        6
 70
     0
 43
0.0
 38
3.587375
 10
1.244200000000001
 20
-2.068678404338003
 10
1.244200000000001
 20
-2.166999999999999
 10
1.304200000000001
 20
-2.166999999999999
 10
1.304200000000001
 20
-2.206999999999999
 10
1.244200000000001
 20
-2.206999999999999
 10
1.244200000000001
 20
-2.305321595661987
  0
LWPOLYLINE
  5
788CC
330
458D6
100
AcDbEntity
  8
0
100
AcDbPolyline
 90
        6
 70
     0
 43
0.0
 38
3.587375
 10
1.204200000000001
 20
-2.068678404338011
 10
1.204200000000001
 20
-2.166999999999999
 10
1.144200000000001
 20
-2.166999999999999
 10
1.144200000000001
 20
-2.206999999999999
 10
1.204200000000001
 20
-2.206999999999999
 10
1.204200000000001
 20
-2.305321595661996
  0
LWPOLYLINE
  5
788CD
330
458D6
100
AcDbEntity
  8
0
100
AcDbPolyline
 90
        6
 70
     0
 43
0.0
 38
4.609375
 10
0.2580749999999995
 20
-1.451336958369917
 10
0.2580749999999995
 20
-1.567879991879503
 10
0.3180749999999995
 20
-1.567879991879503
 10
0.3180749999999995
 20
-1.607879991879503
 10
0.2580749999999995
 20
-1.607879991879503
 10
0.2580749999999995
 20
-1.72442302538909
  0
LWPOLYLINE
  5
788CE
330
458D6
100
AcDbEntity
  8
0
100
AcDbPolyline
 90
        6
 70
     0
 43
0.0
 38
4.609375
 10
0.2180749999999995
 20
-1.451336958369917
 10
0.2180749999999995
 20
-1.567879991879503
 10
0.1580749999999994
 20
-1.567879991879503
 10
0.1580749999999994
 20
-1.607879991879503
 10
0.2180749999999995
 20
-1.607879991879503
 10
0.2180749999999995
 20
-1.72442302538909
  0
LWPOLYLINE
  5
788CF
330
458D6
100
AcDbEntity
  8
0
100
AcDbPolyline
 90
        6
 70
     0
 43
0.0
 38
4.609375
 10
0.6878249999999998
 20
-1.451336958369917
 10
0.6878249999999998
 20
-1.567879991879503
 10
0.7478249999999999
 20
-1.567879991879503
 10
0.7478249999999999
 20
-1.607879991879503
 10
0.6878249999999998
 20
-1.607879991879503
 10
0.6878249999999998
 20
-1.72442302538909
  0
LWPOLYLINE
  5
788D0
330
458D6
100
AcDbEntity
  8
0
100
AcDbPolyline
 90
        6
 70
     0
 43
0.0
 38
4.609375
 10
0.6478249999999998
 20
-1.451336958369917
 10
0.6478249999999998
 20
-1.567879991879503
 10
0.5878249999999997
 20
-1.567879991879503
 10
0.5878249999999997
 20
-1.607879991879503
 10
0.6478249999999998
 20
-1.607879991879503
 10
0.6478249999999998
 20
-1.72442302538909
  0
LWPOLYLINE
  5
788D1
330
458D6
100
AcDbEntity
  8
0
100
AcDbPolyline
 90
        6
 70
     0
 43
0.0
 38
4.609375
 10
1.117574999999999
 20
-1.451336958369917
 10
1.117574999999999
 20
-1.567879991879503
 10
1.177574999999999
 20
-1.567879991879503
 10
1.177574999999999
 20
-1.607879991879503
 10
1.117574999999999
 20
-1.607879991879503
 10
1.117574999999999
 20
-1.72442302538909
  0
LWPOLYLINE
  5
788D2
330
458D6
100
AcDbEntity
  8
0
100
AcDbPolyline
 90
        6
 70
     0
 43
0.0
 38
4.609375
 10
1.077574999999999
 20
-1.451336958369917
 10
1.077574999999999
 20
-1.567879991879503
 10
1.017574999999999
 20
-1.567879991879503
 10
1.017574999999999
 20
-1.607879991879503
 10
1.077574999999999
 20
-1.607879991879503
 10
1.077574999999999
 20
-1.72442302538909
  0
LWPOLYLINE
  5
788D3
330
458D6
100
AcDbEntity
  8
0
100
AcDbPolyline
 90
        6
 70
     0
 43
0.0
 38
4.609375
 10
1.547325
 20
-1.451336958369917
 10
1.547325
 20
-1.567879991879503
 10
1.607325
 20
-1.567879991879503
 10
1.607325
 20
-1.607879991879503
 10
1.547325
 20
-1.607879991879503
 10
1.547325
 20
-1.72442302538909
  0
LWPOLYLINE
  5
788D4
330
458D6
100
AcDbEntity
  8
0
100
AcDbPolyline
 90
        6
 70
     0
 43
0.0
 38
4.609375
 10
1.507324999999999
 20
-1.451336958369917
 10
1.507324999999999
 20
-1.567879991879503
 10
1.447325
 20
-1.567879991879503
 10
1.447325
 20
-1.607879991879503
 10
1.507324999999999
 20
-1.607879991879503
 10
1.507324999999999
 20
-1.72442302538909
  0
LWPOLYLINE
  5
788D5
330
458D6
100
AcDbEntity
  8
0
100
AcDbPolyline
 90
        6
 70
     0
 43
0.0
 38
4.609375
 10
0.2580749999999995
 20
0.291450611449712
 10
0.2580749999999995
 20
0.1749075779401257
 10
0.3180749999999995
 20
0.1749075779401257
 10
0.3180749999999995
 20
0.1349075779401256
 10
0.2580749999999995
 20
0.1349075779401256
 10
0.2580749999999995
 20
0.0183645444305394
  0
LWPOLYLINE
  5
788D6
330
458D6
100
AcDbEntity
  8
0
100
AcDbPolyline
 90
        6
 70
     0
 43
0.0
 38
4.609375
 10
0.2180749999999995
 20
0.291450611449712
 10
0.2180749999999995
 20
0.1749075779401257
 10
0.1580749999999994
 20
0.1749075779401257
 10
0.1580749999999994
 20
0.1349075779401256
 10
0.2180749999999995
 20
0.1349075779401256
 10
0.2180749999999995
 20
0.0183645444305394
  0
CIRCLE
  5
788D7
330
458D6
100
AcDbEntity
  8
0
100
AcDbCircle
 10
0.6678249999999998
 20
0.1549075779401257
 30
4.609375
 40
0.138
  0
LWPOLYLINE
  5
788D8
330
458D6
100
AcDbEntity
  8
0
100
AcDbPolyline
 90
        6
 70
     0
 43
0.0
 38
4.609375
 10
0.6478249999999998
 20
0.291450611449712
 10
0.6478249999999998
 20
0.1749075779401257
 10
0.5878249999999997
 20
0.1749075779401257
 10
0.5878249999999997
 20
0.1349075779401256
 10
0.6478249999999998
 20
0.1349075779401256
 10
0.6478249999999998
 20
0.0183645444305394
  0
LWPOLYLINE
  5
788D9
330
458D6
100
AcDbEntity
  8
0
100
AcDbPolyline
 90
        6
 70
     0
 43
0.0
 38
4.609375
 10
0.6878249999999998
 20
0.291450611449712
 10
0.6878249999999998
 20
0.1749075779401257
 10
0.7478249999999999
 20
0.1749075779401257
 10
0.7478249999999999
 20
0.1349075779401256
 10
0.6878249999999998
 20
0.1349075779401256
 10
0.6878249999999998
 20
0.0183645444305394
  0
LWPOLYLINE
  5
788DA
330
458D6
100
AcDbEntity
  8
0
100
AcDbPolyline
 90
        6
 70
     0
 43
0.0
 38
4.609375
 10
1.077574999999999
 20
0.291450611449712
 10
1.077574999999999
 20
0.1749075779401257
 10
1.017574999999999
 20
0.1749075779401257
 10
1.017574999999999
 20
0.1349075779401256
 10
1.077574999999999
 20
0.1349075779401256
 10
1.077574999999999
 20
0.0183645444305394
  0
LWPOLYLINE
  5
788DB
330
458D6
100
AcDbEntity
  8
0
100
AcDbPolyline
 90
        6
 70
     0
 43
0.0
 38
4.609375
 10
1.117574999999999
 20
0.291450611449712
 10
1.117574999999999
 20
0.1749075779401257
 10
1.177574999999999
 20
0.1749075779401257
 10
1.177574999999999
 20
0.1349075779401256
 10
1.117574999999999
 20
0.1349075779401256
 10
1.117574999999999
 20
0.0183645444305394
  0
CIRCLE
  5
788DC
330
458D6
100
AcDbEntity
  8
0
100
AcDbCircle
 10
1.097574999999999
 20
0.1549075779401257
 30
4.609375
 40
0.138
  0
CIRCLE
  5
788DD
330
458D6
100
AcDbEntity
  8
0
100
AcDbCircle
 10
1.527325
 20
0.1549075779401257
 30
4.609375
 40
0.138
  0
LWPOLYLINE
  5
788DE
330
458D6
100
AcDbEntity
  8
0
100
AcDbPolyline
 90
        6
 70
     0
 43
0.0
 38
4.609375
 10
1.547325
 20
0.291450611449712
 10
1.547325
 20
0.1749075779401257
 10
1.607325
 20
0.1749075779401257
 10
1.607325
 20
0.1349075779401256
 10
1.547325
 20
0.1349075779401256
 10
1.547325
 20
0.0183645444305394
  0
LWPOLYLINE
  5
788DF
330
458D6
100
AcDbEntity
  8
0
100
AcDbPolyline
 90
        6
 70
     0
 43
0.0
 38
4.609375
 10
1.507324999999999
 20
0.291450611449712
 10
1.507324999999999
 20
0.1749075779401257
 10
1.447325
 20
0.1749075779401257
 10
1.447325
 20
0.1349075779401256
 10
1.507324999999999
 20
0.1349075779401256
 10
1.507324999999999
 20
0.0183645444305394
  0
POLYLINE
  5
788E0
330
458D6
100
AcDbEntity
  8
0
100
AcDbPolygonMesh
 66
     1
 10
0.0
 20
0.0
 30
0.0
 70
    16
 71
     6
 72
     3
  0
VERTEX
  5
788E1
330
788E0
100
AcDbEntity
  8
0
100
AcDbVertex
100
AcDbPolygonMeshVertex
 10
1.765199999999999
 20
-1.9685
 30
3.587375
 70
    64
  0
VERTEX
  5
788E2
330
788E0
100
AcDbEntity
  8
0
100
AcDbVertex
100
AcDbPolygonMeshVertex
 10
1.765199999999999
 20
-1.9685
 30
1.318
 70
    64
  0
VERTEX
  5
788E3
330
788E0
100
AcDbEntity
  8
0
100
AcDbVertex
100
AcDbPolygonMeshVertex
 10
1.765199999999999
 20
-1.9685
 30
1.318
 70
    64
  0
VERTEX
  5
788E4
330
788E0
100
AcDbEntity
  8
0
100
AcDbVertex
100
AcDbPolygonMeshVertex
 10
0.0002000000000001
 20
-1.9685
 30
3.587375
 70
    64
  0
VERTEX
  5
788E5
330
788E0
100
AcDbEntity
  8
0
100
AcDbVertex
100
AcDbPolygonMeshVertex
 10
0.0002000000000001
 20
-1.9685
 30
1.318
 70
    64
  0
VERTEX
  5
788E6
330
788E0
100
AcDbEntity
  8
0
100
AcDbVertex
100
AcDbPolygonMeshVertex
 10
0.0002000000000001
 20
-1.9685
 30
1.318
 70
    64
  0
VERTEX
  5
788E7
330
788E0
100
AcDbEntity
  8
0
100
AcDbVertex
100
AcDbPolygonMeshVertex
 10
0.0002000000000001
 20
0.5215050200752609
 30
3.587375
 70
    64
  0
VERTEX
  5
788E8
330
788E0
100
AcDbEntity
  8
0
100
AcDbVertex
100
AcDbPolygonMeshVertex
 10
0.0002000000000001
 20
0.5215050200752609
 30
1.318
 70
    64
  0
VERTEX
  5
788E9
330
788E0
100
AcDbEntity
  8
0
100
AcDbVertex
100
AcDbPolygonMeshVertex
 10
0.0002000000000001
 20
-1.9685
 30
1.318
 70
    64
  0
VERTEX
  5
788EA
330
788E0
100
AcDbEntity
  8
0
100
AcDbVertex
100
AcDbPolygonMeshVertex
 10
1.765199999999999
 20
0.5215050200752609
 30
3.587375
 70
    64
  0
VERTEX
  5
788EB
330
788E0
100
AcDbEntity
  8
0
100
AcDbVertex
100
AcDbPolygonMeshVertex
 10
1.765199999999999
 20
0.5215050200752609
 30
1.318
 70
    64
  0
VERTEX
  5
788EC
330
788E0
100
AcDbEntity
  8
0
100
AcDbVertex
100
AcDbPolygonMeshVertex
 10
1.765199999999999
 20
-1.9685
 30
1.318
 70
    64
  0
VERTEX
  5
788ED
330
788E0
100
AcDbEntity
  8
0
100
AcDbVertex
100
AcDbPolygonMeshVertex
 10
1.765199999999999
 20
0.5215050200752609
 30
3.587375
 70
    64
  0
VERTEX
  5
788EE
330
788E0
100
AcDbEntity
  8
0
100
AcDbVertex
100
AcDbPolygonMeshVertex
 10
1.765199999999999
 20
0.5215050200752609
 30
3.587375
 70
    64
  0
VERTEX
  5
788EF
330
788E0
100
AcDbEntity
  8
0
100
AcDbVertex
100
AcDbPolygonMeshVertex
 10
1.765199999999999
 20
-1.9685
 30
3.587375
 70
    64
  0
VERTEX
  5
788F0
330
788E0
100
AcDbEntity
  8
0
100
AcDbVertex
100
AcDbPolygonMeshVertex
 10
0.0002000000000001
 20
0.5215050200752609
 30
3.587375
 70
    64
  0
VERTEX
  5
788F1
330
788E0
100
AcDbEntity
  8
0
100
AcDbVertex
100
AcDbPolygonMeshVertex
 10
0.0002000000000001
 20
0.5215050200752609
 30
3.587375
 70
    64
  0
VERTEX
  5
788F2
330
788E0
100
AcDbEntity
  8
0
100
AcDbVertex
100
AcDbPolygonMeshVertex
 10
0.0002000000000001
 20
-1.9685
 30
3.587375
 70
    64
  0
SEQEND
  5
788F3
330
788E0
100
AcDbEntity
  8
0
  0
TEXT
  5
788F4
330
458D6
100
AcDbEntity
  8
0
100
AcDbText
 10
0.5104128777889084
 20
-1.820413182322326
 30
4.609375
 40
0.0834654981097751
  1
4
100
AcDbText
  0
DIMENSION
  5
788F5
330
458D6
100
AcDbEntity
  8
AREA1
100
AcDbDimension
  2
*D1
 10
-0.3985764655990244
 20
-2.4055
 30
0.0
 11
-0.398576465599024
 21
-0.8709994387016291
 31
0.0
 70
   160
 71
     5
 42
-1.0
 73
     0
 74
     0
 75
     0
  3
ABECAD_3D
100
AcDbAlignedDimension
 13
0.6972000000000002
 23
0.7744999999999998
 33
2.913375
 14
0.3326999999999992
 24
-2.4055
 34
2.913375
 50
90.0
100
AcDbRotatedDimension
  0
DIMENSION
  5
78903
330
458D6
100
AcDbEntity
  8
AREA1
100
AcDbDimension
  2
*D2
 10
1.765199999999999
 20
1.142199443918132
 30
0.0
 11
0.8687349029939465
 21
1.406374860490561
 31
0.0
 70
   160
 71
     5
 42
-1.0
 73
     0
 74
     0
 75
     0
  3
ABECAD_3D
100
AcDbAlignedDimension
 13
0.0052
 23
0.7184999999999994
 33
0.8555000000000001
 14
1.765199999999999
 24
0.5745
 34
0.0
100
AcDbRotatedDimension
  0
LWPOLYLINE
  5
78929
330
458D6
100
AcDbEntity
  8
SCALE
100
AcDbPolyline
 90
        4
 70
     1
 43
0.0
 10
0.3183994410974589
 20
-2.522338991498226
 10
1.454028260639431
 20
-2.522338991498226
 10
1.454028260639431
 20
-3.36394855827624
 10
0.3183994410974589
 20
-3.36394855827624
  0
LINE
  5
7892A
330
458D6
100
AcDbEntity
  8
SCALE
100
AcDbLine
 10
0.3763981053242209
 20
-2.902417310202441
 30
0.0
 11
1.37639810532422
 21
-2.902417310202441
 31
0.0
  0
LINE
  5
7892B
330
458D6
100
AcDbEntity
  8
SCALE
100
AcDbLine
 10
0.3763981053242209
 20
-3.202417310202441
 30
0.0
 11
0.7700981053242209
 21
-3.202417310202441
 31
0.0
  0
LINE
  5
7892C
330
458D6
100
AcDbEntity
  8
SCALE
100
AcDbLine
 10
0.3763981053242209
 20
-3.002417310202441
 30
0.0
 11
0.3763981053242209
 21
-2.80241731020244
 31
0.0
  0
TEXT
  5
7892D
330
458D6
100
AcDbEntity
  8
SCALE
100
AcDbText
 10
0.4323740872546958
 20
-3.154732220439599
 30
0.0
 40
0.0625
  1
[10mm]
100
AcDbText
  0
LINE
  5
7892E
330
458D6
100
AcDbEntity
  8
SCALE
100
AcDbLine
 10
0.3763981053242209
 20
-3.30241731020244
 30
0.0
 11
0.3763981053242209
 21
-3.102417310202441
 31
0.0
  0
TEXT
  5
7892F
330
458D6
100
AcDbEntity
  8
SCALE
100
AcDbText
 10
0.3779283705707468
 20
-2.627540188928827
 30
0.0
 40
0.0625
  1
SCALE:
100
AcDbText
  0
LINE
  5
78930
330
458D6
100
AcDbEntity
  8
SCALE
100
AcDbLine
 10
0.7700981053242209
 20
-3.30241731020244
 30
0.0
 11
0.7700981053242209
 21
-3.102417310202441
 31
0.0
  0
TEXT
  5
78931
330
458D6
100
AcDbEntity
  8
SCALE
100
AcDbText
 10
0.7396810938081307
 20
-2.83336861482924
 30
0.0
 40
0.0625
  1
1 Inch
100
AcDbText
  0
LINE
  5
78932
330
458D6
100
AcDbEntity
  8
SCALE
100
AcDbLine
 10
1.37639810532422
 20
-2.902417310202441
 30
0.0
 11
1.37639810532422
 21
-3.002417310202441
 31
0.0
  0
LINE
  5
78933
330
458D6
100
AcDbEntity
  8
SCALE
100
AcDbLine
 10
1.37639810532422
 20
-3.002417310202441
 30
0.0
 11
1.37639810532422
 21
-2.80241731020244
 31
0.0
  0
VIEWPORT
  5
5677D
330
458D3
100
AcDbEntity
 67
     1
  8
0
100
AcDbViewport
 10
5.249999639556163
 20
3.999999883606677
 30
0.0
 40
16.38686186943767
 41
8.992999745766947
 68
     1
 69
     1
 12
5.249999639556163
 22
3.999999883606677
 13
0.0
 23
0.0
 14
0.5
 24
0.5
 15
0.5
 25
0.5
 16
0.0
 26
0.0
 36
1.0
 17
0.0
 27
0.0
 37
0.0
 42
50.0
 43
0.0
 44
0.0
 45
8.992999745766947
 50
0.0
 51
0.0
 72
 20000
 90
    32800
  1

281
     0
 71
     1
 74
     0
110
0.0
120
0.0
130
0.0
111
1.0
121
0.0
131
0.0
112
0.0
122
1.0
132
0.0
 79
     0
146
0.0
170
     0
 61
     5
348
789DB
292
     1
282
     1
141
0.0
142
0.0
 63
   250
421
  3355443
  0
VIEWPORT
  5
5677F
330
458D3
100
AcDbEntity
 67
     1
  8
AREA1
100
AcDbViewport
 10
5.24999976158142
 20
3.99999976158142
 30
0.0
 40
8.399999618530271
 41
6.399999618530272
 68
     2
 69
     2
 12
-1.017175299537903
 22
0.747812767808223
 13
0.0
 23
0.0
 14
0.25
 24
0.25
 15
0.25
 25
0.25
 16
0.0
 26
0.0
 36
1.0
 17
0.5634438949382106
 27
-0.8801371703728531
 37
1.68649307151727
 42
50.0
 43
0.0
 44
0.0
 45
4.58291448918931
 50
0.0
 51
0.0
 72
 20000
 90
    32800
  1

281
     1
 71
     1
 74
     0
110
0.0
120
0.0
130
0.0
111
1.0
121
0.0
131
0.0
112
0.0
122
1.0
132
0.0
 79
     1
146
0.0
170
     0
 61
     5
348
789DC
292
     1
282
     1
141
0.0
142
0.0
 63
   250
421
  3355443
  0
ENDSEC
  0
SECTION
  2
OBJECTS
  0
DICTIONARY
  5
458CB
330
0
100
AcDbDictionary
281
     1
  3
ACAD_BACKGROUND
350
789EB
  3
ACAD_COLOR
350
789E6
  3
ACAD_GROUP
350
458CC
  3
ACAD_LAYOUT
350
458FB
  3
ACAD_MATERIAL
350
789D1
  3
ACAD_MLINESTYLE
350
458D9
  3
ACAD_PLOTSETTINGS
350
458FC
  3
ACAD_PLOTSTYLENAME
350
458F9
  3
ACAD_TABLESTYLE
350
789E7
  3
ACAD_VISUALSTYLE
350
789D5
  3
ACADE_WIRETYPE
350
78A00
  3
ACDBVARIABLEDICTIONARY
350
458E1
  3
ASE_INDEX_DICTIONARY
350
789F3
  0
DICTIONARY
  5
78A02
330
458C7
100
AcDbDictionary
280
     1
281
     1
  0
DICTIONARY
  5
789F0
330
789EF
100
AcDbDictionary
280
     1
281
     1
  3
ACADE_WIRETYPE
360
789F1
  0
DICTIONARY
  5
4592C
330
458D6
100
AcDbDictionary
280
     1
281
     1
  3
ACAD_LAYOUTSELFREF
360
789C5
  0
DICTIONARY
  5
4592A
330
458D3
100
AcDbDictionary
280
     1
281
     1
  3
ACAD_LAYOUTSELFREF
360
789C4
  0
DICTIONARY
  5
789EB
102
{ACAD_REACTORS
330
458CB
102
}
330
458CB
100
AcDbDictionary
281
     1
  0
DICTIONARY
  5
789E6
102
{ACAD_REACTORS
330
458CB
102
}
330
458CB
100
AcDbDictionary
281
     1
  0
DICTIONARY
  5
458CC
102
{ACAD_REACTORS
330
458CB
102
}
330
458CB
100
AcDbDictionary
281
     1
  0
DICTIONARY
  5
458FB
102
{ACAD_REACTORS
330
458CB
102
}
330
458CB
100
AcDbDictionary
281
     1
  3
Layout1
350
458FE
  3
Model
350
458FD
  0
DICTIONARY
  5
789D1
102
{ACAD_REACTORS
330
458CB
102
}
330
458CB
100
AcDbDictionary
281
     1
  3
ByBlock
350
789D3
  3
ByLayer
350
789D2
  3
Global
350
789D4
  0
DICTIONARY
  5
458D9
102
{ACAD_REACTORS
330
458CB
102
}
330
458CB
100
AcDbDictionary
281
     1
  3
STANDARD
350
458DA
  0
DICTIONARY
  5
458FC
102
{ACAD_REACTORS
330
458CB
102
}
330
458CB
100
AcDbDictionary
281
     1
  0
ACDBDICTIONARYWDFLT
  5
458F9
102
{ACAD_REACTORS
330
458CB
102
}
330
458CB
100
AcDbDictionary
281
     1
  3
Normal
350
458FA
100
AcDbDictionaryWithDefault
340
458FA
  0
DICTIONARY
  5
789E7
102
{ACAD_REACTORS
330
458CB
102
}
330
458CB
100
AcDbDictionary
281
     1
  3
Standard
350
789E8
  0
DICTIONARY
  5
789D5
102
{ACAD_REACTORS
330
458CB
102
}
330
458CB
100
AcDbDictionary
281
     1
  3
2dWireframe
350
789DB
  3
3D Hidden
350
789DD
  3
3dWireframe
350
789DC
  3
Basic
350
789DA
  3
Brighten
350
789E1
  3
ColorChange
350
789E5
  3
Conceptual
350
789DE
  3
Dim
350
789E0
  3
Facepattern
350
789E4
  3
Flat
350
789D6
  3
FlatWithEdges
350
789D7
  3
Gouraud
350
789D8
  3
GouraudWithEdges
350
789D9
  3
Linepattern
350
789E3
  3
Realistic
350
789DF
  3
Thicken
350
789E2
  0
DICTIONARY
  5
78A00
102
{ACAD_REACTORS
330
458CB
102
}
330
458CB
100
AcDbDictionary
281
     1
  3
CURRENT_WIRELAY
350
78A01
  0
DICTIONARY
  5
458E1
102
{ACAD_REACTORS
330
458CB
102
}
330
458CB
100
AcDbDictionary
281
     1
  3
CTABLESTYLE
350
789F6
  3
DIMADEC
350
458E2
  0
DICTIONARY
  5
789F3
102
{ACAD_REACTORS
330
458CB
102
}
330
458CB
100
AcDbDictionary
281
     1
  3
ASEBlockHierarchyIndexRecord
350
789F5
1001
DCO15
1040
1582952297.411
  0
XRECORD
  5
789F1
102
{ACAD_REACTORS
330
789F0
102
}
330
789F0
100
AcDbXrecord
280
     1
  1

  2

  3
WIRE
 90
        0
  0
XRECORD
  5
789C5
102
{ACAD_REACTORS
330
4592C
102
}
330
4592C
100
AcDbXrecord
280
     1
340
458D6
  0
XRECORD
  5
789C4
102
{ACAD_REACTORS
330
4592A
102
}
330
4592A
100
AcDbXrecord
280
     1
340
458D3
  0
LAYOUT
  5
458FE
102
{ACAD_REACTORS
330
458FB
102
}
330
458FB
100
AcDbPlotSettings
  1

  2
none_device
  4
Letter_(8.50_x_11.00_Inches)
  6

 40
6.349999904632568
 41
6.349999904632568
 42
6.350006103515625
 43
6.350006103515625
 44
215.8999938964844
 45
279.3999938964844
 46
0.0
 47
0.0
 48
0.0
 49
0.0
140
0.0
141
0.0
142
1.0
143
1.0
 70
   688
 72
     0
 73
     1
 74
     5
  7
Default R14 pen assignments.ctb
 75
    16
147
1.0
 76
     0
 77
     2
 78
   300
148
0.0
149
0.0
100
AcDbLayout
  1
Layout1
 70
     1
 71
     1
 10
-0.2500002402958907
 20
-0.2499999962453767
 11
10.74999951940821
 21
8.249999763458731
 12
0.0
 22
0.0
 32
0.0
 14
1.049999952316284
 24
0.7999999523162842
 34
0.0
 15
9.449999570846555
 25
7.199999570846556
 35
0.0
146
0.0
 13
0.0
 23
0.0
 33
0.0
 16
1.0
 26
0.0
 36
0.0
 17
0.0
 27
1.0
 37
0.0
 76
     0
330
458D3
331
5677D
  0
LAYOUT
  5
458FD
102
{ACAD_REACTORS
330
458FB
102
}
330
458FB
100
AcDbPlotSettings
  1

  2
HP LaserJet 5000 Series PCL 6
  4

  6

 40
0.0
 41
0.0
 42
0.0
 43
0.0
 44
0.0
 45
0.0
 46
0.0
 47
0.0
 48
0.0
 49
0.0
140
0.0
141
0.0
142
1.0
143
1.0
 70
  1712
 72
     0
 73
     0
 74
     0
  7
Default R14 pen assignments.ctb
 75
     0
147
1.0
 76
     0
 77
     2
 78
   300
148
0.0
149
0.0
100
AcDbLayout
  1
Model
 70
     1
 71
     0
 10
0.0
 20
0.0
 11
12.0
 21
9.0
 12
0.0
 22
0.0
 32
0.0
 14
0.0
 24
0.0
 34
0.0
 15
0.0
 25
0.0
 35
0.0
146
0.0
 13
0.0
 23
0.0
 33
0.0
 16
1.0
 26
0.0
 36
0.0
 17
0.0
 27
1.0
 37
0.0
 76
     0
330
458D6
331
7899E
  0
MATERIAL
  5
789D3
102
{ACAD_REACTORS
330
789D1
102
}
330
789D1
100
AcDbMaterial
  1
ByBlock
  0
MATERIAL
  5
789D2
102
{ACAD_REACTORS
330
789D1
102
}
330
789D1
100
AcDbMaterial
  1
ByLayer
  0
MATERIAL
  5
789D4
102
{ACAD_REACTORS
330
789D1
102
}
330
789D1
100
AcDbMaterial
  1
Global
  0
MLINESTYLE
  5
458DA
102
{ACAD_REACTORS
330
458D9
102
}
330
458D9
100
AcDbMlineStyle
  2
STANDARD
 70
     0
  3

 62
   256
 51
90.0
 52
90.0
 71
     2
 49
0.5
 62
   256
  6
BYLAYER
 49
-0.5
 62
   256
  6
BYLAYER
  0
ACDBPLACEHOLDER
  5
458FA
102
{ACAD_REACTORS
330
458F9
102
}
330
458F9
  0
TABLESTYLE
  5
789E8
102
{ACAD_REACTORS
330
789E7
102
}
330
789E7
100
AcDbTableStyle
  3
Standard
 70
     0
 71
     0
 40
0.06
 41
0.06
280
     0
281
     0
  7
STANDARD
140
0.18
170
     2
 62
     0
 63
     7
283
     0
 90
      512
 91
        0
  1

274
    -2
284
     1
 64
     0
275
    -2
285
     1
 65
     0
276
    -2
286
     1
 66
     0
277
    -2
287
     1
 67
     0
278
    -2
288
     1
 68
     0
279
    -2
289
     1
 69
     0
  7
STANDARD
140
0.25
170
     5
 62
     0
 63
     7
283
     0
 90
      512
 91
        0
  1

274
    -2
284
     1
 64
     0
275
    -2
285
     1
 65
     0
276
    -2
286
     1
 66
     0
277
    -2
287
     1
 67
     0
278
    -2
288
     1
 68
     0
279
    -2
289
     1
 69
     0
  7
STANDARD
140
0.18
170
     5
 62
     0
 63
     7
283
     0
 90
      512
 91
        0
  1

274
    -2
284
     1
 64
     0
275
    -2
285
     1
 65
     0
276
    -2
286
     1
 66
     0
277
    -2
287
     1
 67
     0
278
    -2
288
     1
 68
     0
279
    -2
289
     1
 69
     0
  0
VISUALSTYLE
  5
789DB
102
{ACAD_REACTORS
330
789D5
102
}
330
789D5
100
AcDbVisualStyle
  2
2dWireframe
 70
     4
 71
     0
 72
     2
 73
     0
 90
        0
 40
-0.6
 41
-30.0
 62
     5
 63
     7
421
 16777215
 74
     1
 91
        4
 64
     7
 65
   257
 75
     1
175
     1
 42
1.0
 92
        0
 66
   257
 43
1.0
 76
     1
 77
     6
 78
     2
 67
     7
 79
     5
170
     0
171
     0
290
     0
174
     0
 93
        1
 44
0.0
173
     0
291
     0
 45
0.0
  0
VISUALSTYLE
  5
789DD
102
{ACAD_REACTORS
330
789D5
102
}
330
789D5
100
AcDbVisualStyle
  2
3D Hidden
 70
     6
 71
     1
 72
     2
 73
     2
 90
        0
 40
-0.6
 41
-30.0
 62
     5
 63
     7
421
 16777215
 74
     2
 91
        2
 64
     7
 65
   257
 75
     2
175
     1
 42
40.0
 92
        0
 66
   257
 43
1.0
 76
     1
 77
     6
 78
     2
 67
     7
 79
     3
170
     0
171
     0
290
     0
174
     0
 93
        1
 44
0.0
173
     0
291
     0
 45
0.0
  0
VISUALSTYLE
  5
789DC
102
{ACAD_REACTORS
330
789D5
102
}
330
789D5
100
AcDbVisualStyle
  2
3dWireframe
 70
     5
 71
     0
 72
     2
 73
     0
 90
        0
 40
-0.6
 41
-30.0
 62
     5
 63
     7
421
 16777215
 74
     1
 91
        4
 64
     7
 65
   257
 75
     1
175
     1
 42
1.0
 92
        0
 66
   257
 43
1.0
 76
     1
 77
     6
 78
     2
 67
     7
 79
     5
170
     0
171
     0
290
     0
174
     0
 93
        1
 44
0.0
173
     0
291
     0
 45
0.0
  0
VISUALSTYLE
  5
789DA
102
{ACAD_REACTORS
330
789D5
102
}
330
789D5
100
AcDbVisualStyle
  2
Basic
 70
     7
 71
     1
 72
     0
 73
     1
 90
        0
 40
-0.6
 41
-30.0
 62
     5
 63
     7
421
 16777215
 74
     0
 91
        4
 64
     7
 65
   257
 75
     1
175
     1
 42
1.0
 92
        8
 66
     7
 43
1.0
 76
     1
 77
     6
 78
     2
 67
     7
 79
     5
170
     0
171
     0
290
     0
174
     0
 93
        1
 44
0.0
173
     0
291
     1
 45
0.0
  0
VISUALSTYLE
  5
789E1
102
{ACAD_REACTORS
330
789D5
102
}
330
789D5
100
AcDbVisualStyle
  2
Brighten
 70
    12
 71
     2
 72
     2
 73
     0
 90
        0
 40
-0.6
 41
-30.0
 62
     5
 63
     7
421
 16777215
 74
     1
 91
        4
 64
     7
 65
   257
 75
     1
175
     1
 42
1.0
 92
        8
 66
     7
 43
1.0
 76
     1
 77
     6
 78
     2
 67
     7
 79
     5
170
     0
171
     0
290
     0
174
     0
 93
        1
 44
50.0
173
     0
291
     1
 45
0.0
  0
VISUALSTYLE
  5
789E5
102
{ACAD_REACTORS
330
789D5
102
}
330
789D5
100
AcDbVisualStyle
  2
ColorChange
 70
    16
 71
     2
 72
     2
 73
     3
 90
        0
 40
-0.6
 41
-30.0
 62
     5
 63
     8
421
  8421504
 74
     1
 91
        4
 64
     7
 65
   257
 75
     1
175
     1
 42
1.0
 92
        8
 66
     8
424
  8421504
 43
1.0
 76
     1
 77
     6
 78
     2
 67
     7
 79
     5
170
     0
171
     0
290
     0
174
     0
 93
        1
 44
0.0
173
     0
291
     1
 45
0.0
  0
VISUALSTYLE
  5
789DE
102
{ACAD_REACTORS
330
789D5
102
}
330
789D5
100
AcDbVisualStyle
  2
Conceptual
 70
     9
 71
     3
 72
     2
 73
     0
 90
        0
 40
-0.6
 41
-30.0
 62
     5
 63
     7
421
 16777215
 74
     2
 91
        2
 64
     7
 65
   257
 75
     1
175
     1
 42
40.0
 92
        8
 66
     7
 43
1.0
 76
     1
 77
     6
 78
     2
 67
     7
 79
     3
170
     0
171
     0
290
     0
174
     0
 93
        1
 44
0.0
173
     0
291
     0
 45
0.0
  0
VISUALSTYLE
  5
789E0
102
{ACAD_REACTORS
330
789D5
102
}
330
789D5
100
AcDbVisualStyle
  2
Dim
 70
    11
 71
     2
 72
     2
 73
     0
 90
        0
 40
-0.6
 41
-30.0
 62
     5
 63
     7
421
 16777215
 74
     1
 91
        4
 64
     7
 65
   257
 75
     1
175
     1
 42
1.0
 92
        8
 66
     7
 43
1.0
 76
     1
 77
     6
 78
     2
 67
     7
 79
     5
170
     0
171
     0
290
     0
174
     0
 93
        1
 44
-50.0
173
     0
291
     1
 45
0.0
  0
VISUALSTYLE
  5
789E4
102
{ACAD_REACTORS
330
789D5
102
}
330
789D5
100
AcDbVisualStyle
  2
Facepattern
 70
    15
 71
     2
 72
     2
 73
     0
 90
        0
 40
-0.6
 41
-30.0
 62
     5
 63
     7
421
 16777215
 74
     1
 91
        4
 64
     7
 65
   257
 75
     1
175
     1
 42
1.0
 92
        8
 66
     7
 43
1.0
 76
     1
 77
     6
 78
     2
 67
     7
 79
     5
170
     0
171
     0
290
     0
174
     0
 93
        1
 44
0.0
173
     0
291
     1
 45
0.0
  0
VISUALSTYLE
  5
789D6
102
{ACAD_REACTORS
330
789D5
102
}
330
789D5
100
AcDbVisualStyle
  2
Flat
 70
     0
 71
     2
 72
     1
 73
     1
 90
        2
 40
-0.6
 41
30.0
 62
     5
 63
     7
421
 16777215
 74
     0
 91
        4
 64
     7
 65
   257
 75
     1
175
     1
 42
1.0
 92
        8
 66
     7
 43
1.0
 76
     1
 77
     6
 78
     2
 67
     7
 79
     5
170
     0
171
     0
290
     0
174
     0
 93
       13
 44
0.0
173
     0
291
     1
 45
0.0
  0
VISUALSTYLE
  5
789D7
102
{ACAD_REACTORS
330
789D5
102
}
330
789D5
100
AcDbVisualStyle
  2
FlatWithEdges
 70
     1
 71
     2
 72
     1
 73
     1
 90
        2
 40
-0.6
 41
30.0
 62
     5
 63
     7
421
 16777215
 74
     1
 91
        4
 64
     7
 65
   257
 75
     1
175
     1
 42
1.0
 92
        0
 66
   257
 43
1.0
 76
     1
 77
     6
 78
     2
 67
     7
 79
     5
170
     0
171
     0
290
     0
174
     0
 93
       13
 44
0.0
173
     0
291
     1
 45
0.0
  0
VISUALSTYLE
  5
789D8
102
{ACAD_REACTORS
330
789D5
102
}
330
789D5
100
AcDbVisualStyle
  2
Gouraud
 70
     2
 71
     2
 72
     2
 73
     1
 90
        2
 40
-0.6
 41
30.0
 62
     5
 63
     7
421
 16777215
 74
     0
 91
        4
 64
     7
 65
   257
 75
     1
175
     1
 42
1.0
 92
        0
 66
     7
 43
1.0
 76
     1
 77
     6
 78
     2
 67
     7
 79
     5
170
     0
171
     0
290
     0
174
     0
 93
       13
 44
0.0
173
     0
291
     1
 45
0.0
  0
VISUALSTYLE
  5
789D9
102
{ACAD_REACTORS
330
789D5
102
}
330
789D5
100
AcDbVisualStyle
  2
GouraudWithEdges
 70
     3
 71
     2
 72
     2
 73
     1
 90
        2
 40
-0.6
 41
30.0
 62
     5
 63
     7
421
 16777215
 74
     1
 91
        4
 64
     7
 65
   257
 75
     1
175
     1
 42
1.0
 92
        0
 66
   257
 43
1.0
 76
     1
 77
     6
 78
     2
 67
     7
 79
     5
170
     0
171
     0
290
     0
174
     0
 93
       13
 44
0.0
173
     0
291
     1
 45
0.0
  0
VISUALSTYLE
  5
789E3
102
{ACAD_REACTORS
330
789D5
102
}
330
789D5
100
AcDbVisualStyle
  2
Linepattern
 70
    14
 71
     2
 72
     2
 73
     0
 90
        0
 40
-0.6
 41
-30.0
 62
     5
 63
     7
421
 16777215
 74
     1
 91
        4
 64
     7
 65
   257
 75
     7
175
     7
 42
1.0
 92
        8
 66
     7
 43
1.0
 76
     1
 77
     6
 78
     2
 67
     7
 79
     5
170
     0
171
     0
290
     0
174
     0
 93
        1
 44
0.0
173
     0
291
     1
 45
0.0
  0
VISUALSTYLE
  5
789DF
102
{ACAD_REACTORS
330
789D5
102
}
330
789D5
100
AcDbVisualStyle
  2
Realistic
 70
     8
 71
     2
 72
     2
 73
     0
 90
        0
 40
-0.6
 41
-30.0
 62
     5
 63
     7
421
 16777215
 74
     1
 91
        0
 64
     7
 65
   257
 75
     1
175
     1
 42
1.0
 92
        8
 66
     8
424
  7895160
 43
1.0
 76
     1
 77
     6
 78
     2
 67
     7
 79
     5
170
     0
171
     0
290
     0
174
     0
 93
       13
 44
0.0
173
     0
291
     0
 45
0.0
  0
VISUALSTYLE
  5
789E2
102
{ACAD_REACTORS
330
789D5
102
}
330
789D5
100
AcDbVisualStyle
  2
Thicken
 70
    13
 71
     2
 72
     2
 73
     0
 90
        0
 40
-0.6
 41
-30.0
 62
     5
 63
     7
421
 16777215
 74
     1
 91
        4
 64
     7
 65
   257
 75
     1
175
     1
 42
1.0
 92
       12
 66
     7
 43
1.0
 76
     1
 77
     6
 78
     2
 67
     7
 79
     5
170
     0
171
     0
290
     0
174
     0
 93
        1
 44
0.0
173
     0
291
     1
 45
0.0
  0
XRECORD
  5
78A01
102
{ACAD_REACTORS
330
78A00
102
}
330
78A00
100
AcDbXrecord
280
     1
  1
WIRES
  1
WIRES
  1

290
     0
  0
DICTIONARYVAR
  5
789F6
102
{ACAD_REACTORS
330
458E1
102
}
330
458E1
100
DictionaryVariables
280
     0
  1
STANDARD
  0
DICTIONARYVAR
  5
458E2
102
{ACAD_REACTORS
330
458E1
102
}
330
458E1
100
DictionaryVariables
280
     0
  1
0
  0
XRECORD
  5
789F5
102
{ACAD_REACTORS
330
789F3
102
}
330
789F3
100
AcDbXrecord
280
     1
330
785B3
330
785B4
330
785B5
  0
ENDSEC
  0
EOF
