  0
SECTION
  2
HEADER
  9
$ACADVER
  1
AC1021
  9
$ACADMAINTVER
 70
     1
  9
$DWGCODEPAGE
  3
ANSI_1252
  9
$LASTSAVEDBY
  1
gdseiver
  9
$INSBASE
 10
0.0
 20
0.0
 30
0.0
  9
$EXTMIN
 10
-0.0000103494035411
 20
-2.221499999999999
 30
-0.0000000000000003
  9
$EXTMAX
 10
1.765410349403541
 20
0.9585000000000007
 30
4.859375000000001
  9
$LIMMIN
 10
0.0
 20
0.0
  9
$LIMMAX
 10
12.0
 20
9.0
  9
$ORTHOMODE
 70
     0
  9
$REGENMODE
 70
     1
  9
$FILLMODE
 70
     1
  9
$QTEXTMODE
 70
     0
  9
$MIRRTEXT
 70
     1
  9
$LTSCALE
 40
1.0
  9
$ATTMODE
 70
     1
  9
$TEXTSIZE
 40
0.12
  9
$TRACEWID
 40
0.05
  9
$TEXTSTYLE
  7
STANDARD
  9
$CLAYER
  8
0
  9
$CELTYPE
  6
BYLAYER
  9
$CECOLOR
 62
   256
  9
$CELTSCALE
 40
1.0
  9
$DISPSILH
 70
     0
  9
$DIMSCALE
 40
1.0
  9
$DIMASZ
 40
0.125
  9
$DIMEXO
 40
0.0625
  9
$DIMDLI
 40
0.375
  9
$DIMRND
 40
0.0
  9
$DIMDLE
 40
0.0
  9
$DIMEXE
 40
0.1
  9
$DIMTP
 40
0.0
  9
$DIMTM
 40
0.0
  9
$DIMTXT
 40
0.125
  9
$DIMCEN
 40
0.09
  9
$DIMTSZ
 40
0.0
  9
$DIMTOL
 70
     0
  9
$DIMLIM
 70
     0
  9
$DIMTIH
 70
     0
  9
$DIMTOH
 70
     1
  9
$DIMSE1
 70
     0
  9
$DIMSE2
 70
     0
  9
$DIMTAD
 70
     0
  9
$DIMZIN
 70
     4
  9
$DIMBLK
  1

  9
$DIMASO
 70
     1
  9
$DIMSHO
 70
     1
  9
$DIMPOST
  1

  9
$DIMAPOST
  1

  9
$DIMALT
 70
     1
  9
$DIMALTD
 70
     2
  9
$DIMALTF
 40
25.4
  9
$DIMLFAC
 40
1.0
  9
$DIMTOFL
 70
     0
  9
$DIMTVP
 40
0.0
  9
$DIMTIX
 70
     0
  9
$DIMSOXD
 70
     0
  9
$DIMSAH
 70
     0
  9
$DIMBLK1
  1

  9
$DIMBLK2
  1

  9
$DIMSTYLE
  2
ABECAD_3D
  9
$DIMCLRD
 70
     0
  9
$DIMCLRE
 70
     0
  9
$DIMCLRT
 70
     0
  9
$DIMTFAC
 40
1.5
  9
$DIMGAP
 40
0.09
  9
$DIMJUST
 70
     0
  9
$DIMSD1
 70
     0
  9
$DIMSD2
 70
     0
  9
$DIMTOLJ
 70
     1
  9
$DIMTZIN
 70
     4
  9
$DIMALTZ
 70
     4
  9
$DIMALTTZ
 70
     4
  9
$DIMUPT
 70
     1
  9
$DIMDEC
 70
     6
  9
$DIMTDEC
 70
     6
  9
$DIMALTU
 70
     2
  9
$DIMALTTD
 70
     2
  9
$DIMTXSTY
  7
STANDARD
  9
$DIMAUNIT
 70
     0
  9
$DIMADEC
 70
     0
  9
$DIMALTRND
 40
0.0
  9
$DIMAZIN
 70
     0
  9
$DIMDSEP
 70
    46
  9
$DIMATFIT
 70
     2
  9
$DIMFRAC
 70
     2
  9
$DIMLDRBLK
  1

  9
$DIMLUNIT
 70
     5
  9
$DIMLWD
 70
    -2
  9
$DIMLWE
 70
    -2
  9
$DIMTMOVE
 70
     2
  9
$DIMFXL
 40
1.0
  9
$DIMFXLON
 70
     0
  9
$DIMJOGANG
 40
0.7853981633974483
  9
$DIMTFILL
 70
     0
  9
$DIMTFILLCLR
 70
     0
  9
$DIMARCSYM
 70
     0
  9
$DIMLTYPE
  6

  9
$DIMLTEX1
  6

  9
$DIMLTEX2
  6

  9
$LUNITS
 70
     2
  9
$LUPREC
 70
     4
  9
$SKETCHINC
 40
0.1
  9
$FILLETRAD
 40
0.0
  9
$AUNITS
 70
     0
  9
$AUPREC
 70
     0
  9
$MENU
  1
ACAD
  9
$ELEVATION
 40
0.0
  9
$PELEVATION
 40
0.0
  9
$THICKNESS
 40
0.0
  9
$LIMCHECK
 70
     0
  9
$CHAMFERA
 40
0.0
  9
$CHAMFERB
 40
0.0
  9
$CHAMFERC
 40
0.0
  9
$CHAMFERD
 40
0.0
  9
$SKPOLY
 70
     0
  9
$TDCREATE
 40
2451726.480055787
  9
$TDUCREATE
 40
2451726.688389120
  9
$TDUPDATE
 40
2454229.400674341
  9
$TDUUPDATE
 40
2454229.609007674
  9
$TDINDWG
 40
0.9746776157
  9
$TDUSRTIMER
 40
0.9746776157
  9
$USRTIMER
 70
     1
  9
$ANGBASE
 50
0.0
  9
$ANGDIR
 70
     0
  9
$PDMODE
 70
     3
  9
$PDSIZE
 40
0.09
  9
$PLINEWID
 40
0.0
  9
$SPLFRAME
 70
     1
  9
$SPLINETYPE
 70
     6
  9
$SPLINESEGS
 70
     8
  9
$HANDSEED
  5
781FA
  9
$SURFTAB1
 70
     6
  9
$SURFTAB2
 70
     6
  9
$SURFTYPE
 70
     6
  9
$SURFU
 70
     6
  9
$SURFV
 70
     6
  9
$UCSBASE
  2

  9
$UCSNAME
  2

  9
$UCSORG
 10
0.0
 20
0.0
 30
0.0
  9
$UCSXDIR
 10
1.0
 20
0.0
 30
0.0
  9
$UCSYDIR
 10
0.0
 20
1.0
 30
0.0
  9
$UCSORTHOREF
  2

  9
$UCSORTHOVIEW
 70
     1
  9
$UCSORGTOP
 10
0.0
 20
0.0
 30
0.0
  9
$UCSORGBOTTOM
 10
0.0
 20
0.0
 30
0.0
  9
$UCSORGLEFT
 10
0.0
 20
0.0
 30
0.0
  9
$UCSORGRIGHT
 10
0.0
 20
0.0
 30
0.0
  9
$UCSORGFRONT
 10
0.0
 20
0.0
 30
0.0
  9
$UCSORGBACK
 10
0.0
 20
0.0
 30
0.0
  9
$PUCSBASE
  2

  9
$PUCSNAME
  2

  9
$PUCSORG
 10
0.0
 20
0.0
 30
0.0
  9
$PUCSXDIR
 10
1.0
 20
0.0
 30
0.0
  9
$PUCSYDIR
 10
0.0
 20
1.0
 30
0.0
  9
$PUCSORTHOREF
  2

  9
$PUCSORTHOVIEW
 70
     0
  9
$PUCSORGTOP
 10
0.0
 20
0.0
 30
0.0
  9
$PUCSORGBOTTOM
 10
0.0
 20
0.0
 30
0.0
  9
$PUCSORGLEFT
 10
0.0
 20
0.0
 30
0.0
  9
$PUCSORGRIGHT
 10
0.0
 20
0.0
 30
0.0
  9
$PUCSORGFRONT
 10
0.0
 20
0.0
 30
0.0
  9
$PUCSORGBACK
 10
0.0
 20
0.0
 30
0.0
  9
$USERI1
 70
     0
  9
$USERI2
 70
     0
  9
$USERI3
 70
     0
  9
$USERI4
 70
     0
  9
$USERI5
 70
     0
  9
$USERR1
 40
0.0
  9
$USERR2
 40
0.0
  9
$USERR3
 40
0.0
  9
$USERR4
 40
0.0
  9
$USERR5
 40
0.0
  9
$WORLDVIEW
 70
     1
  9
$SHADEDGE
 70
     3
  9
$SHADEDIF
 70
    70
  9
$TILEMODE
 70
     1
  9
$MAXACTVP
 70
    16
  9
$PINSBASE
 10
0.0
 20
0.0
 30
0.0
  9
$PLIMCHECK
 70
     0
  9
$PEXTMIN
 10
1.049999952316284
 20
0.7999999523162842
 30
0.0
  9
$PEXTMAX
 10
9.449999570846555
 20
7.199999570846556
 30
0.0
  9
$PLIMMIN
 10
-0.2500002402958907
 20
-0.2499999962453767
  9
$PLIMMAX
 10
10.74999951940821
 20
8.249999763458731
  9
$UNITMODE
 70
     0
  9
$VISRETAIN
 70
     0
  9
$PLINEGEN
 70
     0
  9
$PSLTSCALE
 70
     1
  9
$TREEDEPTH
 70
  3020
  9
$CMLSTYLE
  2
STANDARD
  9
$CMLJUST
 70
     0
  9
$CMLSCALE
 40
1.0
  9
$PROXYGRAPHICS
 70
     1
  9
$MEASUREMENT
 70
     0
  9
$CELWEIGHT
370
    -1
  9
$ENDCAPS
280
     0
  9
$JOINSTYLE
280
     0
  9
$LWDISPLAY
290
     0
  9
$INSUNITS
 70
     0
  9
$HYPERLINKBASE
  1

  9
$STYLESHEET
  1

  9
$XEDIT
290
     1
  9
$CEPSNTYPE
380
     0
  9
$PSTYLEMODE
290
     1
  9
$FINGERPRINTGUID
  2
{6E0CF4B8-225E-11D4-A150-00A0CC3303EC}
  9
$VERSIONGUID
  2
{7C94BB05-0894-46BC-8E84-4D4F1DF1072A}
  9
$EXTNAMES
290
     1
  9
$PSVPSCALE
 40
0.0
  9
$OLESTARTUP
290
     0
  9
$SORTENTS
280
   127
  9
$INDEXCTL
280
     0
  9
$HIDETEXT
280
     0
  9
$XCLIPFRAME
290
     0
  9
$HALOGAP
280
     0
  9
$OBSCOLOR
 70
   257
  9
$OBSLTYPE
280
     0
  9
$INTERSECTIONDISPLAY
280
     0
  9
$INTERSECTIONCOLOR
 70
   257
  9
$DIMASSOC
280
     1
  9
$PROJECTNAME
  1

  9
$CAMERADISPLAY
290
     0
  9
$LENSLENGTH
 40
50.0
  9
$CAMERAHEIGHT
 40
0.0
  9
$STEPSPERSEC
 40
2.0
  9
$STEPSIZE
 40
6.0
  9
$3DDWFPREC
 40
2.0
  9
$PSOLWIDTH
 40
0.25
  9
$PSOLHEIGHT
 40
4.0
  9
$LOFTANG1
 40
1.570796326794896
  9
$LOFTANG2
 40
1.570796326794896
  9
$LOFTMAG1
 40
0.0
  9
$LOFTMAG2
 40
0.0
  9
$LOFTPARAM
 70
     7
  9
$LOFTNORMALS
280
     1
  9
$LATITUDE
 40
37.795
  9
$LONGITUDE
 40
-122.394
  9
$NORTHDIRECTION
 40
0.0
  9
$TIMEZONE
 70
 -8000
  9
$LIGHTGLYPHDISPLAY
280
     1
  9
$TILEMODELIGHTSYNCH
280
     1
  9
$CMATERIAL
347
781A4
  9
$SOLIDHIST
280
     1
  9
$SHOWHIST
280
     1
  9
$DWFFRAME
280
     2
  9
$DGNFRAME
280
     0
  9
$REALWORLDSCALE
290
     1
  9
$INTERFERECOLOR
 62
     1
  9
$INTERFEREOBJVS
345
781B1
  9
$INTERFEREVPVS
346
781AE
  9
$CSHADOW
280
     0
  9
$SHADOWPLANELOCATION
 40
0.0
  0
ENDSEC
  0
SECTION
  2
CLASSES
  0
CLASS
  1
DICTIONARYVAR
  2
AcDbDictionaryVar
  3
ObjectDBX Classes
 90
        0
 91
        2
280
     0
281
     0
  0
CLASS
  1
ACDBDICTIONARYWDFLT
  2
AcDbDictionaryWithDefault
  3
ObjectDBX Classes
 90
        0
 91
        1
280
     0
281
     0
  0
CLASS
  1
MATERIAL
  2
AcDbMaterial
  3
ObjectDBX Classes
 90
     1024
 91
        3
280
     0
281
     0
  0
CLASS
  1
VISUALSTYLE
  2
AcDbVisualStyle
  3
ObjectDBX Classes
 90
     4095
 91
       16
280
     0
281
     0
  0
CLASS
  1
TABLESTYLE
  2
AcDbTableStyle
  3
ObjectDBX Classes
 90
     4095
 91
        1
280
     0
281
     0
  0
CLASS
  1
SOLID_BACKGROUND
  2
AcDbSolidBackground
  3
SCENEOE
 90
     4095
 91
        1
280
     0
281
     0
  0
CLASS
  1
NPOCOLLECTION
  2
AcDbImpNonPersistentObjectsCollection
  3
ObjectDBX Classes
 90
     1153
 91
        1
280
     0
281
     0
  0
CLASS
  1
EXACXREFPANELOBJECT
  2
ExAcXREFPanelObject
  3
EXAC_ESW
 90
     1025
 91
        0
280
     0
281
     0
  0
ENDSEC
  0
SECTION
  2
TABLES
  0
TABLE
  2
VPORT
  5
458C7
102
{ACAD_XDICTIONARY
360
781D4
102
}
330
0
100
AcDbSymbolTable
 70
     1
  0
VPORT
  5
78170
330
458C7
100
AcDbSymbolTableRecord
100
AcDbViewportTableRecord
  2
*Active
 70
     0
 10
0.0
 20
0.0
 11
1.0
 21
1.0
 12
0.3191442118229015
 22
0.2482453094188877
 13
0.0
 23
0.0
 14
0.25
 24
0.25
 15
0.25
 25
0.25
 16
0.0
 26
0.0
 36
1.0
 17
0.5634438949382106
 27
-0.8801371703728531
 37
1.68649307151727
 40
3.204462088514735
 41
1.421818181818181
 42
50.0
 43
0.0
 44
0.0
 50
0.0
 51
0.0
 71
     0
 72
 20000
 73
     1
 74
     1
 75
     0
 76
     0
 77
     0
 78
     0
281
     1
 65
     1
110
0.0
120
0.0
130
0.0
111
1.0
121
0.0
131
0.0
112
0.0
122
1.0
132
0.0
 79
     0
146
0.0
348
781AE
 60
     3
 61
     5
292
     1
282
     1
141
0.0
142
0.0
 63
   250
421
  3355443
  0
ENDTAB
  0
TABLE
  2
LTYPE
  5
458C4
330
0
100
AcDbSymbolTable
 70
     1
  0
LTYPE
  5
458D0
330
458C4
100
AcDbSymbolTableRecord
100
AcDbLinetypeTableRecord
  2
BYBLOCK
 70
     0
  3

 72
    65
 73
     0
 40
0.0
  0
LTYPE
  5
458D1
330
458C4
100
AcDbSymbolTableRecord
100
AcDbLinetypeTableRecord
  2
BYLAYER
 70
     0
  3

 72
    65
 73
     0
 40
0.0
  0
LTYPE
  5
458D2
330
458C4
100
AcDbSymbolTableRecord
100
AcDbLinetypeTableRecord
  2
CONTINUOUS
 70
     0
  3
Solid line
 72
    65
 73
     0
 40
0.0
  0
ENDTAB
  0
TABLE
  2
LAYER
  5
458C1
330
0
100
AcDbSymbolTable
 70
     8
  0
LAYER
  5
458CD
330
458C1
100
AcDbSymbolTableRecord
100
AcDbLayerTableRecord
  2
0
 70
     0
 62
     7
  6
CONTINUOUS
370
    -3
390
458FA
347
781A6
  0
LAYER
  5
458EA
330
458C1
100
AcDbSymbolTableRecord
100
AcDbLayerTableRecord
  2
DIMS-MTG-HOLES
 70
     0
 62
     1
  6
CONTINUOUS
370
    -3
390
458FA
347
781A6
  0
LAYER
  5
458EB
330
458C1
100
AcDbSymbolTableRecord
100
AcDbLayerTableRecord
  2
ATTRIBUTES
 70
     0
 62
     7
  6
CONTINUOUS
370
    -3
390
458FA
347
781A6
  0
LAYER
  5
4593B
330
458C1
100
AcDbSymbolTableRecord
100
AcDbLayerTableRecord
  2
AREA1
 70
     1
 62
     7
  6
CONTINUOUS
290
     0
370
    -3
390
458FA
347
781A6
  0
LAYER
  5
45940
330
458C1
100
AcDbSymbolTableRecord
100
AcDbLayerTableRecord
  2
Defpoints
 70
     1
 62
     7
  6
CONTINUOUS
290
     0
370
    -3
390
458FA
347
781A6
  0
LAYER
  5
45954
330
458C1
100
AcDbSymbolTableRecord
100
AcDbLayerTableRecord
  2
SCALE
 70
     1
 62
     7
  6
CONTINUOUS
370
    -3
390
458FA
347
781A6
  0
LAYER
  5
4D59A
330
458C1
100
AcDbSymbolTableRecord
100
AcDbLayerTableRecord
  2
SNAP_POINTS
 70
     1
 62
     1
  6
CONTINUOUS
370
    -3
390
458FA
347
781A6
  0
LAYER
  5
781C1
102
{ACAD_XDICTIONARY
360
781C2
102
}
330
458C1
100
AcDbSymbolTableRecord
100
AcDbLayerTableRecord
  2
WIRES
 70
     0
 62
     7
  6
CONTINUOUS
370
    -3
390
458FA
347
781A6
  0
ENDTAB
  0
TABLE
  2
STYLE
  5
458C2
330
0
100
AcDbSymbolTable
 70
     1
  0
STYLE
  5
458CE
330
458C2
100
AcDbSymbolTableRecord
100
AcDbTextStyleTableRecord
  2
STANDARD
 70
     0
 40
0.0
 41
1.0
 50
0.0
 71
     0
 42
0.12
  3
txt
  4

  0
ENDTAB
  0
TABLE
  2
VIEW
  5
458C5
330
0
100
AcDbSymbolTable
 70
     0
  0
ENDTAB
  0
TABLE
  2
UCS
  5
458C6
330
0
100
AcDbSymbolTable
 70
     0
  0
ENDTAB
  0
TABLE
  2
APPID
  5
458C8
330
0
100
AcDbSymbolTable
 70
     3
  0
APPID
  5
458CF
330
458C8
100
AcDbSymbolTableRecord
100
AcDbRegAppTableRecord
  2
ACAD
 70
     0
  0
APPID
  5
5FD5B
330
458C8
100
AcDbSymbolTableRecord
100
AcDbRegAppTableRecord
  2
AVE_RENDER
 70
     0
  0
APPID
  5
781C6
330
458C8
100
AcDbSymbolTableRecord
100
AcDbRegAppTableRecord
  2
DCO15
 70
     0
  0
ENDTAB
  0
TABLE
  2
DIMSTYLE
  5
458C9
330
0
100
AcDbSymbolTable
 70
     1
100
AcDbDimStyleTable
 71
     0
  0
DIMSTYLE
105
458F6
102
{ACAD_REACTORS
330
780C8
330
780D6
102
}
330
458C9
100
AcDbSymbolTableRecord
100
AcDbDimStyleTableRecord
  2
ABECAD_3D
 70
     0
 41
0.125
 43
0.375
 44
0.1
 73
     0
 78
     4
140
0.125
146
1.5
170
     1
271
     6
272
     6
276
     2
277
     5
279
     2
284
     4
285
     4
286
     4
288
     1
289
     2
340
458CE
  0
ENDTAB
  0
TABLE
  2
BLOCK_RECORD
  5
458C0
330
0
100
AcDbSymbolTable
 70
     3
  0
BLOCK_RECORD
  5
458D6
102
{ACAD_XDICTIONARY
360
4592C
102
}
330
458C0
100
AcDbSymbolTableRecord
100
AcDbBlockTableRecord
  2
*MODEL_SPACE
340
458FD
 70
     0
280
     1
281
     0
  0
BLOCK_RECORD
  5
458D3
102
{ACAD_XDICTIONARY
360
4592A
102
}
330
458C0
100
AcDbSymbolTableRecord
100
AcDbBlockTableRecord
  2
*PAPER_SPACE
340
458FE
 70
     0
280
     1
281
     0
  0
BLOCK_RECORD
  5
73745
330
458C0
100
AcDbSymbolTableRecord
100
AcDbBlockTableRecord
  2
AVE_RENDER
340
0
102
{BLKREFS
331
77DB0
331
77DB1
331
77DB2
102
}
 70
     0
280
     1
281
     0
  0
BLOCK_RECORD
  5
780C9
330
458C0
100
AcDbSymbolTableRecord
100
AcDbBlockTableRecord
  2
*D1
340
0
 70
     0
280
     1
281
     0
  0
BLOCK_RECORD
  5
780D7
330
458C0
100
AcDbSymbolTableRecord
100
AcDbBlockTableRecord
  2
*D2
340
0
 70
     0
280
     1
281
     0
  0
ENDTAB
  0
ENDSEC
  0
SECTION
  2
BLOCKS
  0
BLOCK
  5
458DF
330
458D6
100
AcDbEntity
  8
0
100
AcDbBlockBegin
  2
*MODEL_SPACE
 70
     0
 10
0.0
 20
0.0
 30
0.0
  3
*MODEL_SPACE
  1

  0
ENDBLK
  5
458E0
330
458D6
100
AcDbEntity
  8
0
100
AcDbBlockEnd
  0
BLOCK
  5
458DD
330
458D3
100
AcDbEntity
 67
     1
  8
0
100
AcDbBlockBegin
  2
*PAPER_SPACE
 70
     0
 10
0.0
 20
0.0
 30
0.0
  3
*PAPER_SPACE
  1

  0
ENDBLK
  5
458DE
330
458D3
100
AcDbEntity
 67
     1
  8
0
100
AcDbBlockEnd
  0
BLOCK
  5
73746
330
73745
100
AcDbEntity
  8
0
100
AcDbBlockBegin
  2
AVE_RENDER
 70
     0
 10
0.0
 20
0.0
 30
0.0
  3
AVE_RENDER
  1
AVE_RENDER
  0
ENDBLK
  5
73747
330
73745
100
AcDbEntity
  8
0
100
AcDbBlockEnd
  0
BLOCK
  5
780D4
330
780C9
100
AcDbEntity
  8
0
100
AcDbBlockBegin
  2
*D1
 70
     1
 10
0.0
 20
0.0
 30
0.0
  3
*D1
  1

  0
LINE
  5
780CA
330
780C9
100
AcDbEntity
  8
AREA1
 62
     0
370
    -2
100
AcDbLine
 10
0.2701999999999987
 20
0.9585000000000007
 30
0.0
 11
-0.5383353238345357
 21
0.9585000000000009
 31
0.0
  0
LINE
  5
780CB
330
780C9
100
AcDbEntity
  8
AREA1
 62
     0
370
    -2
100
AcDbLine
 10
0.6371999999999997
 20
-2.221499999999999
 30
0.0
 11
-0.5383353238345365
 21
-2.221499999999999
 31
0.0
  0
LINE
  5
780CC
330
780C9
100
AcDbEntity
  8
AREA1
 62
     0
370
    -2
100
AcDbLine
 10
-0.4383353238345357
 20
0.8335000000000009
 30
0.0
 11
-0.4383353238345358
 21
0.1433794907842816
 31
0.0
  0
LINE
  5
780CD
330
780C9
100
AcDbEntity
  8
AREA1
 62
     0
370
    -2
100
AcDbLine
 10
-0.4383353238345363
 20
-2.096499999999999
 30
0.0
 11
-0.4383353238345362
 21
-1.515787175882385
 31
0.0
  0
MTEXT
  5
780CE
330
780C9
100
AcDbEntity
  8
AREA1
 62
     0
100
AcDbMText
 10
-0.438335323834536
 20
-0.6862038425490518
 30
0.0
 40
0.125
 41
0.0
 46
0.0
 71
     5
 72
     1
  1
\A1;3 3/16 [80.77]
 11
0.0000000000000001
 21
1.0
 31
0.0
 73
     1
 44
1.0
  0
SOLID
  5
780CF
330
780C9
100
AcDbEntity
  8
AREA1
 62
     0
100
AcDbTrace
 10
-0.459168657167869
 20
0.8335000000000009
 30
0.0
 11
-0.4175019905012024
 21
0.8335000000000009
 31
0.0
 12
-0.4383353238345357
 22
0.9585000000000009
 32
0.0
 13
-0.4383353238345357
 23
0.9585000000000009
 33
0.0
  0
SOLID
  5
780D0
330
780C9
100
AcDbEntity
  8
AREA1
 62
     0
100
AcDbTrace
 10
-0.4591686571678696
 20
-2.096499999999999
 30
0.0
 11
-0.417501990501203
 21
-2.096499999999999
 31
0.0
 12
-0.4383353238345364
 22
-2.221499999999999
 32
0.0
 13
-0.4383353238345364
 23
-2.221499999999999
 33
0.0
  0
POINT
  5
780D1
330
780C9
100
AcDbEntity
  8
Defpoints
 62
     0
100
AcDbPoint
 10
0.3326999999999987
 20
0.9585000000000007
 30
2.913375
  0
POINT
  5
780D2
330
780C9
100
AcDbEntity
  8
Defpoints
 62
     0
100
AcDbPoint
 10
0.6996999999999997
 20
-2.221499999999999
 30
2.913375
  0
POINT
  5
780D3
330
780C9
100
AcDbEntity
  8
Defpoints
 62
     0
100
AcDbPoint
 10
-0.4383353238345364
 20
-2.221499999999999
 30
0.0
  0
ENDBLK
  5
780D5
330
780C9
100
AcDbEntity
  8
0
100
AcDbBlockEnd
  0
BLOCK
  5
780E1
330
780D7
100
AcDbEntity
  8
0
100
AcDbBlockBegin
  2
*D2
 70
     1
 10
0.0
 20
0.0
 30
0.0
  3
*D2
  1

  0
LINE
  5
780E3
330
780D7
100
AcDbEntity
  8
AREA1
 62
     0
370
    -2
100
AcDbLine
 10
0.0052
 20
0.7809999999999994
 30
0.0
 11
0.0052
 21
1.338808327056757
 31
0.0
  0
LINE
  5
780E4
330
780D7
100
AcDbEntity
  8
AREA1
 62
     0
370
    -2
100
AcDbLine
 10
1.765199999999999
 20
0.7809999999999994
 30
0.0
 11
1.765199999999999
 21
1.338808327056757
 31
0.0
  0
LINE
  5
780E5
330
780D7
100
AcDbEntity
  8
AREA1
 62
     0
370
    -2
100
AcDbLine
 10
0.1302
 20
1.238808327056757
 30
0.0
 11
1.640199999999999
 21
1.238808327056757
 31
0.0
  0
MTEXT
  5
780E6
330
780D7
100
AcDbEntity
  8
AREA1
 62
     0
100
AcDbMText
 10
0.8828106536401175
 20
1.512709935249738
 30
0.0
 40
0.125
 41
0.0
 46
0.0
 71
     5
 72
     1
  1
\A1;1 49/64 [44.70]
 73
     1
 44
1.0
  0
SOLID
  5
780E7
330
780D7
100
AcDbEntity
  8
AREA1
 62
     0
100
AcDbTrace
 10
0.1302
 20
1.25964166039009
 30
0.0
 11
0.1302
 21
1.217974993723424
 31
0.0
 12
0.0052
 22
1.238808327056757
 32
0.0
 13
0.0052
 23
1.238808327056757
 33
0.0
  0
SOLID
  5
780E8
330
780D7
100
AcDbEntity
  8
AREA1
 62
     0
100
AcDbTrace
 10
1.640199999999999
 20
1.25964166039009
 30
0.0
 11
1.640199999999999
 21
1.217974993723424
 31
0.0
 12
1.765199999999999
 22
1.238808327056757
 32
0.0
 13
1.765199999999999
 23
1.238808327056757
 33
0.0
  0
POINT
  5
780E9
330
780D7
100
AcDbEntity
  8
Defpoints
 62
     0
100
AcDbPoint
 10
0.0052
 20
0.7184999999999994
 30
0.8555000000000001
  0
POINT
  5
780EA
330
780D7
100
AcDbEntity
  8
Defpoints
 62
     0
100
AcDbPoint
 10
1.765199999999999
 20
0.7184999999999994
 30
0.8555000000000001
  0
POINT
  5
780EB
330
780D7
100
AcDbEntity
  8
Defpoints
 62
     0
100
AcDbPoint
 10
1.765199999999999
 20
1.238808327056757
 30
0.0
  0
ENDBLK
  5
780E2
330
780D7
100
AcDbEntity
  8
0
100
AcDbBlockEnd
  0
ENDSEC
  0
SECTION
  2
ENTITIES
  0
ATTDEF
  5
77CEF
330
458D6
100
AcDbEntity
  8
ATTRIBUTES
100
AcDbText
 10
0.1000944536306815
 20
-0.1342429569443211
 30
0.0
 40
0.0805203758744914
  1
SPRECHER+SCHUH
100
AcDbAttributeDefinition
  3
MANUFACTURER NAME?
  2
AC_VND_LABEL
 70
     1
280
     0
  0
ATTDEF
  5
77CF0
330
458D6
100
AcDbEntity
  8
ATTRIBUTES
100
AcDbText
 10
0.1000944536306815
 20
-0.3019937400161781
 30
0.0
 40
0.0805203758744914
  1
CA7-23C-M40
100
AcDbAttributeDefinition
  3
CATALOG NUMBER?
  2
AC_PART_NO
 70
     1
280
     0
  0
ATTDEF
  5
77CF1
330
458D6
100
AcDbEntity
  8
ATTRIBUTES
100
AcDbText
 10
0.1000944536306815
 20
-0.4697445230880351
 30
0.0
 40
0.0805203758744914
  1
IEC DC CONTACTOR; 23A; 4 Pole
100
AcDbAttributeDefinition
  3
PART DESCRIPTION?
  2
AC_DESCRIPTION
 70
     1
280
     0
  0
ATTDEF
  5
77CF2
330
458D6
100
AcDbEntity
  8
ATTRIBUTES
100
AcDbText
 10
0.1000944536306815
 20
-0.6374953061598921
 30
0.0
 40
0.0805203758744914
  1

100
AcDbAttributeDefinition
  3
DEVICE ID?
  2
DEVICE_ID
 70
     1
280
     0
  0
ATTDEF
  5
77CF3
330
458D6
100
AcDbEntity
  8
ATTRIBUTES
100
AcDbText
 10
0.1000944536306815
 20
-0.805246089231749
 30
0.0
 40
0.0805203758744914
  1

100
AcDbAttributeDefinition
  3
CUSTOMER PART NUMBER?
  2
AC_CPART_NO
 70
     1
280
     0
  0
ATTDEF
  5
77CF4
330
458D6
100
AcDbEntity
  8
ATTRIBUTES
100
AcDbText
 10
0.1000944536306815
 20
-0.9729968723036069
 30
0.0
 40
0.0805203758744914
  1

100
AcDbAttributeDefinition
  3
CUSTOMER NOTE?
  2
AC_NOTE
 70
     1
280
     0
  0
ATTDEF
  5
77CF5
330
458D6
100
AcDbEntity
  8
ATTRIBUTES
100
AcDbText
 10
0.1000944536306815
 20
-1.140747655375463
 30
0.0
 40
0.0805203758744914
  1

100
AcDbAttributeDefinition
  3
FASTENER DATA?
  2
FASTENER
 70
     1
280
     0
  0
ATTDEF
  5
77CF6
330
458D6
100
AcDbEntity
  8
ATTRIBUTES
100
AcDbText
 10
0.1000944536306815
 20
-1.30849843844732
 30
0.0
 40
0.0805203758744914
  1
INCH
100
AcDbAttributeDefinition
  3
UNIT OF SCALE?
  2
AC_SCALE_UNIT
 70
     1
280
     0
  0
ATTDEF
  5
77CF7
330
458D6
100
AcDbEntity
  8
ATTRIBUTES
100
AcDbText
 10
0.1000944536306815
 20
-1.476249221519177
 30
0.0
 40
0.0805203758744914
  1
0
100
AcDbAttributeDefinition
  3
VIEW CODE?
  2
AC_VIEW_CODE
 70
     1
280
     0
  0
POLYLINE
  5
77CF8
330
458D6
100
AcDbEntity
  8
0
100
AcDbPolygonMesh
 66
     1
 10
0.0
 20
0.0
 30
0.0
 70
    16
 71
     6
 72
     3
  0
VERTEX
  5
77CF9
330
77CF8
100
AcDbEntity
  8
0
100
AcDbVertex
100
AcDbPolygonMeshVertex
 10
1.765199999999999
 20
0.2384999999999997
 30
0.316
 70
    64
  0
VERTEX
  5
77CFA
330
77CF8
100
AcDbEntity
  8
0
100
AcDbVertex
100
AcDbPolygonMeshVertex
 10
1.765199999999999
 20
0.2384999999999997
 30
0.0
 70
    64
  0
VERTEX
  5
77CFB
330
77CF8
100
AcDbEntity
  8
0
100
AcDbVertex
100
AcDbPolygonMeshVertex
 10
1.765199999999999
 20
0.2384999999999997
 30
0.0
 70
    64
  0
VERTEX
  5
77CFC
330
77CF8
100
AcDbEntity
  8
0
100
AcDbVertex
100
AcDbPolygonMeshVertex
 10
1.374199999999999
 20
0.2384999999999997
 30
0.316
 70
    64
  0
VERTEX
  5
77CFD
330
77CF8
100
AcDbEntity
  8
0
100
AcDbVertex
100
AcDbPolygonMeshVertex
 10
1.374199999999999
 20
0.2384999999999997
 30
0.0
 70
    64
  0
VERTEX
  5
77CFE
330
77CF8
100
AcDbEntity
  8
0
100
AcDbVertex
100
AcDbPolygonMeshVertex
 10
1.374199999999999
 20
0.2384999999999997
 30
0.0
 70
    64
  0
VERTEX
  5
77CFF
330
77CF8
100
AcDbEntity
  8
0
100
AcDbVertex
100
AcDbPolygonMeshVertex
 10
1.374199999999999
 20
0.5745
 30
0.316
 70
    64
  0
VERTEX
  5
77D00
330
77CF8
100
AcDbEntity
  8
0
100
AcDbVertex
100
AcDbPolygonMeshVertex
 10
1.374199999999999
 20
0.5745
 30
0.0
 70
    64
  0
VERTEX
  5
77D01
330
77CF8
100
AcDbEntity
  8
0
100
AcDbVertex
100
AcDbPolygonMeshVertex
 10
1.374199999999999
 20
0.2384999999999997
 30
0.0
 70
    64
  0
VERTEX
  5
77D02
330
77CF8
100
AcDbEntity
  8
0
100
AcDbVertex
100
AcDbPolygonMeshVertex
 10
1.765199999999999
 20
0.5745
 30
0.316
 70
    64
  0
VERTEX
  5
77D03
330
77CF8
100
AcDbEntity
  8
0
100
AcDbVertex
100
AcDbPolygonMeshVertex
 10
1.765199999999999
 20
0.5745
 30
0.0
 70
    64
  0
VERTEX
  5
77D04
330
77CF8
100
AcDbEntity
  8
0
100
AcDbVertex
100
AcDbPolygonMeshVertex
 10
1.765199999999999
 20
0.2384999999999997
 30
0.0
 70
    64
  0
VERTEX
  5
77D05
330
77CF8
100
AcDbEntity
  8
0
100
AcDbVertex
100
AcDbPolygonMeshVertex
 10
1.765199999999999
 20
0.5745
 30
0.316
 70
    64
  0
VERTEX
  5
77D06
330
77CF8
100
AcDbEntity
  8
0
100
AcDbVertex
100
AcDbPolygonMeshVertex
 10
1.765199999999999
 20
0.5745
 30
0.316
 70
    64
  0
VERTEX
  5
77D07
330
77CF8
100
AcDbEntity
  8
0
100
AcDbVertex
100
AcDbPolygonMeshVertex
 10
1.765199999999999
 20
0.2384999999999997
 30
0.316
 70
    64
  0
VERTEX
  5
77D08
330
77CF8
100
AcDbEntity
  8
0
100
AcDbVertex
100
AcDbPolygonMeshVertex
 10
1.374199999999999
 20
0.5745
 30
0.316
 70
    64
  0
VERTEX
  5
77D09
330
77CF8
100
AcDbEntity
  8
0
100
AcDbVertex
100
AcDbPolygonMeshVertex
 10
1.374199999999999
 20
0.5745
 30
0.316
 70
    64
  0
VERTEX
  5
77D0A
330
77CF8
100
AcDbEntity
  8
0
100
AcDbVertex
100
AcDbPolygonMeshVertex
 10
1.374199999999999
 20
0.2384999999999997
 30
0.316
 70
    64
  0
SEQEND
  5
77D0B
330
77CF8
100
AcDbEntity
  8
0
  0
POLYLINE
  5
77D0C
330
458D6
100
AcDbEntity
  8
0
100
AcDbPolygonMesh
 66
     1
 10
0.0
 20
0.0
 30
0.0
 70
    16
 71
     6
 72
     3
  0
VERTEX
  5
77D0D
330
77D0C
100
AcDbEntity
  8
0
100
AcDbVertex
100
AcDbPolygonMeshVertex
 10
0.3962
 20
-1.685499999999999
 30
1.318
 70
    64
  0
VERTEX
  5
77D0E
330
77D0C
100
AcDbEntity
  8
0
100
AcDbVertex
100
AcDbPolygonMeshVertex
 10
0.3962
 20
-1.685499999999999
 30
0.187
 70
    64
  0
VERTEX
  5
77D0F
330
77D0C
100
AcDbEntity
  8
0
100
AcDbVertex
100
AcDbPolygonMeshVertex
 10
0.3962
 20
-1.685499999999999
 30
0.187
 70
    64
  0
VERTEX
  5
77D10
330
77D0C
100
AcDbEntity
  8
0
100
AcDbVertex
100
AcDbPolygonMeshVertex
 10
0.0052
 20
-1.685499999999999
 30
1.318
 70
    64
  0
VERTEX
  5
77D11
330
77D0C
100
AcDbEntity
  8
0
100
AcDbVertex
100
AcDbPolygonMeshVertex
 10
0.0052
 20
-1.685499999999999
 30
0.187
 70
    64
  0
VERTEX
  5
77D12
330
77D0C
100
AcDbEntity
  8
0
100
AcDbVertex
100
AcDbPolygonMeshVertex
 10
0.0052
 20
-1.685499999999999
 30
0.187
 70
    64
  0
VERTEX
  5
77D13
330
77D0C
100
AcDbEntity
  8
0
100
AcDbVertex
100
AcDbPolygonMeshVertex
 10
0.0052
 20
0.5215000000000001
 30
1.318
 70
    64
  0
VERTEX
  5
77D14
330
77D0C
100
AcDbEntity
  8
0
100
AcDbVertex
100
AcDbPolygonMeshVertex
 10
0.0052
 20
0.5215000000000001
 30
0.187
 70
    64
  0
VERTEX
  5
77D15
330
77D0C
100
AcDbEntity
  8
0
100
AcDbVertex
100
AcDbPolygonMeshVertex
 10
0.0052
 20
-1.685499999999999
 30
0.187
 70
    64
  0
VERTEX
  5
77D16
330
77D0C
100
AcDbEntity
  8
0
100
AcDbVertex
100
AcDbPolygonMeshVertex
 10
0.3962
 20
0.5215000000000001
 30
1.318
 70
    64
  0
VERTEX
  5
77D17
330
77D0C
100
AcDbEntity
  8
0
100
AcDbVertex
100
AcDbPolygonMeshVertex
 10
0.3962
 20
0.5215000000000001
 30
0.187
 70
    64
  0
VERTEX
  5
77D18
330
77D0C
100
AcDbEntity
  8
0
100
AcDbVertex
100
AcDbPolygonMeshVertex
 10
0.3962
 20
-1.685499999999999
 30
0.187
 70
    64
  0
VERTEX
  5
77D19
330
77D0C
100
AcDbEntity
  8
0
100
AcDbVertex
100
AcDbPolygonMeshVertex
 10
0.3962
 20
0.5215000000000001
 30
1.318
 70
    64
  0
VERTEX
  5
77D1A
330
77D0C
100
AcDbEntity
  8
0
100
AcDbVertex
100
AcDbPolygonMeshVertex
 10
0.3962
 20
0.5215000000000001
 30
1.318
 70
    64
  0
VERTEX
  5
77D1B
330
77D0C
100
AcDbEntity
  8
0
100
AcDbVertex
100
AcDbPolygonMeshVertex
 10
0.3962
 20
-1.685499999999999
 30
1.318
 70
    64
  0
VERTEX
  5
77D1C
330
77D0C
100
AcDbEntity
  8
0
100
AcDbVertex
100
AcDbPolygonMeshVertex
 10
0.0052
 20
0.5215000000000001
 30
1.318
 70
    64
  0
VERTEX
  5
77D1D
330
77D0C
100
AcDbEntity
  8
0
100
AcDbVertex
100
AcDbPolygonMeshVertex
 10
0.0052
 20
0.5215000000000001
 30
1.318
 70
    64
  0
VERTEX
  5
77D1E
330
77D0C
100
AcDbEntity
  8
0
100
AcDbVertex
100
AcDbPolygonMeshVertex
 10
0.0052
 20
-1.685499999999999
 30
1.318
 70
    64
  0
SEQEND
  5
77D1F
330
77D0C
100
AcDbEntity
  8
0
  0
POLYLINE
  5
77D20
330
458D6
100
AcDbEntity
  8
0
100
AcDbPolygonMesh
 66
     1
 10
0.0
 20
0.0
 30
0.0
 70
    16
 71
     6
 72
     3
  0
VERTEX
  5
77D21
330
77D20
100
AcDbEntity
  8
0
100
AcDbVertex
100
AcDbPolygonMeshVertex
 10
1.765199999999999
 20
-1.9685
 30
1.318
 70
    64
  0
VERTEX
  5
77D22
330
77D20
100
AcDbEntity
  8
0
100
AcDbVertex
100
AcDbPolygonMeshVertex
 10
1.765199999999999
 20
-1.9685
 30
0.187
 70
    64
  0
VERTEX
  5
77D23
330
77D20
100
AcDbEntity
  8
0
100
AcDbVertex
100
AcDbPolygonMeshVertex
 10
1.765199999999999
 20
-1.9685
 30
0.187
 70
    64
  0
VERTEX
  5
77D24
330
77D20
100
AcDbEntity
  8
0
100
AcDbVertex
100
AcDbPolygonMeshVertex
 10
1.374199999999999
 20
-1.9685
 30
1.318
 70
    64
  0
VERTEX
  5
77D25
330
77D20
100
AcDbEntity
  8
0
100
AcDbVertex
100
AcDbPolygonMeshVertex
 10
1.374199999999999
 20
-1.9685
 30
0.187
 70
    64
  0
VERTEX
  5
77D26
330
77D20
100
AcDbEntity
  8
0
100
AcDbVertex
100
AcDbPolygonMeshVertex
 10
1.374199999999999
 20
-1.9685
 30
0.187
 70
    64
  0
VERTEX
  5
77D27
330
77D20
100
AcDbEntity
  8
0
100
AcDbVertex
100
AcDbPolygonMeshVertex
 10
1.374199999999999
 20
0.2384999999999997
 30
1.318
 70
    64
  0
VERTEX
  5
77D28
330
77D20
100
AcDbEntity
  8
0
100
AcDbVertex
100
AcDbPolygonMeshVertex
 10
1.374199999999999
 20
0.2384999999999997
 30
0.187
 70
    64
  0
VERTEX
  5
77D29
330
77D20
100
AcDbEntity
  8
0
100
AcDbVertex
100
AcDbPolygonMeshVertex
 10
1.374199999999999
 20
-1.9685
 30
0.187
 70
    64
  0
VERTEX
  5
77D2A
330
77D20
100
AcDbEntity
  8
0
100
AcDbVertex
100
AcDbPolygonMeshVertex
 10
1.765199999999999
 20
0.2384999999999997
 30
1.318
 70
    64
  0
VERTEX
  5
77D2B
330
77D20
100
AcDbEntity
  8
0
100
AcDbVertex
100
AcDbPolygonMeshVertex
 10
1.765199999999999
 20
0.2384999999999997
 30
0.187
 70
    64
  0
VERTEX
  5
77D2C
330
77D20
100
AcDbEntity
  8
0
100
AcDbVertex
100
AcDbPolygonMeshVertex
 10
1.765199999999999
 20
-1.9685
 30
0.187
 70
    64
  0
VERTEX
  5
77D2D
330
77D20
100
AcDbEntity
  8
0
100
AcDbVertex
100
AcDbPolygonMeshVertex
 10
1.765199999999999
 20
0.2384999999999997
 30
1.318
 70
    64
  0
VERTEX
  5
77D2E
330
77D20
100
AcDbEntity
  8
0
100
AcDbVertex
100
AcDbPolygonMeshVertex
 10
1.765199999999999
 20
0.2384999999999997
 30
1.318
 70
    64
  0
VERTEX
  5
77D2F
330
77D20
100
AcDbEntity
  8
0
100
AcDbVertex
100
AcDbPolygonMeshVertex
 10
1.765199999999999
 20
-1.9685
 30
1.318
 70
    64
  0
VERTEX
  5
77D30
330
77D20
100
AcDbEntity
  8
0
100
AcDbVertex
100
AcDbPolygonMeshVertex
 10
1.374199999999999
 20
0.2384999999999997
 30
1.318
 70
    64
  0
VERTEX
  5
77D31
330
77D20
100
AcDbEntity
  8
0
100
AcDbVertex
100
AcDbPolygonMeshVertex
 10
1.374199999999999
 20
0.2384999999999997
 30
1.318
 70
    64
  0
VERTEX
  5
77D32
330
77D20
100
AcDbEntity
  8
0
100
AcDbVertex
100
AcDbPolygonMeshVertex
 10
1.374199999999999
 20
-1.9685
 30
1.318
 70
    64
  0
SEQEND
  5
77D33
330
77D20
100
AcDbEntity
  8
0
  0
POLYLINE
  5
77D34
330
458D6
100
AcDbEntity
  8
0
100
AcDbPolygonMesh
 66
     1
 10
0.0
 20
0.0
 30
0.0
 70
    16
 71
     6
 72
     3
  0
VERTEX
  5
77D35
330
77D34
100
AcDbEntity
  8
0
100
AcDbVertex
100
AcDbPolygonMeshVertex
 10
1.374199999999999
 20
-1.9685
 30
1.318
 70
    64
  0
VERTEX
  5
77D36
330
77D34
100
AcDbEntity
  8
0
100
AcDbVertex
100
AcDbPolygonMeshVertex
 10
1.374199999999999
 20
-1.9685
 30
0.187
 70
    64
  0
VERTEX
  5
77D37
330
77D34
100
AcDbEntity
  8
0
100
AcDbVertex
100
AcDbPolygonMeshVertex
 10
1.374199999999999
 20
-1.9685
 30
0.187
 70
    64
  0
VERTEX
  5
77D38
330
77D34
100
AcDbEntity
  8
0
100
AcDbVertex
100
AcDbPolygonMeshVertex
 10
0.3962
 20
-1.9685
 30
1.318
 70
    64
  0
VERTEX
  5
77D39
330
77D34
100
AcDbEntity
  8
0
100
AcDbVertex
100
AcDbPolygonMeshVertex
 10
0.3962
 20
-1.9685
 30
0.187
 70
    64
  0
VERTEX
  5
77D3A
330
77D34
100
AcDbEntity
  8
0
100
AcDbVertex
100
AcDbPolygonMeshVertex
 10
0.3962
 20
-1.9685
 30
0.187
 70
    64
  0
VERTEX
  5
77D3B
330
77D34
100
AcDbEntity
  8
0
100
AcDbVertex
100
AcDbPolygonMeshVertex
 10
0.3962
 20
0.5215000000000001
 30
1.318
 70
    64
  0
VERTEX
  5
77D3C
330
77D34
100
AcDbEntity
  8
0
100
AcDbVertex
100
AcDbPolygonMeshVertex
 10
0.3962
 20
0.5215000000000001
 30
0.187
 70
    64
  0
VERTEX
  5
77D3D
330
77D34
100
AcDbEntity
  8
0
100
AcDbVertex
100
AcDbPolygonMeshVertex
 10
0.3962
 20
-1.9685
 30
0.187
 70
    64
  0
VERTEX
  5
77D3E
330
77D34
100
AcDbEntity
  8
0
100
AcDbVertex
100
AcDbPolygonMeshVertex
 10
1.374199999999999
 20
0.5215000000000001
 30
1.318
 70
    64
  0
VERTEX
  5
77D3F
330
77D34
100
AcDbEntity
  8
0
100
AcDbVertex
100
AcDbPolygonMeshVertex
 10
1.374199999999999
 20
0.5215000000000001
 30
0.187
 70
    64
  0
VERTEX
  5
77D40
330
77D34
100
AcDbEntity
  8
0
100
AcDbVertex
100
AcDbPolygonMeshVertex
 10
1.374199999999999
 20
-1.9685
 30
0.187
 70
    64
  0
VERTEX
  5
77D41
330
77D34
100
AcDbEntity
  8
0
100
AcDbVertex
100
AcDbPolygonMeshVertex
 10
1.374199999999999
 20
0.5215000000000001
 30
1.318
 70
    64
  0
VERTEX
  5
77D42
330
77D34
100
AcDbEntity
  8
0
100
AcDbVertex
100
AcDbPolygonMeshVertex
 10
1.374199999999999
 20
0.5215000000000001
 30
1.318
 70
    64
  0
VERTEX
  5
77D43
330
77D34
100
AcDbEntity
  8
0
100
AcDbVertex
100
AcDbPolygonMeshVertex
 10
1.374199999999999
 20
-1.9685
 30
1.318
 70
    64
  0
VERTEX
  5
77D44
330
77D34
100
AcDbEntity
  8
0
100
AcDbVertex
100
AcDbPolygonMeshVertex
 10
0.3962
 20
0.5215000000000001
 30
1.318
 70
    64
  0
VERTEX
  5
77D45
330
77D34
100
AcDbEntity
  8
0
100
AcDbVertex
100
AcDbPolygonMeshVertex
 10
0.3962
 20
0.5215000000000001
 30
1.318
 70
    64
  0
VERTEX
  5
77D46
330
77D34
100
AcDbEntity
  8
0
100
AcDbVertex
100
AcDbPolygonMeshVertex
 10
0.3962
 20
-1.9685
 30
1.318
 70
    64
  0
SEQEND
  5
77D47
330
77D34
100
AcDbEntity
  8
0
  0
POLYLINE
  5
77D48
330
458D6
100
AcDbEntity
  8
0
100
AcDbPolygonMesh
 66
     1
 10
0.0
 20
0.0
 30
0.0
 70
    16
 71
     6
 72
     3
  0
VERTEX
  5
77D49
330
77D48
100
AcDbEntity
  8
0
100
AcDbVertex
100
AcDbPolygonMeshVertex
 10
1.070699999999999
 20
-2.221499999999999
 30
3.587375
 70
    64
  0
VERTEX
  5
77D4A
330
77D48
100
AcDbEntity
  8
0
100
AcDbVertex
100
AcDbPolygonMeshVertex
 10
1.070699999999999
 20
-2.221499999999999
 30
2.913375
 70
    64
  0
VERTEX
  5
77D4B
330
77D48
100
AcDbEntity
  8
0
100
AcDbVertex
100
AcDbPolygonMeshVertex
 10
1.070699999999999
 20
-2.221499999999999
 30
2.913375
 70
    64
  0
VERTEX
  5
77D4C
330
77D48
100
AcDbEntity
  8
0
100
AcDbVertex
100
AcDbPolygonMeshVertex
 10
0.6996999999999997
 20
-2.221499999999999
 30
3.587375
 70
    64
  0
VERTEX
  5
77D4D
330
77D48
100
AcDbEntity
  8
0
100
AcDbVertex
100
AcDbPolygonMeshVertex
 10
0.6996999999999997
 20
-2.221499999999999
 30
2.913375
 70
    64
  0
VERTEX
  5
77D4E
330
77D48
100
AcDbEntity
  8
0
100
AcDbVertex
100
AcDbPolygonMeshVertex
 10
0.6996999999999997
 20
-2.221499999999999
 30
2.913375
 70
    64
  0
VERTEX
  5
77D4F
330
77D48
100
AcDbEntity
  8
0
100
AcDbVertex
100
AcDbPolygonMeshVertex
 10
0.6996999999999997
 20
-1.968499999999999
 30
3.587375
 70
    64
  0
VERTEX
  5
77D50
330
77D48
100
AcDbEntity
  8
0
100
AcDbVertex
100
AcDbPolygonMeshVertex
 10
0.6996999999999997
 20
-1.968499999999999
 30
2.913375
 70
    64
  0
VERTEX
  5
77D51
330
77D48
100
AcDbEntity
  8
0
100
AcDbVertex
100
AcDbPolygonMeshVertex
 10
0.6996999999999997
 20
-2.221499999999999
 30
2.913375
 70
    64
  0
VERTEX
  5
77D52
330
77D48
100
AcDbEntity
  8
0
100
AcDbVertex
100
AcDbPolygonMeshVertex
 10
1.070699999999999
 20
-1.968499999999999
 30
3.587375
 70
    64
  0
VERTEX
  5
77D53
330
77D48
100
AcDbEntity
  8
0
100
AcDbVertex
100
AcDbPolygonMeshVertex
 10
1.070699999999999
 20
-1.968499999999999
 30
2.913375
 70
    64
  0
VERTEX
  5
77D54
330
77D48
100
AcDbEntity
  8
0
100
AcDbVertex
100
AcDbPolygonMeshVertex
 10
1.070699999999999
 20
-2.221499999999999
 30
2.913375
 70
    64
  0
VERTEX
  5
77D55
330
77D48
100
AcDbEntity
  8
0
100
AcDbVertex
100
AcDbPolygonMeshVertex
 10
1.070699999999999
 20
-1.968499999999999
 30
3.587375
 70
    64
  0
VERTEX
  5
77D56
330
77D48
100
AcDbEntity
  8
0
100
AcDbVertex
100
AcDbPolygonMeshVertex
 10
1.070699999999999
 20
-1.968499999999999
 30
3.587375
 70
    64
  0
VERTEX
  5
77D57
330
77D48
100
AcDbEntity
  8
0
100
AcDbVertex
100
AcDbPolygonMeshVertex
 10
1.070699999999999
 20
-2.221499999999999
 30
3.587375
 70
    64
  0
VERTEX
  5
77D58
330
77D48
100
AcDbEntity
  8
0
100
AcDbVertex
100
AcDbPolygonMeshVertex
 10
0.6996999999999997
 20
-1.968499999999999
 30
3.587375
 70
    64
  0
VERTEX
  5
77D59
330
77D48
100
AcDbEntity
  8
0
100
AcDbVertex
100
AcDbPolygonMeshVertex
 10
0.6996999999999997
 20
-1.968499999999999
 30
3.587375
 70
    64
  0
VERTEX
  5
77D5A
330
77D48
100
AcDbEntity
  8
0
100
AcDbVertex
100
AcDbPolygonMeshVertex
 10
0.6996999999999997
 20
-2.221499999999999
 30
3.587375
 70
    64
  0
SEQEND
  5
77D5B
330
77D48
100
AcDbEntity
  8
0
  0
LWPOLYLINE
  5
77D5C
330
458D6
100
AcDbEntity
  8
0
100
AcDbPolyline
 90
        4
 70
     1
 43
0.0
 38
3.589375
 10
0.7517000000000002
 20
-2.020499999999999
 10
1.0187
 20
-2.020499999999999
 10
1.0187
 20
-2.169499999999999
 10
0.7517000000000002
 20
-2.169499999999999
  0
LWPOLYLINE
  5
77D5D
330
458D6
100
AcDbEntity
  8
0
100
AcDbPolyline
 90
        4
 70
     1
 43
0.0
 38
2.915375
 10
0.7517000000000002
 20
-2.020499999999999
 10
1.0187
 20
-2.020499999999999
 10
1.0187
 20
-2.169499999999999
 10
0.7517000000000002
 20
-2.169499999999999
  0
POLYLINE
  5
77D5E
330
458D6
100
AcDbEntity
  8
0
100
AcDbPolygonMesh
 66
     1
 10
0.0
 20
0.0
 30
0.0
 70
    16
 71
     6
 72
     3
  0
VERTEX
  5
77D5F
330
77D5E
100
AcDbEntity
  8
0
100
AcDbVertex
100
AcDbPolygonMeshVertex
 10
0.3326999999999987
 20
0.9585000000000007
 30
3.587375
 70
    64
  0
VERTEX
  5
77D60
330
77D5E
100
AcDbEntity
  8
0
100
AcDbVertex
100
AcDbPolygonMeshVertex
 10
0.3326999999999987
 20
0.9585000000000007
 30
2.913375
 70
    64
  0
VERTEX
  5
77D61
330
77D5E
100
AcDbEntity
  8
0
100
AcDbVertex
100
AcDbPolygonMeshVertex
 10
0.3326999999999987
 20
0.9585000000000007
 30
2.913375
 70
    64
  0
VERTEX
  5
77D62
330
77D5E
100
AcDbEntity
  8
0
100
AcDbVertex
100
AcDbPolygonMeshVertex
 10
1.437699999999999
 20
0.9585000000000007
 30
3.587375
 70
    64
  0
VERTEX
  5
77D63
330
77D5E
100
AcDbEntity
  8
0
100
AcDbVertex
100
AcDbPolygonMeshVertex
 10
1.437699999999999
 20
0.9585000000000007
 30
2.913375
 70
    64
  0
VERTEX
  5
77D64
330
77D5E
100
AcDbEntity
  8
0
100
AcDbVertex
100
AcDbPolygonMeshVertex
 10
1.437699999999999
 20
0.9585000000000007
 30
2.913375
 70
    64
  0
VERTEX
  5
77D65
330
77D5E
100
AcDbEntity
  8
0
100
AcDbVertex
100
AcDbPolygonMeshVertex
 10
1.437699999999999
 20
0.5214999999999997
 30
3.587375
 70
    64
  0
VERTEX
  5
77D66
330
77D5E
100
AcDbEntity
  8
0
100
AcDbVertex
100
AcDbPolygonMeshVertex
 10
1.437699999999999
 20
0.5214999999999997
 30
2.913375
 70
    64
  0
VERTEX
  5
77D67
330
77D5E
100
AcDbEntity
  8
0
100
AcDbVertex
100
AcDbPolygonMeshVertex
 10
1.437699999999999
 20
0.9585000000000007
 30
2.913375
 70
    64
  0
VERTEX
  5
77D68
330
77D5E
100
AcDbEntity
  8
0
100
AcDbVertex
100
AcDbPolygonMeshVertex
 10
0.3326999999999987
 20
0.5214999999999997
 30
3.587375
 70
    64
  0
VERTEX
  5
77D69
330
77D5E
100
AcDbEntity
  8
0
100
AcDbVertex
100
AcDbPolygonMeshVertex
 10
0.3326999999999987
 20
0.5214999999999997
 30
2.913375
 70
    64
  0
VERTEX
  5
77D6A
330
77D5E
100
AcDbEntity
  8
0
100
AcDbVertex
100
AcDbPolygonMeshVertex
 10
0.3326999999999987
 20
0.9585000000000007
 30
2.913375
 70
    64
  0
VERTEX
  5
77D6B
330
77D5E
100
AcDbEntity
  8
0
100
AcDbVertex
100
AcDbPolygonMeshVertex
 10
0.3326999999999987
 20
0.5214999999999997
 30
3.587375
 70
    64
  0
VERTEX
  5
77D6C
330
77D5E
100
AcDbEntity
  8
0
100
AcDbVertex
100
AcDbPolygonMeshVertex
 10
0.3326999999999987
 20
0.5214999999999997
 30
3.587375
 70
    64
  0
VERTEX
  5
77D6D
330
77D5E
100
AcDbEntity
  8
0
100
AcDbVertex
100
AcDbPolygonMeshVertex
 10
0.3326999999999987
 20
0.9585000000000007
 30
3.587375
 70
    64
  0
VERTEX
  5
77D6E
330
77D5E
100
AcDbEntity
  8
0
100
AcDbVertex
100
AcDbPolygonMeshVertex
 10
1.437699999999999
 20
0.5214999999999997
 30
3.587375
 70
    64
  0
VERTEX
  5
77D6F
330
77D5E
100
AcDbEntity
  8
0
100
AcDbVertex
100
AcDbPolygonMeshVertex
 10
1.437699999999999
 20
0.5214999999999997
 30
3.587375
 70
    64
  0
VERTEX
  5
77D70
330
77D5E
100
AcDbEntity
  8
0
100
AcDbVertex
100
AcDbPolygonMeshVertex
 10
1.437699999999999
 20
0.9585000000000007
 30
3.587375
 70
    64
  0
SEQEND
  5
77D71
330
77D5E
100
AcDbEntity
  8
0
  0
LINE
  5
77D72
330
458D6
100
AcDbEntity
  8
0
100
AcDbLine
 10
0.7451999999999993
 20
0.5214999999999997
 30
3.587375
 11
0.7451999999999993
 21
0.7565
 31
3.587375
  0
LINE
  5
77D73
330
458D6
100
AcDbEntity
  8
0
100
AcDbLine
 10
1.025199999999998
 20
0.5214999999999997
 30
3.587375
 11
1.025199999999998
 21
0.7565
 31
3.587375
  0
LINE
  5
77D74
330
458D6
100
AcDbEntity
  8
0
100
AcDbLine
 10
1.025199999999998
 20
0.7565
 30
3.587375
 11
0.7451999999999993
 21
0.7565
 31
3.587375
  0
POLYLINE
  5
77D75
330
458D6
100
AcDbEntity
  8
0
100
AcDb3dPolyline
 66
     1
 10
0.0
 20
0.0
 30
0.0
 70
     8
  0
VERTEX
  5
77D76
330
77D75
100
AcDbEntity
  8
0
100
AcDbVertex
100
AcDb3dPolylineVertex
 10
1.765199999999999
 20
-1.352499999999999
 30
0.187
 70
    32
  0
VERTEX
  5
77D77
330
77D75
100
AcDbEntity
  8
0
100
AcDbVertex
100
AcDb3dPolylineVertex
 10
1.765199999999999
 20
-1.352499999999999
 30
1.056999999999999
 70
    32
  0
VERTEX
  5
77D78
330
77D75
100
AcDbEntity
  8
0
100
AcDbVertex
100
AcDb3dPolylineVertex
 10
1.765199999999999
 20
-1.507499999999999
 30
1.056999999999999
 70
    32
  0
VERTEX
  5
77D79
330
77D75
100
AcDbEntity
  8
0
100
AcDbVertex
100
AcDb3dPolylineVertex
 10
1.765199999999999
 20
-1.507499999999999
 30
0.187
 70
    32
  0
SEQEND
  5
77D7A
330
77D75
100
AcDbEntity
  8
0
  0
POLYLINE
  5
77D7B
330
458D6
100
AcDbEntity
  8
0
100
AcDb3dPolyline
 66
     1
 10
0.0
 20
0.0
 30
0.0
 70
     8
  0
VERTEX
  5
77D7C
330
77D7B
100
AcDbEntity
  8
0
100
AcDbVertex
100
AcDb3dPolylineVertex
 10
1.765199999999999
 20
0.0265
 30
0.187
 70
    32
  0
VERTEX
  5
77D7D
330
77D7B
100
AcDbEntity
  8
0
100
AcDbVertex
100
AcDb3dPolylineVertex
 10
1.765199999999999
 20
0.0265
 30
1.056999999999999
 70
    32
  0
VERTEX
  5
77D7E
330
77D7B
100
AcDbEntity
  8
0
100
AcDbVertex
100
AcDb3dPolylineVertex
 10
1.765199999999999
 20
-0.1285000000000003
 30
1.056999999999999
 70
    32
  0
VERTEX
  5
77D7F
330
77D7B
100
AcDbEntity
  8
0
100
AcDbVertex
100
AcDb3dPolylineVertex
 10
1.765199999999999
 20
-0.1285000000000003
 30
0.187
 70
    32
  0
SEQEND
  5
77D80
330
77D7B
100
AcDbEntity
  8
0
  0
LINE
  5
77D81
330
458D6
100
AcDbEntity
  8
0
100
AcDbLine
 10
1.765199999999999
 20
-0.6294999999999998
 30
0.5170000000000002
 11
1.765199999999999
 21
-0.8515
 31
0.5170000000000002
  0
LINE
  5
77D82
330
458D6
100
AcDbEntity
  8
0
100
AcDbLine
 10
1.765199999999999
 20
-0.8515
 30
0.5170000000000002
 11
1.765199999999999
 21
-0.8515
 31
0.187
  0
LINE
  5
77D83
330
458D6
100
AcDbEntity
  8
0
100
AcDbLine
 10
1.765199999999999
 20
-0.6294999999999998
 30
0.5170000000000002
 11
1.765199999999999
 21
-0.6294999999999998
 31
0.187
  0
POLYLINE
  5
77D84
330
458D6
100
AcDbEntity
  8
0
100
AcDb3dPolyline
 66
     1
 10
0.0
 20
0.0
 30
0.0
 70
     8
  0
VERTEX
  5
77D85
330
77D84
100
AcDbEntity
  8
0
100
AcDbVertex
100
AcDb3dPolylineVertex
 10
0.0052
 20
0.0265
 30
0.187
 70
    32
  0
VERTEX
  5
77D86
330
77D84
100
AcDbEntity
  8
0
100
AcDbVertex
100
AcDb3dPolylineVertex
 10
0.0052
 20
0.0265
 30
1.056999999999999
 70
    32
  0
VERTEX
  5
77D87
330
77D84
100
AcDbEntity
  8
0
100
AcDbVertex
100
AcDb3dPolylineVertex
 10
0.0052
 20
-0.1285000000000003
 30
1.056999999999999
 70
    32
  0
VERTEX
  5
77D88
330
77D84
100
AcDbEntity
  8
0
100
AcDbVertex
100
AcDb3dPolylineVertex
 10
0.0052
 20
-0.1285000000000003
 30
0.187
 70
    32
  0
SEQEND
  5
77D89
330
77D84
100
AcDbEntity
  8
0
  0
POLYLINE
  5
77D8A
330
458D6
100
AcDbEntity
  8
0
100
AcDb3dPolyline
 66
     1
 10
0.0
 20
0.0
 30
0.0
 70
     8
  0
VERTEX
  5
77D8B
330
77D8A
100
AcDbEntity
  8
0
100
AcDbVertex
100
AcDb3dPolylineVertex
 10
0.0052
 20
-1.352499999999999
 30
0.187
 70
    32
  0
VERTEX
  5
77D8C
330
77D8A
100
AcDbEntity
  8
0
100
AcDbVertex
100
AcDb3dPolylineVertex
 10
0.0052
 20
-1.352499999999999
 30
1.056999999999999
 70
    32
  0
VERTEX
  5
77D8D
330
77D8A
100
AcDbEntity
  8
0
100
AcDbVertex
100
AcDb3dPolylineVertex
 10
0.0052
 20
-1.507499999999999
 30
1.056999999999999
 70
    32
  0
VERTEX
  5
77D8E
330
77D8A
100
AcDbEntity
  8
0
100
AcDbVertex
100
AcDb3dPolylineVertex
 10
0.0052
 20
-1.507499999999999
 30
0.187
 70
    32
  0
SEQEND
  5
77D8F
330
77D8A
100
AcDbEntity
  8
0
  0
LINE
  5
77D90
330
458D6
100
AcDbEntity
  8
0
100
AcDbLine
 10
1.765199999999999
 20
-1.5675
 30
0.187
 11
1.765199999999999
 21
-1.5675
 31
0.0
  0
LINE
  5
77D91
330
458D6
100
AcDbEntity
  8
0
100
AcDbLine
 10
1.765199999999999
 20
-1.5675
 30
0.0
 11
0.8851999999999998
 21
-1.5675
 31
0.0
  0
LINE
  5
77D92
330
458D6
100
AcDbEntity
  8
0
100
AcDbLine
 10
1.765199999999996
 20
-0.8065000000000001
 30
3.405874999999999
 11
1.765199999999996
 21
-0.6404999999999999
 31
3.405874999999999
  0
POLYLINE
  5
77D93
330
458D6
100
AcDbEntity
  8
0
100
AcDb3dPolyline
 66
     1
 10
0.0
 20
0.0
 30
0.0
 70
     8
  0
VERTEX
  5
77D94
330
77D93
100
AcDbEntity
  8
0
100
AcDbVertex
100
AcDb3dPolylineVertex
 10
-0.0000103494035411
 20
-0.6404999999999999
 30
3.119375
 70
    32
  0
VERTEX
  5
77D95
330
77D93
100
AcDbEntity
  8
0
100
AcDbVertex
100
AcDb3dPolylineVertex
 10
-0.0000103494035411
 20
-0.6404999999999999
 30
3.692375
 70
    32
  0
VERTEX
  5
77D96
330
77D93
100
AcDbEntity
  8
0
100
AcDbVertex
100
AcDb3dPolylineVertex
 10
-0.0000103494035411
 20
-0.8064999999999997
 30
3.692375
 70
    32
  0
VERTEX
  5
77D97
330
77D93
100
AcDbEntity
  8
0
100
AcDbVertex
100
AcDb3dPolylineVertex
 10
-0.0000103494035411
 20
-0.8065000000000001
 30
3.119375
 70
    32
  0
VERTEX
  5
77D98
330
77D93
100
AcDbEntity
  8
0
100
AcDbVertex
100
AcDb3dPolylineVertex
 10
-0.0000103494035411
 20
-0.6404999999999999
 30
3.119375
 70
    32
  0
SEQEND
  5
77D99
330
77D93
100
AcDbEntity
  8
0
  0
LINE
  5
77D9A
330
458D6
100
AcDbEntity
  8
0
100
AcDbLine
 10
-0.0000103494035411
 20
-0.8065000000000001
 30
3.405874999999999
 11
-0.0000103494035411
 21
-0.6404999999999999
 31
3.405874999999999
  0
LINE
  5
77D9B
330
458D6
100
AcDbEntity
  8
0
100
AcDbLine
 10
-0.0000103494035411
 20
-0.8065000000000001
 30
3.595875
 11
-0.0000103494035411
 21
-0.6404999999999999
 31
3.595875
  0
CIRCLE
  5
77D9C
330
458D6
100
AcDbEntity
  8
0
100
AcDbCircle
 10
1.571199999999999
 20
0.4255
 30
0.316
 40
0.086
  0
POLYLINE
  5
77D9D
330
458D6
100
AcDbEntity
  8
0
100
AcDb3dPolyline
 66
     1
 10
0.0
 20
0.0
 30
0.0
 70
     8
  0
VERTEX
  5
77D9E
330
77D9D
100
AcDbEntity
  8
0
100
AcDbVertex
100
AcDb3dPolylineVertex
 10
1.492533333333333
 20
-1.9685
 30
1.042499999999999
 70
    32
  0
VERTEX
  5
77D9F
330
77D9D
100
AcDbEntity
  8
0
100
AcDbVertex
100
AcDb3dPolylineVertex
 10
1.492533333333333
 20
-2.103499999999999
 30
1.042499999999999
 70
    32
  0
VERTEX
  5
77DA0
330
77D9D
100
AcDbEntity
  8
0
100
AcDbVertex
100
AcDb3dPolylineVertex
 10
1.703199999999998
 20
-2.103499999999999
 30
1.042499999999999
 70
    32
  0
VERTEX
  5
77DA1
330
77D9D
100
AcDbEntity
  8
0
100
AcDbVertex
100
AcDb3dPolylineVertex
 10
1.703199999999998
 20
-1.9685
 30
1.042499999999999
 70
    32
  0
SEQEND
  5
77DA2
330
77D9D
100
AcDbEntity
  8
0
  0
POLYLINE
  5
77DA3
330
458D6
100
AcDbEntity
  8
0
100
AcDb3dPolyline
 66
     1
 10
0.0
 20
0.0
 30
0.0
 70
     8
  0
VERTEX
  5
77DA4
330
77DA3
100
AcDbEntity
  8
0
100
AcDbVertex
100
AcDb3dPolylineVertex
 10
1.219866666666667
 20
-1.9685
 30
1.042499999999999
 70
    32
  0
VERTEX
  5
77DA5
330
77DA3
100
AcDbEntity
  8
0
100
AcDbVertex
100
AcDb3dPolylineVertex
 10
1.219866666666667
 20
-2.103499999999999
 30
1.042499999999999
 70
    32
  0
VERTEX
  5
77DA6
330
77DA3
100
AcDbEntity
  8
0
100
AcDbVertex
100
AcDb3dPolylineVertex
 10
1.430533333333332
 20
-2.103499999999999
 30
1.042499999999999
 70
    32
  0
VERTEX
  5
77DA7
330
77DA3
100
AcDbEntity
  8
0
100
AcDbVertex
100
AcDb3dPolylineVertex
 10
1.430533333333332
 20
-1.9685
 30
1.042499999999999
 70
    32
  0
SEQEND
  5
77DA8
330
77DA3
100
AcDbEntity
  8
0
  0
POLYLINE
  5
77DA9
330
458D6
100
AcDbEntity
  8
0
100
AcDb3dPolyline
 66
     1
 10
0.0
 20
0.0
 30
0.0
 70
     8
  0
VERTEX
  5
77DAA
330
77DA9
100
AcDbEntity
  8
0
100
AcDbVertex
100
AcDb3dPolylineVertex
 10
0.9472000000000019
 20
-1.9685
 30
1.042499999999999
 70
    32
  0
VERTEX
  5
77DAB
330
77DA9
100
AcDbEntity
  8
0
100
AcDbVertex
100
AcDb3dPolylineVertex
 10
0.9472000000000019
 20
-2.103499999999999
 30
1.042499999999999
 70
    32
  0
VERTEX
  5
77DAC
330
77DA9
100
AcDbEntity
  8
0
100
AcDbVertex
100
AcDb3dPolylineVertex
 10
1.157866666666666
 20
-2.103499999999999
 30
1.042499999999999
 70
    32
  0
VERTEX
  5
77DAD
330
77DA9
100
AcDbEntity
  8
0
100
AcDbVertex
100
AcDb3dPolylineVertex
 10
1.157866666666666
 20
-1.9685
 30
1.042499999999999
 70
    32
  0
SEQEND
  5
77DAE
330
77DA9
100
AcDbEntity
  8
0
  0
CIRCLE
  5
77DAF
330
458D6
100
AcDbEntity
  8
0
100
AcDbCircle
 10
0.1912000000000008
 20
-1.934499999999999
 30
0.316
 40
0.086
  0
INSERT
  5
77DB0
330
458D6
100
AcDbEntity
  8
0
 62
     1
100
AcDbBlockReference
  2
AVE_RENDER
 10
-6.627509659116597
 20
-2.735105295632668
 30
0.0
1001
AVE_RENDER
1002
{
1070
     2
1000
Pref
1070
    30
1070
    20
1070
     0
1070
     0
1000

1070
    10
1070
     0
1070
    30
1040
1.0
1070
     1
1040
0.3
1040
0.4
1040
0.76
1040
1.538461538461538
1010
-1.0
1020
-1.0
1030
-1.0
1040
0.3
1070
    49
1002
}
  0
INSERT
  5
77DB1
330
458D6
100
AcDbEntity
  8
0
 62
     3
100
AcDbBlockReference
  2
AVE_RENDER
 10
-6.627509659116597
 20
-2.735105295632668
 30
0.0
1001
AVE_RENDER
1002
{
1070
     0
1000
Full Opt
1070
     0
1070
     1
1070
     1
1070
     1
1070
     0
1070
     0
1070
     0
1070
     1
1070
     1
1040
0.0001
1040
0.0001
1002
}
  0
INSERT
  5
77DB2
330
458D6
100
AcDbEntity
  8
0
 62
     4
100
AcDbBlockReference
  2
AVE_RENDER
 10
-6.627509659116597
 20
-2.735105295632668
 30
0.0
1001
AVE_RENDER
1002
{
1070
     0
1000
Quick Opt
1070
     0
1070
     1
1070
     1
1070
     1
1070
     0
1070
     0
1070
     1
1002
}
  0
CIRCLE
  5
77DB3
330
458D6
100
AcDbEntity
  8
0
100
AcDbCircle
 10
0.1911999999999999
 20
-1.934499999999999
 30
0.0
 40
0.086
  0
CIRCLE
  5
77DB4
330
458D6
100
AcDbEntity
  8
0
100
AcDbCircle
 10
1.571199999999999
 20
0.4255
 30
0.0
 40
0.086
  0
POLYLINE
  5
77DB5
330
458D6
100
AcDbEntity
  8
0
100
AcDb3dPolyline
 66
     1
 10
0.0
 20
0.0
 30
0.0
 70
     8
  0
VERTEX
  5
77DB6
330
77DB5
100
AcDbEntity
  8
0
100
AcDbVertex
100
AcDb3dPolylineVertex
 10
0.9472000000000019
 20
-1.9685
 30
0.8554999999999999
 70
    32
  0
VERTEX
  5
77DB7
330
77DB5
100
AcDbEntity
  8
0
100
AcDbVertex
100
AcDb3dPolylineVertex
 10
0.9472000000000019
 20
-2.103499999999999
 30
0.8554999999999999
 70
    32
  0
VERTEX
  5
77DB8
330
77DB5
100
AcDbEntity
  8
0
100
AcDbVertex
100
AcDb3dPolylineVertex
 10
1.157866666666666
 20
-2.103499999999999
 30
0.8554999999999999
 70
    32
  0
VERTEX
  5
77DB9
330
77DB5
100
AcDbEntity
  8
0
100
AcDbVertex
100
AcDb3dPolylineVertex
 10
1.157866666666666
 20
-1.9685
 30
0.8554999999999999
 70
    32
  0
SEQEND
  5
77DBA
330
77DB5
100
AcDbEntity
  8
0
  0
POLYLINE
  5
77DBB
330
458D6
100
AcDbEntity
  8
0
100
AcDb3dPolyline
 66
     1
 10
0.0
 20
0.0
 30
0.0
 70
     8
  0
VERTEX
  5
77DBC
330
77DBB
100
AcDbEntity
  8
0
100
AcDbVertex
100
AcDb3dPolylineVertex
 10
1.219866666666667
 20
-1.9685
 30
0.8554999999999999
 70
    32
  0
VERTEX
  5
77DBD
330
77DBB
100
AcDbEntity
  8
0
100
AcDbVertex
100
AcDb3dPolylineVertex
 10
1.219866666666667
 20
-2.103499999999999
 30
0.8554999999999999
 70
    32
  0
VERTEX
  5
77DBE
330
77DBB
100
AcDbEntity
  8
0
100
AcDbVertex
100
AcDb3dPolylineVertex
 10
1.430533333333332
 20
-2.103499999999999
 30
0.8554999999999999
 70
    32
  0
VERTEX
  5
77DBF
330
77DBB
100
AcDbEntity
  8
0
100
AcDbVertex
100
AcDb3dPolylineVertex
 10
1.430533333333332
 20
-1.9685
 30
0.8554999999999999
 70
    32
  0
SEQEND
  5
77DC0
330
77DBB
100
AcDbEntity
  8
0
  0
POLYLINE
  5
77DC1
330
458D6
100
AcDbEntity
  8
0
100
AcDb3dPolyline
 66
     1
 10
0.0
 20
0.0
 30
0.0
 70
     8
  0
VERTEX
  5
77DC2
330
77DC1
100
AcDbEntity
  8
0
100
AcDbVertex
100
AcDb3dPolylineVertex
 10
1.492533333333333
 20
-1.9685
 30
0.8554999999999999
 70
    32
  0
VERTEX
  5
77DC3
330
77DC1
100
AcDbEntity
  8
0
100
AcDbVertex
100
AcDb3dPolylineVertex
 10
1.492533333333333
 20
-2.103499999999999
 30
0.8554999999999999
 70
    32
  0
VERTEX
  5
77DC4
330
77DC1
100
AcDbEntity
  8
0
100
AcDbVertex
100
AcDb3dPolylineVertex
 10
1.703199999999998
 20
-2.103499999999999
 30
0.8554999999999999
 70
    32
  0
VERTEX
  5
77DC5
330
77DC1
100
AcDbEntity
  8
0
100
AcDbVertex
100
AcDb3dPolylineVertex
 10
1.703199999999998
 20
-1.9685
 30
0.8554999999999999
 70
    32
  0
SEQEND
  5
77DC6
330
77DC1
100
AcDbEntity
  8
0
  0
LINE
  5
77DC7
330
458D6
100
AcDbEntity
  8
0
100
AcDbLine
 10
1.703199999999998
 20
-1.9685
 30
0.8554999999999999
 11
1.492533333333333
 21
-1.9685
 31
0.8554999999999999
  0
LINE
  5
77DC8
330
458D6
100
AcDbEntity
  8
0
100
AcDbLine
 10
1.430533333333332
 20
-1.9685
 30
0.8554999999999999
 11
1.219866666666667
 21
-1.9685
 31
0.8554999999999999
  0
LINE
  5
77DC9
330
458D6
100
AcDbEntity
  8
0
100
AcDbLine
 10
1.157866666666666
 20
-1.9685
 30
0.8554999999999999
 11
0.9472000000000019
 21
-1.9685
 31
0.8554999999999999
  0
POLYLINE
  5
77DCA
330
458D6
100
AcDbEntity
  8
0
100
AcDbPolygonMesh
 66
     1
 10
0.0
 20
0.0
 30
0.0
 70
    16
 71
     6
 72
     3
  0
VERTEX
  5
77DCB
330
77DCA
100
AcDbEntity
  8
0
100
AcDbVertex
100
AcDbPolygonMeshVertex
 10
0.9057
 20
-1.985499999999999
 30
4.456375
 70
    64
  0
VERTEX
  5
77DCC
330
77DCA
100
AcDbEntity
  8
0
100
AcDbVertex
100
AcDbPolygonMeshVertex
 10
0.9057
 20
-1.985499999999999
 30
3.846375
 70
    64
  0
VERTEX
  5
77DCD
330
77DCA
100
AcDbEntity
  8
0
100
AcDbVertex
100
AcDbPolygonMeshVertex
 10
0.9057
 20
-1.985499999999999
 30
3.846375
 70
    64
  0
VERTEX
  5
77DCE
330
77DCA
100
AcDbEntity
  8
0
100
AcDbVertex
100
AcDbPolygonMeshVertex
 10
0.8596999999999997
 20
-1.985499999999999
 30
4.456375
 70
    64
  0
VERTEX
  5
77DCF
330
77DCA
100
AcDbEntity
  8
0
100
AcDbVertex
100
AcDbPolygonMeshVertex
 10
0.8596999999999997
 20
-1.985499999999999
 30
3.846375
 70
    64
  0
VERTEX
  5
77DD0
330
77DCA
100
AcDbEntity
  8
0
100
AcDbVertex
100
AcDbPolygonMeshVertex
 10
0.8596999999999997
 20
-1.985499999999999
 30
3.846375
 70
    64
  0
VERTEX
  5
77DD1
330
77DCA
100
AcDbEntity
  8
0
100
AcDbVertex
100
AcDbPolygonMeshVertex
 10
0.8596999999999997
 20
-1.845499999999999
 30
4.456375
 70
    64
  0
VERTEX
  5
77DD2
330
77DCA
100
AcDbEntity
  8
0
100
AcDbVertex
100
AcDbPolygonMeshVertex
 10
0.8596999999999997
 20
-1.845499999999999
 30
3.846375
 70
    64
  0
VERTEX
  5
77DD3
330
77DCA
100
AcDbEntity
  8
0
100
AcDbVertex
100
AcDbPolygonMeshVertex
 10
0.8596999999999997
 20
-1.985499999999999
 30
3.846375
 70
    64
  0
VERTEX
  5
77DD4
330
77DCA
100
AcDbEntity
  8
0
100
AcDbVertex
100
AcDbPolygonMeshVertex
 10
0.9057
 20
-1.845499999999999
 30
4.456375
 70
    64
  0
VERTEX
  5
77DD5
330
77DCA
100
AcDbEntity
  8
0
100
AcDbVertex
100
AcDbPolygonMeshVertex
 10
0.9057
 20
-1.845499999999999
 30
3.846375
 70
    64
  0
VERTEX
  5
77DD6
330
77DCA
100
AcDbEntity
  8
0
100
AcDbVertex
100
AcDbPolygonMeshVertex
 10
0.9057
 20
-1.985499999999999
 30
3.846375
 70
    64
  0
VERTEX
  5
77DD7
330
77DCA
100
AcDbEntity
  8
0
100
AcDbVertex
100
AcDbPolygonMeshVertex
 10
0.9057
 20
-1.845499999999999
 30
4.456375
 70
    64
  0
VERTEX
  5
77DD8
330
77DCA
100
AcDbEntity
  8
0
100
AcDbVertex
100
AcDbPolygonMeshVertex
 10
0.9057
 20
-1.845499999999999
 30
4.456375
 70
    64
  0
VERTEX
  5
77DD9
330
77DCA
100
AcDbEntity
  8
0
100
AcDbVertex
100
AcDbPolygonMeshVertex
 10
0.9057
 20
-1.985499999999999
 30
4.456375
 70
    64
  0
VERTEX
  5
77DDA
330
77DCA
100
AcDbEntity
  8
0
100
AcDbVertex
100
AcDbPolygonMeshVertex
 10
0.8596999999999997
 20
-1.845499999999999
 30
4.456375
 70
    64
  0
VERTEX
  5
77DDB
330
77DCA
100
AcDbEntity
  8
0
100
AcDbVertex
100
AcDbPolygonMeshVertex
 10
0.8596999999999997
 20
-1.845499999999999
 30
4.456375
 70
    64
  0
VERTEX
  5
77DDC
330
77DCA
100
AcDbEntity
  8
0
100
AcDbVertex
100
AcDbPolygonMeshVertex
 10
0.8596999999999997
 20
-1.985499999999999
 30
4.456375
 70
    64
  0
SEQEND
  5
77DDD
330
77DCA
100
AcDbEntity
  8
0
  0
POLYLINE
  5
77DDE
330
458D6
100
AcDbEntity
  8
0
100
AcDbPolygonMesh
 66
     1
 10
0.0
 20
0.0
 30
0.0
 70
    16
 71
     6
 72
     3
  0
VERTEX
  5
77DDF
330
77DDE
100
AcDbEntity
  8
0
100
AcDbVertex
100
AcDbPolygonMeshVertex
 10
1.33545
 20
-1.985499999999999
 30
4.456375
 70
    64
  0
VERTEX
  5
77DE0
330
77DDE
100
AcDbEntity
  8
0
100
AcDbVertex
100
AcDbPolygonMeshVertex
 10
1.33545
 20
-1.985499999999999
 30
3.846375
 70
    64
  0
VERTEX
  5
77DE1
330
77DDE
100
AcDbEntity
  8
0
100
AcDbVertex
100
AcDbPolygonMeshVertex
 10
1.33545
 20
-1.985499999999999
 30
3.846375
 70
    64
  0
VERTEX
  5
77DE2
330
77DDE
100
AcDbEntity
  8
0
100
AcDbVertex
100
AcDbPolygonMeshVertex
 10
1.28945
 20
-1.985499999999999
 30
4.456375
 70
    64
  0
VERTEX
  5
77DE3
330
77DDE
100
AcDbEntity
  8
0
100
AcDbVertex
100
AcDbPolygonMeshVertex
 10
1.28945
 20
-1.985499999999999
 30
3.846375
 70
    64
  0
VERTEX
  5
77DE4
330
77DDE
100
AcDbEntity
  8
0
100
AcDbVertex
100
AcDbPolygonMeshVertex
 10
1.28945
 20
-1.985499999999999
 30
3.846375
 70
    64
  0
VERTEX
  5
77DE5
330
77DDE
100
AcDbEntity
  8
0
100
AcDbVertex
100
AcDbPolygonMeshVertex
 10
1.28945
 20
-1.845499999999999
 30
4.456375
 70
    64
  0
VERTEX
  5
77DE6
330
77DDE
100
AcDbEntity
  8
0
100
AcDbVertex
100
AcDbPolygonMeshVertex
 10
1.28945
 20
-1.845499999999999
 30
3.846375
 70
    64
  0
VERTEX
  5
77DE7
330
77DDE
100
AcDbEntity
  8
0
100
AcDbVertex
100
AcDbPolygonMeshVertex
 10
1.28945
 20
-1.985499999999999
 30
3.846375
 70
    64
  0
VERTEX
  5
77DE8
330
77DDE
100
AcDbEntity
  8
0
100
AcDbVertex
100
AcDbPolygonMeshVertex
 10
1.33545
 20
-1.845499999999999
 30
4.456375
 70
    64
  0
VERTEX
  5
77DE9
330
77DDE
100
AcDbEntity
  8
0
100
AcDbVertex
100
AcDbPolygonMeshVertex
 10
1.33545
 20
-1.845499999999999
 30
3.846375
 70
    64
  0
VERTEX
  5
77DEA
330
77DDE
100
AcDbEntity
  8
0
100
AcDbVertex
100
AcDbPolygonMeshVertex
 10
1.33545
 20
-1.985499999999999
 30
3.846375
 70
    64
  0
VERTEX
  5
77DEB
330
77DDE
100
AcDbEntity
  8
0
100
AcDbVertex
100
AcDbPolygonMeshVertex
 10
1.33545
 20
-1.845499999999999
 30
4.456375
 70
    64
  0
VERTEX
  5
77DEC
330
77DDE
100
AcDbEntity
  8
0
100
AcDbVertex
100
AcDbPolygonMeshVertex
 10
1.33545
 20
-1.845499999999999
 30
4.456375
 70
    64
  0
VERTEX
  5
77DED
330
77DDE
100
AcDbEntity
  8
0
100
AcDbVertex
100
AcDbPolygonMeshVertex
 10
1.33545
 20
-1.985499999999999
 30
4.456375
 70
    64
  0
VERTEX
  5
77DEE
330
77DDE
100
AcDbEntity
  8
0
100
AcDbVertex
100
AcDbPolygonMeshVertex
 10
1.28945
 20
-1.845499999999999
 30
4.456375
 70
    64
  0
VERTEX
  5
77DEF
330
77DDE
100
AcDbEntity
  8
0
100
AcDbVertex
100
AcDbPolygonMeshVertex
 10
1.28945
 20
-1.845499999999999
 30
4.456375
 70
    64
  0
VERTEX
  5
77DF0
330
77DDE
100
AcDbEntity
  8
0
100
AcDbVertex
100
AcDbPolygonMeshVertex
 10
1.28945
 20
-1.985499999999999
 30
4.456375
 70
    64
  0
SEQEND
  5
77DF1
330
77DDE
100
AcDbEntity
  8
0
  0
POLYLINE
  5
77DF2
330
458D6
100
AcDbEntity
  8
0
100
AcDbPolygonMesh
 66
     1
 10
0.0
 20
0.0
 30
0.0
 70
    16
 71
     6
 72
     3
  0
VERTEX
  5
77DF3
330
77DF2
100
AcDbEntity
  8
0
100
AcDbVertex
100
AcDbPolygonMeshVertex
 10
1.719199999999999
 20
-2.057499999999999
 30
3.846375
 70
    64
  0
VERTEX
  5
77DF4
330
77DF2
100
AcDbEntity
  8
0
100
AcDbVertex
100
AcDbPolygonMeshVertex
 10
1.719199999999999
 20
-2.057499999999999
 30
3.587375
 70
    64
  0
VERTEX
  5
77DF5
330
77DF2
100
AcDbEntity
  8
0
100
AcDbVertex
100
AcDbPolygonMeshVertex
 10
1.719199999999999
 20
-2.057499999999999
 30
3.587375
 70
    64
  0
VERTEX
  5
77DF6
330
77DF2
100
AcDbEntity
  8
0
100
AcDbVertex
100
AcDbPolygonMeshVertex
 10
0.0461999999999999
 20
-2.057499999999999
 30
3.846375
 70
    64
  0
VERTEX
  5
77DF7
330
77DF2
100
AcDbEntity
  8
0
100
AcDbVertex
100
AcDbPolygonMeshVertex
 10
0.0461999999999999
 20
-2.057499999999999
 30
3.587375
 70
    64
  0
VERTEX
  5
77DF8
330
77DF2
100
AcDbEntity
  8
0
100
AcDbVertex
100
AcDbPolygonMeshVertex
 10
0.0461999999999999
 20
-2.057499999999999
 30
3.587375
 70
    64
  0
VERTEX
  5
77DF9
330
77DF2
100
AcDbEntity
  8
0
100
AcDbVertex
100
AcDbPolygonMeshVertex
 10
0.0461999999999999
 20
-1.845499999999999
 30
3.846375
 70
    64
  0
VERTEX
  5
77DFA
330
77DF2
100
AcDbEntity
  8
0
100
AcDbVertex
100
AcDbPolygonMeshVertex
 10
0.0461999999999999
 20
-1.845499999999999
 30
3.587375
 70
    64
  0
VERTEX
  5
77DFB
330
77DF2
100
AcDbEntity
  8
0
100
AcDbVertex
100
AcDbPolygonMeshVertex
 10
0.0461999999999999
 20
-2.057499999999999
 30
3.587375
 70
    64
  0
VERTEX
  5
77DFC
330
77DF2
100
AcDbEntity
  8
0
100
AcDbVertex
100
AcDbPolygonMeshVertex
 10
1.719199999999999
 20
-1.845499999999999
 30
3.846375
 70
    64
  0
VERTEX
  5
77DFD
330
77DF2
100
AcDbEntity
  8
0
100
AcDbVertex
100
AcDbPolygonMeshVertex
 10
1.719199999999999
 20
-1.845499999999999
 30
3.587375
 70
    64
  0
VERTEX
  5
77DFE
330
77DF2
100
AcDbEntity
  8
0
100
AcDbVertex
100
AcDbPolygonMeshVertex
 10
1.719199999999999
 20
-2.057499999999999
 30
3.587375
 70
    64
  0
VERTEX
  5
77DFF
330
77DF2
100
AcDbEntity
  8
0
100
AcDbVertex
100
AcDbPolygonMeshVertex
 10
1.719199999999999
 20
-1.845499999999999
 30
3.846375
 70
    64
  0
VERTEX
  5
77E00
330
77DF2
100
AcDbEntity
  8
0
100
AcDbVertex
100
AcDbPolygonMeshVertex
 10
1.719199999999999
 20
-1.845499999999999
 30
3.846375
 70
    64
  0
VERTEX
  5
77E01
330
77DF2
100
AcDbEntity
  8
0
100
AcDbVertex
100
AcDbPolygonMeshVertex
 10
1.719199999999999
 20
-2.057499999999999
 30
3.846375
 70
    64
  0
VERTEX
  5
77E02
330
77DF2
100
AcDbEntity
  8
0
100
AcDbVertex
100
AcDbPolygonMeshVertex
 10
0.0461999999999999
 20
-1.845499999999999
 30
3.846375
 70
    64
  0
VERTEX
  5
77E03
330
77DF2
100
AcDbEntity
  8
0
100
AcDbVertex
100
AcDbPolygonMeshVertex
 10
0.0461999999999999
 20
-1.845499999999999
 30
3.846375
 70
    64
  0
VERTEX
  5
77E04
330
77DF2
100
AcDbEntity
  8
0
100
AcDbVertex
100
AcDbPolygonMeshVertex
 10
0.0461999999999999
 20
-2.057499999999999
 30
3.846375
 70
    64
  0
SEQEND
  5
77E05
330
77DF2
100
AcDbEntity
  8
0
  0
POLYLINE
  5
77E06
330
458D6
100
AcDbEntity
  8
0
100
AcDbPolygonMesh
 66
     1
 10
0.0
 20
0.0
 30
0.0
 70
    16
 71
     6
 72
     3
  0
VERTEX
  5
77E07
330
77E06
100
AcDbEntity
  8
0
100
AcDbVertex
100
AcDbPolygonMeshVertex
 10
0.42995
 20
-1.985499999999999
 30
4.456375
 70
    64
  0
VERTEX
  5
77E08
330
77E06
100
AcDbEntity
  8
0
100
AcDbVertex
100
AcDbPolygonMeshVertex
 10
0.42995
 20
-1.985499999999999
 30
3.846375
 70
    64
  0
VERTEX
  5
77E09
330
77E06
100
AcDbEntity
  8
0
100
AcDbVertex
100
AcDbPolygonMeshVertex
 10
0.42995
 20
-1.985499999999999
 30
3.846375
 70
    64
  0
VERTEX
  5
77E0A
330
77E06
100
AcDbEntity
  8
0
100
AcDbVertex
100
AcDbPolygonMeshVertex
 10
0.4759499999999998
 20
-1.985499999999999
 30
4.456375
 70
    64
  0
VERTEX
  5
77E0B
330
77E06
100
AcDbEntity
  8
0
100
AcDbVertex
100
AcDbPolygonMeshVertex
 10
0.4759499999999998
 20
-1.985499999999999
 30
3.846375
 70
    64
  0
VERTEX
  5
77E0C
330
77E06
100
AcDbEntity
  8
0
100
AcDbVertex
100
AcDbPolygonMeshVertex
 10
0.4759499999999998
 20
-1.985499999999999
 30
3.846375
 70
    64
  0
VERTEX
  5
77E0D
330
77E06
100
AcDbEntity
  8
0
100
AcDbVertex
100
AcDbPolygonMeshVertex
 10
0.4759499999999998
 20
-1.845499999999999
 30
4.456375
 70
    64
  0
VERTEX
  5
77E0E
330
77E06
100
AcDbEntity
  8
0
100
AcDbVertex
100
AcDbPolygonMeshVertex
 10
0.4759499999999998
 20
-1.845499999999999
 30
3.846375
 70
    64
  0
VERTEX
  5
77E0F
330
77E06
100
AcDbEntity
  8
0
100
AcDbVertex
100
AcDbPolygonMeshVertex
 10
0.4759499999999998
 20
-1.985499999999999
 30
3.846375
 70
    64
  0
VERTEX
  5
77E10
330
77E06
100
AcDbEntity
  8
0
100
AcDbVertex
100
AcDbPolygonMeshVertex
 10
0.42995
 20
-1.845499999999999
 30
4.456375
 70
    64
  0
VERTEX
  5
77E11
330
77E06
100
AcDbEntity
  8
0
100
AcDbVertex
100
AcDbPolygonMeshVertex
 10
0.42995
 20
-1.845499999999999
 30
3.846375
 70
    64
  0
VERTEX
  5
77E12
330
77E06
100
AcDbEntity
  8
0
100
AcDbVertex
100
AcDbPolygonMeshVertex
 10
0.42995
 20
-1.985499999999999
 30
3.846375
 70
    64
  0
VERTEX
  5
77E13
330
77E06
100
AcDbEntity
  8
0
100
AcDbVertex
100
AcDbPolygonMeshVertex
 10
0.42995
 20
-1.845499999999999
 30
4.456375
 70
    64
  0
VERTEX
  5
77E14
330
77E06
100
AcDbEntity
  8
0
100
AcDbVertex
100
AcDbPolygonMeshVertex
 10
0.42995
 20
-1.845499999999999
 30
4.456375
 70
    64
  0
VERTEX
  5
77E15
330
77E06
100
AcDbEntity
  8
0
100
AcDbVertex
100
AcDbPolygonMeshVertex
 10
0.42995
 20
-1.985499999999999
 30
4.456375
 70
    64
  0
VERTEX
  5
77E16
330
77E06
100
AcDbEntity
  8
0
100
AcDbVertex
100
AcDbPolygonMeshVertex
 10
0.4759499999999998
 20
-1.845499999999999
 30
4.456375
 70
    64
  0
VERTEX
  5
77E17
330
77E06
100
AcDbEntity
  8
0
100
AcDbVertex
100
AcDbPolygonMeshVertex
 10
0.4759499999999998
 20
-1.845499999999999
 30
4.456375
 70
    64
  0
VERTEX
  5
77E18
330
77E06
100
AcDbEntity
  8
0
100
AcDbVertex
100
AcDbPolygonMeshVertex
 10
0.4759499999999998
 20
-1.985499999999999
 30
4.456375
 70
    64
  0
SEQEND
  5
77E19
330
77E06
100
AcDbEntity
  8
0
  0
LINE
  5
77E1A
330
458D6
100
AcDbEntity
  8
0
100
AcDbLine
 10
0.9057
 20
-1.845499999999999
 30
4.173375
 11
1.28945
 21
-1.845499999999999
 31
4.173375
  0
LINE
  5
77E1B
330
458D6
100
AcDbEntity
  8
0
100
AcDbLine
 10
1.33545
 20
-1.845499999999999
 30
4.173375
 11
1.719199999999999
 21
-1.845499999999999
 31
4.173375
  0
LINE
  5
77E1C
330
458D6
100
AcDbEntity
  8
0
100
AcDbLine
 10
0.4759499999999998
 20
-1.845499999999999
 30
4.173375
 11
0.8596999999999997
 21
-1.845499999999999
 31
4.173375
  0
LINE
  5
77E1D
330
458D6
100
AcDbEntity
  8
0
100
AcDbLine
 10
0.0462000000000004
 20
-1.845499999999999
 30
4.173375
 11
0.42995
 21
-1.845499999999999
 31
4.173375
  0
POLYLINE
  5
77E1E
330
458D6
100
AcDbEntity
  8
0
100
AcDbPolygonMesh
 66
     1
 10
0.0
 20
0.0
 30
0.0
 70
    16
 71
     6
 72
     3
  0
VERTEX
  5
77E1F
330
77E1E
100
AcDbEntity
  8
0
100
AcDbVertex
100
AcDbPolygonMeshVertex
 10
0.0461999999999999
 20
-1.985499999999999
 30
4.456375
 70
    64
  0
VERTEX
  5
77E20
330
77E1E
100
AcDbEntity
  8
0
100
AcDbVertex
100
AcDbPolygonMeshVertex
 10
0.0461999999999999
 20
-1.985499999999999
 30
3.587375
 70
    64
  0
VERTEX
  5
77E21
330
77E1E
100
AcDbEntity
  8
0
100
AcDbVertex
100
AcDbPolygonMeshVertex
 10
0.0461999999999999
 20
-1.985499999999999
 30
3.587375
 70
    64
  0
VERTEX
  5
77E22
330
77E1E
100
AcDbEntity
  8
0
100
AcDbVertex
100
AcDbPolygonMeshVertex
 10
0.0002000000000001
 20
-1.985499999999999
 30
4.456375
 70
    64
  0
VERTEX
  5
77E23
330
77E1E
100
AcDbEntity
  8
0
100
AcDbVertex
100
AcDbPolygonMeshVertex
 10
0.0002000000000001
 20
-1.985499999999999
 30
3.587375
 70
    64
  0
VERTEX
  5
77E24
330
77E1E
100
AcDbEntity
  8
0
100
AcDbVertex
100
AcDbPolygonMeshVertex
 10
0.0002000000000001
 20
-1.985499999999999
 30
3.587375
 70
    64
  0
VERTEX
  5
77E25
330
77E1E
100
AcDbEntity
  8
0
100
AcDbVertex
100
AcDbPolygonMeshVertex
 10
0.0002000000000001
 20
-1.845499999999999
 30
4.456375
 70
    64
  0
VERTEX
  5
77E26
330
77E1E
100
AcDbEntity
  8
0
100
AcDbVertex
100
AcDbPolygonMeshVertex
 10
0.0002000000000001
 20
-1.845499999999999
 30
3.587375
 70
    64
  0
VERTEX
  5
77E27
330
77E1E
100
AcDbEntity
  8
0
100
AcDbVertex
100
AcDbPolygonMeshVertex
 10
0.0002000000000001
 20
-1.985499999999999
 30
3.587375
 70
    64
  0
VERTEX
  5
77E28
330
77E1E
100
AcDbEntity
  8
0
100
AcDbVertex
100
AcDbPolygonMeshVertex
 10
0.0461999999999999
 20
-1.845499999999999
 30
4.456375
 70
    64
  0
VERTEX
  5
77E29
330
77E1E
100
AcDbEntity
  8
0
100
AcDbVertex
100
AcDbPolygonMeshVertex
 10
0.0461999999999999
 20
-1.845499999999999
 30
3.587375
 70
    64
  0
VERTEX
  5
77E2A
330
77E1E
100
AcDbEntity
  8
0
100
AcDbVertex
100
AcDbPolygonMeshVertex
 10
0.0461999999999999
 20
-1.985499999999999
 30
3.587375
 70
    64
  0
VERTEX
  5
77E2B
330
77E1E
100
AcDbEntity
  8
0
100
AcDbVertex
100
AcDbPolygonMeshVertex
 10
0.0461999999999999
 20
-1.845499999999999
 30
4.456375
 70
    64
  0
VERTEX
  5
77E2C
330
77E1E
100
AcDbEntity
  8
0
100
AcDbVertex
100
AcDbPolygonMeshVertex
 10
0.0461999999999999
 20
-1.845499999999999
 30
4.456375
 70
    64
  0
VERTEX
  5
77E2D
330
77E1E
100
AcDbEntity
  8
0
100
AcDbVertex
100
AcDbPolygonMeshVertex
 10
0.0461999999999999
 20
-1.985499999999999
 30
4.456375
 70
    64
  0
VERTEX
  5
77E2E
330
77E1E
100
AcDbEntity
  8
0
100
AcDbVertex
100
AcDbPolygonMeshVertex
 10
0.0002000000000001
 20
-1.845499999999999
 30
4.456375
 70
    64
  0
VERTEX
  5
77E2F
330
77E1E
100
AcDbEntity
  8
0
100
AcDbVertex
100
AcDbPolygonMeshVertex
 10
0.0002000000000001
 20
-1.845499999999999
 30
4.456375
 70
    64
  0
VERTEX
  5
77E30
330
77E1E
100
AcDbEntity
  8
0
100
AcDbVertex
100
AcDbPolygonMeshVertex
 10
0.0002000000000001
 20
-1.985499999999999
 30
4.456375
 70
    64
  0
SEQEND
  5
77E31
330
77E1E
100
AcDbEntity
  8
0
  0
POLYLINE
  5
77E32
330
458D6
100
AcDbEntity
  8
0
100
AcDbPolygonMesh
 66
     1
 10
0.0
 20
0.0
 30
0.0
 70
    16
 71
     6
 72
     3
  0
VERTEX
  5
77E33
330
77E32
100
AcDbEntity
  8
0
100
AcDbVertex
100
AcDbPolygonMeshVertex
 10
1.765199999999999
 20
-1.985499999999999
 30
4.456375
 70
    64
  0
VERTEX
  5
77E34
330
77E32
100
AcDbEntity
  8
0
100
AcDbVertex
100
AcDbPolygonMeshVertex
 10
1.765199999999999
 20
-1.985499999999999
 30
3.587375
 70
    64
  0
VERTEX
  5
77E35
330
77E32
100
AcDbEntity
  8
0
100
AcDbVertex
100
AcDbPolygonMeshVertex
 10
1.765199999999999
 20
-1.985499999999999
 30
3.587375
 70
    64
  0
VERTEX
  5
77E36
330
77E32
100
AcDbEntity
  8
0
100
AcDbVertex
100
AcDbPolygonMeshVertex
 10
1.7192
 20
-1.985499999999999
 30
4.456375
 70
    64
  0
VERTEX
  5
77E37
330
77E32
100
AcDbEntity
  8
0
100
AcDbVertex
100
AcDbPolygonMeshVertex
 10
1.7192
 20
-1.985499999999999
 30
3.587375
 70
    64
  0
VERTEX
  5
77E38
330
77E32
100
AcDbEntity
  8
0
100
AcDbVertex
100
AcDbPolygonMeshVertex
 10
1.7192
 20
-1.985499999999999
 30
3.587375
 70
    64
  0
VERTEX
  5
77E39
330
77E32
100
AcDbEntity
  8
0
100
AcDbVertex
100
AcDbPolygonMeshVertex
 10
1.7192
 20
-1.845499999999999
 30
4.456375
 70
    64
  0
VERTEX
  5
77E3A
330
77E32
100
AcDbEntity
  8
0
100
AcDbVertex
100
AcDbPolygonMeshVertex
 10
1.7192
 20
-1.845499999999999
 30
3.587375
 70
    64
  0
VERTEX
  5
77E3B
330
77E32
100
AcDbEntity
  8
0
100
AcDbVertex
100
AcDbPolygonMeshVertex
 10
1.7192
 20
-1.985499999999999
 30
3.587375
 70
    64
  0
VERTEX
  5
77E3C
330
77E32
100
AcDbEntity
  8
0
100
AcDbVertex
100
AcDbPolygonMeshVertex
 10
1.765199999999999
 20
-1.845499999999999
 30
4.456375
 70
    64
  0
VERTEX
  5
77E3D
330
77E32
100
AcDbEntity
  8
0
100
AcDbVertex
100
AcDbPolygonMeshVertex
 10
1.765199999999999
 20
-1.845499999999999
 30
3.587375
 70
    64
  0
VERTEX
  5
77E3E
330
77E32
100
AcDbEntity
  8
0
100
AcDbVertex
100
AcDbPolygonMeshVertex
 10
1.765199999999999
 20
-1.985499999999999
 30
3.587375
 70
    64
  0
VERTEX
  5
77E3F
330
77E32
100
AcDbEntity
  8
0
100
AcDbVertex
100
AcDbPolygonMeshVertex
 10
1.765199999999999
 20
-1.845499999999999
 30
4.456375
 70
    64
  0
VERTEX
  5
77E40
330
77E32
100
AcDbEntity
  8
0
100
AcDbVertex
100
AcDbPolygonMeshVertex
 10
1.765199999999999
 20
-1.845499999999999
 30
4.456375
 70
    64
  0
VERTEX
  5
77E41
330
77E32
100
AcDbEntity
  8
0
100
AcDbVertex
100
AcDbPolygonMeshVertex
 10
1.765199999999999
 20
-1.985499999999999
 30
4.456375
 70
    64
  0
VERTEX
  5
77E42
330
77E32
100
AcDbEntity
  8
0
100
AcDbVertex
100
AcDbPolygonMeshVertex
 10
1.7192
 20
-1.845499999999999
 30
4.456375
 70
    64
  0
VERTEX
  5
77E43
330
77E32
100
AcDbEntity
  8
0
100
AcDbVertex
100
AcDbPolygonMeshVertex
 10
1.7192
 20
-1.845499999999999
 30
4.456375
 70
    64
  0
VERTEX
  5
77E44
330
77E32
100
AcDbEntity
  8
0
100
AcDbVertex
100
AcDbPolygonMeshVertex
 10
1.7192
 20
-1.985499999999999
 30
4.456375
 70
    64
  0
SEQEND
  5
77E45
330
77E32
100
AcDbEntity
  8
0
  0
POLYLINE
  5
77E46
330
458D6
100
AcDbEntity
  8
0
100
AcDbPolygonMesh
 66
     1
 10
0.0
 20
0.0
 30
0.0
 70
    16
 71
     6
 72
     3
  0
VERTEX
  5
77E47
330
77E46
100
AcDbEntity
  8
0
100
AcDbVertex
100
AcDbPolygonMeshVertex
 10
1.765199999999999
 20
0.5384999999999991
 30
4.456375
 70
    64
  0
VERTEX
  5
77E48
330
77E46
100
AcDbEntity
  8
0
100
AcDbVertex
100
AcDbPolygonMeshVertex
 10
1.765199999999999
 20
0.5384999999999991
 30
3.587375
 70
    64
  0
VERTEX
  5
77E49
330
77E46
100
AcDbEntity
  8
0
100
AcDbVertex
100
AcDbPolygonMeshVertex
 10
1.765199999999999
 20
0.5384999999999991
 30
3.587375
 70
    64
  0
VERTEX
  5
77E4A
330
77E46
100
AcDbEntity
  8
0
100
AcDbVertex
100
AcDbPolygonMeshVertex
 10
1.7192
 20
0.5384999999999991
 30
4.456375
 70
    64
  0
VERTEX
  5
77E4B
330
77E46
100
AcDbEntity
  8
0
100
AcDbVertex
100
AcDbPolygonMeshVertex
 10
1.7192
 20
0.5384999999999991
 30
3.587375
 70
    64
  0
VERTEX
  5
77E4C
330
77E46
100
AcDbEntity
  8
0
100
AcDbVertex
100
AcDbPolygonMeshVertex
 10
1.7192
 20
0.5384999999999991
 30
3.587375
 70
    64
  0
VERTEX
  5
77E4D
330
77E46
100
AcDbEntity
  8
0
100
AcDbVertex
100
AcDbPolygonMeshVertex
 10
1.7192
 20
0.3984999999999994
 30
4.456375
 70
    64
  0
VERTEX
  5
77E4E
330
77E46
100
AcDbEntity
  8
0
100
AcDbVertex
100
AcDbPolygonMeshVertex
 10
1.7192
 20
0.3984999999999994
 30
3.587375
 70
    64
  0
VERTEX
  5
77E4F
330
77E46
100
AcDbEntity
  8
0
100
AcDbVertex
100
AcDbPolygonMeshVertex
 10
1.7192
 20
0.5384999999999991
 30
3.587375
 70
    64
  0
VERTEX
  5
77E50
330
77E46
100
AcDbEntity
  8
0
100
AcDbVertex
100
AcDbPolygonMeshVertex
 10
1.765199999999999
 20
0.3984999999999994
 30
4.456375
 70
    64
  0
VERTEX
  5
77E51
330
77E46
100
AcDbEntity
  8
0
100
AcDbVertex
100
AcDbPolygonMeshVertex
 10
1.765199999999999
 20
0.3984999999999994
 30
3.587375
 70
    64
  0
VERTEX
  5
77E52
330
77E46
100
AcDbEntity
  8
0
100
AcDbVertex
100
AcDbPolygonMeshVertex
 10
1.765199999999999
 20
0.5384999999999991
 30
3.587375
 70
    64
  0
VERTEX
  5
77E53
330
77E46
100
AcDbEntity
  8
0
100
AcDbVertex
100
AcDbPolygonMeshVertex
 10
1.765199999999999
 20
0.3984999999999994
 30
4.456375
 70
    64
  0
VERTEX
  5
77E54
330
77E46
100
AcDbEntity
  8
0
100
AcDbVertex
100
AcDbPolygonMeshVertex
 10
1.765199999999999
 20
0.3984999999999994
 30
4.456375
 70
    64
  0
VERTEX
  5
77E55
330
77E46
100
AcDbEntity
  8
0
100
AcDbVertex
100
AcDbPolygonMeshVertex
 10
1.765199999999999
 20
0.5384999999999991
 30
4.456375
 70
    64
  0
VERTEX
  5
77E56
330
77E46
100
AcDbEntity
  8
0
100
AcDbVertex
100
AcDbPolygonMeshVertex
 10
1.7192
 20
0.3984999999999994
 30
4.456375
 70
    64
  0
VERTEX
  5
77E57
330
77E46
100
AcDbEntity
  8
0
100
AcDbVertex
100
AcDbPolygonMeshVertex
 10
1.7192
 20
0.3984999999999994
 30
4.456375
 70
    64
  0
VERTEX
  5
77E58
330
77E46
100
AcDbEntity
  8
0
100
AcDbVertex
100
AcDbPolygonMeshVertex
 10
1.7192
 20
0.5384999999999991
 30
4.456375
 70
    64
  0
SEQEND
  5
77E59
330
77E46
100
AcDbEntity
  8
0
  0
LINE
  5
77E5A
330
458D6
100
AcDbEntity
  8
0
100
AcDbLine
 10
1.33545
 20
0.3984999999999994
 30
4.173375
 11
1.719199999999999
 21
0.3984999999999994
 31
4.173375
  0
POLYLINE
  5
77E5B
330
458D6
100
AcDbEntity
  8
0
100
AcDbPolygonMesh
 66
     1
 10
0.0
 20
0.0
 30
0.0
 70
    16
 71
     6
 72
     3
  0
VERTEX
  5
77E5C
330
77E5B
100
AcDbEntity
  8
0
100
AcDbVertex
100
AcDbPolygonMeshVertex
 10
1.33545
 20
0.5384999999999991
 30
4.456375
 70
    64
  0
VERTEX
  5
77E5D
330
77E5B
100
AcDbEntity
  8
0
100
AcDbVertex
100
AcDbPolygonMeshVertex
 10
1.33545
 20
0.5384999999999991
 30
3.846375
 70
    64
  0
VERTEX
  5
77E5E
330
77E5B
100
AcDbEntity
  8
0
100
AcDbVertex
100
AcDbPolygonMeshVertex
 10
1.33545
 20
0.5384999999999991
 30
3.846375
 70
    64
  0
VERTEX
  5
77E5F
330
77E5B
100
AcDbEntity
  8
0
100
AcDbVertex
100
AcDbPolygonMeshVertex
 10
1.28945
 20
0.5384999999999991
 30
4.456375
 70
    64
  0
VERTEX
  5
77E60
330
77E5B
100
AcDbEntity
  8
0
100
AcDbVertex
100
AcDbPolygonMeshVertex
 10
1.28945
 20
0.5384999999999991
 30
3.846375
 70
    64
  0
VERTEX
  5
77E61
330
77E5B
100
AcDbEntity
  8
0
100
AcDbVertex
100
AcDbPolygonMeshVertex
 10
1.28945
 20
0.5384999999999991
 30
3.846375
 70
    64
  0
VERTEX
  5
77E62
330
77E5B
100
AcDbEntity
  8
0
100
AcDbVertex
100
AcDbPolygonMeshVertex
 10
1.28945
 20
0.3984999999999994
 30
4.456375
 70
    64
  0
VERTEX
  5
77E63
330
77E5B
100
AcDbEntity
  8
0
100
AcDbVertex
100
AcDbPolygonMeshVertex
 10
1.28945
 20
0.3984999999999994
 30
3.846375
 70
    64
  0
VERTEX
  5
77E64
330
77E5B
100
AcDbEntity
  8
0
100
AcDbVertex
100
AcDbPolygonMeshVertex
 10
1.28945
 20
0.5384999999999991
 30
3.846375
 70
    64
  0
VERTEX
  5
77E65
330
77E5B
100
AcDbEntity
  8
0
100
AcDbVertex
100
AcDbPolygonMeshVertex
 10
1.33545
 20
0.3984999999999994
 30
4.456375
 70
    64
  0
VERTEX
  5
77E66
330
77E5B
100
AcDbEntity
  8
0
100
AcDbVertex
100
AcDbPolygonMeshVertex
 10
1.33545
 20
0.3984999999999994
 30
3.846375
 70
    64
  0
VERTEX
  5
77E67
330
77E5B
100
AcDbEntity
  8
0
100
AcDbVertex
100
AcDbPolygonMeshVertex
 10
1.33545
 20
0.5384999999999991
 30
3.846375
 70
    64
  0
VERTEX
  5
77E68
330
77E5B
100
AcDbEntity
  8
0
100
AcDbVertex
100
AcDbPolygonMeshVertex
 10
1.33545
 20
0.3984999999999994
 30
4.456375
 70
    64
  0
VERTEX
  5
77E69
330
77E5B
100
AcDbEntity
  8
0
100
AcDbVertex
100
AcDbPolygonMeshVertex
 10
1.33545
 20
0.3984999999999994
 30
4.456375
 70
    64
  0
VERTEX
  5
77E6A
330
77E5B
100
AcDbEntity
  8
0
100
AcDbVertex
100
AcDbPolygonMeshVertex
 10
1.33545
 20
0.5384999999999991
 30
4.456375
 70
    64
  0
VERTEX
  5
77E6B
330
77E5B
100
AcDbEntity
  8
0
100
AcDbVertex
100
AcDbPolygonMeshVertex
 10
1.28945
 20
0.3984999999999994
 30
4.456375
 70
    64
  0
VERTEX
  5
77E6C
330
77E5B
100
AcDbEntity
  8
0
100
AcDbVertex
100
AcDbPolygonMeshVertex
 10
1.28945
 20
0.3984999999999994
 30
4.456375
 70
    64
  0
VERTEX
  5
77E6D
330
77E5B
100
AcDbEntity
  8
0
100
AcDbVertex
100
AcDbPolygonMeshVertex
 10
1.28945
 20
0.5384999999999991
 30
4.456375
 70
    64
  0
SEQEND
  5
77E6E
330
77E5B
100
AcDbEntity
  8
0
  0
LINE
  5
77E6F
330
458D6
100
AcDbEntity
  8
0
100
AcDbLine
 10
0.9057
 20
0.3984999999999994
 30
4.173375
 11
1.28945
 21
0.3984999999999994
 31
4.173375
  0
POLYLINE
  5
77E70
330
458D6
100
AcDbEntity
  8
0
100
AcDbPolygonMesh
 66
     1
 10
0.0
 20
0.0
 30
0.0
 70
    16
 71
     6
 72
     3
  0
VERTEX
  5
77E71
330
77E70
100
AcDbEntity
  8
0
100
AcDbVertex
100
AcDbPolygonMeshVertex
 10
0.9057
 20
0.5384999999999991
 30
4.456375
 70
    64
  0
VERTEX
  5
77E72
330
77E70
100
AcDbEntity
  8
0
100
AcDbVertex
100
AcDbPolygonMeshVertex
 10
0.9057
 20
0.5384999999999991
 30
3.846375
 70
    64
  0
VERTEX
  5
77E73
330
77E70
100
AcDbEntity
  8
0
100
AcDbVertex
100
AcDbPolygonMeshVertex
 10
0.9057
 20
0.5384999999999991
 30
3.846375
 70
    64
  0
VERTEX
  5
77E74
330
77E70
100
AcDbEntity
  8
0
100
AcDbVertex
100
AcDbPolygonMeshVertex
 10
0.8596999999999997
 20
0.5384999999999991
 30
4.456375
 70
    64
  0
VERTEX
  5
77E75
330
77E70
100
AcDbEntity
  8
0
100
AcDbVertex
100
AcDbPolygonMeshVertex
 10
0.8596999999999997
 20
0.5384999999999991
 30
3.846375
 70
    64
  0
VERTEX
  5
77E76
330
77E70
100
AcDbEntity
  8
0
100
AcDbVertex
100
AcDbPolygonMeshVertex
 10
0.8596999999999997
 20
0.5384999999999991
 30
3.846375
 70
    64
  0
VERTEX
  5
77E77
330
77E70
100
AcDbEntity
  8
0
100
AcDbVertex
100
AcDbPolygonMeshVertex
 10
0.8596999999999997
 20
0.3984999999999994
 30
4.456375
 70
    64
  0
VERTEX
  5
77E78
330
77E70
100
AcDbEntity
  8
0
100
AcDbVertex
100
AcDbPolygonMeshVertex
 10
0.8596999999999997
 20
0.3984999999999994
 30
3.846375
 70
    64
  0
VERTEX
  5
77E79
330
77E70
100
AcDbEntity
  8
0
100
AcDbVertex
100
AcDbPolygonMeshVertex
 10
0.8596999999999997
 20
0.5384999999999991
 30
3.846375
 70
    64
  0
VERTEX
  5
77E7A
330
77E70
100
AcDbEntity
  8
0
100
AcDbVertex
100
AcDbPolygonMeshVertex
 10
0.9057
 20
0.3984999999999994
 30
4.456375
 70
    64
  0
VERTEX
  5
77E7B
330
77E70
100
AcDbEntity
  8
0
100
AcDbVertex
100
AcDbPolygonMeshVertex
 10
0.9057
 20
0.3984999999999994
 30
3.846375
 70
    64
  0
VERTEX
  5
77E7C
330
77E70
100
AcDbEntity
  8
0
100
AcDbVertex
100
AcDbPolygonMeshVertex
 10
0.9057
 20
0.5384999999999991
 30
3.846375
 70
    64
  0
VERTEX
  5
77E7D
330
77E70
100
AcDbEntity
  8
0
100
AcDbVertex
100
AcDbPolygonMeshVertex
 10
0.9057
 20
0.3984999999999994
 30
4.456375
 70
    64
  0
VERTEX
  5
77E7E
330
77E70
100
AcDbEntity
  8
0
100
AcDbVertex
100
AcDbPolygonMeshVertex
 10
0.9057
 20
0.3984999999999994
 30
4.456375
 70
    64
  0
VERTEX
  5
77E7F
330
77E70
100
AcDbEntity
  8
0
100
AcDbVertex
100
AcDbPolygonMeshVertex
 10
0.9057
 20
0.5384999999999991
 30
4.456375
 70
    64
  0
VERTEX
  5
77E80
330
77E70
100
AcDbEntity
  8
0
100
AcDbVertex
100
AcDbPolygonMeshVertex
 10
0.8596999999999997
 20
0.3984999999999994
 30
4.456375
 70
    64
  0
VERTEX
  5
77E81
330
77E70
100
AcDbEntity
  8
0
100
AcDbVertex
100
AcDbPolygonMeshVertex
 10
0.8596999999999997
 20
0.3984999999999994
 30
4.456375
 70
    64
  0
VERTEX
  5
77E82
330
77E70
100
AcDbEntity
  8
0
100
AcDbVertex
100
AcDbPolygonMeshVertex
 10
0.8596999999999997
 20
0.5384999999999991
 30
4.456375
 70
    64
  0
SEQEND
  5
77E83
330
77E70
100
AcDbEntity
  8
0
  0
POLYLINE
  5
77E84
330
458D6
100
AcDbEntity
  8
0
100
AcDbPolygonMesh
 66
     1
 10
0.0
 20
0.0
 30
0.0
 70
    16
 71
     6
 72
     3
  0
VERTEX
  5
77E85
330
77E84
100
AcDbEntity
  8
0
100
AcDbVertex
100
AcDbPolygonMeshVertex
 10
0.42995
 20
0.5384999999999991
 30
4.456375
 70
    64
  0
VERTEX
  5
77E86
330
77E84
100
AcDbEntity
  8
0
100
AcDbVertex
100
AcDbPolygonMeshVertex
 10
0.42995
 20
0.5384999999999991
 30
3.846375
 70
    64
  0
VERTEX
  5
77E87
330
77E84
100
AcDbEntity
  8
0
100
AcDbVertex
100
AcDbPolygonMeshVertex
 10
0.42995
 20
0.5384999999999991
 30
3.846375
 70
    64
  0
VERTEX
  5
77E88
330
77E84
100
AcDbEntity
  8
0
100
AcDbVertex
100
AcDbPolygonMeshVertex
 10
0.4759499999999998
 20
0.5384999999999991
 30
4.456375
 70
    64
  0
VERTEX
  5
77E89
330
77E84
100
AcDbEntity
  8
0
100
AcDbVertex
100
AcDbPolygonMeshVertex
 10
0.4759499999999998
 20
0.5384999999999991
 30
3.846375
 70
    64
  0
VERTEX
  5
77E8A
330
77E84
100
AcDbEntity
  8
0
100
AcDbVertex
100
AcDbPolygonMeshVertex
 10
0.4759499999999998
 20
0.5384999999999991
 30
3.846375
 70
    64
  0
VERTEX
  5
77E8B
330
77E84
100
AcDbEntity
  8
0
100
AcDbVertex
100
AcDbPolygonMeshVertex
 10
0.4759499999999998
 20
0.3984999999999994
 30
4.456375
 70
    64
  0
VERTEX
  5
77E8C
330
77E84
100
AcDbEntity
  8
0
100
AcDbVertex
100
AcDbPolygonMeshVertex
 10
0.4759499999999998
 20
0.3984999999999994
 30
3.846375
 70
    64
  0
VERTEX
  5
77E8D
330
77E84
100
AcDbEntity
  8
0
100
AcDbVertex
100
AcDbPolygonMeshVertex
 10
0.4759499999999998
 20
0.5384999999999991
 30
3.846375
 70
    64
  0
VERTEX
  5
77E8E
330
77E84
100
AcDbEntity
  8
0
100
AcDbVertex
100
AcDbPolygonMeshVertex
 10
0.42995
 20
0.3984999999999994
 30
4.456375
 70
    64
  0
VERTEX
  5
77E8F
330
77E84
100
AcDbEntity
  8
0
100
AcDbVertex
100
AcDbPolygonMeshVertex
 10
0.42995
 20
0.3984999999999994
 30
3.846375
 70
    64
  0
VERTEX
  5
77E90
330
77E84
100
AcDbEntity
  8
0
100
AcDbVertex
100
AcDbPolygonMeshVertex
 10
0.42995
 20
0.5384999999999991
 30
3.846375
 70
    64
  0
VERTEX
  5
77E91
330
77E84
100
AcDbEntity
  8
0
100
AcDbVertex
100
AcDbPolygonMeshVertex
 10
0.42995
 20
0.3984999999999994
 30
4.456375
 70
    64
  0
VERTEX
  5
77E92
330
77E84
100
AcDbEntity
  8
0
100
AcDbVertex
100
AcDbPolygonMeshVertex
 10
0.42995
 20
0.3984999999999994
 30
4.456375
 70
    64
  0
VERTEX
  5
77E93
330
77E84
100
AcDbEntity
  8
0
100
AcDbVertex
100
AcDbPolygonMeshVertex
 10
0.42995
 20
0.5384999999999991
 30
4.456375
 70
    64
  0
VERTEX
  5
77E94
330
77E84
100
AcDbEntity
  8
0
100
AcDbVertex
100
AcDbPolygonMeshVertex
 10
0.4759499999999998
 20
0.3984999999999994
 30
4.456375
 70
    64
  0
VERTEX
  5
77E95
330
77E84
100
AcDbEntity
  8
0
100
AcDbVertex
100
AcDbPolygonMeshVertex
 10
0.4759499999999998
 20
0.3984999999999994
 30
4.456375
 70
    64
  0
VERTEX
  5
77E96
330
77E84
100
AcDbEntity
  8
0
100
AcDbVertex
100
AcDbPolygonMeshVertex
 10
0.4759499999999998
 20
0.5384999999999991
 30
4.456375
 70
    64
  0
SEQEND
  5
77E97
330
77E84
100
AcDbEntity
  8
0
  0
LINE
  5
77E98
330
458D6
100
AcDbEntity
  8
0
100
AcDbLine
 10
0.0462000000000004
 20
0.3984999999999994
 30
4.173375
 11
0.42995
 21
0.3984999999999994
 31
4.173375
  0
LINE
  5
77E99
330
458D6
100
AcDbEntity
  8
0
100
AcDbLine
 10
0.4759499999999998
 20
0.3984999999999994
 30
4.173375
 11
0.8596999999999997
 21
0.3984999999999994
 31
4.173375
  0
POLYLINE
  5
77E9A
330
458D6
100
AcDbEntity
  8
0
100
AcDbPolygonMesh
 66
     1
 10
0.0
 20
0.0
 30
0.0
 70
    16
 71
     6
 72
     3
  0
VERTEX
  5
77E9B
330
77E9A
100
AcDbEntity
  8
0
100
AcDbVertex
100
AcDbPolygonMeshVertex
 10
0.0461999999999999
 20
0.5384999999999991
 30
4.456375
 70
    64
  0
VERTEX
  5
77E9C
330
77E9A
100
AcDbEntity
  8
0
100
AcDbVertex
100
AcDbPolygonMeshVertex
 10
0.0461999999999999
 20
0.5384999999999991
 30
3.587375
 70
    64
  0
VERTEX
  5
77E9D
330
77E9A
100
AcDbEntity
  8
0
100
AcDbVertex
100
AcDbPolygonMeshVertex
 10
0.0461999999999999
 20
0.5384999999999991
 30
3.587375
 70
    64
  0
VERTEX
  5
77E9E
330
77E9A
100
AcDbEntity
  8
0
100
AcDbVertex
100
AcDbPolygonMeshVertex
 10
0.0002000000000001
 20
0.5384999999999991
 30
4.456375
 70
    64
  0
VERTEX
  5
77E9F
330
77E9A
100
AcDbEntity
  8
0
100
AcDbVertex
100
AcDbPolygonMeshVertex
 10
0.0002000000000001
 20
0.5384999999999991
 30
3.587375
 70
    64
  0
VERTEX
  5
77EA0
330
77E9A
100
AcDbEntity
  8
0
100
AcDbVertex
100
AcDbPolygonMeshVertex
 10
0.0002000000000001
 20
0.5384999999999991
 30
3.587375
 70
    64
  0
VERTEX
  5
77EA1
330
77E9A
100
AcDbEntity
  8
0
100
AcDbVertex
100
AcDbPolygonMeshVertex
 10
0.0002000000000001
 20
0.3984999999999994
 30
4.456375
 70
    64
  0
VERTEX
  5
77EA2
330
77E9A
100
AcDbEntity
  8
0
100
AcDbVertex
100
AcDbPolygonMeshVertex
 10
0.0002000000000001
 20
0.3984999999999994
 30
3.587375
 70
    64
  0
VERTEX
  5
77EA3
330
77E9A
100
AcDbEntity
  8
0
100
AcDbVertex
100
AcDbPolygonMeshVertex
 10
0.0002000000000001
 20
0.5384999999999991
 30
3.587375
 70
    64
  0
VERTEX
  5
77EA4
330
77E9A
100
AcDbEntity
  8
0
100
AcDbVertex
100
AcDbPolygonMeshVertex
 10
0.0461999999999999
 20
0.3984999999999994
 30
4.456375
 70
    64
  0
VERTEX
  5
77EA5
330
77E9A
100
AcDbEntity
  8
0
100
AcDbVertex
100
AcDbPolygonMeshVertex
 10
0.0461999999999999
 20
0.3984999999999994
 30
3.587375
 70
    64
  0
VERTEX
  5
77EA6
330
77E9A
100
AcDbEntity
  8
0
100
AcDbVertex
100
AcDbPolygonMeshVertex
 10
0.0461999999999999
 20
0.5384999999999991
 30
3.587375
 70
    64
  0
VERTEX
  5
77EA7
330
77E9A
100
AcDbEntity
  8
0
100
AcDbVertex
100
AcDbPolygonMeshVertex
 10
0.0461999999999999
 20
0.3984999999999994
 30
4.456375
 70
    64
  0
VERTEX
  5
77EA8
330
77E9A
100
AcDbEntity
  8
0
100
AcDbVertex
100
AcDbPolygonMeshVertex
 10
0.0461999999999999
 20
0.3984999999999994
 30
4.456375
 70
    64
  0
VERTEX
  5
77EA9
330
77E9A
100
AcDbEntity
  8
0
100
AcDbVertex
100
AcDbPolygonMeshVertex
 10
0.0461999999999999
 20
0.5384999999999991
 30
4.456375
 70
    64
  0
VERTEX
  5
77EAA
330
77E9A
100
AcDbEntity
  8
0
100
AcDbVertex
100
AcDbPolygonMeshVertex
 10
0.0002000000000001
 20
0.3984999999999994
 30
4.456375
 70
    64
  0
VERTEX
  5
77EAB
330
77E9A
100
AcDbEntity
  8
0
100
AcDbVertex
100
AcDbPolygonMeshVertex
 10
0.0002000000000001
 20
0.3984999999999994
 30
4.456375
 70
    64
  0
VERTEX
  5
77EAC
330
77E9A
100
AcDbEntity
  8
0
100
AcDbVertex
100
AcDbPolygonMeshVertex
 10
0.0002000000000001
 20
0.5384999999999991
 30
4.456375
 70
    64
  0
SEQEND
  5
77EAD
330
77E9A
100
AcDbEntity
  8
0
  0
POLYLINE
  5
77EAE
330
458D6
100
AcDbEntity
  8
0
100
AcDbPolygonMesh
 66
     1
 10
0.0
 20
0.0
 30
0.0
 70
    16
 71
     6
 72
     3
  0
VERTEX
  5
77EAF
330
77EAE
100
AcDbEntity
  8
0
100
AcDbVertex
100
AcDbPolygonMeshVertex
 10
1.719199999999999
 20
0.6104999999999992
 30
3.846375
 70
    64
  0
VERTEX
  5
77EB0
330
77EAE
100
AcDbEntity
  8
0
100
AcDbVertex
100
AcDbPolygonMeshVertex
 10
1.719199999999999
 20
0.6104999999999992
 30
3.587375
 70
    64
  0
VERTEX
  5
77EB1
330
77EAE
100
AcDbEntity
  8
0
100
AcDbVertex
100
AcDbPolygonMeshVertex
 10
1.719199999999999
 20
0.6104999999999992
 30
3.587375
 70
    64
  0
VERTEX
  5
77EB2
330
77EAE
100
AcDbEntity
  8
0
100
AcDbVertex
100
AcDbPolygonMeshVertex
 10
0.0461999999999999
 20
0.6104999999999992
 30
3.846375
 70
    64
  0
VERTEX
  5
77EB3
330
77EAE
100
AcDbEntity
  8
0
100
AcDbVertex
100
AcDbPolygonMeshVertex
 10
0.0461999999999999
 20
0.6104999999999992
 30
3.587375
 70
    64
  0
VERTEX
  5
77EB4
330
77EAE
100
AcDbEntity
  8
0
100
AcDbVertex
100
AcDbPolygonMeshVertex
 10
0.0461999999999999
 20
0.6104999999999992
 30
3.587375
 70
    64
  0
VERTEX
  5
77EB5
330
77EAE
100
AcDbEntity
  8
0
100
AcDbVertex
100
AcDbPolygonMeshVertex
 10
0.0461999999999999
 20
0.3984999999999994
 30
3.846375
 70
    64
  0
VERTEX
  5
77EB6
330
77EAE
100
AcDbEntity
  8
0
100
AcDbVertex
100
AcDbPolygonMeshVertex
 10
0.0461999999999999
 20
0.3984999999999994
 30
3.587375
 70
    64
  0
VERTEX
  5
77EB7
330
77EAE
100
AcDbEntity
  8
0
100
AcDbVertex
100
AcDbPolygonMeshVertex
 10
0.0461999999999999
 20
0.6104999999999992
 30
3.587375
 70
    64
  0
VERTEX
  5
77EB8
330
77EAE
100
AcDbEntity
  8
0
100
AcDbVertex
100
AcDbPolygonMeshVertex
 10
1.719199999999999
 20
0.3984999999999994
 30
3.846375
 70
    64
  0
VERTEX
  5
77EB9
330
77EAE
100
AcDbEntity
  8
0
100
AcDbVertex
100
AcDbPolygonMeshVertex
 10
1.719199999999999
 20
0.3984999999999994
 30
3.587375
 70
    64
  0
VERTEX
  5
77EBA
330
77EAE
100
AcDbEntity
  8
0
100
AcDbVertex
100
AcDbPolygonMeshVertex
 10
1.719199999999999
 20
0.6104999999999992
 30
3.587375
 70
    64
  0
VERTEX
  5
77EBB
330
77EAE
100
AcDbEntity
  8
0
100
AcDbVertex
100
AcDbPolygonMeshVertex
 10
1.719199999999999
 20
0.3984999999999994
 30
3.846375
 70
    64
  0
VERTEX
  5
77EBC
330
77EAE
100
AcDbEntity
  8
0
100
AcDbVertex
100
AcDbPolygonMeshVertex
 10
1.719199999999999
 20
0.3984999999999994
 30
3.846375
 70
    64
  0
VERTEX
  5
77EBD
330
77EAE
100
AcDbEntity
  8
0
100
AcDbVertex
100
AcDbPolygonMeshVertex
 10
1.719199999999999
 20
0.6104999999999992
 30
3.846375
 70
    64
  0
VERTEX
  5
77EBE
330
77EAE
100
AcDbEntity
  8
0
100
AcDbVertex
100
AcDbPolygonMeshVertex
 10
0.0461999999999999
 20
0.3984999999999994
 30
3.846375
 70
    64
  0
VERTEX
  5
77EBF
330
77EAE
100
AcDbEntity
  8
0
100
AcDbVertex
100
AcDbPolygonMeshVertex
 10
0.0461999999999999
 20
0.3984999999999994
 30
3.846375
 70
    64
  0
VERTEX
  5
77EC0
330
77EAE
100
AcDbEntity
  8
0
100
AcDbVertex
100
AcDbPolygonMeshVertex
 10
0.0461999999999999
 20
0.6104999999999992
 30
3.846375
 70
    64
  0
SEQEND
  5
77EC1
330
77EAE
100
AcDbEntity
  8
0
  0
TEXT
  5
77EC2
330
458D6
100
AcDbEntity
  8
0
100
AcDbText
 39
0.0000001
 10
0.3648370764473055
 20
0.8545823768176781
 30
3.587375
 40
0.0834654981097751
  1
A1
100
AcDbText
  0
TEXT
  5
77EC3
330
458D6
100
AcDbEntity
  8
0
100
AcDbText
 39
0.0000001
 10
1.285817362457554
 20
0.8537405107118321
 30
3.587375
 40
0.0834654981097751
  1
A2
100
AcDbText
  0
LINE
  5
77EC4
330
458D6
100
AcDbEntity
  8
0
100
AcDbLine
 10
0.652923391696637
 20
-1.9685
 30
-0.0000000000000003
 11
0.8635900583633034
 21
-1.9685
 31
-0.0000000000000003
  0
POLYLINE
  5
77EC5
330
458D6
100
AcDbEntity
  8
0
100
AcDb3dPolyline
 66
     1
 10
0.0
 20
0.0
 30
0.0
 70
     8
  0
VERTEX
  5
77EC6
330
77EC5
100
AcDbEntity
  8
0
100
AcDbVertex
100
AcDb3dPolylineVertex
 10
0.652923391696637
 20
-1.9685
 30
-0.0000000000000003
 70
    32
  0
VERTEX
  5
77EC7
330
77EC5
100
AcDbEntity
  8
0
100
AcDbVertex
100
AcDb3dPolylineVertex
 10
0.652923391696637
 20
-2.103499999999999
 30
-0.0000000000000002
 70
    32
  0
VERTEX
  5
77EC8
330
77EC5
100
AcDbEntity
  8
0
100
AcDbVertex
100
AcDb3dPolylineVertex
 10
0.8635900583633034
 20
-2.103499999999999
 30
-0.0000000000000002
 70
    32
  0
VERTEX
  5
77EC9
330
77EC5
100
AcDbEntity
  8
0
100
AcDbVertex
100
AcDb3dPolylineVertex
 10
0.8635900583633034
 20
-1.9685
 30
-0.0000000000000003
 70
    32
  0
SEQEND
  5
77ECA
330
77EC5
100
AcDbEntity
  8
0
  0
POLYLINE
  5
77ECB
330
458D6
100
AcDbEntity
  8
0
100
AcDb3dPolyline
 66
     1
 10
0.0
 20
0.0
 30
0.0
 70
     8
  0
VERTEX
  5
77ECC
330
77ECB
100
AcDbEntity
  8
0
100
AcDbVertex
100
AcDb3dPolylineVertex
 10
0.581132708066341
 20
-1.9685
 30
0.1869999999999998
 70
    32
  0
VERTEX
  5
77ECD
330
77ECB
100
AcDbEntity
  8
0
100
AcDbVertex
100
AcDb3dPolylineVertex
 10
0.581132708066341
 20
-2.103499999999999
 30
0.1869999999999998
 70
    32
  0
VERTEX
  5
77ECE
330
77ECB
100
AcDbEntity
  8
0
100
AcDbVertex
100
AcDb3dPolylineVertex
 10
0.7917993747330076
 20
-2.103499999999999
 30
0.1869999999999998
 70
    32
  0
VERTEX
  5
77ECF
330
77ECB
100
AcDbEntity
  8
0
100
AcDbVertex
100
AcDb3dPolylineVertex
 10
0.7917993747330076
 20
-1.9685
 30
0.1869999999999998
 70
    32
  0
SEQEND
  5
77ED0
330
77ECB
100
AcDbEntity
  8
0
  0
POLYLINE
  5
77ED1
330
458D6
100
AcDbEntity
  8
0
100
AcDbPolygonMesh
 66
     1
 10
0.0
 20
0.0
 30
0.0
 70
    16
 71
     6
 72
     3
  0
VERTEX
  5
77ED2
330
77ED1
100
AcDbEntity
  8
0
100
AcDbVertex
100
AcDbPolygonMeshVertex
 10
0.8537993747330069
 20
-2.1655
 30
0.1869999999999998
 70
    64
  0
VERTEX
  5
77ED3
330
77ED1
100
AcDbEntity
  8
0
100
AcDbVertex
100
AcDbPolygonMeshVertex
 10
0.8537993747330069
 20
-2.1655
 30
0.0
 70
    64
  0
VERTEX
  5
77ED4
330
77ED1
100
AcDbEntity
  8
0
100
AcDbVertex
100
AcDbPolygonMeshVertex
 10
0.8537993747330069
 20
-2.1655
 30
0.0
 70
    64
  0
VERTEX
  5
77ED5
330
77ED1
100
AcDbEntity
  8
0
100
AcDbVertex
100
AcDbPolygonMeshVertex
 10
0.2464660413996739
 20
-2.1655
 30
0.1869999999999998
 70
    64
  0
VERTEX
  5
77ED6
330
77ED1
100
AcDbEntity
  8
0
100
AcDbVertex
100
AcDbPolygonMeshVertex
 10
0.2464660413996739
 20
-2.1655
 30
0.0
 70
    64
  0
VERTEX
  5
77ED7
330
77ED1
100
AcDbEntity
  8
0
100
AcDbVertex
100
AcDbPolygonMeshVertex
 10
0.2464660413996739
 20
-2.1655
 30
0.0
 70
    64
  0
VERTEX
  5
77ED8
330
77ED1
100
AcDbEntity
  8
0
100
AcDbVertex
100
AcDbPolygonMeshVertex
 10
0.2464660413996739
 20
-2.103499999999999
 30
0.1869999999999998
 70
    64
  0
VERTEX
  5
77ED9
330
77ED1
100
AcDbEntity
  8
0
100
AcDbVertex
100
AcDbPolygonMeshVertex
 10
0.2464660413996739
 20
-2.103499999999999
 30
0.0
 70
    64
  0
VERTEX
  5
77EDA
330
77ED1
100
AcDbEntity
  8
0
100
AcDbVertex
100
AcDbPolygonMeshVertex
 10
0.2464660413996739
 20
-2.1655
 30
0.0
 70
    64
  0
VERTEX
  5
77EDB
330
77ED1
100
AcDbEntity
  8
0
100
AcDbVertex
100
AcDbPolygonMeshVertex
 10
0.8537993747330069
 20
-2.103499999999999
 30
0.1869999999999998
 70
    64
  0
VERTEX
  5
77EDC
330
77ED1
100
AcDbEntity
  8
0
100
AcDbVertex
100
AcDbPolygonMeshVertex
 10
0.8537993747330069
 20
-2.103499999999999
 30
0.0
 70
    64
  0
VERTEX
  5
77EDD
330
77ED1
100
AcDbEntity
  8
0
100
AcDbVertex
100
AcDbPolygonMeshVertex
 10
0.8537993747330069
 20
-2.1655
 30
0.0
 70
    64
  0
VERTEX
  5
77EDE
330
77ED1
100
AcDbEntity
  8
0
100
AcDbVertex
100
AcDbPolygonMeshVertex
 10
0.8537993747330069
 20
-2.103499999999999
 30
0.1869999999999998
 70
    64
  0
VERTEX
  5
77EDF
330
77ED1
100
AcDbEntity
  8
0
100
AcDbVertex
100
AcDbPolygonMeshVertex
 10
0.8537993747330069
 20
-2.103499999999999
 30
0.1869999999999998
 70
    64
  0
VERTEX
  5
77EE0
330
77ED1
100
AcDbEntity
  8
0
100
AcDbVertex
100
AcDbPolygonMeshVertex
 10
0.8537993747330069
 20
-2.1655
 30
0.1869999999999998
 70
    64
  0
VERTEX
  5
77EE1
330
77ED1
100
AcDbEntity
  8
0
100
AcDbVertex
100
AcDbPolygonMeshVertex
 10
0.2464660413996739
 20
-2.103499999999999
 30
0.1869999999999998
 70
    64
  0
VERTEX
  5
77EE2
330
77ED1
100
AcDbEntity
  8
0
100
AcDbVertex
100
AcDbPolygonMeshVertex
 10
0.2464660413996739
 20
-2.103499999999999
 30
0.1869999999999998
 70
    64
  0
VERTEX
  5
77EE3
330
77ED1
100
AcDbEntity
  8
0
100
AcDbVertex
100
AcDbPolygonMeshVertex
 10
0.2464660413996739
 20
-2.1655
 30
0.1869999999999998
 70
    64
  0
SEQEND
  5
77EE4
330
77ED1
100
AcDbEntity
  8
0
  0
POLYLINE
  5
77EE5
330
458D6
100
AcDbEntity
  8
0
100
AcDbPolygonMesh
 66
     1
 10
0.0
 20
0.0
 30
0.0
 70
    16
 71
     6
 72
     3
  0
VERTEX
  5
77EE6
330
77EE5
100
AcDbEntity
  8
0
100
AcDbVertex
100
AcDbPolygonMeshVertex
 10
0.8537993747330069
 20
-2.103499999999999
 30
0.1869999999999998
 70
    64
  0
VERTEX
  5
77EE7
330
77EE5
100
AcDbEntity
  8
0
100
AcDbVertex
100
AcDbPolygonMeshVertex
 10
0.8537993747330069
 20
-2.103499999999999
 30
0.0
 70
    64
  0
VERTEX
  5
77EE8
330
77EE5
100
AcDbEntity
  8
0
100
AcDbVertex
100
AcDbPolygonMeshVertex
 10
0.8537993747330069
 20
-2.103499999999999
 30
0.0
 70
    64
  0
VERTEX
  5
77EE9
330
77EE5
100
AcDbEntity
  8
0
100
AcDbVertex
100
AcDbPolygonMeshVertex
 10
0.5191327080663416
 20
-2.103499999999999
 30
0.1869999999999998
 70
    64
  0
VERTEX
  5
77EEA
330
77EE5
100
AcDbEntity
  8
0
100
AcDbVertex
100
AcDbPolygonMeshVertex
 10
0.5191327080663416
 20
-2.103499999999999
 30
0.0
 70
    64
  0
VERTEX
  5
77EEB
330
77EE5
100
AcDbEntity
  8
0
100
AcDbVertex
100
AcDbPolygonMeshVertex
 10
0.5191327080663416
 20
-2.103499999999999
 30
0.0
 70
    64
  0
VERTEX
  5
77EEC
330
77EE5
100
AcDbEntity
  8
0
100
AcDbVertex
100
AcDbPolygonMeshVertex
 10
0.5191327080663416
 20
-1.9065
 30
0.1869999999999998
 70
    64
  0
VERTEX
  5
77EED
330
77EE5
100
AcDbEntity
  8
0
100
AcDbVertex
100
AcDbPolygonMeshVertex
 10
0.5191327080663416
 20
-1.9065
 30
0.0
 70
    64
  0
VERTEX
  5
77EEE
330
77EE5
100
AcDbEntity
  8
0
100
AcDbVertex
100
AcDbPolygonMeshVertex
 10
0.5191327080663416
 20
-2.103499999999999
 30
0.0
 70
    64
  0
VERTEX
  5
77EEF
330
77EE5
100
AcDbEntity
  8
0
100
AcDbVertex
100
AcDbPolygonMeshVertex
 10
0.8537993747330069
 20
-1.9065
 30
0.1869999999999998
 70
    64
  0
VERTEX
  5
77EF0
330
77EE5
100
AcDbEntity
  8
0
100
AcDbVertex
100
AcDbPolygonMeshVertex
 10
0.8537993747330069
 20
-1.9065
 30
0.0
 70
    64
  0
VERTEX
  5
77EF1
330
77EE5
100
AcDbEntity
  8
0
100
AcDbVertex
100
AcDbPolygonMeshVertex
 10
0.8537993747330069
 20
-2.103499999999999
 30
0.0
 70
    64
  0
VERTEX
  5
77EF2
330
77EE5
100
AcDbEntity
  8
0
100
AcDbVertex
100
AcDbPolygonMeshVertex
 10
0.8537993747330069
 20
-1.9065
 30
0.1869999999999998
 70
    64
  0
VERTEX
  5
77EF3
330
77EE5
100
AcDbEntity
  8
0
100
AcDbVertex
100
AcDbPolygonMeshVertex
 10
0.8537993747330069
 20
-1.9065
 30
0.1869999999999998
 70
    64
  0
VERTEX
  5
77EF4
330
77EE5
100
AcDbEntity
  8
0
100
AcDbVertex
100
AcDbPolygonMeshVertex
 10
0.8537993747330069
 20
-2.103499999999999
 30
0.1869999999999998
 70
    64
  0
VERTEX
  5
77EF5
330
77EE5
100
AcDbEntity
  8
0
100
AcDbVertex
100
AcDbPolygonMeshVertex
 10
0.5191327080663416
 20
-1.9065
 30
0.1869999999999998
 70
    64
  0
VERTEX
  5
77EF6
330
77EE5
100
AcDbEntity
  8
0
100
AcDbVertex
100
AcDbPolygonMeshVertex
 10
0.5191327080663416
 20
-1.9065
 30
0.1869999999999998
 70
    64
  0
VERTEX
  5
77EF7
330
77EE5
100
AcDbEntity
  8
0
100
AcDbVertex
100
AcDbPolygonMeshVertex
 10
0.5191327080663416
 20
-2.103499999999999
 30
0.1869999999999998
 70
    64
  0
SEQEND
  5
77EF8
330
77EE5
100
AcDbEntity
  8
0
  0
LINE
  5
77EF9
330
458D6
100
AcDbEntity
  8
0
100
AcDbLine
 10
0.652923391696637
 20
-1.9685
 30
0.1869999999999998
 11
0.8635900583633034
 21
-1.9685
 31
0.1869999999999998
  0
POLYLINE
  5
77EFA
330
458D6
100
AcDbEntity
  8
0
100
AcDbPolygonMesh
 66
     1
 10
0.0
 20
0.0
 30
0.0
 70
    16
 71
     6
 72
     3
  0
VERTEX
  5
77EFB
330
77EFA
100
AcDbEntity
  8
0
100
AcDbVertex
100
AcDbPolygonMeshVertex
 10
1.765199999999999
 20
-1.685499999999999
 30
0.187
 70
    64
  0
VERTEX
  5
77EFC
330
77EFA
100
AcDbEntity
  8
0
100
AcDbVertex
100
AcDbPolygonMeshVertex
 10
1.765199999999999
 20
-1.685499999999999
 30
0.0
 70
    64
  0
VERTEX
  5
77EFD
330
77EFA
100
AcDbEntity
  8
0
100
AcDbVertex
100
AcDbPolygonMeshVertex
 10
1.765199999999999
 20
-1.685499999999999
 30
0.0
 70
    64
  0
VERTEX
  5
77EFE
330
77EFA
100
AcDbEntity
  8
0
100
AcDbVertex
100
AcDbPolygonMeshVertex
 10
0.0052
 20
-1.685499999999999
 30
0.187
 70
    64
  0
VERTEX
  5
77EFF
330
77EFA
100
AcDbEntity
  8
0
100
AcDbVertex
100
AcDbPolygonMeshVertex
 10
0.0052
 20
-1.685499999999999
 30
0.0
 70
    64
  0
VERTEX
  5
77F00
330
77EFA
100
AcDbEntity
  8
0
100
AcDbVertex
100
AcDbPolygonMeshVertex
 10
0.0052
 20
-1.685499999999999
 30
0.0
 70
    64
  0
VERTEX
  5
77F01
330
77EFA
100
AcDbEntity
  8
0
100
AcDbVertex
100
AcDbPolygonMeshVertex
 10
0.0052
 20
-1.480999999999999
 30
0.187
 70
    64
  0
VERTEX
  5
77F02
330
77EFA
100
AcDbEntity
  8
0
100
AcDbVertex
100
AcDbPolygonMeshVertex
 10
0.0052
 20
-1.480999999999999
 30
0.0
 70
    64
  0
VERTEX
  5
77F03
330
77EFA
100
AcDbEntity
  8
0
100
AcDbVertex
100
AcDbPolygonMeshVertex
 10
0.0052
 20
-1.685499999999999
 30
0.0
 70
    64
  0
VERTEX
  5
77F04
330
77EFA
100
AcDbEntity
  8
0
100
AcDbVertex
100
AcDbPolygonMeshVertex
 10
1.765199999999999
 20
-1.480999999999999
 30
0.187
 70
    64
  0
VERTEX
  5
77F05
330
77EFA
100
AcDbEntity
  8
0
100
AcDbVertex
100
AcDbPolygonMeshVertex
 10
1.765199999999999
 20
-1.480999999999999
 30
0.0
 70
    64
  0
VERTEX
  5
77F06
330
77EFA
100
AcDbEntity
  8
0
100
AcDbVertex
100
AcDbPolygonMeshVertex
 10
1.765199999999999
 20
-1.685499999999999
 30
0.0
 70
    64
  0
VERTEX
  5
77F07
330
77EFA
100
AcDbEntity
  8
0
100
AcDbVertex
100
AcDbPolygonMeshVertex
 10
1.765199999999999
 20
-1.480999999999999
 30
0.187
 70
    64
  0
VERTEX
  5
77F08
330
77EFA
100
AcDbEntity
  8
0
100
AcDbVertex
100
AcDbPolygonMeshVertex
 10
1.765199999999999
 20
-1.480999999999999
 30
0.187
 70
    64
  0
VERTEX
  5
77F09
330
77EFA
100
AcDbEntity
  8
0
100
AcDbVertex
100
AcDbPolygonMeshVertex
 10
1.765199999999999
 20
-1.685499999999999
 30
0.187
 70
    64
  0
VERTEX
  5
77F0A
330
77EFA
100
AcDbEntity
  8
0
100
AcDbVertex
100
AcDbPolygonMeshVertex
 10
0.0052
 20
-1.480999999999999
 30
0.187
 70
    64
  0
VERTEX
  5
77F0B
330
77EFA
100
AcDbEntity
  8
0
100
AcDbVertex
100
AcDbPolygonMeshVertex
 10
0.0052
 20
-1.480999999999999
 30
0.187
 70
    64
  0
VERTEX
  5
77F0C
330
77EFA
100
AcDbEntity
  8
0
100
AcDbVertex
100
AcDbPolygonMeshVertex
 10
0.0052
 20
-1.685499999999999
 30
0.187
 70
    64
  0
SEQEND
  5
77F0D
330
77EFA
100
AcDbEntity
  8
0
  0
POLYLINE
  5
77F0E
330
458D6
100
AcDbEntity
  8
0
100
AcDbPolygonMesh
 66
     1
 10
0.0
 20
0.0
 30
0.0
 70
    16
 71
     6
 72
     3
  0
VERTEX
  5
77F0F
330
77F0E
100
AcDbEntity
  8
0
100
AcDbVertex
100
AcDbPolygonMeshVertex
 10
1.765199999999999
 20
0.2044999999999999
 30
0.187
 70
    64
  0
VERTEX
  5
77F10
330
77F0E
100
AcDbEntity
  8
0
100
AcDbVertex
100
AcDbPolygonMeshVertex
 10
1.765199999999999
 20
0.2044999999999999
 30
0.0
 70
    64
  0
VERTEX
  5
77F11
330
77F0E
100
AcDbEntity
  8
0
100
AcDbVertex
100
AcDbPolygonMeshVertex
 10
1.765199999999999
 20
0.2044999999999999
 30
0.0
 70
    64
  0
VERTEX
  5
77F12
330
77F0E
100
AcDbEntity
  8
0
100
AcDbVertex
100
AcDbPolygonMeshVertex
 10
0.0052
 20
0.2044999999999999
 30
0.187
 70
    64
  0
VERTEX
  5
77F13
330
77F0E
100
AcDbEntity
  8
0
100
AcDbVertex
100
AcDbPolygonMeshVertex
 10
0.0052
 20
0.2044999999999999
 30
0.0
 70
    64
  0
VERTEX
  5
77F14
330
77F0E
100
AcDbEntity
  8
0
100
AcDbVertex
100
AcDbPolygonMeshVertex
 10
0.0052
 20
0.2044999999999999
 30
0.0
 70
    64
  0
VERTEX
  5
77F15
330
77F0E
100
AcDbEntity
  8
0
100
AcDbVertex
100
AcDbPolygonMeshVertex
 10
0.0052
 20
0.0
 30
0.187
 70
    64
  0
VERTEX
  5
77F16
330
77F0E
100
AcDbEntity
  8
0
100
AcDbVertex
100
AcDbPolygonMeshVertex
 10
0.0052
 20
0.0
 30
0.0
 70
    64
  0
VERTEX
  5
77F17
330
77F0E
100
AcDbEntity
  8
0
100
AcDbVertex
100
AcDbPolygonMeshVertex
 10
0.0052
 20
0.2044999999999999
 30
0.0
 70
    64
  0
VERTEX
  5
77F18
330
77F0E
100
AcDbEntity
  8
0
100
AcDbVertex
100
AcDbPolygonMeshVertex
 10
1.765199999999999
 20
0.0
 30
0.187
 70
    64
  0
VERTEX
  5
77F19
330
77F0E
100
AcDbEntity
  8
0
100
AcDbVertex
100
AcDbPolygonMeshVertex
 10
1.765199999999999
 20
0.0
 30
0.0
 70
    64
  0
VERTEX
  5
77F1A
330
77F0E
100
AcDbEntity
  8
0
100
AcDbVertex
100
AcDbPolygonMeshVertex
 10
1.765199999999999
 20
0.2044999999999999
 30
0.0
 70
    64
  0
VERTEX
  5
77F1B
330
77F0E
100
AcDbEntity
  8
0
100
AcDbVertex
100
AcDbPolygonMeshVertex
 10
1.765199999999999
 20
0.0
 30
0.187
 70
    64
  0
VERTEX
  5
77F1C
330
77F0E
100
AcDbEntity
  8
0
100
AcDbVertex
100
AcDbPolygonMeshVertex
 10
1.765199999999999
 20
0.0
 30
0.187
 70
    64
  0
VERTEX
  5
77F1D
330
77F0E
100
AcDbEntity
  8
0
100
AcDbVertex
100
AcDbPolygonMeshVertex
 10
1.765199999999999
 20
0.2044999999999999
 30
0.187
 70
    64
  0
VERTEX
  5
77F1E
330
77F0E
100
AcDbEntity
  8
0
100
AcDbVertex
100
AcDbPolygonMeshVertex
 10
0.0052
 20
0.0
 30
0.187
 70
    64
  0
VERTEX
  5
77F1F
330
77F0E
100
AcDbEntity
  8
0
100
AcDbVertex
100
AcDbPolygonMeshVertex
 10
0.0052
 20
0.0
 30
0.187
 70
    64
  0
VERTEX
  5
77F20
330
77F0E
100
AcDbEntity
  8
0
100
AcDbVertex
100
AcDbPolygonMeshVertex
 10
0.0052
 20
0.2044999999999999
 30
0.187
 70
    64
  0
SEQEND
  5
77F21
330
77F0E
100
AcDbEntity
  8
0
  0
POLYLINE
  5
77F22
330
458D6
100
AcDbEntity
  8
0
100
AcDbPolygonMesh
 66
     1
 10
0.0
 20
0.0
 30
0.0
 70
    16
 71
     6
 72
     3
  0
VERTEX
  5
77F23
330
77F22
100
AcDbEntity
  8
0
100
AcDbVertex
100
AcDbPolygonMeshVertex
 10
0.3962
 20
-2.081499999999999
 30
0.316
 70
    64
  0
VERTEX
  5
77F24
330
77F22
100
AcDbEntity
  8
0
100
AcDbVertex
100
AcDbPolygonMeshVertex
 10
0.3962
 20
-2.081499999999999
 30
0.0
 70
    64
  0
VERTEX
  5
77F25
330
77F22
100
AcDbEntity
  8
0
100
AcDbVertex
100
AcDbPolygonMeshVertex
 10
0.3962
 20
-2.081499999999999
 30
0.0
 70
    64
  0
VERTEX
  5
77F26
330
77F22
100
AcDbEntity
  8
0
100
AcDbVertex
100
AcDbPolygonMeshVertex
 10
0.0052
 20
-2.081499999999999
 30
0.316
 70
    64
  0
VERTEX
  5
77F27
330
77F22
100
AcDbEntity
  8
0
100
AcDbVertex
100
AcDbPolygonMeshVertex
 10
0.0052
 20
-2.081499999999999
 30
0.0
 70
    64
  0
VERTEX
  5
77F28
330
77F22
100
AcDbEntity
  8
0
100
AcDbVertex
100
AcDbPolygonMeshVertex
 10
0.0052
 20
-2.081499999999999
 30
0.0
 70
    64
  0
VERTEX
  5
77F29
330
77F22
100
AcDbEntity
  8
0
100
AcDbVertex
100
AcDbPolygonMeshVertex
 10
0.0052
 20
-1.685499999999999
 30
0.316
 70
    64
  0
VERTEX
  5
77F2A
330
77F22
100
AcDbEntity
  8
0
100
AcDbVertex
100
AcDbPolygonMeshVertex
 10
0.0052
 20
-1.685499999999999
 30
0.0
 70
    64
  0
VERTEX
  5
77F2B
330
77F22
100
AcDbEntity
  8
0
100
AcDbVertex
100
AcDbPolygonMeshVertex
 10
0.0052
 20
-2.081499999999999
 30
0.0
 70
    64
  0
VERTEX
  5
77F2C
330
77F22
100
AcDbEntity
  8
0
100
AcDbVertex
100
AcDbPolygonMeshVertex
 10
0.3962
 20
-1.685499999999999
 30
0.316
 70
    64
  0
VERTEX
  5
77F2D
330
77F22
100
AcDbEntity
  8
0
100
AcDbVertex
100
AcDbPolygonMeshVertex
 10
0.3962
 20
-1.685499999999999
 30
0.0
 70
    64
  0
VERTEX
  5
77F2E
330
77F22
100
AcDbEntity
  8
0
100
AcDbVertex
100
AcDbPolygonMeshVertex
 10
0.3962
 20
-2.081499999999999
 30
0.0
 70
    64
  0
VERTEX
  5
77F2F
330
77F22
100
AcDbEntity
  8
0
100
AcDbVertex
100
AcDbPolygonMeshVertex
 10
0.3962
 20
-1.685499999999999
 30
0.316
 70
    64
  0
VERTEX
  5
77F30
330
77F22
100
AcDbEntity
  8
0
100
AcDbVertex
100
AcDbPolygonMeshVertex
 10
0.3962
 20
-1.685499999999999
 30
0.316
 70
    64
  0
VERTEX
  5
77F31
330
77F22
100
AcDbEntity
  8
0
100
AcDbVertex
100
AcDbPolygonMeshVertex
 10
0.3962
 20
-2.081499999999999
 30
0.316
 70
    64
  0
VERTEX
  5
77F32
330
77F22
100
AcDbEntity
  8
0
100
AcDbVertex
100
AcDbPolygonMeshVertex
 10
0.0052
 20
-1.685499999999999
 30
0.316
 70
    64
  0
VERTEX
  5
77F33
330
77F22
100
AcDbEntity
  8
0
100
AcDbVertex
100
AcDbPolygonMeshVertex
 10
0.0052
 20
-1.685499999999999
 30
0.316
 70
    64
  0
VERTEX
  5
77F34
330
77F22
100
AcDbEntity
  8
0
100
AcDbVertex
100
AcDbPolygonMeshVertex
 10
0.0052
 20
-2.081499999999999
 30
0.316
 70
    64
  0
SEQEND
  5
77F35
330
77F22
100
AcDbEntity
  8
0
  0
POINT
  5
77F36
330
458D6
100
AcDbEntity
  8
SNAP_POINTS
100
AcDbPoint
 10
0.0
 20
0.0
 30
0.0
  0
3DFACE
  5
77F37
330
458D6
100
AcDbEntity
  8
0
100
AcDbFace
 10
1.765199999999999
 20
-1.845499999999999
 30
3.587375
 11
1.765199999999999
 21
-1.845499999999999
 31
3.587375
 12
0.0002000000000001
 22
-1.845499999999999
 32
3.587375
 13
0.0002000000000001
 23
-1.845499999999999
 33
3.587375
  0
3DFACE
  5
77F38
330
458D6
100
AcDbEntity
  8
0
100
AcDbFace
 10
0.0002000000000001
 20
-1.845499999999999
 30
3.587375
 11
0.0002000000000001
 21
-1.845499999999999
 31
3.587375
 12
0.0002000000000001
 22
-1.845499999999999
 32
3.587375
 13
0.0002000000000001
 23
0.3984999999999994
 33
3.587375
  0
3DFACE
  5
77F39
330
458D6
100
AcDbEntity
  8
0
100
AcDbFace
 10
0.0002000000000001
 20
0.3984999999999994
 30
3.587375
 11
0.0002000000000001
 21
-1.845499999999999
 31
3.587375
 12
1.765199999999999
 22
-1.845499999999999
 32
3.587375
 13
1.765199999999999
 23
0.3984999999999994
 33
3.587375
  0
POLYLINE
  5
77F3A
330
458D6
100
AcDbEntity
  8
0
  6
Continuous
100
AcDb3dPolyline
 66
     1
 10
0.0
 20
0.0
 30
0.0
 70
     8
  0
VERTEX
  5
77F3B
330
77F3A
100
AcDbEntity
  8
0
  6
Continuous
100
AcDbVertex
100
AcDb3dPolylineVertex
 10
1.765199999999999
 20
0.3984999999999994
 30
3.587375
 70
    32
1001
ACAD
1000
R13OBJECT
1002
{
1005
77F3A
1002
}
  0
VERTEX
  5
77F3C
330
77F3A
100
AcDbEntity
  8
0
  6
Continuous
100
AcDbVertex
100
AcDb3dPolylineVertex
 10
1.765199999999999
 20
-1.845500000000001
 30
3.587375
 70
    32
1001
ACAD
1000
R13OBJECT
1002
{
1005
77F3A
1002
}
  0
SEQEND
  5
77F3D
330
77F3A
100
AcDbEntity
  8
0
  6
Continuous
  0
POLYLINE
  5
77F3E
330
458D6
100
AcDbEntity
  8
0
  6
Continuous
100
AcDb3dPolyline
 66
     1
 10
0.0
 20
0.0
 30
0.0
 70
     8
1001
ACAD
1000
R13OBJECT
1002
{
1005
77F3A
1002
}
  0
VERTEX
  5
77F3F
330
77F3E
100
AcDbEntity
  8
0
  6
Continuous
100
AcDbVertex
100
AcDb3dPolylineVertex
 10
1.765199999999999
 20
-1.845500000000001
 30
3.587375
 70
    32
1001
ACAD
1000
R13OBJECT
1002
{
1005
77F3A
1002
}
  0
VERTEX
  5
77F40
330
77F3E
100
AcDbEntity
  8
0
  6
Continuous
100
AcDbVertex
100
AcDb3dPolylineVertex
 10
0.0002000000000001
 20
-1.845500000000001
 30
3.587375
 70
    32
1001
ACAD
1000
R13OBJECT
1002
{
1005
77F3A
1002
}
  0
SEQEND
  5
77F41
330
77F3E
100
AcDbEntity
  8
0
  6
Continuous
  0
POLYLINE
  5
77F42
330
458D6
100
AcDbEntity
  8
0
  6
Continuous
100
AcDb3dPolyline
 66
     1
 10
0.0
 20
0.0
 30
0.0
 70
     8
1001
ACAD
1000
R13OBJECT
1002
{
1005
77F3A
1002
}
  0
VERTEX
  5
77F43
330
77F42
100
AcDbEntity
  8
0
  6
Continuous
100
AcDbVertex
100
AcDb3dPolylineVertex
 10
0.0002000000000001
 20
-1.845500000000001
 30
3.587375
 70
    32
1001
ACAD
1000
R13OBJECT
1002
{
1005
77F3A
1002
}
  0
VERTEX
  5
77F44
330
77F42
100
AcDbEntity
  8
0
  6
Continuous
100
AcDbVertex
100
AcDb3dPolylineVertex
 10
0.0002000000000001
 20
0.3984999999999994
 30
3.587375
 70
    32
1001
ACAD
1000
R13OBJECT
1002
{
1005
77F3A
1002
}
  0
SEQEND
  5
77F45
330
77F42
100
AcDbEntity
  8
0
  6
Continuous
  0
POLYLINE
  5
77F46
330
458D6
100
AcDbEntity
  8
0
  6
Continuous
100
AcDb3dPolyline
 66
     1
 10
0.0
 20
0.0
 30
0.0
 70
     8
1001
ACAD
1000
R13OBJECT
1002
{
1005
77F3A
1002
}
  0
VERTEX
  5
77F47
330
77F46
100
AcDbEntity
  8
0
  6
Continuous
100
AcDbVertex
100
AcDb3dPolylineVertex
 10
0.0002000000000001
 20
0.3984999999999994
 30
3.587375
 70
    32
1001
ACAD
1000
R13OBJECT
1002
{
1005
77F3A
1002
}
  0
VERTEX
  5
77F48
330
77F46
100
AcDbEntity
  8
0
  6
Continuous
100
AcDbVertex
100
AcDb3dPolylineVertex
 10
1.765199999999999
 20
0.3984999999999994
 30
3.587375
 70
    32
1001
ACAD
1000
R13OBJECT
1002
{
1005
77F3A
1002
}
  0
SEQEND
  5
77F49
330
77F46
100
AcDbEntity
  8
0
  6
Continuous
  0
POLYLINE
  5
77F4A
330
458D6
100
AcDbEntity
  8
0
  6
Continuous
100
AcDb3dPolyline
 66
     1
 10
0.0
 20
0.0
 30
0.0
 70
     8
  0
VERTEX
  5
77F4B
330
77F4A
100
AcDbEntity
  8
0
  6
Continuous
100
AcDbVertex
100
AcDb3dPolylineVertex
 10
0.0002000000000001
 20
-1.845500000000001
 30
4.609375
 70
    32
1001
ACAD
1000
R13OBJECT
1002
{
1005
77F4A
1002
}
  0
VERTEX
  5
77F4C
330
77F4A
100
AcDbEntity
  8
0
  6
Continuous
100
AcDbVertex
100
AcDb3dPolylineVertex
 10
0.0002000000000001
 20
-1.845500000000001
 30
3.587375
 70
    32
1001
ACAD
1000
R13OBJECT
1002
{
1005
77F4A
1002
}
  0
SEQEND
  5
77F4D
330
77F4A
100
AcDbEntity
  8
0
  6
Continuous
  0
POLYLINE
  5
77F4E
330
458D6
100
AcDbEntity
  8
0
  6
Continuous
100
AcDb3dPolyline
 66
     1
 10
0.0
 20
0.0
 30
0.0
 70
     8
1001
ACAD
1000
R13OBJECT
1002
{
1005
77F4A
1002
}
  0
VERTEX
  5
77F4F
330
77F4E
100
AcDbEntity
  8
0
  6
Continuous
100
AcDbVertex
100
AcDb3dPolylineVertex
 10
1.765199999999999
 20
-1.845500000000001
 30
3.587375
 70
    32
1001
ACAD
1000
R13OBJECT
1002
{
1005
77F4A
1002
}
  0
VERTEX
  5
77F50
330
77F4E
100
AcDbEntity
  8
0
  6
Continuous
100
AcDbVertex
100
AcDb3dPolylineVertex
 10
0.0002000000000001
 20
-1.845500000000001
 30
3.587375
 70
    32
1001
ACAD
1000
R13OBJECT
1002
{
1005
77F4A
1002
}
  0
SEQEND
  5
77F51
330
77F4E
100
AcDbEntity
  8
0
  6
Continuous
  0
POLYLINE
  5
77F52
330
458D6
100
AcDbEntity
  8
0
  6
Continuous
100
AcDb3dPolyline
 66
     1
 10
0.0
 20
0.0
 30
0.0
 70
     8
1001
ACAD
1000
R13OBJECT
1002
{
1005
77F4A
1002
}
  0
VERTEX
  5
77F53
330
77F52
100
AcDbEntity
  8
0
  6
Continuous
100
AcDbVertex
100
AcDb3dPolylineVertex
 10
1.765199999999999
 20
-1.845500000000001
 30
4.609375
 70
    32
1001
ACAD
1000
R13OBJECT
1002
{
1005
77F4A
1002
}
  0
VERTEX
  5
77F54
330
77F52
100
AcDbEntity
  8
0
  6
Continuous
100
AcDbVertex
100
AcDb3dPolylineVertex
 10
1.765199999999999
 20
-1.845500000000001
 30
3.587375
 70
    32
1001
ACAD
1000
R13OBJECT
1002
{
1005
77F4A
1002
}
  0
SEQEND
  5
77F55
330
77F52
100
AcDbEntity
  8
0
  6
Continuous
  0
POLYLINE
  5
77F56
330
458D6
100
AcDbEntity
  8
0
  6
Continuous
100
AcDb3dPolyline
 66
     1
 10
0.0
 20
0.0
 30
0.0
 70
     8
1001
ACAD
1000
R13OBJECT
1002
{
1005
77F4A
1002
}
  0
VERTEX
  5
77F57
330
77F56
100
AcDbEntity
  8
0
  6
Continuous
100
AcDbVertex
100
AcDb3dPolylineVertex
 10
0.0002000000000001
 20
-1.845500000000001
 30
4.609375
 70
    32
1001
ACAD
1000
R13OBJECT
1002
{
1005
77F4A
1002
}
  0
VERTEX
  5
77F58
330
77F56
100
AcDbEntity
  8
0
  6
Continuous
100
AcDbVertex
100
AcDb3dPolylineVertex
 10
1.765199999999999
 20
-1.845500000000001
 30
4.609375
 70
    32
1001
ACAD
1000
R13OBJECT
1002
{
1005
77F4A
1002
}
  0
SEQEND
  5
77F59
330
77F56
100
AcDbEntity
  8
0
  6
Continuous
  0
POLYLINE
  5
77F5A
330
458D6
100
AcDbEntity
  8
0
  6
Continuous
100
AcDb3dPolyline
 66
     1
 10
0.0
 20
0.0
 30
0.0
 70
     8
  0
VERTEX
  5
77F5B
330
77F5A
100
AcDbEntity
  8
0
  6
Continuous
100
AcDbVertex
100
AcDb3dPolylineVertex
 10
1.765199999999999
 20
0.3984999999999994
 30
4.609375
 70
    32
1001
ACAD
1000
R13OBJECT
1002
{
1005
77F5A
1002
}
  0
VERTEX
  5
77F5C
330
77F5A
100
AcDbEntity
  8
0
  6
Continuous
100
AcDbVertex
100
AcDb3dPolylineVertex
 10
1.765199999999999
 20
0.3984999999999994
 30
3.587375
 70
    32
1001
ACAD
1000
R13OBJECT
1002
{
1005
77F5A
1002
}
  0
SEQEND
  5
77F5D
330
77F5A
100
AcDbEntity
  8
0
  6
Continuous
  0
POLYLINE
  5
77F5E
330
458D6
100
AcDbEntity
  8
0
  6
Continuous
100
AcDb3dPolyline
 66
     1
 10
0.0
 20
0.0
 30
0.0
 70
     8
1001
ACAD
1000
R13OBJECT
1002
{
1005
77F5A
1002
}
  0
VERTEX
  5
77F5F
330
77F5E
100
AcDbEntity
  8
0
  6
Continuous
100
AcDbVertex
100
AcDb3dPolylineVertex
 10
0.0002000000000001
 20
0.3984999999999994
 30
3.587375
 70
    32
1001
ACAD
1000
R13OBJECT
1002
{
1005
77F5A
1002
}
  0
VERTEX
  5
77F60
330
77F5E
100
AcDbEntity
  8
0
  6
Continuous
100
AcDbVertex
100
AcDb3dPolylineVertex
 10
1.765199999999999
 20
0.3984999999999994
 30
3.587375
 70
    32
1001
ACAD
1000
R13OBJECT
1002
{
1005
77F5A
1002
}
  0
SEQEND
  5
77F61
330
77F5E
100
AcDbEntity
  8
0
  6
Continuous
  0
POLYLINE
  5
77F62
330
458D6
100
AcDbEntity
  8
0
  6
Continuous
100
AcDb3dPolyline
 66
     1
 10
0.0
 20
0.0
 30
0.0
 70
     8
1001
ACAD
1000
R13OBJECT
1002
{
1005
77F5A
1002
}
  0
VERTEX
  5
77F63
330
77F62
100
AcDbEntity
  8
0
  6
Continuous
100
AcDbVertex
100
AcDb3dPolylineVertex
 10
0.0002000000000001
 20
0.3984999999999994
 30
4.609375
 70
    32
1001
ACAD
1000
R13OBJECT
1002
{
1005
77F5A
1002
}
  0
VERTEX
  5
77F64
330
77F62
100
AcDbEntity
  8
0
  6
Continuous
100
AcDbVertex
100
AcDb3dPolylineVertex
 10
0.0002000000000001
 20
0.3984999999999994
 30
3.587375
 70
    32
1001
ACAD
1000
R13OBJECT
1002
{
1005
77F5A
1002
}
  0
SEQEND
  5
77F65
330
77F62
100
AcDbEntity
  8
0
  6
Continuous
  0
POLYLINE
  5
77F66
330
458D6
100
AcDbEntity
  8
0
  6
Continuous
100
AcDb3dPolyline
 66
     1
 10
0.0
 20
0.0
 30
0.0
 70
     8
1001
ACAD
1000
R13OBJECT
1002
{
1005
77F5A
1002
}
  0
VERTEX
  5
77F67
330
77F66
100
AcDbEntity
  8
0
  6
Continuous
100
AcDbVertex
100
AcDb3dPolylineVertex
 10
1.765199999999999
 20
0.3984999999999994
 30
4.609375
 70
    32
1001
ACAD
1000
R13OBJECT
1002
{
1005
77F5A
1002
}
  0
VERTEX
  5
77F68
330
77F66
100
AcDbEntity
  8
0
  6
Continuous
100
AcDbVertex
100
AcDb3dPolylineVertex
 10
0.0002000000000001
 20
0.3984999999999994
 30
4.609375
 70
    32
1001
ACAD
1000
R13OBJECT
1002
{
1005
77F5A
1002
}
  0
SEQEND
  5
77F69
330
77F66
100
AcDbEntity
  8
0
  6
Continuous
  0
POLYLINE
  5
77F6A
330
458D6
100
AcDbEntity
  8
0
  6
Continuous
100
AcDb3dPolyline
 66
     1
 10
0.0
 20
0.0
 30
0.0
 70
     8
  0
VERTEX
  5
77F6B
330
77F6A
100
AcDbEntity
  8
0
  6
Continuous
100
AcDbVertex
100
AcDb3dPolylineVertex
 10
1.765199999999999
 20
-1.845500000000001
 30
4.609375
 70
    32
1001
ACAD
1000
R13OBJECT
1002
{
1005
77F6A
1002
}
  0
VERTEX
  5
77F6C
330
77F6A
100
AcDbEntity
  8
0
  6
Continuous
100
AcDbVertex
100
AcDb3dPolylineVertex
 10
1.765199999999999
 20
-1.845500000000001
 30
3.587375
 70
    32
1001
ACAD
1000
R13OBJECT
1002
{
1005
77F6A
1002
}
  0
SEQEND
  5
77F6D
330
77F6A
100
AcDbEntity
  8
0
  6
Continuous
  0
POLYLINE
  5
77F6E
330
458D6
100
AcDbEntity
  8
0
  6
Continuous
100
AcDb3dPolyline
 66
     1
 10
0.0
 20
0.0
 30
0.0
 70
     8
1001
ACAD
1000
R13OBJECT
1002
{
1005
77F6A
1002
}
  0
VERTEX
  5
77F6F
330
77F6E
100
AcDbEntity
  8
0
  6
Continuous
100
AcDbVertex
100
AcDb3dPolylineVertex
 10
1.765199999999999
 20
0.3984999999999994
 30
3.587375
 70
    32
1001
ACAD
1000
R13OBJECT
1002
{
1005
77F6A
1002
}
  0
VERTEX
  5
77F70
330
77F6E
100
AcDbEntity
  8
0
  6
Continuous
100
AcDbVertex
100
AcDb3dPolylineVertex
 10
1.765199999999999
 20
-1.845500000000001
 30
3.587375
 70
    32
1001
ACAD
1000
R13OBJECT
1002
{
1005
77F6A
1002
}
  0
SEQEND
  5
77F71
330
77F6E
100
AcDbEntity
  8
0
  6
Continuous
  0
POLYLINE
  5
77F72
330
458D6
100
AcDbEntity
  8
0
  6
Continuous
100
AcDb3dPolyline
 66
     1
 10
0.0
 20
0.0
 30
0.0
 70
     8
1001
ACAD
1000
R13OBJECT
1002
{
1005
77F6A
1002
}
  0
VERTEX
  5
77F73
330
77F72
100
AcDbEntity
  8
0
  6
Continuous
100
AcDbVertex
100
AcDb3dPolylineVertex
 10
1.765199999999999
 20
0.3984999999999994
 30
4.609375
 70
    32
1001
ACAD
1000
R13OBJECT
1002
{
1005
77F6A
1002
}
  0
VERTEX
  5
77F74
330
77F72
100
AcDbEntity
  8
0
  6
Continuous
100
AcDbVertex
100
AcDb3dPolylineVertex
 10
1.765199999999999
 20
0.3984999999999994
 30
3.587375
 70
    32
1001
ACAD
1000
R13OBJECT
1002
{
1005
77F6A
1002
}
  0
SEQEND
  5
77F75
330
77F72
100
AcDbEntity
  8
0
  6
Continuous
  0
POLYLINE
  5
77F76
330
458D6
100
AcDbEntity
  8
0
  6
Continuous
100
AcDb3dPolyline
 66
     1
 10
0.0
 20
0.0
 30
0.0
 70
     8
1001
ACAD
1000
R13OBJECT
1002
{
1005
77F6A
1002
}
  0
VERTEX
  5
77F77
330
77F76
100
AcDbEntity
  8
0
  6
Continuous
100
AcDbVertex
100
AcDb3dPolylineVertex
 10
1.765199999999999
 20
-1.845500000000001
 30
4.609375
 70
    32
1001
ACAD
1000
R13OBJECT
1002
{
1005
77F6A
1002
}
  0
VERTEX
  5
77F78
330
77F76
100
AcDbEntity
  8
0
  6
Continuous
100
AcDbVertex
100
AcDb3dPolylineVertex
 10
1.765199999999999
 20
0.3984999999999994
 30
4.609375
 70
    32
1001
ACAD
1000
R13OBJECT
1002
{
1005
77F6A
1002
}
  0
SEQEND
  5
77F79
330
77F76
100
AcDbEntity
  8
0
  6
Continuous
  0
LINE
  5
77F7A
330
458D6
100
AcDbEntity
  8
0
100
AcDbLine
 10
0.0002000000000001
 20
0.3984999999999994
 30
4.609375
 11
0.0002000000000001
 21
0.3984999999999994
 31
3.587375
210
-1.0
220
0.0
230
0.0
  0
LINE
  5
77F7B
330
458D6
100
AcDbEntity
  8
0
100
AcDbLine
 10
0.0002000000000001
 20
0.3984999999999994
 30
4.609375
 11
0.0002000000000001
 21
-1.845500000000001
 31
4.609375
210
-1.0
220
0.0
230
0.0
  0
LINE
  5
77F7C
330
458D6
100
AcDbEntity
  8
0
100
AcDbLine
 10
0.0002000000000001
 20
-1.845500000000001
 30
4.609375
 11
0.0002000000000001
 21
-1.845500000000001
 31
3.587375
210
-1.0
220
0.0
230
0.0
  0
3DFACE
  5
77F7D
330
458D6
100
AcDbEntity
  8
0
100
AcDbFace
 10
1.765199999999999
 20
0.3984999999999985
 30
4.609375
 11
1.765199999999999
 21
-1.845500000000001
 31
4.609375
 12
0.0002000000000001
 22
-1.845500000000001
 32
4.609375
 13
0.0002000000000001
 23
0.3984999999999985
 33
4.609375
  0
POLYLINE
  5
77F7E
330
458D6
100
AcDbEntity
  8
0
100
AcDbPolygonMesh
 66
     1
 10
0.0
 20
0.0
 30
0.0
 70
    16
 71
     6
 72
     3
  0
VERTEX
  5
77F7F
330
77F7E
100
AcDbEntity
  8
0
100
AcDbVertex
100
AcDbPolygonMeshVertex
 10
1.250699999999999
 20
-0.4394862069696881
 30
4.820375
 70
    64
  0
VERTEX
  5
77F80
330
77F7E
100
AcDbEntity
  8
0
100
AcDbVertex
100
AcDbPolygonMeshVertex
 10
1.250699999999999
 20
-0.4394862069696881
 30
4.643375
 70
    64
  0
VERTEX
  5
77F81
330
77F7E
100
AcDbEntity
  8
0
100
AcDbVertex
100
AcDbPolygonMeshVertex
 10
1.250699999999999
 20
-0.4394862069696881
 30
4.643375
 70
    64
  0
VERTEX
  5
77F82
330
77F7E
100
AcDbEntity
  8
0
100
AcDbVertex
100
AcDbPolygonMeshVertex
 10
1.081199999999998
 20
-0.4394862069696881
 30
4.820375
 70
    64
  0
VERTEX
  5
77F83
330
77F7E
100
AcDbEntity
  8
0
100
AcDbVertex
100
AcDbPolygonMeshVertex
 10
1.081199999999998
 20
-0.4394862069696881
 30
4.643375
 70
    64
  0
VERTEX
  5
77F84
330
77F7E
100
AcDbEntity
  8
0
100
AcDbVertex
100
AcDbPolygonMeshVertex
 10
1.081199999999998
 20
-0.4394862069696881
 30
4.643375
 70
    64
  0
VERTEX
  5
77F85
330
77F7E
100
AcDbEntity
  8
0
100
AcDbVertex
100
AcDbPolygonMeshVertex
 10
1.081199999999998
 20
-0.0864862069696884
 30
4.820375
 70
    64
  0
VERTEX
  5
77F86
330
77F7E
100
AcDbEntity
  8
0
100
AcDbVertex
100
AcDbPolygonMeshVertex
 10
1.081199999999998
 20
-0.0864862069696884
 30
4.643375
 70
    64
  0
VERTEX
  5
77F87
330
77F7E
100
AcDbEntity
  8
0
100
AcDbVertex
100
AcDbPolygonMeshVertex
 10
1.081199999999998
 20
-0.4394862069696881
 30
4.643375
 70
    64
  0
VERTEX
  5
77F88
330
77F7E
100
AcDbEntity
  8
0
100
AcDbVertex
100
AcDbPolygonMeshVertex
 10
1.250699999999999
 20
-0.0864862069696884
 30
4.820375
 70
    64
  0
VERTEX
  5
77F89
330
77F7E
100
AcDbEntity
  8
0
100
AcDbVertex
100
AcDbPolygonMeshVertex
 10
1.250699999999999
 20
-0.0864862069696884
 30
4.643375
 70
    64
  0
VERTEX
  5
77F8A
330
77F7E
100
AcDbEntity
  8
0
100
AcDbVertex
100
AcDbPolygonMeshVertex
 10
1.250699999999999
 20
-0.4394862069696881
 30
4.643375
 70
    64
  0
VERTEX
  5
77F8B
330
77F7E
100
AcDbEntity
  8
0
100
AcDbVertex
100
AcDbPolygonMeshVertex
 10
1.250699999999999
 20
-0.0864862069696884
 30
4.820375
 70
    64
  0
VERTEX
  5
77F8C
330
77F7E
100
AcDbEntity
  8
0
100
AcDbVertex
100
AcDbPolygonMeshVertex
 10
1.250699999999999
 20
-0.0864862069696884
 30
4.820375
 70
    64
  0
VERTEX
  5
77F8D
330
77F7E
100
AcDbEntity
  8
0
100
AcDbVertex
100
AcDbPolygonMeshVertex
 10
1.250699999999999
 20
-0.4394862069696881
 30
4.820375
 70
    64
  0
VERTEX
  5
77F8E
330
77F7E
100
AcDbEntity
  8
0
100
AcDbVertex
100
AcDbPolygonMeshVertex
 10
1.081199999999998
 20
-0.0864862069696884
 30
4.820375
 70
    64
  0
VERTEX
  5
77F8F
330
77F7E
100
AcDbEntity
  8
0
100
AcDbVertex
100
AcDbPolygonMeshVertex
 10
1.081199999999998
 20
-0.0864862069696884
 30
4.820375
 70
    64
  0
VERTEX
  5
77F90
330
77F7E
100
AcDbEntity
  8
0
100
AcDbVertex
100
AcDbPolygonMeshVertex
 10
1.081199999999998
 20
-0.4394862069696881
 30
4.820375
 70
    64
  0
SEQEND
  5
77F91
330
77F7E
100
AcDbEntity
  8
0
  0
POLYLINE
  5
77F92
330
458D6
100
AcDbEntity
  8
0
100
AcDbPolygonMesh
 66
     1
 10
0.0
 20
0.0
 30
0.0
 70
    16
 71
     6
 72
     3
  0
VERTEX
  5
77F93
330
77F92
100
AcDbEntity
  8
0
100
AcDbVertex
100
AcDbPolygonMeshVertex
 10
1.122699999999998
 20
-0.8944862069696878
 30
4.859375000000001
 70
    64
  0
VERTEX
  5
77F94
330
77F92
100
AcDbEntity
  8
0
100
AcDbVertex
100
AcDbPolygonMeshVertex
 10
1.122699999999998
 20
-0.8944862069696878
 30
4.643375
 70
    64
  0
VERTEX
  5
77F95
330
77F92
100
AcDbEntity
  8
0
100
AcDbVertex
100
AcDbPolygonMeshVertex
 10
1.122699999999998
 20
-0.8944862069696878
 30
4.643375
 70
    64
  0
VERTEX
  5
77F96
330
77F92
100
AcDbEntity
  8
0
100
AcDbVertex
100
AcDbPolygonMeshVertex
 10
0.987699999999999
 20
-0.8944862069696878
 30
4.859375000000001
 70
    64
  0
VERTEX
  5
77F97
330
77F92
100
AcDbEntity
  8
0
100
AcDbVertex
100
AcDbPolygonMeshVertex
 10
0.987699999999999
 20
-0.8944862069696878
 30
4.643375
 70
    64
  0
VERTEX
  5
77F98
330
77F92
100
AcDbEntity
  8
0
100
AcDbVertex
100
AcDbPolygonMeshVertex
 10
0.987699999999999
 20
-0.8944862069696878
 30
4.643375
 70
    64
  0
VERTEX
  5
77F99
330
77F92
100
AcDbEntity
  8
0
100
AcDbVertex
100
AcDbPolygonMeshVertex
 10
0.987699999999999
 20
-0.5494862069696876
 30
4.859375000000001
 70
    64
  0
VERTEX
  5
77F9A
330
77F92
100
AcDbEntity
  8
0
100
AcDbVertex
100
AcDbPolygonMeshVertex
 10
0.987699999999999
 20
-0.5494862069696876
 30
4.643375
 70
    64
  0
VERTEX
  5
77F9B
330
77F92
100
AcDbEntity
  8
0
100
AcDbVertex
100
AcDbPolygonMeshVertex
 10
0.987699999999999
 20
-0.8944862069696878
 30
4.643375
 70
    64
  0
VERTEX
  5
77F9C
330
77F92
100
AcDbEntity
  8
0
100
AcDbVertex
100
AcDbPolygonMeshVertex
 10
1.122699999999998
 20
-0.5494862069696876
 30
4.859375000000001
 70
    64
  0
VERTEX
  5
77F9D
330
77F92
100
AcDbEntity
  8
0
100
AcDbVertex
100
AcDbPolygonMeshVertex
 10
1.122699999999998
 20
-0.5494862069696876
 30
4.643375
 70
    64
  0
VERTEX
  5
77F9E
330
77F92
100
AcDbEntity
  8
0
100
AcDbVertex
100
AcDbPolygonMeshVertex
 10
1.122699999999998
 20
-0.8944862069696878
 30
4.643375
 70
    64
  0
VERTEX
  5
77F9F
330
77F92
100
AcDbEntity
  8
0
100
AcDbVertex
100
AcDbPolygonMeshVertex
 10
1.122699999999998
 20
-0.5494862069696876
 30
4.859375000000001
 70
    64
  0
VERTEX
  5
77FA0
330
77F92
100
AcDbEntity
  8
0
100
AcDbVertex
100
AcDbPolygonMeshVertex
 10
1.122699999999998
 20
-0.5494862069696876
 30
4.859375000000001
 70
    64
  0
VERTEX
  5
77FA1
330
77F92
100
AcDbEntity
  8
0
100
AcDbVertex
100
AcDbPolygonMeshVertex
 10
1.122699999999998
 20
-0.8944862069696878
 30
4.859375000000001
 70
    64
  0
VERTEX
  5
77FA2
330
77F92
100
AcDbEntity
  8
0
100
AcDbVertex
100
AcDbPolygonMeshVertex
 10
0.987699999999999
 20
-0.5494862069696876
 30
4.859375000000001
 70
    64
  0
VERTEX
  5
77FA3
330
77F92
100
AcDbEntity
  8
0
100
AcDbVertex
100
AcDbPolygonMeshVertex
 10
0.987699999999999
 20
-0.5494862069696876
 30
4.859375000000001
 70
    64
  0
VERTEX
  5
77FA4
330
77F92
100
AcDbEntity
  8
0
100
AcDbVertex
100
AcDbPolygonMeshVertex
 10
0.987699999999999
 20
-0.8944862069696878
 30
4.859375000000001
 70
    64
  0
SEQEND
  5
77FA5
330
77F92
100
AcDbEntity
  8
0
  0
3DFACE
  5
77FA6
330
458D6
100
AcDbEntity
  8
0
100
AcDbFace
 10
1.765199999999999
 20
0.3984999999999985
 30
4.609375
 11
1.765199999999999
 21
0.3984999999999985
 31
4.609375
 12
0.0002000000000001
 22
0.3984999999999985
 32
4.609375
 13
0.0002000000000001
 23
0.3984999999999985
 33
4.609375
  0
CIRCLE
  5
77FA7
330
458D6
100
AcDbEntity
  8
0
100
AcDbCircle
 10
0.2380749999999995
 20
0.1549075779401257
 30
4.609375
 40
0.138
  0
TEXT
  5
77FA8
330
458D6
100
AcDbEntity
  8
0
100
AcDbText
 10
0.0726171893171534
 20
0.301596169847989
 30
4.609375
 40
0.0834654981097751
  1
1
100
AcDbText
  0
TEXT
  5
77FA9
330
458D6
100
AcDbEntity
  8
0
100
AcDbText
 10
1.169566170998377
 20
0.304735651778393
 30
4.609375
 40
0.0834654981097751
  1
L3
100
AcDbText
  0
TEXT
  5
77FAA
330
458D6
100
AcDbEntity
  8
0
100
AcDbText
 10
0.7630191193613373
 20
0.3013239366769129
 30
4.609375
 40
0.0834654981097751
  1
L2
100
AcDbText
  0
TEXT
  5
77FAB
330
458D6
100
AcDbEntity
  8
0
100
AcDbText
 10
0.3363953097455404
 20
0.3007543037421421
 30
4.609375
 40
0.0834654981097751
  1
L1
100
AcDbText
  0
TEXT
  5
77FAC
330
458D6
100
AcDbEntity
  8
0
100
AcDbText
 10
0.5233684387662298
 20
0.299912437636296
 30
4.609375
 40
0.0834654981097751
  1
3
100
AcDbText
  0
TEXT
  5
77FAD
330
458D6
100
AcDbEntity
  8
0
100
AcDbText
 10
0.9649023543462657
 20
0.3027354357175298
 30
4.609375
 40
0.0834654981097751
  1
5
100
AcDbText
  0
TEXT
  5
77FAE
330
458D6
100
AcDbEntity
  8
0
100
AcDbText
 10
1.599316170998377
 20
0.304735651778393
 30
4.609375
 40
0.0834654981097751
  1
L4
100
AcDbText
  0
TEXT
  5
77FAF
330
458D6
100
AcDbEntity
  8
0
100
AcDbText
 10
1.370108047435937
 20
0.3027354357175298
 30
4.609375
 40
0.0834654981097751
  1
7
100
AcDbText
  0
POLYLINE
  5
77FB0
330
458D6
100
AcDbEntity
  8
0
100
AcDbPolygonMesh
 66
     1
 10
0.0
 20
0.0
 30
0.0
 70
    16
 71
     6
 72
     3
  0
VERTEX
  5
77FB1
330
77FB0
100
AcDbEntity
  8
0
100
AcDbVertex
100
AcDbPolygonMeshVertex
 10
1.2707
 20
-1.376486206969687
 30
4.809375000000001
 70
    64
  0
VERTEX
  5
77FB2
330
77FB0
100
AcDbEntity
  8
0
100
AcDbVertex
100
AcDbPolygonMeshVertex
 10
1.2707
 20
-1.376486206969687
 30
4.609375
 70
    64
  0
VERTEX
  5
77FB3
330
77FB0
100
AcDbEntity
  8
0
100
AcDbVertex
100
AcDbPolygonMeshVertex
 10
1.2707
 20
-1.376486206969687
 30
4.609375
 70
    64
  0
VERTEX
  5
77FB4
330
77FB0
100
AcDbEntity
  8
0
100
AcDbVertex
100
AcDbPolygonMeshVertex
 10
0.4996999999999995
 20
-1.376486206969687
 30
4.809375000000001
 70
    64
  0
VERTEX
  5
77FB5
330
77FB0
100
AcDbEntity
  8
0
100
AcDbVertex
100
AcDbPolygonMeshVertex
 10
0.4996999999999995
 20
-1.376486206969687
 30
4.609375
 70
    64
  0
VERTEX
  5
77FB6
330
77FB0
100
AcDbEntity
  8
0
100
AcDbVertex
100
AcDbPolygonMeshVertex
 10
0.4996999999999995
 20
-1.376486206969687
 30
4.609375
 70
    64
  0
VERTEX
  5
77FB7
330
77FB0
100
AcDbEntity
  8
0
100
AcDbVertex
100
AcDbPolygonMeshVertex
 10
0.4996999999999995
 20
-1.094486206969687
 30
4.809375000000001
 70
    64
  0
VERTEX
  5
77FB8
330
77FB0
100
AcDbEntity
  8
0
100
AcDbVertex
100
AcDbPolygonMeshVertex
 10
0.4996999999999995
 20
-1.094486206969687
 30
4.609375
 70
    64
  0
VERTEX
  5
77FB9
330
77FB0
100
AcDbEntity
  8
0
100
AcDbVertex
100
AcDbPolygonMeshVertex
 10
0.4996999999999995
 20
-1.376486206969687
 30
4.609375
 70
    64
  0
VERTEX
  5
77FBA
330
77FB0
100
AcDbEntity
  8
0
100
AcDbVertex
100
AcDbPolygonMeshVertex
 10
1.2707
 20
-1.094486206969687
 30
4.809375000000001
 70
    64
  0
VERTEX
  5
77FBB
330
77FB0
100
AcDbEntity
  8
0
100
AcDbVertex
100
AcDbPolygonMeshVertex
 10
1.2707
 20
-1.094486206969687
 30
4.609375
 70
    64
  0
VERTEX
  5
77FBC
330
77FB0
100
AcDbEntity
  8
0
100
AcDbVertex
100
AcDbPolygonMeshVertex
 10
1.2707
 20
-1.376486206969687
 30
4.609375
 70
    64
  0
VERTEX
  5
77FBD
330
77FB0
100
AcDbEntity
  8
0
100
AcDbVertex
100
AcDbPolygonMeshVertex
 10
1.2707
 20
-1.094486206969687
 30
4.809375000000001
 70
    64
  0
VERTEX
  5
77FBE
330
77FB0
100
AcDbEntity
  8
0
100
AcDbVertex
100
AcDbPolygonMeshVertex
 10
1.2707
 20
-1.094486206969687
 30
4.809375000000001
 70
    64
  0
VERTEX
  5
77FBF
330
77FB0
100
AcDbEntity
  8
0
100
AcDbVertex
100
AcDbPolygonMeshVertex
 10
1.2707
 20
-1.376486206969687
 30
4.809375000000001
 70
    64
  0
VERTEX
  5
77FC0
330
77FB0
100
AcDbEntity
  8
0
100
AcDbVertex
100
AcDbPolygonMeshVertex
 10
0.4996999999999995
 20
-1.094486206969687
 30
4.809375000000001
 70
    64
  0
VERTEX
  5
77FC1
330
77FB0
100
AcDbEntity
  8
0
100
AcDbVertex
100
AcDbPolygonMeshVertex
 10
0.4996999999999995
 20
-1.094486206969687
 30
4.809375000000001
 70
    64
  0
VERTEX
  5
77FC2
330
77FB0
100
AcDbEntity
  8
0
100
AcDbVertex
100
AcDbPolygonMeshVertex
 10
0.4996999999999995
 20
-1.376486206969687
 30
4.809375000000001
 70
    64
  0
SEQEND
  5
77FC3
330
77FB0
100
AcDbEntity
  8
0
  0
POLYLINE
  5
77FC4
330
458D6
100
AcDbEntity
  8
0
100
AcDbPolygonMesh
 66
     1
 10
0.0
 20
0.0
 30
0.0
 70
    16
 71
     6
 72
     3
  0
VERTEX
  5
77FC5
330
77FC4
100
AcDbEntity
  8
0
100
AcDbVertex
100
AcDbPolygonMeshVertex
 10
1.250699999999999
 20
-0.4394862069696881
 30
4.643375
 70
    64
  0
VERTEX
  5
77FC6
330
77FC4
100
AcDbEntity
  8
0
100
AcDbVertex
100
AcDbPolygonMeshVertex
 10
1.250699999999999
 20
-0.4394862069696881
 30
4.609375
 70
    64
  0
VERTEX
  5
77FC7
330
77FC4
100
AcDbEntity
  8
0
100
AcDbVertex
100
AcDbPolygonMeshVertex
 10
1.250699999999999
 20
-0.4394862069696881
 30
4.609375
 70
    64
  0
VERTEX
  5
77FC8
330
77FC4
100
AcDbEntity
  8
0
100
AcDbVertex
100
AcDbPolygonMeshVertex
 10
0.5196999999999991
 20
-0.4394862069696881
 30
4.643375
 70
    64
  0
VERTEX
  5
77FC9
330
77FC4
100
AcDbEntity
  8
0
100
AcDbVertex
100
AcDbPolygonMeshVertex
 10
0.5196999999999991
 20
-0.4394862069696881
 30
4.609375
 70
    64
  0
VERTEX
  5
77FCA
330
77FC4
100
AcDbEntity
  8
0
100
AcDbVertex
100
AcDbPolygonMeshVertex
 10
0.5196999999999991
 20
-0.4394862069696881
 30
4.609375
 70
    64
  0
VERTEX
  5
77FCB
330
77FC4
100
AcDbEntity
  8
0
100
AcDbVertex
100
AcDbPolygonMeshVertex
 10
0.5196999999999991
 20
-0.0864862069696884
 30
4.643375
 70
    64
  0
VERTEX
  5
77FCC
330
77FC4
100
AcDbEntity
  8
0
100
AcDbVertex
100
AcDbPolygonMeshVertex
 10
0.5196999999999991
 20
-0.0864862069696884
 30
4.609375
 70
    64
  0
VERTEX
  5
77FCD
330
77FC4
100
AcDbEntity
  8
0
100
AcDbVertex
100
AcDbPolygonMeshVertex
 10
0.5196999999999991
 20
-0.4394862069696881
 30
4.609375
 70
    64
  0
VERTEX
  5
77FCE
330
77FC4
100
AcDbEntity
  8
0
100
AcDbVertex
100
AcDbPolygonMeshVertex
 10
1.250699999999999
 20
-0.0864862069696884
 30
4.643375
 70
    64
  0
VERTEX
  5
77FCF
330
77FC4
100
AcDbEntity
  8
0
100
AcDbVertex
100
AcDbPolygonMeshVertex
 10
1.250699999999999
 20
-0.0864862069696884
 30
4.609375
 70
    64
  0
VERTEX
  5
77FD0
330
77FC4
100
AcDbEntity
  8
0
100
AcDbVertex
100
AcDbPolygonMeshVertex
 10
1.250699999999999
 20
-0.4394862069696881
 30
4.609375
 70
    64
  0
VERTEX
  5
77FD1
330
77FC4
100
AcDbEntity
  8
0
100
AcDbVertex
100
AcDbPolygonMeshVertex
 10
1.250699999999999
 20
-0.0864862069696884
 30
4.643375
 70
    64
  0
VERTEX
  5
77FD2
330
77FC4
100
AcDbEntity
  8
0
100
AcDbVertex
100
AcDbPolygonMeshVertex
 10
1.250699999999999
 20
-0.0864862069696884
 30
4.643375
 70
    64
  0
VERTEX
  5
77FD3
330
77FC4
100
AcDbEntity
  8
0
100
AcDbVertex
100
AcDbPolygonMeshVertex
 10
1.250699999999999
 20
-0.4394862069696881
 30
4.643375
 70
    64
  0
VERTEX
  5
77FD4
330
77FC4
100
AcDbEntity
  8
0
100
AcDbVertex
100
AcDbPolygonMeshVertex
 10
0.5196999999999991
 20
-0.0864862069696884
 30
4.643375
 70
    64
  0
VERTEX
  5
77FD5
330
77FC4
100
AcDbEntity
  8
0
100
AcDbVertex
100
AcDbPolygonMeshVertex
 10
0.5196999999999991
 20
-0.0864862069696884
 30
4.643375
 70
    64
  0
VERTEX
  5
77FD6
330
77FC4
100
AcDbEntity
  8
0
100
AcDbVertex
100
AcDbPolygonMeshVertex
 10
0.5196999999999991
 20
-0.4394862069696881
 30
4.643375
 70
    64
  0
SEQEND
  5
77FD7
330
77FC4
100
AcDbEntity
  8
0
  0
POLYLINE
  5
77FD8
330
458D6
100
AcDbEntity
  8
0
100
AcDbPolygonMesh
 66
     1
 10
0.0
 20
0.0
 30
0.0
 70
    16
 71
     6
 72
     3
  0
VERTEX
  5
77FD9
330
77FD8
100
AcDbEntity
  8
0
100
AcDbVertex
100
AcDbPolygonMeshVertex
 10
0.6891999999999993
 20
-0.4394862069696881
 30
4.820375
 70
    64
  0
VERTEX
  5
77FDA
330
77FD8
100
AcDbEntity
  8
0
100
AcDbVertex
100
AcDbPolygonMeshVertex
 10
0.6891999999999993
 20
-0.4394862069696881
 30
4.643375
 70
    64
  0
VERTEX
  5
77FDB
330
77FD8
100
AcDbEntity
  8
0
100
AcDbVertex
100
AcDbPolygonMeshVertex
 10
0.6891999999999993
 20
-0.4394862069696881
 30
4.643375
 70
    64
  0
VERTEX
  5
77FDC
330
77FD8
100
AcDbEntity
  8
0
100
AcDbVertex
100
AcDbPolygonMeshVertex
 10
0.5196999999999991
 20
-0.4394862069696881
 30
4.820375
 70
    64
  0
VERTEX
  5
77FDD
330
77FD8
100
AcDbEntity
  8
0
100
AcDbVertex
100
AcDbPolygonMeshVertex
 10
0.5196999999999991
 20
-0.4394862069696881
 30
4.643375
 70
    64
  0
VERTEX
  5
77FDE
330
77FD8
100
AcDbEntity
  8
0
100
AcDbVertex
100
AcDbPolygonMeshVertex
 10
0.5196999999999991
 20
-0.4394862069696881
 30
4.643375
 70
    64
  0
VERTEX
  5
77FDF
330
77FD8
100
AcDbEntity
  8
0
100
AcDbVertex
100
AcDbPolygonMeshVertex
 10
0.5196999999999991
 20
-0.0864862069696884
 30
4.820375
 70
    64
  0
VERTEX
  5
77FE0
330
77FD8
100
AcDbEntity
  8
0
100
AcDbVertex
100
AcDbPolygonMeshVertex
 10
0.5196999999999991
 20
-0.0864862069696884
 30
4.643375
 70
    64
  0
VERTEX
  5
77FE1
330
77FD8
100
AcDbEntity
  8
0
100
AcDbVertex
100
AcDbPolygonMeshVertex
 10
0.5196999999999991
 20
-0.4394862069696881
 30
4.643375
 70
    64
  0
VERTEX
  5
77FE2
330
77FD8
100
AcDbEntity
  8
0
100
AcDbVertex
100
AcDbPolygonMeshVertex
 10
0.6891999999999993
 20
-0.0864862069696884
 30
4.820375
 70
    64
  0
VERTEX
  5
77FE3
330
77FD8
100
AcDbEntity
  8
0
100
AcDbVertex
100
AcDbPolygonMeshVertex
 10
0.6891999999999993
 20
-0.0864862069696884
 30
4.643375
 70
    64
  0
VERTEX
  5
77FE4
330
77FD8
100
AcDbEntity
  8
0
100
AcDbVertex
100
AcDbPolygonMeshVertex
 10
0.6891999999999993
 20
-0.4394862069696881
 30
4.643375
 70
    64
  0
VERTEX
  5
77FE5
330
77FD8
100
AcDbEntity
  8
0
100
AcDbVertex
100
AcDbPolygonMeshVertex
 10
0.6891999999999993
 20
-0.0864862069696884
 30
4.820375
 70
    64
  0
VERTEX
  5
77FE6
330
77FD8
100
AcDbEntity
  8
0
100
AcDbVertex
100
AcDbPolygonMeshVertex
 10
0.6891999999999993
 20
-0.0864862069696884
 30
4.820375
 70
    64
  0
VERTEX
  5
77FE7
330
77FD8
100
AcDbEntity
  8
0
100
AcDbVertex
100
AcDbPolygonMeshVertex
 10
0.6891999999999993
 20
-0.4394862069696881
 30
4.820375
 70
    64
  0
VERTEX
  5
77FE8
330
77FD8
100
AcDbEntity
  8
0
100
AcDbVertex
100
AcDbPolygonMeshVertex
 10
0.5196999999999991
 20
-0.0864862069696884
 30
4.820375
 70
    64
  0
VERTEX
  5
77FE9
330
77FD8
100
AcDbEntity
  8
0
100
AcDbVertex
100
AcDbPolygonMeshVertex
 10
0.5196999999999991
 20
-0.0864862069696884
 30
4.820375
 70
    64
  0
VERTEX
  5
77FEA
330
77FD8
100
AcDbEntity
  8
0
100
AcDbVertex
100
AcDbPolygonMeshVertex
 10
0.5196999999999991
 20
-0.4394862069696881
 30
4.820375
 70
    64
  0
SEQEND
  5
77FEB
330
77FD8
100
AcDbEntity
  8
0
  0
POLYLINE
  5
77FEC
330
458D6
100
AcDbEntity
  8
0
100
AcDbPolygonMesh
 66
     1
 10
0.0
 20
0.0
 30
0.0
 70
    16
 71
     6
 72
     3
  0
VERTEX
  5
77FED
330
77FEC
100
AcDbEntity
  8
0
100
AcDbVertex
100
AcDbPolygonMeshVertex
 10
0.782699999999999
 20
-0.8944862069696878
 30
4.859375000000001
 70
    64
  0
VERTEX
  5
77FEE
330
77FEC
100
AcDbEntity
  8
0
100
AcDbVertex
100
AcDbPolygonMeshVertex
 10
0.782699999999999
 20
-0.8944862069696878
 30
4.643375
 70
    64
  0
VERTEX
  5
77FEF
330
77FEC
100
AcDbEntity
  8
0
100
AcDbVertex
100
AcDbPolygonMeshVertex
 10
0.782699999999999
 20
-0.8944862069696878
 30
4.643375
 70
    64
  0
VERTEX
  5
77FF0
330
77FEC
100
AcDbEntity
  8
0
100
AcDbVertex
100
AcDbPolygonMeshVertex
 10
0.6476999999999992
 20
-0.8944862069696878
 30
4.859375000000001
 70
    64
  0
VERTEX
  5
77FF1
330
77FEC
100
AcDbEntity
  8
0
100
AcDbVertex
100
AcDbPolygonMeshVertex
 10
0.6476999999999992
 20
-0.8944862069696878
 30
4.643375
 70
    64
  0
VERTEX
  5
77FF2
330
77FEC
100
AcDbEntity
  8
0
100
AcDbVertex
100
AcDbPolygonMeshVertex
 10
0.6476999999999992
 20
-0.8944862069696878
 30
4.643375
 70
    64
  0
VERTEX
  5
77FF3
330
77FEC
100
AcDbEntity
  8
0
100
AcDbVertex
100
AcDbPolygonMeshVertex
 10
0.6476999999999992
 20
-0.5494862069696876
 30
4.859375000000001
 70
    64
  0
VERTEX
  5
77FF4
330
77FEC
100
AcDbEntity
  8
0
100
AcDbVertex
100
AcDbPolygonMeshVertex
 10
0.6476999999999992
 20
-0.5494862069696876
 30
4.643375
 70
    64
  0
VERTEX
  5
77FF5
330
77FEC
100
AcDbEntity
  8
0
100
AcDbVertex
100
AcDbPolygonMeshVertex
 10
0.6476999999999992
 20
-0.8944862069696878
 30
4.643375
 70
    64
  0
VERTEX
  5
77FF6
330
77FEC
100
AcDbEntity
  8
0
100
AcDbVertex
100
AcDbPolygonMeshVertex
 10
0.782699999999999
 20
-0.5494862069696876
 30
4.859375000000001
 70
    64
  0
VERTEX
  5
77FF7
330
77FEC
100
AcDbEntity
  8
0
100
AcDbVertex
100
AcDbPolygonMeshVertex
 10
0.782699999999999
 20
-0.5494862069696876
 30
4.643375
 70
    64
  0
VERTEX
  5
77FF8
330
77FEC
100
AcDbEntity
  8
0
100
AcDbVertex
100
AcDbPolygonMeshVertex
 10
0.782699999999999
 20
-0.8944862069696878
 30
4.643375
 70
    64
  0
VERTEX
  5
77FF9
330
77FEC
100
AcDbEntity
  8
0
100
AcDbVertex
100
AcDbPolygonMeshVertex
 10
0.782699999999999
 20
-0.5494862069696876
 30
4.859375000000001
 70
    64
  0
VERTEX
  5
77FFA
330
77FEC
100
AcDbEntity
  8
0
100
AcDbVertex
100
AcDbPolygonMeshVertex
 10
0.782699999999999
 20
-0.5494862069696876
 30
4.859375000000001
 70
    64
  0
VERTEX
  5
77FFB
330
77FEC
100
AcDbEntity
  8
0
100
AcDbVertex
100
AcDbPolygonMeshVertex
 10
0.782699999999999
 20
-0.8944862069696878
 30
4.859375000000001
 70
    64
  0
VERTEX
  5
77FFC
330
77FEC
100
AcDbEntity
  8
0
100
AcDbVertex
100
AcDbPolygonMeshVertex
 10
0.6476999999999992
 20
-0.5494862069696876
 30
4.859375000000001
 70
    64
  0
VERTEX
  5
77FFD
330
77FEC
100
AcDbEntity
  8
0
100
AcDbVertex
100
AcDbPolygonMeshVertex
 10
0.6476999999999992
 20
-0.5494862069696876
 30
4.859375000000001
 70
    64
  0
VERTEX
  5
77FFE
330
77FEC
100
AcDbEntity
  8
0
100
AcDbVertex
100
AcDbPolygonMeshVertex
 10
0.6476999999999992
 20
-0.8944862069696878
 30
4.859375000000001
 70
    64
  0
SEQEND
  5
77FFF
330
77FEC
100
AcDbEntity
  8
0
  0
TEXT
  5
78000
330
458D6
100
AcDbEntity
  8
0
100
AcDbText
 10
0.7497214061352758
 20
-1.81957131621648
 30
4.609375
 40
0.0834654981097751
  1
T2
100
AcDbText
  0
TEXT
  5
78001
330
458D6
100
AcDbEntity
  8
0
100
AcDbText
 10
0.9687721570885658
 20
-1.820413182322326
 30
4.609375
 40
0.0834654981097751
  1
6
100
AcDbText
  0
POLYLINE
  5
78002
330
458D6
100
AcDbEntity
  8
0
100
AcDbPolygonMesh
 66
     1
 10
0.0
 20
0.0
 30
0.0
 70
    16
 71
     6
 72
     3
  0
VERTEX
  5
78003
330
78002
100
AcDbEntity
  8
0
100
AcDbVertex
100
AcDbPolygonMeshVertex
 10
1.122699999999998
 20
-0.8944862069696878
 30
4.643375
 70
    64
  0
VERTEX
  5
78004
330
78002
100
AcDbEntity
  8
0
100
AcDbVertex
100
AcDbPolygonMeshVertex
 10
1.122699999999998
 20
-0.8944862069696878
 30
4.609375
 70
    64
  0
VERTEX
  5
78005
330
78002
100
AcDbEntity
  8
0
100
AcDbVertex
100
AcDbPolygonMeshVertex
 10
1.122699999999998
 20
-0.8944862069696878
 30
4.609375
 70
    64
  0
VERTEX
  5
78006
330
78002
100
AcDbEntity
  8
0
100
AcDbVertex
100
AcDbPolygonMeshVertex
 10
0.6476999999999992
 20
-0.8944862069696878
 30
4.643375
 70
    64
  0
VERTEX
  5
78007
330
78002
100
AcDbEntity
  8
0
100
AcDbVertex
100
AcDbPolygonMeshVertex
 10
0.6476999999999992
 20
-0.8944862069696878
 30
4.609375
 70
    64
  0
VERTEX
  5
78008
330
78002
100
AcDbEntity
  8
0
100
AcDbVertex
100
AcDbPolygonMeshVertex
 10
0.6476999999999992
 20
-0.8944862069696878
 30
4.609375
 70
    64
  0
VERTEX
  5
78009
330
78002
100
AcDbEntity
  8
0
100
AcDbVertex
100
AcDbPolygonMeshVertex
 10
0.6476999999999992
 20
-0.5494862069696876
 30
4.643375
 70
    64
  0
VERTEX
  5
7800A
330
78002
100
AcDbEntity
  8
0
100
AcDbVertex
100
AcDbPolygonMeshVertex
 10
0.6476999999999992
 20
-0.5494862069696876
 30
4.609375
 70
    64
  0
VERTEX
  5
7800B
330
78002
100
AcDbEntity
  8
0
100
AcDbVertex
100
AcDbPolygonMeshVertex
 10
0.6476999999999992
 20
-0.8944862069696878
 30
4.609375
 70
    64
  0
VERTEX
  5
7800C
330
78002
100
AcDbEntity
  8
0
100
AcDbVertex
100
AcDbPolygonMeshVertex
 10
1.122699999999998
 20
-0.5494862069696876
 30
4.643375
 70
    64
  0
VERTEX
  5
7800D
330
78002
100
AcDbEntity
  8
0
100
AcDbVertex
100
AcDbPolygonMeshVertex
 10
1.122699999999998
 20
-0.5494862069696876
 30
4.609375
 70
    64
  0
VERTEX
  5
7800E
330
78002
100
AcDbEntity
  8
0
100
AcDbVertex
100
AcDbPolygonMeshVertex
 10
1.122699999999998
 20
-0.8944862069696878
 30
4.609375
 70
    64
  0
VERTEX
  5
7800F
330
78002
100
AcDbEntity
  8
0
100
AcDbVertex
100
AcDbPolygonMeshVertex
 10
1.122699999999998
 20
-0.5494862069696876
 30
4.643375
 70
    64
  0
VERTEX
  5
78010
330
78002
100
AcDbEntity
  8
0
100
AcDbVertex
100
AcDbPolygonMeshVertex
 10
1.122699999999998
 20
-0.5494862069696876
 30
4.643375
 70
    64
  0
VERTEX
  5
78011
330
78002
100
AcDbEntity
  8
0
100
AcDbVertex
100
AcDbPolygonMeshVertex
 10
1.122699999999998
 20
-0.8944862069696878
 30
4.643375
 70
    64
  0
VERTEX
  5
78012
330
78002
100
AcDbEntity
  8
0
100
AcDbVertex
100
AcDbPolygonMeshVertex
 10
0.6476999999999992
 20
-0.5494862069696876
 30
4.643375
 70
    64
  0
VERTEX
  5
78013
330
78002
100
AcDbEntity
  8
0
100
AcDbVertex
100
AcDbPolygonMeshVertex
 10
0.6476999999999992
 20
-0.5494862069696876
 30
4.643375
 70
    64
  0
VERTEX
  5
78014
330
78002
100
AcDbEntity
  8
0
100
AcDbVertex
100
AcDbPolygonMeshVertex
 10
0.6476999999999992
 20
-0.8944862069696878
 30
4.643375
 70
    64
  0
SEQEND
  5
78015
330
78002
100
AcDbEntity
  8
0
  0
TEXT
  5
78016
330
458D6
100
AcDbEntity
  8
0
100
AcDbText
 10
1.168744176302742
 20
-1.81900168328171
 30
4.609375
 40
0.0834654981097751
  1
T3
100
AcDbText
  0
TEXT
  5
78017
330
458D6
100
AcDbEntity
  8
0
100
AcDbText
 10
0.3250117058396814
 20
-1.817524560975508
 30
4.609375
 40
0.0834654981097751
  1
T1
100
AcDbText
  0
TEXT
  5
78018
330
458D6
100
AcDbEntity
  8
0
100
AcDbText
 10
0.080558581031785
 20
-1.821552448191868
 30
4.609375
 40
0.0834654981097751
  1
2
100
AcDbText
  0
TEXT
  5
78019
330
458D6
100
AcDbEntity
  8
0
100
AcDbText
 10
1.598494176302742
 20
-1.81900168328171
 30
4.609375
 40
0.0834654981097751
  1
T4
100
AcDbText
  0
TEXT
  5
7801A
330
458D6
100
AcDbEntity
  8
0
100
AcDbText
 10
1.398522157088566
 20
-1.820413182322326
 30
4.609375
 40
0.0834654981097751
  1
8
100
AcDbText
  0
LWPOLYLINE
  5
7801B
330
458D6
100
AcDbEntity
  8
0
100
AcDbPolyline
 90
        2
 70
     0
 43
0.0
 38
3.587375
 10
0.0002000000000001
 20
-1.845500000000001
 10
0.0002000000000001
 20
0.3984999999999994
  0
POLYLINE
  5
7801C
330
458D6
100
AcDbEntity
  8
0
100
AcDbPolygonMesh
 66
     1
 10
0.0
 20
0.0
 30
0.0
 70
    16
 71
     6
 72
     3
  0
VERTEX
  5
7801D
330
7801C
100
AcDbEntity
  8
0
100
AcDbVertex
100
AcDbPolygonMeshVertex
 10
1.765199999999999
 20
-1.845499999999999
 30
4.609375
 70
    64
  0
VERTEX
  5
7801E
330
7801C
100
AcDbEntity
  8
0
100
AcDbVertex
100
AcDbPolygonMeshVertex
 10
1.765199999999999
 20
-1.845499999999999
 30
3.587375
 70
    64
  0
VERTEX
  5
7801F
330
7801C
100
AcDbEntity
  8
0
100
AcDbVertex
100
AcDbPolygonMeshVertex
 10
1.765199999999999
 20
-1.845499999999999
 30
3.587375
 70
    64
  0
VERTEX
  5
78020
330
7801C
100
AcDbEntity
  8
0
100
AcDbVertex
100
AcDbPolygonMeshVertex
 10
0.0002000000000001
 20
-1.845500000000001
 30
4.609375
 70
    64
  0
VERTEX
  5
78021
330
7801C
100
AcDbEntity
  8
0
100
AcDbVertex
100
AcDbPolygonMeshVertex
 10
0.0002000000000001
 20
-1.845500000000001
 30
3.587375
 70
    64
  0
VERTEX
  5
78022
330
7801C
100
AcDbEntity
  8
0
100
AcDbVertex
100
AcDbPolygonMeshVertex
 10
0.0002000000000001
 20
-1.845500000000001
 30
3.587375
 70
    64
  0
VERTEX
  5
78023
330
7801C
100
AcDbEntity
  8
0
100
AcDbVertex
100
AcDbPolygonMeshVertex
 10
0.0001999999999984
 20
0.3984999999999994
 30
4.609375
 70
    64
  0
VERTEX
  5
78024
330
7801C
100
AcDbEntity
  8
0
100
AcDbVertex
100
AcDbPolygonMeshVertex
 10
0.0001999999999984
 20
0.3984999999999994
 30
3.587375
 70
    64
  0
VERTEX
  5
78025
330
7801C
100
AcDbEntity
  8
0
100
AcDbVertex
100
AcDbPolygonMeshVertex
 10
0.0002000000000001
 20
-1.845500000000001
 30
3.587375
 70
    64
  0
VERTEX
  5
78026
330
7801C
100
AcDbEntity
  8
0
100
AcDbVertex
100
AcDbPolygonMeshVertex
 10
1.765199999999998
 20
0.3985000000000003
 30
4.609375
 70
    64
  0
VERTEX
  5
78027
330
7801C
100
AcDbEntity
  8
0
100
AcDbVertex
100
AcDbPolygonMeshVertex
 10
1.765199999999998
 20
0.3985000000000003
 30
3.587375
 70
    64
  0
VERTEX
  5
78028
330
7801C
100
AcDbEntity
  8
0
100
AcDbVertex
100
AcDbPolygonMeshVertex
 10
1.765199999999999
 20
-1.845499999999999
 30
3.587375
 70
    64
  0
VERTEX
  5
78029
330
7801C
100
AcDbEntity
  8
0
100
AcDbVertex
100
AcDbPolygonMeshVertex
 10
1.765199999999998
 20
0.3985000000000003
 30
4.609375
 70
    64
  0
VERTEX
  5
7802A
330
7801C
100
AcDbEntity
  8
0
100
AcDbVertex
100
AcDbPolygonMeshVertex
 10
1.765199999999998
 20
0.3985000000000003
 30
4.609375
 70
    64
  0
VERTEX
  5
7802B
330
7801C
100
AcDbEntity
  8
0
100
AcDbVertex
100
AcDbPolygonMeshVertex
 10
1.765199999999999
 20
-1.845499999999999
 30
4.609375
 70
    64
  0
VERTEX
  5
7802C
330
7801C
100
AcDbEntity
  8
0
100
AcDbVertex
100
AcDbPolygonMeshVertex
 10
0.0001999999999984
 20
0.3984999999999994
 30
4.609375
 70
    64
  0
VERTEX
  5
7802D
330
7801C
100
AcDbEntity
  8
0
100
AcDbVertex
100
AcDbPolygonMeshVertex
 10
0.0001999999999984
 20
0.3984999999999994
 30
4.609375
 70
    64
  0
VERTEX
  5
7802E
330
7801C
100
AcDbEntity
  8
0
100
AcDbVertex
100
AcDbPolygonMeshVertex
 10
0.0002000000000001
 20
-1.845500000000001
 30
4.609375
 70
    64
  0
SEQEND
  5
7802F
330
7801C
100
AcDbEntity
  8
0
  0
POLYLINE
  5
78030
330
458D6
100
AcDbEntity
  8
0
100
AcDb3dPolyline
 66
     1
 10
0.0
 20
0.0
 30
0.0
 70
     8
  0
VERTEX
  5
78031
330
78030
100
AcDbEntity
  8
0
100
AcDbVertex
100
AcDb3dPolylineVertex
 10
1.765410349403541
 20
-0.6404999999999999
 30
3.119375
 70
    32
  0
VERTEX
  5
78032
330
78030
100
AcDbEntity
  8
0
100
AcDbVertex
100
AcDb3dPolylineVertex
 10
1.765410349403541
 20
-0.6404999999999999
 30
3.692375
 70
    32
  0
VERTEX
  5
78033
330
78030
100
AcDbEntity
  8
0
100
AcDbVertex
100
AcDb3dPolylineVertex
 10
1.765410349403541
 20
-0.8064999999999997
 30
3.692375
 70
    32
  0
VERTEX
  5
78034
330
78030
100
AcDbEntity
  8
0
100
AcDbVertex
100
AcDb3dPolylineVertex
 10
1.765410349403541
 20
-0.8065000000000001
 30
3.119375
 70
    32
  0
VERTEX
  5
78035
330
78030
100
AcDbEntity
  8
0
100
AcDbVertex
100
AcDb3dPolylineVertex
 10
1.765410349403541
 20
-0.6404999999999999
 30
3.119375
 70
    32
  0
SEQEND
  5
78036
330
78030
100
AcDbEntity
  8
0
  0
LINE
  5
78037
330
458D6
100
AcDbEntity
  8
0
100
AcDbLine
 10
1.765410349403541
 20
-0.8065000000000001
 30
3.405874999999999
 11
1.765410349403541
 21
-0.6404999999999999
 31
3.405874999999999
  0
LINE
  5
78038
330
458D6
100
AcDbEntity
  8
0
100
AcDbLine
 10
1.765410349403541
 20
-0.8065000000000001
 30
3.595875
 11
1.765410349403541
 21
-0.6404999999999999
 31
3.595875
  0
POINT
  5
78039
330
458D6
100
AcDbEntity
  8
SNAP_POINTS
100
AcDbPoint
 10
0.8851999999999989
 20
-0.7219862069696879
 30
4.643375
  0
POINT
  5
7803A
330
458D6
100
AcDbEntity
  8
SNAP_POINTS
100
AcDbPoint
 10
-0.0000103494035411
 20
-0.7734999999999999
 30
3.595875
  0
POINT
  5
7803B
330
458D6
100
AcDbEntity
  8
SNAP_POINTS
100
AcDbPoint
 10
1.765410349403541
 20
-0.6734999999999998
 30
3.595875
  0
POLYLINE
  5
7803C
330
458D6
100
AcDbEntity
  8
0
100
AcDbPolygonMesh
 66
     1
 10
0.0
 20
0.0
 30
0.0
 70
    16
 71
     6
 72
     3
  0
VERTEX
  5
7803D
330
7803C
100
AcDbEntity
  8
0
100
AcDbVertex
100
AcDbPolygonMeshVertex
 10
1.765199999999999
 20
-2.165499999999999
 30
1.042499999999999
 70
    64
  0
VERTEX
  5
7803E
330
7803C
100
AcDbEntity
  8
0
100
AcDbVertex
100
AcDbPolygonMeshVertex
 10
1.765199999999999
 20
-2.165499999999999
 30
0.8554999999999999
 70
    64
  0
VERTEX
  5
7803F
330
7803C
100
AcDbEntity
  8
0
100
AcDbVertex
100
AcDbPolygonMeshVertex
 10
1.765199999999999
 20
-2.165499999999999
 30
0.8554999999999999
 70
    64
  0
VERTEX
  5
78040
330
7803C
100
AcDbEntity
  8
0
100
AcDbVertex
100
AcDbPolygonMeshVertex
 10
0.8852000000000007
 20
-2.165499999999999
 30
1.042499999999999
 70
    64
  0
VERTEX
  5
78041
330
7803C
100
AcDbEntity
  8
0
100
AcDbVertex
100
AcDbPolygonMeshVertex
 10
0.8852000000000007
 20
-2.165499999999999
 30
0.8554999999999999
 70
    64
  0
VERTEX
  5
78042
330
7803C
100
AcDbEntity
  8
0
100
AcDbVertex
100
AcDbPolygonMeshVertex
 10
0.8852000000000007
 20
-2.165499999999999
 30
0.8554999999999999
 70
    64
  0
VERTEX
  5
78043
330
7803C
100
AcDbEntity
  8
0
100
AcDbVertex
100
AcDbPolygonMeshVertex
 10
0.8852000000000007
 20
-1.9685
 30
1.042499999999999
 70
    64
  0
VERTEX
  5
78044
330
7803C
100
AcDbEntity
  8
0
100
AcDbVertex
100
AcDbPolygonMeshVertex
 10
0.8852000000000007
 20
-1.9685
 30
0.8554999999999999
 70
    64
  0
VERTEX
  5
78045
330
7803C
100
AcDbEntity
  8
0
100
AcDbVertex
100
AcDbPolygonMeshVertex
 10
0.8852000000000007
 20
-2.165499999999999
 30
0.8554999999999999
 70
    64
  0
VERTEX
  5
78046
330
7803C
100
AcDbEntity
  8
0
100
AcDbVertex
100
AcDbPolygonMeshVertex
 10
1.765199999999999
 20
-1.9685
 30
1.042499999999999
 70
    64
  0
VERTEX
  5
78047
330
7803C
100
AcDbEntity
  8
0
100
AcDbVertex
100
AcDbPolygonMeshVertex
 10
1.765199999999999
 20
-1.9685
 30
0.8554999999999999
 70
    64
  0
VERTEX
  5
78048
330
7803C
100
AcDbEntity
  8
0
100
AcDbVertex
100
AcDbPolygonMeshVertex
 10
1.765199999999999
 20
-2.165499999999999
 30
0.8554999999999999
 70
    64
  0
VERTEX
  5
78049
330
7803C
100
AcDbEntity
  8
0
100
AcDbVertex
100
AcDbPolygonMeshVertex
 10
1.765199999999999
 20
-1.9685
 30
1.042499999999999
 70
    64
  0
VERTEX
  5
7804A
330
7803C
100
AcDbEntity
  8
0
100
AcDbVertex
100
AcDbPolygonMeshVertex
 10
1.765199999999999
 20
-1.9685
 30
1.042499999999999
 70
    64
  0
VERTEX
  5
7804B
330
7803C
100
AcDbEntity
  8
0
100
AcDbVertex
100
AcDbPolygonMeshVertex
 10
1.765199999999999
 20
-2.165499999999999
 30
1.042499999999999
 70
    64
  0
VERTEX
  5
7804C
330
7803C
100
AcDbEntity
  8
0
100
AcDbVertex
100
AcDbPolygonMeshVertex
 10
0.8852000000000007
 20
-1.9685
 30
1.042499999999999
 70
    64
  0
VERTEX
  5
7804D
330
7803C
100
AcDbEntity
  8
0
100
AcDbVertex
100
AcDbPolygonMeshVertex
 10
0.8852000000000007
 20
-1.9685
 30
1.042499999999999
 70
    64
  0
VERTEX
  5
7804E
330
7803C
100
AcDbEntity
  8
0
100
AcDbVertex
100
AcDbPolygonMeshVertex
 10
0.8852000000000007
 20
-2.165499999999999
 30
1.042499999999999
 70
    64
  0
SEQEND
  5
7804F
330
7803C
100
AcDbEntity
  8
0
  0
POLYLINE
  5
78050
330
458D6
100
AcDbEntity
  8
0
100
AcDbPolygonMesh
 66
     1
 10
0.0
 20
0.0
 30
0.0
 70
    16
 71
     6
 72
     3
  0
VERTEX
  5
78051
330
78050
100
AcDbEntity
  8
0
100
AcDbVertex
100
AcDbPolygonMeshVertex
 10
0.0052
 20
0.7184999999999994
 30
1.042499999999999
 70
    64
  0
VERTEX
  5
78052
330
78050
100
AcDbEntity
  8
0
100
AcDbVertex
100
AcDbPolygonMeshVertex
 10
0.0052
 20
0.7184999999999994
 30
0.8555000000000001
 70
    64
  0
VERTEX
  5
78053
330
78050
100
AcDbEntity
  8
0
100
AcDbVertex
100
AcDbPolygonMeshVertex
 10
0.0052
 20
0.7184999999999994
 30
0.8555000000000001
 70
    64
  0
VERTEX
  5
78054
330
78050
100
AcDbEntity
  8
0
100
AcDbVertex
100
AcDbPolygonMeshVertex
 10
0.885199999999998
 20
0.7184999999999994
 30
1.042499999999999
 70
    64
  0
VERTEX
  5
78055
330
78050
100
AcDbEntity
  8
0
100
AcDbVertex
100
AcDbPolygonMeshVertex
 10
0.885199999999998
 20
0.7184999999999994
 30
0.8555000000000001
 70
    64
  0
VERTEX
  5
78056
330
78050
100
AcDbEntity
  8
0
100
AcDbVertex
100
AcDbPolygonMeshVertex
 10
0.885199999999998
 20
0.7184999999999994
 30
0.8555000000000001
 70
    64
  0
VERTEX
  5
78057
330
78050
100
AcDbEntity
  8
0
100
AcDbVertex
100
AcDbPolygonMeshVertex
 10
0.885199999999998
 20
0.5215000000000002
 30
1.042499999999999
 70
    64
  0
VERTEX
  5
78058
330
78050
100
AcDbEntity
  8
0
100
AcDbVertex
100
AcDbPolygonMeshVertex
 10
0.885199999999998
 20
0.5215000000000002
 30
0.8555000000000001
 70
    64
  0
VERTEX
  5
78059
330
78050
100
AcDbEntity
  8
0
100
AcDbVertex
100
AcDbPolygonMeshVertex
 10
0.885199999999998
 20
0.7184999999999994
 30
0.8555000000000001
 70
    64
  0
VERTEX
  5
7805A
330
78050
100
AcDbEntity
  8
0
100
AcDbVertex
100
AcDbPolygonMeshVertex
 10
0.0052
 20
0.5215000000000002
 30
1.042499999999999
 70
    64
  0
VERTEX
  5
7805B
330
78050
100
AcDbEntity
  8
0
100
AcDbVertex
100
AcDbPolygonMeshVertex
 10
0.0052
 20
0.5215000000000002
 30
0.8555000000000001
 70
    64
  0
VERTEX
  5
7805C
330
78050
100
AcDbEntity
  8
0
100
AcDbVertex
100
AcDbPolygonMeshVertex
 10
0.0052
 20
0.7184999999999994
 30
0.8555000000000001
 70
    64
  0
VERTEX
  5
7805D
330
78050
100
AcDbEntity
  8
0
100
AcDbVertex
100
AcDbPolygonMeshVertex
 10
0.0052
 20
0.5215000000000002
 30
1.042499999999999
 70
    64
  0
VERTEX
  5
7805E
330
78050
100
AcDbEntity
  8
0
100
AcDbVertex
100
AcDbPolygonMeshVertex
 10
0.0052
 20
0.5215000000000002
 30
1.042499999999999
 70
    64
  0
VERTEX
  5
7805F
330
78050
100
AcDbEntity
  8
0
100
AcDbVertex
100
AcDbPolygonMeshVertex
 10
0.0052
 20
0.7184999999999994
 30
1.042499999999999
 70
    64
  0
VERTEX
  5
78060
330
78050
100
AcDbEntity
  8
0
100
AcDbVertex
100
AcDbPolygonMeshVertex
 10
0.885199999999998
 20
0.5215000000000002
 30
1.042499999999999
 70
    64
  0
VERTEX
  5
78061
330
78050
100
AcDbEntity
  8
0
100
AcDbVertex
100
AcDbPolygonMeshVertex
 10
0.885199999999998
 20
0.5215000000000002
 30
1.042499999999999
 70
    64
  0
VERTEX
  5
78062
330
78050
100
AcDbEntity
  8
0
100
AcDbVertex
100
AcDbPolygonMeshVertex
 10
0.885199999999998
 20
0.7184999999999994
 30
1.042499999999999
 70
    64
  0
SEQEND
  5
78063
330
78050
100
AcDbEntity
  8
0
  0
POLYLINE
  5
78064
330
458D6
100
AcDbEntity
  8
0
100
AcDb3dPolyline
 66
     1
 10
0.0
 20
0.0
 30
0.0
 70
     8
  0
VERTEX
  5
78065
330
78064
100
AcDbEntity
  8
0
100
AcDbVertex
100
AcDb3dPolylineVertex
 10
0.2778666666666655
 20
0.5215000000000002
 30
0.8554999999999999
 70
    32
  0
VERTEX
  5
78066
330
78064
100
AcDbEntity
  8
0
100
AcDbVertex
100
AcDb3dPolylineVertex
 10
0.2778666666666655
 20
0.6565
 30
0.8555000000000001
 70
    32
  0
VERTEX
  5
78067
330
78064
100
AcDbEntity
  8
0
100
AcDbVertex
100
AcDb3dPolylineVertex
 10
0.0672000000000007
 20
0.6565
 30
0.8555000000000001
 70
    32
  0
VERTEX
  5
78068
330
78064
100
AcDbEntity
  8
0
100
AcDbVertex
100
AcDb3dPolylineVertex
 10
0.0672000000000007
 20
0.5215000000000002
 30
0.8554999999999999
 70
    32
  0
SEQEND
  5
78069
330
78064
100
AcDbEntity
  8
0
  0
LINE
  5
7806A
330
458D6
100
AcDbEntity
  8
0
100
AcDbLine
 10
0.0672000000000007
 20
0.5215000000000002
 30
0.8554999999999999
 11
0.2778666666666655
 21
0.5215000000000002
 31
0.8554999999999999
  0
POLYLINE
  5
7806B
330
458D6
100
AcDbEntity
  8
0
100
AcDb3dPolyline
 66
     1
 10
0.0
 20
0.0
 30
0.0
 70
     8
  0
VERTEX
  5
7806C
330
7806B
100
AcDbEntity
  8
0
100
AcDbVertex
100
AcDb3dPolylineVertex
 10
0.2778666666666655
 20
0.5215000000000002
 30
1.042499999999999
 70
    32
  0
VERTEX
  5
7806D
330
7806B
100
AcDbEntity
  8
0
100
AcDbVertex
100
AcDb3dPolylineVertex
 10
0.2778666666666655
 20
0.6565
 30
1.042499999999999
 70
    32
  0
VERTEX
  5
7806E
330
7806B
100
AcDbEntity
  8
0
100
AcDbVertex
100
AcDb3dPolylineVertex
 10
0.0672000000000007
 20
0.6565
 30
1.042499999999999
 70
    32
  0
VERTEX
  5
7806F
330
7806B
100
AcDbEntity
  8
0
100
AcDbVertex
100
AcDb3dPolylineVertex
 10
0.0672000000000007
 20
0.5215000000000002
 30
1.042499999999999
 70
    32
  0
SEQEND
  5
78070
330
7806B
100
AcDbEntity
  8
0
  0
POLYLINE
  5
78071
330
458D6
100
AcDbEntity
  8
0
100
AcDb3dPolyline
 66
     1
 10
0.0
 20
0.0
 30
0.0
 70
     8
  0
VERTEX
  5
78072
330
78071
100
AcDbEntity
  8
0
100
AcDbVertex
100
AcDb3dPolylineVertex
 10
0.5505333333333314
 20
0.5215000000000002
 30
1.042499999999999
 70
    32
  0
VERTEX
  5
78073
330
78071
100
AcDbEntity
  8
0
100
AcDbVertex
100
AcDb3dPolylineVertex
 10
0.5505333333333314
 20
0.6565
 30
1.042499999999999
 70
    32
  0
VERTEX
  5
78074
330
78071
100
AcDbEntity
  8
0
100
AcDbVertex
100
AcDb3dPolylineVertex
 10
0.3398666666666666
 20
0.6565
 30
1.042499999999999
 70
    32
  0
VERTEX
  5
78075
330
78071
100
AcDbEntity
  8
0
100
AcDbVertex
100
AcDb3dPolylineVertex
 10
0.3398666666666666
 20
0.5215000000000002
 30
1.042499999999999
 70
    32
  0
SEQEND
  5
78076
330
78071
100
AcDbEntity
  8
0
  0
POLYLINE
  5
78077
330
458D6
100
AcDbEntity
  8
0
100
AcDb3dPolyline
 66
     1
 10
0.0
 20
0.0
 30
0.0
 70
     8
  0
VERTEX
  5
78078
330
78077
100
AcDbEntity
  8
0
100
AcDbVertex
100
AcDb3dPolylineVertex
 10
0.5505333333333314
 20
0.5215000000000002
 30
0.8554999999999999
 70
    32
  0
VERTEX
  5
78079
330
78077
100
AcDbEntity
  8
0
100
AcDbVertex
100
AcDb3dPolylineVertex
 10
0.5505333333333314
 20
0.6565
 30
0.8555000000000001
 70
    32
  0
VERTEX
  5
7807A
330
78077
100
AcDbEntity
  8
0
100
AcDbVertex
100
AcDb3dPolylineVertex
 10
0.3398666666666666
 20
0.6565
 30
0.8555000000000001
 70
    32
  0
VERTEX
  5
7807B
330
78077
100
AcDbEntity
  8
0
100
AcDbVertex
100
AcDb3dPolylineVertex
 10
0.3398666666666666
 20
0.5215000000000002
 30
0.8554999999999999
 70
    32
  0
SEQEND
  5
7807C
330
78077
100
AcDbEntity
  8
0
  0
LINE
  5
7807D
330
458D6
100
AcDbEntity
  8
0
100
AcDbLine
 10
0.3398666666666666
 20
0.5215000000000002
 30
0.8554999999999999
 11
0.5505333333333314
 21
0.5215000000000002
 31
0.8554999999999999
  0
POLYLINE
  5
7807E
330
458D6
100
AcDbEntity
  8
0
100
AcDb3dPolyline
 66
     1
 10
0.0
 20
0.0
 30
0.0
 70
     8
  0
VERTEX
  5
7807F
330
7807E
100
AcDbEntity
  8
0
100
AcDbVertex
100
AcDb3dPolylineVertex
 10
0.8231999999999969
 20
0.5215000000000002
 30
0.8554999999999999
 70
    32
  0
VERTEX
  5
78080
330
7807E
100
AcDbEntity
  8
0
100
AcDbVertex
100
AcDb3dPolylineVertex
 10
0.8231999999999969
 20
0.6565
 30
0.8555000000000001
 70
    32
  0
VERTEX
  5
78081
330
7807E
100
AcDbEntity
  8
0
100
AcDbVertex
100
AcDb3dPolylineVertex
 10
0.6125333333333326
 20
0.6565
 30
0.8555000000000001
 70
    32
  0
VERTEX
  5
78082
330
7807E
100
AcDbEntity
  8
0
100
AcDbVertex
100
AcDb3dPolylineVertex
 10
0.6125333333333326
 20
0.5215000000000002
 30
0.8554999999999999
 70
    32
  0
SEQEND
  5
78083
330
7807E
100
AcDbEntity
  8
0
  0
LINE
  5
78084
330
458D6
100
AcDbEntity
  8
0
100
AcDbLine
 10
0.6125333333333326
 20
0.5215000000000002
 30
0.8554999999999999
 11
0.8231999999999969
 21
0.5215000000000002
 31
0.8554999999999999
  0
POLYLINE
  5
78085
330
458D6
100
AcDbEntity
  8
0
100
AcDb3dPolyline
 66
     1
 10
0.0
 20
0.0
 30
0.0
 70
     8
  0
VERTEX
  5
78086
330
78085
100
AcDbEntity
  8
0
100
AcDbVertex
100
AcDb3dPolylineVertex
 10
0.8231999999999969
 20
0.5215000000000002
 30
1.042499999999999
 70
    32
  0
VERTEX
  5
78087
330
78085
100
AcDbEntity
  8
0
100
AcDbVertex
100
AcDb3dPolylineVertex
 10
0.8231999999999969
 20
0.6565
 30
1.042499999999999
 70
    32
  0
VERTEX
  5
78088
330
78085
100
AcDbEntity
  8
0
100
AcDbVertex
100
AcDb3dPolylineVertex
 10
0.6125333333333326
 20
0.6565
 30
1.042499999999999
 70
    32
  0
VERTEX
  5
78089
330
78085
100
AcDbEntity
  8
0
100
AcDbVertex
100
AcDb3dPolylineVertex
 10
0.6125333333333326
 20
0.5215000000000002
 30
1.042499999999999
 70
    32
  0
SEQEND
  5
7808A
330
78085
100
AcDbEntity
  8
0
  0
LINE
  5
7808B
330
458D6
100
AcDbEntity
  8
0
100
AcDbLine
 10
0.7046999999999987
 20
0.9585000000000007
 30
3.166375
 11
0.3876999999999985
 21
0.9585000000000007
 31
3.166375
  0
LINE
  5
7808C
330
458D6
100
AcDbEntity
  8
0
100
AcDbLine
 10
0.3876999999999985
 20
0.9585000000000007
 30
3.366375
 11
0.3876999999999985
 21
0.9585000000000007
 31
3.166375
  0
LINE
  5
7808D
330
458D6
100
AcDbEntity
  8
0
100
AcDbLine
 10
0.7046999999999987
 20
0.9585000000000007
 30
3.366375
 11
0.3876999999999985
 21
0.9585000000000007
 31
3.366375
  0
LINE
  5
7808E
330
458D6
100
AcDbEntity
  8
0
100
AcDbLine
 10
0.7046999999999987
 20
0.9585000000000007
 30
3.366375
 11
0.7046999999999987
 21
0.9585000000000007
 31
3.166375
  0
POINT
  5
7808F
330
458D6
100
AcDbEntity
  8
SNAP_POINTS
100
AcDbPoint
 10
0.7046999999999987
 20
0.9585000000000007
 30
3.166375
  0
LINE
  5
78090
330
458D6
100
AcDbEntity
  8
0
100
AcDbLine
 10
1.065699999999999
 20
0.9585000000000007
 30
3.366375
 11
1.065699999999999
 21
0.9585000000000007
 31
3.166375
  0
LINE
  5
78091
330
458D6
100
AcDbEntity
  8
0
100
AcDbLine
 10
1.065699999999999
 20
0.9585000000000007
 30
3.366375
 11
1.382699999999999
 21
0.9585000000000007
 31
3.366375
  0
LINE
  5
78092
330
458D6
100
AcDbEntity
  8
0
100
AcDbLine
 10
1.065699999999999
 20
0.9585000000000007
 30
3.166375
 11
1.382699999999999
 21
0.9585000000000007
 31
3.166375
  0
LINE
  5
78093
330
458D6
100
AcDbEntity
  8
0
100
AcDbLine
 10
1.382699999999999
 20
0.9585000000000007
 30
3.366375
 11
1.382699999999999
 21
0.9585000000000007
 31
3.166375
  0
POINT
  5
78094
330
458D6
100
AcDbEntity
  8
DIMS-MTG-HOLES
100
AcDbPoint
 10
0.1911999999999991
 20
-1.934499999999999
 30
0.0
  0
POINT
  5
78095
330
458D6
100
AcDbEntity
  8
DIMS-MTG-HOLES
100
AcDbPoint
 10
1.571199999999999
 20
0.4255
 30
0.0
  0
CIRCLE
  5
78096
330
458D6
100
AcDbEntity
  8
0
100
AcDbCircle
 10
0.6678249999999998
 20
-1.587879991879503
 30
4.609375
 40
0.138
  0
CIRCLE
  5
78097
330
458D6
100
AcDbEntity
  8
0
100
AcDbCircle
 10
0.2380749999999996
 20
-1.587879991879503
 30
4.609375
 40
0.138
  0
LWPOLYLINE
  5
78098
330
458D6
100
AcDbEntity
  8
0
100
AcDbPolyline
 90
        6
 70
     0
 43
0.0
 38
4.609375
 10
0.2180749999999994
 20
-1.451336958369917
 10
0.2180749999999994
 20
-1.567879991879503
 10
0.1580749999999994
 20
-1.567879991879503
 10
0.1580749999999994
 20
-1.607879991879503
 10
0.2180749999999994
 20
-1.607879991879503
 10
0.2180749999999994
 20
-1.72442302538909
  0
LWPOLYLINE
  5
78099
330
458D6
100
AcDbEntity
  8
0
100
AcDbPolyline
 90
        6
 70
     0
 43
0.0
 38
4.609375
 10
0.2580749999999994
 20
-1.451336958369917
 10
0.2580749999999994
 20
-1.567879991879503
 10
0.3180749999999994
 20
-1.567879991879503
 10
0.3180749999999994
 20
-1.607879991879503
 10
0.2580749999999994
 20
-1.607879991879503
 10
0.2580749999999994
 20
-1.72442302538909
  0
CIRCLE
  5
7809A
330
458D6
100
AcDbEntity
  8
0
100
AcDbCircle
 10
1.097574999999999
 20
-1.587879991879503
 30
4.609375
 40
0.138
  0
LWPOLYLINE
  5
7809B
330
458D6
100
AcDbEntity
  8
0
100
AcDbPolyline
 90
        6
 70
     0
 43
0.0
 38
4.609375
 10
1.117574999999999
 20
-1.451336958369917
 10
1.117574999999999
 20
-1.567879991879503
 10
1.177574999999999
 20
-1.567879991879503
 10
1.177574999999999
 20
-1.607879991879503
 10
1.117574999999999
 20
-1.607879991879503
 10
1.117574999999999
 20
-1.72442302538909
  0
LWPOLYLINE
  5
7809C
330
458D6
100
AcDbEntity
  8
0
100
AcDbPolyline
 90
        6
 70
     0
 43
0.0
 38
4.609375
 10
0.6878249999999997
 20
-1.451336958369917
 10
0.6878249999999996
 20
-1.567879991879503
 10
0.7478249999999997
 20
-1.567879991879503
 10
0.7478249999999997
 20
-1.607879991879503
 10
0.6878249999999997
 20
-1.607879991879503
 10
0.6878249999999997
 20
-1.72442302538909
  0
LWPOLYLINE
  5
7809D
330
458D6
100
AcDbEntity
  8
0
100
AcDbPolyline
 90
        6
 70
     0
 43
0.0
 38
4.609375
 10
0.6478249999999997
 20
-1.451336958369917
 10
0.6478249999999997
 20
-1.567879991879503
 10
0.5878249999999996
 20
-1.567879991879503
 10
0.5878249999999996
 20
-1.607879991879503
 10
0.6478249999999997
 20
-1.607879991879503
 10
0.6478249999999997
 20
-1.72442302538909
  0
LWPOLYLINE
  5
7809E
330
458D6
100
AcDbEntity
  8
0
100
AcDbPolyline
 90
        6
 70
     0
 43
0.0
 38
4.609375
 10
1.077574999999999
 20
-1.451336958369917
 10
1.077574999999999
 20
-1.567879991879503
 10
1.017574999999999
 20
-1.567879991879503
 10
1.017574999999999
 20
-1.607879991879503
 10
1.077574999999999
 20
-1.607879991879503
 10
1.077574999999999
 20
-1.72442302538909
  0
LWPOLYLINE
  5
7809F
330
458D6
100
AcDbEntity
  8
0
100
AcDbPolyline
 90
        6
 70
     0
 43
0.0
 38
4.609375
 10
1.507324999999999
 20
-1.451336958369917
 10
1.507324999999999
 20
-1.567879991879503
 10
1.447325
 20
-1.567879991879503
 10
1.447325
 20
-1.607879991879503
 10
1.507324999999999
 20
-1.607879991879503
 10
1.507324999999999
 20
-1.72442302538909
  0
CIRCLE
  5
780A0
330
458D6
100
AcDbEntity
  8
0
100
AcDbCircle
 10
1.527325
 20
-1.587879991879503
 30
4.609375
 40
0.138
  0
LWPOLYLINE
  5
780A1
330
458D6
100
AcDbEntity
  8
0
100
AcDbPolyline
 90
        6
 70
     0
 43
0.0
 38
4.609375
 10
1.547325
 20
-1.451336958369917
 10
1.547324999999999
 20
-1.567879991879503
 10
1.607324999999999
 20
-1.567879991879503
 10
1.607324999999999
 20
-1.607879991879503
 10
1.547325
 20
-1.607879991879503
 10
1.547325
 20
-1.72442302538909
  0
CIRCLE
  5
780A2
330
458D6
100
AcDbEntity
  8
0
100
AcDbCircle
 10
0.6678249999999998
 20
0.1549075779401257
 30
4.609375
 40
0.138
  0
LWPOLYLINE
  5
780A3
330
458D6
100
AcDbEntity
  8
0
100
AcDbPolyline
 90
        6
 70
     0
 43
0.0
 38
4.609375
 10
0.2180749999999994
 20
0.291450611449712
 10
0.2180749999999994
 20
0.1749075779401257
 10
0.1580749999999994
 20
0.1749075779401257
 10
0.1580749999999994
 20
0.1349075779401256
 10
0.2180749999999994
 20
0.1349075779401256
 10
0.2180749999999994
 20
0.0183645444305394
  0
LWPOLYLINE
  5
780A4
330
458D6
100
AcDbEntity
  8
0
100
AcDbPolyline
 90
        6
 70
     0
 43
0.0
 38
4.609375
 10
0.2580749999999994
 20
0.291450611449712
 10
0.2580749999999994
 20
0.1749075779401257
 10
0.3180749999999994
 20
0.1749075779401257
 10
0.3180749999999994
 20
0.1349075779401256
 10
0.2580749999999994
 20
0.1349075779401256
 10
0.2580749999999994
 20
0.0183645444305394
  0
LWPOLYLINE
  5
780A5
330
458D6
100
AcDbEntity
  8
0
100
AcDbPolyline
 90
        6
 70
     0
 43
0.0
 38
4.609375
 10
1.117574999999999
 20
0.291450611449712
 10
1.117574999999999
 20
0.1749075779401257
 10
1.177574999999999
 20
0.1749075779401257
 10
1.177574999999999
 20
0.1349075779401256
 10
1.117574999999999
 20
0.1349075779401256
 10
1.117574999999999
 20
0.0183645444305394
  0
CIRCLE
  5
780A6
330
458D6
100
AcDbEntity
  8
0
100
AcDbCircle
 10
1.097574999999999
 20
0.1549075779401257
 30
4.609375
 40
0.138
  0
LWPOLYLINE
  5
780A7
330
458D6
100
AcDbEntity
  8
0
100
AcDbPolyline
 90
        6
 70
     0
 43
0.0
 38
4.609375
 10
0.6478249999999997
 20
0.291450611449712
 10
0.6478249999999997
 20
0.1749075779401257
 10
0.5878249999999996
 20
0.1749075779401257
 10
0.5878249999999996
 20
0.1349075779401256
 10
0.6478249999999997
 20
0.1349075779401256
 10
0.6478249999999997
 20
0.0183645444305394
  0
LWPOLYLINE
  5
780A8
330
458D6
100
AcDbEntity
  8
0
100
AcDbPolyline
 90
        6
 70
     0
 43
0.0
 38
4.609375
 10
0.6878249999999997
 20
0.291450611449712
 10
0.6878249999999996
 20
0.1749075779401257
 10
0.7478249999999997
 20
0.1749075779401257
 10
0.7478249999999997
 20
0.1349075779401256
 10
0.6878249999999997
 20
0.1349075779401256
 10
0.6878249999999997
 20
0.0183645444305394
  0
LWPOLYLINE
  5
780A9
330
458D6
100
AcDbEntity
  8
0
100
AcDbPolyline
 90
        6
 70
     0
 43
0.0
 38
4.609375
 10
1.077574999999999
 20
0.291450611449712
 10
1.077574999999999
 20
0.1749075779401257
 10
1.017574999999999
 20
0.1749075779401257
 10
1.017574999999999
 20
0.1349075779401256
 10
1.077574999999999
 20
0.1349075779401256
 10
1.077574999999999
 20
0.0183645444305394
  0
LWPOLYLINE
  5
780AA
330
458D6
100
AcDbEntity
  8
0
100
AcDbPolyline
 90
        6
 70
     0
 43
0.0
 38
4.609375
 10
1.507324999999999
 20
0.291450611449712
 10
1.507324999999999
 20
0.1749075779401257
 10
1.447325
 20
0.1749075779401257
 10
1.447325
 20
0.1349075779401256
 10
1.507324999999999
 20
0.1349075779401256
 10
1.507324999999999
 20
0.0183645444305394
  0
CIRCLE
  5
780AB
330
458D6
100
AcDbEntity
  8
0
100
AcDbCircle
 10
1.527325
 20
0.1549075779401257
 30
4.609375
 40
0.138
  0
LWPOLYLINE
  5
780AC
330
458D6
100
AcDbEntity
  8
0
100
AcDbPolyline
 90
        6
 70
     0
 43
0.0
 38
4.609375
 10
1.547325
 20
0.291450611449712
 10
1.547324999999999
 20
0.1749075779401257
 10
1.607324999999999
 20
0.1749075779401257
 10
1.607324999999999
 20
0.1349075779401256
 10
1.547325
 20
0.1349075779401256
 10
1.547325
 20
0.0183645444305394
  0
LWPOLYLINE
  5
780AD
330
458D6
100
AcDbEntity
  8
0
100
AcDbPolyline
 90
        6
 70
     0
 43
0.0
 38
3.587375
 10
1.204200000000001
 20
0.8583215956619882
 10
1.204200000000001
 20
0.7600000000000003
 10
1.144200000000001
 20
0.7600000000000003
 10
1.144200000000001
 20
0.7200000000000002
 10
1.204200000000001
 20
0.7200000000000002
 10
1.204200000000001
 20
0.6216784043380037
  0
CIRCLE
  5
780AE
330
458D6
100
AcDbEntity
  8
0
100
AcDbCircle
 10
1.224200000000001
 20
0.7400000000000003
 30
3.587375
 40
0.12
  0
LWPOLYLINE
  5
780AF
330
458D6
100
AcDbEntity
  8
0
100
AcDbPolyline
 90
        6
 70
     0
 43
0.0
 38
3.587375
 10
1.244200000000001
 20
0.8583215956619966
 10
1.244200000000001
 20
0.7600000000000003
 10
1.304200000000001
 20
0.7600000000000003
 10
1.304200000000001
 20
0.7200000000000002
 10
1.244200000000001
 20
0.7200000000000002
 10
1.244200000000001
 20
0.6216784043380122
  0
CIRCLE
  5
780B0
330
458D6
100
AcDbEntity
  8
0
100
AcDbCircle
 10
0.5461999999999968
 20
0.7400000000000003
 30
3.587375
 40
0.12
  0
LWPOLYLINE
  5
780B1
330
458D6
100
AcDbEntity
  8
0
100
AcDbPolyline
 90
        6
 70
     0
 43
0.0
 38
3.587375
 10
0.5261999999999968
 20
0.8583215956619882
 10
0.5261999999999968
 20
0.7600000000000003
 10
0.4661999999999967
 20
0.7600000000000003
 10
0.4661999999999967
 20
0.7200000000000002
 10
0.5261999999999968
 20
0.7200000000000002
 10
0.5261999999999968
 20
0.6216784043380037
  0
LWPOLYLINE
  5
780B2
330
458D6
100
AcDbEntity
  8
0
100
AcDbPolyline
 90
        6
 70
     0
 43
0.0
 38
3.587375
 10
0.5661999999999968
 20
0.8583215956619966
 10
0.5661999999999967
 20
0.7600000000000003
 10
0.6261999999999967
 20
0.7600000000000003
 10
0.6261999999999967
 20
0.7200000000000002
 10
0.5661999999999968
 20
0.7200000000000002
 10
0.5661999999999968
 20
0.6216784043380122
  0
POLYLINE
  5
780B3
330
458D6
100
AcDbEntity
  8
0
100
AcDbPolygonMesh
 66
     1
 10
0.0
 20
0.0
 30
0.0
 70
    16
 71
     6
 72
     3
  0
VERTEX
  5
780B4
330
780B3
100
AcDbEntity
  8
0
100
AcDbVertex
100
AcDbPolygonMeshVertex
 10
1.765199999999999
 20
-1.9685
 30
3.587438673025777
 70
    64
  0
VERTEX
  5
780B5
330
780B3
100
AcDbEntity
  8
0
100
AcDbVertex
100
AcDbPolygonMeshVertex
 10
1.765199999999999
 20
-1.9685
 30
1.318
 70
    64
  0
VERTEX
  5
780B6
330
780B3
100
AcDbEntity
  8
0
100
AcDbVertex
100
AcDbPolygonMeshVertex
 10
1.765199999999999
 20
-1.9685
 30
1.318
 70
    64
  0
VERTEX
  5
780B7
330
780B3
100
AcDbEntity
  8
0
100
AcDbVertex
100
AcDbPolygonMeshVertex
 10
0.0002000000000001
 20
-1.9685
 30
3.587438673025777
 70
    64
  0
VERTEX
  5
780B8
330
780B3
100
AcDbEntity
  8
0
100
AcDbVertex
100
AcDbPolygonMeshVertex
 10
0.0002000000000001
 20
-1.9685
 30
1.318
 70
    64
  0
VERTEX
  5
780B9
330
780B3
100
AcDbEntity
  8
0
100
AcDbVertex
100
AcDbPolygonMeshVertex
 10
0.0002000000000001
 20
-1.9685
 30
1.318
 70
    64
  0
VERTEX
  5
780BA
330
780B3
100
AcDbEntity
  8
0
100
AcDbVertex
100
AcDbPolygonMeshVertex
 10
0.0002000000000001
 20
0.5215050200752609
 30
3.587438673025777
 70
    64
  0
VERTEX
  5
780BB
330
780B3
100
AcDbEntity
  8
0
100
AcDbVertex
100
AcDbPolygonMeshVertex
 10
0.0002000000000001
 20
0.5215050200752609
 30
1.318
 70
    64
  0
VERTEX
  5
780BC
330
780B3
100
AcDbEntity
  8
0
100
AcDbVertex
100
AcDbPolygonMeshVertex
 10
0.0002000000000001
 20
-1.9685
 30
1.318
 70
    64
  0
VERTEX
  5
780BD
330
780B3
100
AcDbEntity
  8
0
100
AcDbVertex
100
AcDbPolygonMeshVertex
 10
1.765199999999999
 20
0.5215050200752609
 30
3.587438673025777
 70
    64
  0
VERTEX
  5
780BE
330
780B3
100
AcDbEntity
  8
0
100
AcDbVertex
100
AcDbPolygonMeshVertex
 10
1.765199999999999
 20
0.5215050200752609
 30
1.318
 70
    64
  0
VERTEX
  5
780BF
330
780B3
100
AcDbEntity
  8
0
100
AcDbVertex
100
AcDbPolygonMeshVertex
 10
1.765199999999999
 20
-1.9685
 30
1.318
 70
    64
  0
VERTEX
  5
780C0
330
780B3
100
AcDbEntity
  8
0
100
AcDbVertex
100
AcDbPolygonMeshVertex
 10
1.765199999999999
 20
0.5215050200752609
 30
3.587438673025777
 70
    64
  0
VERTEX
  5
780C1
330
780B3
100
AcDbEntity
  8
0
100
AcDbVertex
100
AcDbPolygonMeshVertex
 10
1.765199999999999
 20
0.5215050200752609
 30
3.587438673025777
 70
    64
  0
VERTEX
  5
780C2
330
780B3
100
AcDbEntity
  8
0
100
AcDbVertex
100
AcDbPolygonMeshVertex
 10
1.765199999999999
 20
-1.9685
 30
3.587438673025777
 70
    64
  0
VERTEX
  5
780C3
330
780B3
100
AcDbEntity
  8
0
100
AcDbVertex
100
AcDbPolygonMeshVertex
 10
0.0002000000000001
 20
0.5215050200752609
 30
3.587438673025777
 70
    64
  0
VERTEX
  5
780C4
330
780B3
100
AcDbEntity
  8
0
100
AcDbVertex
100
AcDbPolygonMeshVertex
 10
0.0002000000000001
 20
0.5215050200752609
 30
3.587438673025777
 70
    64
  0
VERTEX
  5
780C5
330
780B3
100
AcDbEntity
  8
0
100
AcDbVertex
100
AcDbPolygonMeshVertex
 10
0.0002000000000001
 20
-1.9685
 30
3.587438673025777
 70
    64
  0
SEQEND
  5
780C6
330
780B3
100
AcDbEntity
  8
0
  0
TEXT
  5
780C7
330
458D6
100
AcDbEntity
  8
0
100
AcDbText
 10
0.5259504776606145
 20
-1.820413182322326
 30
4.609375
 40
0.0834654981097751
  1
4
100
AcDbText
  0
DIMENSION
  5
780C8
330
458D6
100
AcDbEntity
  8
AREA1
100
AcDbDimension
  2
*D1
 10
-0.4383353238345364
 20
-2.221499999999999
 30
0.0
 11
-0.438335323834536
 21
-0.6862038425490518
 31
0.0
 70
   160
 71
     5
 42
-1.0
 73
     0
 74
     0
 75
     0
  3
ABECAD_3D
100
AcDbAlignedDimension
 13
0.3326999999999987
 23
0.9585000000000007
 33
2.913375
 14
0.6996999999999997
 24
-2.221499999999999
 34
2.913375
 50
90.0
100
AcDbRotatedDimension
  0
DIMENSION
  5
780D6
330
458D6
100
AcDbEntity
  8
AREA1
100
AcDbDimension
  2
*D2
 10
1.765199999999999
 20
1.238808327056757
 30
0.0
 11
0.8828106536401175
 21
1.512709935249738
 31
0.0
 70
   160
 71
     5
 42
-1.0
 73
     0
 74
     0
 75
     0
  3
ABECAD_3D
100
AcDbAlignedDimension
 13
0.0052
 23
0.7184999999999994
 33
0.8555000000000001
 14
1.765199999999999
 24
0.7184999999999994
 34
0.8555000000000001
100
AcDbRotatedDimension
  0
LWPOLYLINE
  5
780FB
330
458D6
100
AcDbEntity
  8
SCALE
100
AcDbPolyline
 90
        4
 70
     1
 43
0.0
 10
0.2894507325136009
 20
-2.302518795935578
 10
1.425079552055573
 20
-2.302518795935578
 10
1.425079552055573
 20
-3.144128362713593
 10
0.2894507325136009
 20
-3.144128362713593
  0
LINE
  5
780FC
330
458D6
100
AcDbEntity
  8
SCALE
100
AcDbLine
 10
0.3474493967403629
 20
-2.682597114639794
 30
0.0
 11
1.347449396740362
 21
-2.682597114639794
 31
0.0
  0
LINE
  5
780FD
330
458D6
100
AcDbEntity
  8
SCALE
100
AcDbLine
 10
0.3474493967403629
 20
-2.982597114639793
 30
0.0
 11
0.7411493967403629
 21
-2.982597114639793
 31
0.0
  0
LINE
  5
780FE
330
458D6
100
AcDbEntity
  8
SCALE
100
AcDbLine
 10
0.3474493967403629
 20
-2.782597114639794
 30
0.0
 11
0.3474493967403629
 21
-2.582597114639793
 31
0.0
  0
TEXT
  5
780FF
330
458D6
100
AcDbEntity
  8
SCALE
100
AcDbText
 10
0.4034253786708378
 20
-2.934912024876951
 30
0.0
 40
0.0625
  1
[10mm]
100
AcDbText
  0
LINE
  5
78100
330
458D6
100
AcDbEntity
  8
SCALE
100
AcDbLine
 10
0.3474493967403629
 20
-3.082597114639793
 30
0.0
 11
0.3474493967403629
 21
-2.882597114639794
 31
0.0
  0
TEXT
  5
78101
330
458D6
100
AcDbEntity
  8
SCALE
100
AcDbText
 10
0.3489796619868888
 20
-2.40771999336618
 30
0.0
 40
0.0625
  1
SCALE:
100
AcDbText
  0
LINE
  5
78102
330
458D6
100
AcDbEntity
  8
SCALE
100
AcDbLine
 10
0.7411493967403629
 20
-3.082597114639793
 30
0.0
 11
0.7411493967403629
 21
-2.882597114639794
 31
0.0
  0
TEXT
  5
78103
330
458D6
100
AcDbEntity
  8
SCALE
100
AcDbText
 10
0.7107323852242727
 20
-2.613548419266592
 30
0.0
 40
0.0625
  1
1 Inch
100
AcDbText
  0
LINE
  5
78104
330
458D6
100
AcDbEntity
  8
SCALE
100
AcDbLine
 10
1.347449396740362
 20
-2.682597114639794
 30
0.0
 11
1.347449396740362
 21
-2.782597114639794
 31
0.0
  0
LINE
  5
78105
330
458D6
100
AcDbEntity
  8
SCALE
100
AcDbLine
 10
1.347449396740362
 20
-2.782597114639794
 30
0.0
 11
1.347449396740362
 21
-2.582597114639793
 31
0.0
  0
VIEWPORT
  5
5677D
330
458D3
100
AcDbEntity
 67
     1
  8
0
100
AcDbViewport
 10
5.249999639556163
 20
3.999999883606677
 30
0.0
 40
16.38686186943767
 41
8.992999745766947
 68
     1
 69
     1
 12
5.249999639556163
 22
3.999999883606677
 13
0.0
 23
0.0
 14
0.5
 24
0.5
 15
0.5
 25
0.5
 16
0.0
 26
0.0
 36
1.0
 17
0.0
 27
0.0
 37
0.0
 42
50.0
 43
0.0
 44
0.0
 45
8.992999745766947
 50
0.0
 51
0.0
 72
 20000
 90
    32800
  1

281
     0
 71
     1
 74
     0
110
0.0
120
0.0
130
0.0
111
1.0
121
0.0
131
0.0
112
0.0
122
1.0
132
0.0
 79
     0
146
0.0
170
     0
 61
     5
348
781AD
292
     1
282
     1
141
0.0
142
0.0
 63
   250
421
  3355443
  0
VIEWPORT
  5
5677F
330
458D3
100
AcDbEntity
 67
     1
  8
AREA1
100
AcDbViewport
 10
5.24999976158142
 20
3.99999976158142
 30
0.0
 40
8.399999618530271
 41
6.399999618530272
 68
     2
 69
     2
 12
-1.017175299537903
 22
0.747812767808223
 13
0.0
 23
0.0
 14
0.25
 24
0.25
 15
0.25
 25
0.25
 16
0.0
 26
0.0
 36
1.0
 17
0.5634438949382106
 27
-0.8801371703728531
 37
1.68649307151727
 42
50.0
 43
0.0
 44
0.0
 45
4.58291448918931
 50
0.0
 51
0.0
 72
 20000
 90
    32800
  1

281
     1
 71
     1
 74
     0
110
0.0
120
0.0
130
0.0
111
1.0
121
0.0
131
0.0
112
0.0
122
1.0
132
0.0
 79
     1
146
0.0
170
     0
 61
     5
348
781AE
292
     1
282
     1
141
0.0
142
0.0
 63
   250
421
  3355443
  0
ENDSEC
  0
SECTION
  2
OBJECTS
  0
DICTIONARY
  5
458CB
330
0
100
AcDbDictionary
281
     1
  3
ACAD_BACKGROUND
350
781BD
  3
ACAD_COLOR
350
781B8
  3
ACAD_GROUP
350
458CC
  3
ACAD_LAYOUT
350
458FB
  3
ACAD_MATERIAL
350
781A3
  3
ACAD_MLINESTYLE
350
458D9
  3
ACAD_PLOTSETTINGS
350
458FC
  3
ACAD_PLOTSTYLENAME
350
458F9
  3
ACAD_TABLESTYLE
350
781B9
  3
ACAD_VISUALSTYLE
350
781A7
  3
ACADE_WIRETYPE
350
781D2
  3
ACDBVARIABLEDICTIONARY
350
458E1
  3
ASE_INDEX_DICTIONARY
350
781C5
  0
DICTIONARY
  5
781D4
330
458C7
100
AcDbDictionary
280
     1
281
     1
  0
DICTIONARY
  5
781C2
330
781C1
100
AcDbDictionary
280
     1
281
     1
  3
ACADE_WIRETYPE
360
781C3
  0
DICTIONARY
  5
4592C
330
458D6
100
AcDbDictionary
280
     1
281
     1
  3
ACAD_LAYOUTSELFREF
360
78197
  0
DICTIONARY
  5
4592A
330
458D3
100
AcDbDictionary
280
     1
281
     1
  3
ACAD_LAYOUTSELFREF
360
78196
  0
DICTIONARY
  5
781BD
102
{ACAD_REACTORS
330
458CB
102
}
330
458CB
100
AcDbDictionary
281
     1
  0
DICTIONARY
  5
781B8
102
{ACAD_REACTORS
330
458CB
102
}
330
458CB
100
AcDbDictionary
281
     1
  0
DICTIONARY
  5
458CC
102
{ACAD_REACTORS
330
458CB
102
}
330
458CB
100
AcDbDictionary
281
     1
  0
DICTIONARY
  5
458FB
102
{ACAD_REACTORS
330
458CB
102
}
330
458CB
100
AcDbDictionary
281
     1
  3
Layout1
350
458FE
  3
Model
350
458FD
  0
DICTIONARY
  5
781A3
102
{ACAD_REACTORS
330
458CB
102
}
330
458CB
100
AcDbDictionary
281
     1
  3
ByBlock
350
781A5
  3
ByLayer
350
781A4
  3
Global
350
781A6
  0
DICTIONARY
  5
458D9
102
{ACAD_REACTORS
330
458CB
102
}
330
458CB
100
AcDbDictionary
281
     1
  3
STANDARD
350
458DA
  0
DICTIONARY
  5
458FC
102
{ACAD_REACTORS
330
458CB
102
}
330
458CB
100
AcDbDictionary
281
     1
  0
ACDBDICTIONARYWDFLT
  5
458F9
102
{ACAD_REACTORS
330
458CB
102
}
330
458CB
100
AcDbDictionary
281
     1
  3
Normal
350
458FA
100
AcDbDictionaryWithDefault
340
458FA
  0
DICTIONARY
  5
781B9
102
{ACAD_REACTORS
330
458CB
102
}
330
458CB
100
AcDbDictionary
281
     1
  3
Standard
350
781BA
  0
DICTIONARY
  5
781A7
102
{ACAD_REACTORS
330
458CB
102
}
330
458CB
100
AcDbDictionary
281
     1
  3
2dWireframe
350
781AD
  3
3D Hidden
350
781AF
  3
3dWireframe
350
781AE
  3
Basic
350
781AC
  3
Brighten
350
781B3
  3
ColorChange
350
781B7
  3
Conceptual
350
781B0
  3
Dim
350
781B2
  3
Facepattern
350
781B6
  3
Flat
350
781A8
  3
FlatWithEdges
350
781A9
  3
Gouraud
350
781AA
  3
GouraudWithEdges
350
781AB
  3
Linepattern
350
781B5
  3
Realistic
350
781B1
  3
Thicken
350
781B4
  0
DICTIONARY
  5
781D2
102
{ACAD_REACTORS
330
458CB
102
}
330
458CB
100
AcDbDictionary
281
     1
  3
CURRENT_WIRELAY
350
781D3
  0
DICTIONARY
  5
458E1
102
{ACAD_REACTORS
330
458CB
102
}
330
458CB
100
AcDbDictionary
281
     1
  3
CTABLESTYLE
350
781C8
  3
DIMADEC
350
458E2
  0
DICTIONARY
  5
781C5
102
{ACAD_REACTORS
330
458CB
102
}
330
458CB
100
AcDbDictionary
281
     1
  3
ASEBlockHierarchyIndexRecord
350
781C7
1001
DCO15
1040
1582952324.941
  0
XRECORD
  5
781C3
102
{ACAD_REACTORS
330
781C2
102
}
330
781C2
100
AcDbXrecord
280
     1
  1

  2

  3
WIRE
 90
        0
  0
XRECORD
  5
78197
102
{ACAD_REACTORS
330
4592C
102
}
330
4592C
100
AcDbXrecord
280
     1
340
458D6
  0
XRECORD
  5
78196
102
{ACAD_REACTORS
330
4592A
102
}
330
4592A
100
AcDbXrecord
280
     1
340
458D3
  0
LAYOUT
  5
458FE
102
{ACAD_REACTORS
330
458FB
102
}
330
458FB
100
AcDbPlotSettings
  1

  2
none_device
  4
Letter_(8.50_x_11.00_Inches)
  6

 40
6.349999904632568
 41
6.349999904632568
 42
6.350006103515625
 43
6.350006103515625
 44
215.8999938964844
 45
279.3999938964844
 46
0.0
 47
0.0
 48
0.0
 49
0.0
140
0.0
141
0.0
142
1.0
143
1.0
 70
   688
 72
     0
 73
     1
 74
     5
  7
Default R14 pen assignments.ctb
 75
    16
147
1.0
 76
     0
 77
     2
 78
   300
148
0.0
149
0.0
100
AcDbLayout
  1
Layout1
 70
     1
 71
     1
 10
-0.2500002402958907
 20
-0.2499999962453767
 11
10.74999951940821
 21
8.249999763458731
 12
0.0
 22
0.0
 32
0.0
 14
1.049999952316284
 24
0.7999999523162842
 34
0.0
 15
9.449999570846555
 25
7.199999570846556
 35
0.0
146
0.0
 13
0.0
 23
0.0
 33
0.0
 16
1.0
 26
0.0
 36
0.0
 17
0.0
 27
1.0
 37
0.0
 76
     0
330
458D3
331
5677D
  0
LAYOUT
  5
458FD
102
{ACAD_REACTORS
330
458FB
102
}
330
458FB
100
AcDbPlotSettings
  1

  2
HP LaserJet 5000 Series PCL 6
  4

  6

 40
0.0
 41
0.0
 42
0.0
 43
0.0
 44
0.0
 45
0.0
 46
0.0
 47
0.0
 48
0.0
 49
0.0
140
0.0
141
0.0
142
1.0
143
1.0
 70
  1712
 72
     0
 73
     0
 74
     0
  7
Default R14 pen assignments.ctb
 75
     0
147
1.0
 76
     0
 77
     2
 78
   300
148
0.0
149
0.0
100
AcDbLayout
  1
Model
 70
     1
 71
     0
 10
0.0
 20
0.0
 11
12.0
 21
9.0
 12
0.0
 22
0.0
 32
0.0
 14
0.0
 24
0.0
 34
0.0
 15
0.0
 25
0.0
 35
0.0
146
0.0
 13
0.0
 23
0.0
 33
0.0
 16
1.0
 26
0.0
 36
0.0
 17
0.0
 27
1.0
 37
0.0
 76
     0
330
458D6
331
78170
  0
MATERIAL
  5
781A5
102
{ACAD_REACTORS
330
781A3
102
}
330
781A3
100
AcDbMaterial
  1
ByBlock
  0
MATERIAL
  5
781A4
102
{ACAD_REACTORS
330
781A3
102
}
330
781A3
100
AcDbMaterial
  1
ByLayer
  0
MATERIAL
  5
781A6
102
{ACAD_REACTORS
330
781A3
102
}
330
781A3
100
AcDbMaterial
  1
Global
  0
MLINESTYLE
  5
458DA
102
{ACAD_REACTORS
330
458D9
102
}
330
458D9
100
AcDbMlineStyle
  2
STANDARD
 70
     0
  3

 62
   256
 51
90.0
 52
90.0
 71
     2
 49
0.5
 62
   256
  6
BYLAYER
 49
-0.5
 62
   256
  6
BYLAYER
  0
ACDBPLACEHOLDER
  5
458FA
102
{ACAD_REACTORS
330
458F9
102
}
330
458F9
  0
TABLESTYLE
  5
781BA
102
{ACAD_REACTORS
330
781B9
102
}
330
781B9
100
AcDbTableStyle
  3
Standard
 70
     0
 71
     0
 40
0.06
 41
0.06
280
     0
281
     0
  7
STANDARD
140
0.18
170
     2
 62
     0
 63
     7
283
     0
 90
      512
 91
        0
  1

274
    -2
284
     1
 64
     0
275
    -2
285
     1
 65
     0
276
    -2
286
     1
 66
     0
277
    -2
287
     1
 67
     0
278
    -2
288
     1
 68
     0
279
    -2
289
     1
 69
     0
  7
STANDARD
140
0.25
170
     5
 62
     0
 63
     7
283
     0
 90
      512
 91
        0
  1

274
    -2
284
     1
 64
     0
275
    -2
285
     1
 65
     0
276
    -2
286
     1
 66
     0
277
    -2
287
     1
 67
     0
278
    -2
288
     1
 68
     0
279
    -2
289
     1
 69
     0
  7
STANDARD
140
0.18
170
     5
 62
     0
 63
     7
283
     0
 90
      512
 91
        0
  1

274
    -2
284
     1
 64
     0
275
    -2
285
     1
 65
     0
276
    -2
286
     1
 66
     0
277
    -2
287
     1
 67
     0
278
    -2
288
     1
 68
     0
279
    -2
289
     1
 69
     0
  0
VISUALSTYLE
  5
781AD
102
{ACAD_REACTORS
330
781A7
102
}
330
781A7
100
AcDbVisualStyle
  2
2dWireframe
 70
     4
 71
     0
 72
     2
 73
     0
 90
        0
 40
-0.6
 41
-30.0
 62
     5
 63
     7
421
 16777215
 74
     1
 91
        4
 64
     7
 65
   257
 75
     1
175
     1
 42
1.0
 92
        0
 66
   257
 43
1.0
 76
     1
 77
     6
 78
     2
 67
     7
 79
     5
170
     0
171
     0
290
     0
174
     0
 93
        1
 44
0.0
173
     0
291
     0
 45
0.0
  0
VISUALSTYLE
  5
781AF
102
{ACAD_REACTORS
330
781A7
102
}
330
781A7
100
AcDbVisualStyle
  2
3D Hidden
 70
     6
 71
     1
 72
     2
 73
     2
 90
        0
 40
-0.6
 41
-30.0
 62
     5
 63
     7
421
 16777215
 74
     2
 91
        2
 64
     7
 65
   257
 75
     2
175
     1
 42
40.0
 92
        0
 66
   257
 43
1.0
 76
     1
 77
     6
 78
     2
 67
     7
 79
     3
170
     0
171
     0
290
     0
174
     0
 93
        1
 44
0.0
173
     0
291
     0
 45
0.0
  0
VISUALSTYLE
  5
781AE
102
{ACAD_REACTORS
330
781A7
102
}
330
781A7
100
AcDbVisualStyle
  2
3dWireframe
 70
     5
 71
     0
 72
     2
 73
     0
 90
        0
 40
-0.6
 41
-30.0
 62
     5
 63
     7
421
 16777215
 74
     1
 91
        4
 64
     7
 65
   257
 75
     1
175
     1
 42
1.0
 92
        0
 66
   257
 43
1.0
 76
     1
 77
     6
 78
     2
 67
     7
 79
     5
170
     0
171
     0
290
     0
174
     0
 93
        1
 44
0.0
173
     0
291
     0
 45
0.0
  0
VISUALSTYLE
  5
781AC
102
{ACAD_REACTORS
330
781A7
102
}
330
781A7
100
AcDbVisualStyle
  2
Basic
 70
     7
 71
     1
 72
     0
 73
     1
 90
        0
 40
-0.6
 41
-30.0
 62
     5
 63
     7
421
 16777215
 74
     0
 91
        4
 64
     7
 65
   257
 75
     1
175
     1
 42
1.0
 92
        8
 66
     7
 43
1.0
 76
     1
 77
     6
 78
     2
 67
     7
 79
     5
170
     0
171
     0
290
     0
174
     0
 93
        1
 44
0.0
173
     0
291
     1
 45
0.0
  0
VISUALSTYLE
  5
781B3
102
{ACAD_REACTORS
330
781A7
102
}
330
781A7
100
AcDbVisualStyle
  2
Brighten
 70
    12
 71
     2
 72
     2
 73
     0
 90
        0
 40
-0.6
 41
-30.0
 62
     5
 63
     7
421
 16777215
 74
     1
 91
        4
 64
     7
 65
   257
 75
     1
175
     1
 42
1.0
 92
        8
 66
     7
 43
1.0
 76
     1
 77
     6
 78
     2
 67
     7
 79
     5
170
     0
171
     0
290
     0
174
     0
 93
        1
 44
50.0
173
     0
291
     1
 45
0.0
  0
VISUALSTYLE
  5
781B7
102
{ACAD_REACTORS
330
781A7
102
}
330
781A7
100
AcDbVisualStyle
  2
ColorChange
 70
    16
 71
     2
 72
     2
 73
     3
 90
        0
 40
-0.6
 41
-30.0
 62
     5
 63
     8
421
  8421504
 74
     1
 91
        4
 64
     7
 65
   257
 75
     1
175
     1
 42
1.0
 92
        8
 66
     8
424
  8421504
 43
1.0
 76
     1
 77
     6
 78
     2
 67
     7
 79
     5
170
     0
171
     0
290
     0
174
     0
 93
        1
 44
0.0
173
     0
291
     1
 45
0.0
  0
VISUALSTYLE
  5
781B0
102
{ACAD_REACTORS
330
781A7
102
}
330
781A7
100
AcDbVisualStyle
  2
Conceptual
 70
     9
 71
     3
 72
     2
 73
     0
 90
        0
 40
-0.6
 41
-30.0
 62
     5
 63
     7
421
 16777215
 74
     2
 91
        2
 64
     7
 65
   257
 75
     1
175
     1
 42
40.0
 92
        8
 66
     7
 43
1.0
 76
     1
 77
     6
 78
     2
 67
     7
 79
     3
170
     0
171
     0
290
     0
174
     0
 93
        1
 44
0.0
173
     0
291
     0
 45
0.0
  0
VISUALSTYLE
  5
781B2
102
{ACAD_REACTORS
330
781A7
102
}
330
781A7
100
AcDbVisualStyle
  2
Dim
 70
    11
 71
     2
 72
     2
 73
     0
 90
        0
 40
-0.6
 41
-30.0
 62
     5
 63
     7
421
 16777215
 74
     1
 91
        4
 64
     7
 65
   257
 75
     1
175
     1
 42
1.0
 92
        8
 66
     7
 43
1.0
 76
     1
 77
     6
 78
     2
 67
     7
 79
     5
170
     0
171
     0
290
     0
174
     0
 93
        1
 44
-50.0
173
     0
291
     1
 45
0.0
  0
VISUALSTYLE
  5
781B6
102
{ACAD_REACTORS
330
781A7
102
}
330
781A7
100
AcDbVisualStyle
  2
Facepattern
 70
    15
 71
     2
 72
     2
 73
     0
 90
        0
 40
-0.6
 41
-30.0
 62
     5
 63
     7
421
 16777215
 74
     1
 91
        4
 64
     7
 65
   257
 75
     1
175
     1
 42
1.0
 92
        8
 66
     7
 43
1.0
 76
     1
 77
     6
 78
     2
 67
     7
 79
     5
170
     0
171
     0
290
     0
174
     0
 93
        1
 44
0.0
173
     0
291
     1
 45
0.0
  0
VISUALSTYLE
  5
781A8
102
{ACAD_REACTORS
330
781A7
102
}
330
781A7
100
AcDbVisualStyle
  2
Flat
 70
     0
 71
     2
 72
     1
 73
     1
 90
        2
 40
-0.6
 41
30.0
 62
     5
 63
     7
421
 16777215
 74
     0
 91
        4
 64
     7
 65
   257
 75
     1
175
     1
 42
1.0
 92
        8
 66
     7
 43
1.0
 76
     1
 77
     6
 78
     2
 67
     7
 79
     5
170
     0
171
     0
290
     0
174
     0
 93
       13
 44
0.0
173
     0
291
     1
 45
0.0
  0
VISUALSTYLE
  5
781A9
102
{ACAD_REACTORS
330
781A7
102
}
330
781A7
100
AcDbVisualStyle
  2
FlatWithEdges
 70
     1
 71
     2
 72
     1
 73
     1
 90
        2
 40
-0.6
 41
30.0
 62
     5
 63
     7
421
 16777215
 74
     1
 91
        4
 64
     7
 65
   257
 75
     1
175
     1
 42
1.0
 92
        0
 66
   257
 43
1.0
 76
     1
 77
     6
 78
     2
 67
     7
 79
     5
170
     0
171
     0
290
     0
174
     0
 93
       13
 44
0.0
173
     0
291
     1
 45
0.0
  0
VISUALSTYLE
  5
781AA
102
{ACAD_REACTORS
330
781A7
102
}
330
781A7
100
AcDbVisualStyle
  2
Gouraud
 70
     2
 71
     2
 72
     2
 73
     1
 90
        2
 40
-0.6
 41
30.0
 62
     5
 63
     7
421
 16777215
 74
     0
 91
        4
 64
     7
 65
   257
 75
     1
175
     1
 42
1.0
 92
        0
 66
     7
 43
1.0
 76
     1
 77
     6
 78
     2
 67
     7
 79
     5
170
     0
171
     0
290
     0
174
     0
 93
       13
 44
0.0
173
     0
291
     1
 45
0.0
  0
VISUALSTYLE
  5
781AB
102
{ACAD_REACTORS
330
781A7
102
}
330
781A7
100
AcDbVisualStyle
  2
GouraudWithEdges
 70
     3
 71
     2
 72
     2
 73
     1
 90
        2
 40
-0.6
 41
30.0
 62
     5
 63
     7
421
 16777215
 74
     1
 91
        4
 64
     7
 65
   257
 75
     1
175
     1
 42
1.0
 92
        0
 66
   257
 43
1.0
 76
     1
 77
     6
 78
     2
 67
     7
 79
     5
170
     0
171
     0
290
     0
174
     0
 93
       13
 44
0.0
173
     0
291
     1
 45
0.0
  0
VISUALSTYLE
  5
781B5
102
{ACAD_REACTORS
330
781A7
102
}
330
781A7
100
AcDbVisualStyle
  2
Linepattern
 70
    14
 71
     2
 72
     2
 73
     0
 90
        0
 40
-0.6
 41
-30.0
 62
     5
 63
     7
421
 16777215
 74
     1
 91
        4
 64
     7
 65
   257
 75
     7
175
     7
 42
1.0
 92
        8
 66
     7
 43
1.0
 76
     1
 77
     6
 78
     2
 67
     7
 79
     5
170
     0
171
     0
290
     0
174
     0
 93
        1
 44
0.0
173
     0
291
     1
 45
0.0
  0
VISUALSTYLE
  5
781B1
102
{ACAD_REACTORS
330
781A7
102
}
330
781A7
100
AcDbVisualStyle
  2
Realistic
 70
     8
 71
     2
 72
     2
 73
     0
 90
        0
 40
-0.6
 41
-30.0
 62
     5
 63
     7
421
 16777215
 74
     1
 91
        0
 64
     7
 65
   257
 75
     1
175
     1
 42
1.0
 92
        8
 66
     8
424
  7895160
 43
1.0
 76
     1
 77
     6
 78
     2
 67
     7
 79
     5
170
     0
171
     0
290
     0
174
     0
 93
       13
 44
0.0
173
     0
291
     0
 45
0.0
  0
VISUALSTYLE
  5
781B4
102
{ACAD_REACTORS
330
781A7
102
}
330
781A7
100
AcDbVisualStyle
  2
Thicken
 70
    13
 71
     2
 72
     2
 73
     0
 90
        0
 40
-0.6
 41
-30.0
 62
     5
 63
     7
421
 16777215
 74
     1
 91
        4
 64
     7
 65
   257
 75
     1
175
     1
 42
1.0
 92
       12
 66
     7
 43
1.0
 76
     1
 77
     6
 78
     2
 67
     7
 79
     5
170
     0
171
     0
290
     0
174
     0
 93
        1
 44
0.0
173
     0
291
     1
 45
0.0
  0
XRECORD
  5
781D3
102
{ACAD_REACTORS
330
781D2
102
}
330
781D2
100
AcDbXrecord
280
     1
  1
WIRES
  1
WIRES
  1

290
     0
  0
DICTIONARYVAR
  5
781C8
102
{ACAD_REACTORS
330
458E1
102
}
330
458E1
100
DictionaryVariables
280
     0
  1
STANDARD
  0
DICTIONARYVAR
  5
458E2
102
{ACAD_REACTORS
330
458E1
102
}
330
458E1
100
DictionaryVariables
280
     0
  1
0
  0
XRECORD
  5
781C7
102
{ACAD_REACTORS
330
781C5
102
}
330
781C5
100
AcDbXrecord
280
     1
330
77DB0
330
77DB1
330
77DB2
  0
ENDSEC
  0
EOF
