  0
SECTION
  2
HEADER
  9
$ACADVER
  1
AC1021
  9
$ACADMAINTVER
 70
     1
  9
$DWGCODEPAGE
  3
ANSI_1252
  9
$LASTSAVEDBY
  1
gdseiver
  9
$INSBASE
 10
0.0
 20
0.0
 30
0.0
  9
$EXTMIN
 10
-0.0000103494035411
 20
-2.405500000000002
 30
-0.0000000000000003
  9
$EXTMAX
 10
1.765410349403541
 20
0.7744999999999976
 30
3.332000000000001
  9
$LIMMIN
 10
0.0
 20
0.0
  9
$LIMMAX
 10
12.0
 20
9.0
  9
$ORTHOMODE
 70
     0
  9
$REGENMODE
 70
     1
  9
$FILLMODE
 70
     1
  9
$QTEXTMODE
 70
     0
  9
$MIRRTEXT
 70
     1
  9
$LTSCALE
 40
1.0
  9
$ATTMODE
 70
     1
  9
$TEXTSIZE
 40
0.12
  9
$TRACEWID
 40
0.05
  9
$TEXTSTYLE
  7
STANDARD
  9
$CLAYER
  8
0
  9
$CELTYPE
  6
BYLAYER
  9
$CECOLOR
 62
   256
  9
$CELTSCALE
 40
1.0
  9
$DISPSILH
 70
     0
  9
$DIMSCALE
 40
1.0
  9
$DIMASZ
 40
0.18
  9
$DIMEXO
 40
0.0625
  9
$DIMDLI
 40
0.375
  9
$DIMRND
 40
0.0
  9
$DIMDLE
 40
0.0
  9
$DIMEXE
 40
0.18
  9
$DIMTP
 40
0.0
  9
$DIMTM
 40
0.0
  9
$DIMTXT
 40
0.14
  9
$DIMCEN
 40
0.09
  9
$DIMTSZ
 40
0.0
  9
$DIMTOL
 70
     0
  9
$DIMLIM
 70
     0
  9
$DIMTIH
 70
     0
  9
$DIMTOH
 70
     1
  9
$DIMSE1
 70
     0
  9
$DIMSE2
 70
     0
  9
$DIMTAD
 70
     0
  9
$DIMZIN
 70
     4
  9
$DIMBLK
  1

  9
$DIMASO
 70
     1
  9
$DIMSHO
 70
     1
  9
$DIMPOST
  1

  9
$DIMAPOST
  1

  9
$DIMALT
 70
     1
  9
$DIMALTD
 70
     2
  9
$DIMALTF
 40
25.4
  9
$DIMLFAC
 40
1.0
  9
$DIMTOFL
 70
     0
  9
$DIMTVP
 40
0.0
  9
$DIMTIX
 70
     0
  9
$DIMSOXD
 70
     0
  9
$DIMSAH
 70
     0
  9
$DIMBLK1
  1

  9
$DIMBLK2
  1

  9
$DIMSTYLE
  2
ABECAD_3D
  9
$DIMCLRD
 70
     0
  9
$DIMCLRE
 70
     0
  9
$DIMCLRT
 70
     0
  9
$DIMTFAC
 40
1.5
  9
$DIMGAP
 40
0.09
  9
$DIMJUST
 70
     0
  9
$DIMSD1
 70
     0
  9
$DIMSD2
 70
     0
  9
$DIMTOLJ
 70
     1
  9
$DIMTZIN
 70
     4
  9
$DIMALTZ
 70
     4
  9
$DIMALTTZ
 70
     4
  9
$DIMUPT
 70
     1
  9
$DIMDEC
 70
     6
  9
$DIMTDEC
 70
     6
  9
$DIMALTU
 70
     2
  9
$DIMALTTD
 70
     2
  9
$DIMTXSTY
  7
STANDARD
  9
$DIMAUNIT
 70
     0
  9
$DIMADEC
 70
     0
  9
$DIMALTRND
 40
0.0
  9
$DIMAZIN
 70
     0
  9
$DIMDSEP
 70
    46
  9
$DIMATFIT
 70
     2
  9
$DIMFRAC
 70
     2
  9
$DIMLDRBLK
  1

  9
$DIMLUNIT
 70
     5
  9
$DIMLWD
 70
    -2
  9
$DIMLWE
 70
    -2
  9
$DIMTMOVE
 70
     2
  9
$DIMFXL
 40
1.0
  9
$DIMFXLON
 70
     0
  9
$DIMJOGANG
 40
0.7853981633974483
  9
$DIMTFILL
 70
     0
  9
$DIMTFILLCLR
 70
     0
  9
$DIMARCSYM
 70
     0
  9
$DIMLTYPE
  6

  9
$DIMLTEX1
  6

  9
$DIMLTEX2
  6

  9
$LUNITS
 70
     2
  9
$LUPREC
 70
     4
  9
$SKETCHINC
 40
0.1
  9
$FILLETRAD
 40
0.0
  9
$AUNITS
 70
     0
  9
$AUPREC
 70
     0
  9
$MENU
  1
ACAD
  9
$ELEVATION
 40
0.0
  9
$PELEVATION
 40
0.0
  9
$THICKNESS
 40
0.0
  9
$LIMCHECK
 70
     0
  9
$CHAMFERA
 40
0.0
  9
$CHAMFERB
 40
0.0
  9
$CHAMFERC
 40
0.0
  9
$CHAMFERD
 40
0.0
  9
$SKPOLY
 70
     0
  9
$TDCREATE
 40
2451726.480055787
  9
$TDUCREATE
 40
2451726.688389120
  9
$TDUPDATE
 40
2454229.679788681
  9
$TDUUPDATE
 40
2454229.888122014
  9
$TDINDWG
 40
0.7515424884
  9
$TDUSRTIMER
 40
0.7515424884
  9
$USRTIMER
 70
     1
  9
$ANGBASE
 50
0.0
  9
$ANGDIR
 70
     0
  9
$PDMODE
 70
     3
  9
$PDSIZE
 40
0.09
  9
$PLINEWID
 40
0.0
  9
$SPLFRAME
 70
     1
  9
$SPLINETYPE
 70
     6
  9
$SPLINESEGS
 70
     8
  9
$HANDSEED
  5
65D48
  9
$SURFTAB1
 70
     6
  9
$SURFTAB2
 70
     6
  9
$SURFTYPE
 70
     6
  9
$SURFU
 70
     6
  9
$SURFV
 70
     6
  9
$UCSBASE
  2

  9
$UCSNAME
  2

  9
$UCSORG
 10
0.0
 20
0.0
 30
0.0
  9
$UCSXDIR
 10
1.0
 20
0.0
 30
0.0
  9
$UCSYDIR
 10
0.0
 20
1.0
 30
0.0
  9
$UCSORTHOREF
  2

  9
$UCSORTHOVIEW
 70
     1
  9
$UCSORGTOP
 10
0.0
 20
0.0
 30
0.0
  9
$UCSORGBOTTOM
 10
0.0
 20
0.0
 30
0.0
  9
$UCSORGLEFT
 10
0.0
 20
0.0
 30
0.0
  9
$UCSORGRIGHT
 10
0.0
 20
0.0
 30
0.0
  9
$UCSORGFRONT
 10
0.0
 20
0.0
 30
0.0
  9
$UCSORGBACK
 10
0.0
 20
0.0
 30
0.0
  9
$PUCSBASE
  2

  9
$PUCSNAME
  2

  9
$PUCSORG
 10
0.0
 20
0.0
 30
0.0
  9
$PUCSXDIR
 10
1.0
 20
0.0
 30
0.0
  9
$PUCSYDIR
 10
0.0
 20
1.0
 30
0.0
  9
$PUCSORTHOREF
  2

  9
$PUCSORTHOVIEW
 70
     0
  9
$PUCSORGTOP
 10
0.0
 20
0.0
 30
0.0
  9
$PUCSORGBOTTOM
 10
0.0
 20
0.0
 30
0.0
  9
$PUCSORGLEFT
 10
0.0
 20
0.0
 30
0.0
  9
$PUCSORGRIGHT
 10
0.0
 20
0.0
 30
0.0
  9
$PUCSORGFRONT
 10
0.0
 20
0.0
 30
0.0
  9
$PUCSORGBACK
 10
0.0
 20
0.0
 30
0.0
  9
$USERI1
 70
     0
  9
$USERI2
 70
     0
  9
$USERI3
 70
     0
  9
$USERI4
 70
     0
  9
$USERI5
 70
     0
  9
$USERR1
 40
0.0
  9
$USERR2
 40
0.0
  9
$USERR3
 40
0.0
  9
$USERR4
 40
0.0
  9
$USERR5
 40
0.0
  9
$WORLDVIEW
 70
     1
  9
$SHADEDGE
 70
     3
  9
$SHADEDIF
 70
    70
  9
$TILEMODE
 70
     1
  9
$MAXACTVP
 70
    16
  9
$PINSBASE
 10
0.0
 20
0.0
 30
0.0
  9
$PLIMCHECK
 70
     0
  9
$PEXTMIN
 10
1.049999952316284
 20
0.7999999523162842
 30
0.0
  9
$PEXTMAX
 10
9.449999570846555
 20
7.199999570846556
 30
0.0
  9
$PLIMMIN
 10
-0.2500002402958907
 20
-0.2499999962453767
  9
$PLIMMAX
 10
10.74999951940821
 20
8.249999763458731
  9
$UNITMODE
 70
     0
  9
$VISRETAIN
 70
     0
  9
$PLINEGEN
 70
     0
  9
$PSLTSCALE
 70
     1
  9
$TREEDEPTH
 70
  3020
  9
$CMLSTYLE
  2
STANDARD
  9
$CMLJUST
 70
     0
  9
$CMLSCALE
 40
1.0
  9
$PROXYGRAPHICS
 70
     1
  9
$MEASUREMENT
 70
     0
  9
$CELWEIGHT
370
    -1
  9
$ENDCAPS
280
     0
  9
$JOINSTYLE
280
     0
  9
$LWDISPLAY
290
     0
  9
$INSUNITS
 70
     0
  9
$HYPERLINKBASE
  1

  9
$STYLESHEET
  1

  9
$XEDIT
290
     1
  9
$CEPSNTYPE
380
     0
  9
$PSTYLEMODE
290
     1
  9
$FINGERPRINTGUID
  2
{6E0CF4B8-225E-11D4-A150-00A0CC3303EC}
  9
$VERSIONGUID
  2
{1D7C9330-8E3C-4EA4-9194-A39F97F9ADA0}
  9
$EXTNAMES
290
     1
  9
$PSVPSCALE
 40
0.0
  9
$OLESTARTUP
290
     0
  9
$SORTENTS
280
   127
  9
$INDEXCTL
280
     0
  9
$HIDETEXT
280
     0
  9
$XCLIPFRAME
290
     0
  9
$HALOGAP
280
     0
  9
$OBSCOLOR
 70
   257
  9
$OBSLTYPE
280
     0
  9
$INTERSECTIONDISPLAY
280
     0
  9
$INTERSECTIONCOLOR
 70
   257
  9
$DIMASSOC
280
     1
  9
$PROJECTNAME
  1

  9
$CAMERADISPLAY
290
     0
  9
$LENSLENGTH
 40
50.0
  9
$CAMERAHEIGHT
 40
0.0
  9
$STEPSPERSEC
 40
2.0
  9
$STEPSIZE
 40
6.0
  9
$3DDWFPREC
 40
2.0
  9
$PSOLWIDTH
 40
0.25
  9
$PSOLHEIGHT
 40
4.0
  9
$LOFTANG1
 40
1.570796326794896
  9
$LOFTANG2
 40
1.570796326794896
  9
$LOFTMAG1
 40
0.0
  9
$LOFTMAG2
 40
0.0
  9
$LOFTPARAM
 70
     7
  9
$LOFTNORMALS
280
     1
  9
$LATITUDE
 40
37.795
  9
$LONGITUDE
 40
-122.394
  9
$NORTHDIRECTION
 40
0.0
  9
$TIMEZONE
 70
 -8000
  9
$LIGHTGLYPHDISPLAY
280
     1
  9
$TILEMODELIGHTSYNCH
280
     1
  9
$CMATERIAL
347
65CE8
  9
$SOLIDHIST
280
     1
  9
$SHOWHIST
280
     1
  9
$DWFFRAME
280
     2
  9
$DGNFRAME
280
     0
  9
$REALWORLDSCALE
290
     1
  9
$INTERFERECOLOR
 62
     1
  9
$INTERFEREOBJVS
345
65CF5
  9
$INTERFEREVPVS
346
65CF2
  9
$CSHADOW
280
     0
  9
$SHADOWPLANELOCATION
 40
0.0
  0
ENDSEC
  0
SECTION
  2
CLASSES
  0
CLASS
  1
DICTIONARYVAR
  2
AcDbDictionaryVar
  3
ObjectDBX Classes
 90
        0
 91
        2
280
     0
281
     0
  0
CLASS
  1
ACDBDICTIONARYWDFLT
  2
AcDbDictionaryWithDefault
  3
ObjectDBX Classes
 90
        0
 91
        1
280
     0
281
     0
  0
CLASS
  1
MATERIAL
  2
AcDbMaterial
  3
ObjectDBX Classes
 90
     1024
 91
        3
280
     0
281
     0
  0
CLASS
  1
VISUALSTYLE
  2
AcDbVisualStyle
  3
ObjectDBX Classes
 90
     4095
 91
       16
280
     0
281
     0
  0
CLASS
  1
TABLESTYLE
  2
AcDbTableStyle
  3
ObjectDBX Classes
 90
     4095
 91
        1
280
     0
281
     0
  0
CLASS
  1
SOLID_BACKGROUND
  2
AcDbSolidBackground
  3
SCENEOE
 90
     4095
 91
        1
280
     0
281
     0
  0
CLASS
  1
NPOCOLLECTION
  2
AcDbImpNonPersistentObjectsCollection
  3
ObjectDBX Classes
 90
     1153
 91
        1
280
     0
281
     0
  0
CLASS
  1
EXACXREFPANELOBJECT
  2
ExAcXREFPanelObject
  3
EXAC_ESW
 90
     1025
 91
        0
280
     0
281
     0
  0
ENDSEC
  0
SECTION
  2
TABLES
  0
TABLE
  2
VPORT
  5
458C7
102
{ACAD_XDICTIONARY
360
65D22
102
}
330
0
100
AcDbSymbolTable
 70
     1
  0
VPORT
  5
65CB4
330
458C7
100
AcDbSymbolTableRecord
100
AcDbViewportTableRecord
  2
*Active
 70
     0
 10
0.0
 20
0.0
 11
1.0
 21
1.0
 12
0.3194282983421222
 22
0.0645586633085973
 13
0.0
 23
0.0
 14
0.25
 24
0.25
 15
0.25
 25
0.25
 16
0.0
 26
0.0
 36
1.0
 17
0.5634438949382106
 27
-0.8801371703728531
 37
1.68649307151727
 40
3.204386110165176
 41
1.421818181818181
 42
50.0
 43
0.0
 44
0.0
 50
0.0
 51
0.0
 71
     0
 72
 20000
 73
     1
 74
     1
 75
     0
 76
     0
 77
     0
 78
     0
281
     1
 65
     1
110
0.0
120
0.0
130
0.0
111
1.0
121
0.0
131
0.0
112
0.0
122
1.0
132
0.0
 79
     0
146
0.0
348
65CF2
 60
     3
 61
     5
292
     1
282
     1
141
0.0
142
0.0
 63
   250
421
  3355443
  0
ENDTAB
  0
TABLE
  2
LTYPE
  5
458C4
330
0
100
AcDbSymbolTable
 70
     1
  0
LTYPE
  5
458D0
330
458C4
100
AcDbSymbolTableRecord
100
AcDbLinetypeTableRecord
  2
BYBLOCK
 70
     0
  3

 72
    65
 73
     0
 40
0.0
  0
LTYPE
  5
458D1
330
458C4
100
AcDbSymbolTableRecord
100
AcDbLinetypeTableRecord
  2
BYLAYER
 70
     0
  3

 72
    65
 73
     0
 40
0.0
  0
LTYPE
  5
458D2
330
458C4
100
AcDbSymbolTableRecord
100
AcDbLinetypeTableRecord
  2
CONTINUOUS
 70
     0
  3
Solid line
 72
    65
 73
     0
 40
0.0
  0
ENDTAB
  0
TABLE
  2
LAYER
  5
458C1
330
0
100
AcDbSymbolTable
 70
     8
  0
LAYER
  5
458CD
330
458C1
100
AcDbSymbolTableRecord
100
AcDbLayerTableRecord
  2
0
 70
     0
 62
     7
  6
CONTINUOUS
370
    -3
390
458FA
347
65CEA
  0
LAYER
  5
458EA
330
458C1
100
AcDbSymbolTableRecord
100
AcDbLayerTableRecord
  2
DIMS-MTG-HOLES
 70
     0
 62
     1
  6
CONTINUOUS
370
    -3
390
458FA
347
65CEA
  0
LAYER
  5
458EB
330
458C1
100
AcDbSymbolTableRecord
100
AcDbLayerTableRecord
  2
ATTRIBUTES
 70
     0
 62
     7
  6
CONTINUOUS
370
    -3
390
458FA
347
65CEA
  0
LAYER
  5
4593B
330
458C1
100
AcDbSymbolTableRecord
100
AcDbLayerTableRecord
  2
AREA1
 70
     1
 62
     7
  6
CONTINUOUS
290
     0
370
    -3
390
458FA
347
65CEA
  0
LAYER
  5
45940
330
458C1
100
AcDbSymbolTableRecord
100
AcDbLayerTableRecord
  2
Defpoints
 70
     1
 62
     7
  6
CONTINUOUS
290
     0
370
    -3
390
458FA
347
65CEA
  0
LAYER
  5
45954
330
458C1
100
AcDbSymbolTableRecord
100
AcDbLayerTableRecord
  2
SCALE
 70
     1
 62
     7
  6
CONTINUOUS
370
    -3
390
458FA
347
65CEA
  0
LAYER
  5
4D59A
330
458C1
100
AcDbSymbolTableRecord
100
AcDbLayerTableRecord
  2
SNAP_POINTS
 70
     1
 62
     1
  6
CONTINUOUS
370
    -3
390
458FA
347
65CEA
  0
LAYER
  5
65D05
102
{ACAD_XDICTIONARY
360
65D06
102
}
330
458C1
100
AcDbSymbolTableRecord
100
AcDbLayerTableRecord
  2
WIRES
 70
     0
 62
     7
  6
CONTINUOUS
370
    -3
390
458FA
347
65CEA
  0
ENDTAB
  0
TABLE
  2
STYLE
  5
458C2
330
0
100
AcDbSymbolTable
 70
     1
  0
STYLE
  5
458CE
330
458C2
100
AcDbSymbolTableRecord
100
AcDbTextStyleTableRecord
  2
STANDARD
 70
     0
 40
0.0
 41
1.0
 50
0.0
 71
     0
 42
0.12
  3
txt
  4

  0
ENDTAB
  0
TABLE
  2
VIEW
  5
458C5
330
0
100
AcDbSymbolTable
 70
     0
  0
ENDTAB
  0
TABLE
  2
UCS
  5
458C6
330
0
100
AcDbSymbolTable
 70
     0
  0
ENDTAB
  0
TABLE
  2
APPID
  5
458C8
330
0
100
AcDbSymbolTable
 70
     3
  0
APPID
  5
458CF
330
458C8
100
AcDbSymbolTableRecord
100
AcDbRegAppTableRecord
  2
ACAD
 70
     0
  0
APPID
  5
5FD5B
330
458C8
100
AcDbSymbolTableRecord
100
AcDbRegAppTableRecord
  2
AVE_RENDER
 70
     0
  0
APPID
  5
65D0A
330
458C8
100
AcDbSymbolTableRecord
100
AcDbRegAppTableRecord
  2
DCO15
 70
     0
  0
ENDTAB
  0
TABLE
  2
DIMSTYLE
  5
458C9
330
0
100
AcDbSymbolTable
 70
     1
100
AcDbDimStyleTable
 71
     0
  0
DIMSTYLE
105
458F6
102
{ACAD_REACTORS
330
65C0C
330
65C1A
102
}
330
458C9
100
AcDbSymbolTableRecord
100
AcDbDimStyleTableRecord
  2
ABECAD_3D
 70
     0
 43
0.375
 73
     0
 78
     4
140
0.14
146
1.5
170
     1
271
     6
272
     6
276
     2
277
     5
279
     2
284
     4
285
     4
286
     4
288
     1
289
     2
340
458CE
  0
ENDTAB
  0
TABLE
  2
BLOCK_RECORD
  5
458C0
330
0
100
AcDbSymbolTable
 70
     3
  0
BLOCK_RECORD
  5
458D6
102
{ACAD_XDICTIONARY
360
4592C
102
}
330
458C0
100
AcDbSymbolTableRecord
100
AcDbBlockTableRecord
  2
*MODEL_SPACE
340
458FD
 70
     0
280
     1
281
     0
  0
BLOCK_RECORD
  5
458D3
102
{ACAD_XDICTIONARY
360
4592A
102
}
330
458C0
100
AcDbSymbolTableRecord
100
AcDbBlockTableRecord
  2
*PAPER_SPACE
340
458FE
 70
     0
280
     1
281
     0
  0
BLOCK_RECORD
  5
63BAF
330
458C0
100
AcDbSymbolTableRecord
100
AcDbBlockTableRecord
  2
AVE_RENDER
340
0
102
{BLKREFS
331
65931
331
65932
331
65933
102
}
 70
     0
280
     1
281
     0
  0
BLOCK_RECORD
  5
65C0D
330
458C0
100
AcDbSymbolTableRecord
100
AcDbBlockTableRecord
  2
*D1
340
0
 70
     0
280
     1
281
     0
  0
BLOCK_RECORD
  5
65C1B
330
458C0
100
AcDbSymbolTableRecord
100
AcDbBlockTableRecord
  2
*D2
340
0
 70
     0
280
     1
281
     0
  0
ENDTAB
  0
ENDSEC
  0
SECTION
  2
BLOCKS
  0
BLOCK
  5
458DF
330
458D6
100
AcDbEntity
  8
0
100
AcDbBlockBegin
  2
*MODEL_SPACE
 70
     0
 10
0.0
 20
0.0
 30
0.0
  3
*MODEL_SPACE
  1

  0
ENDBLK
  5
458E0
330
458D6
100
AcDbEntity
  8
0
100
AcDbBlockEnd
  0
BLOCK
  5
458DD
330
458D3
100
AcDbEntity
 67
     1
  8
0
100
AcDbBlockBegin
  2
*PAPER_SPACE
 70
     0
 10
0.0
 20
0.0
 30
0.0
  3
*PAPER_SPACE
  1

  0
ENDBLK
  5
458DE
330
458D3
100
AcDbEntity
 67
     1
  8
0
100
AcDbBlockEnd
  0
BLOCK
  5
63BB0
330
63BAF
100
AcDbEntity
  8
0
100
AcDbBlockBegin
  2
AVE_RENDER
 70
     0
 10
0.0
 20
0.0
 30
0.0
  3
AVE_RENDER
  1
AVE_RENDER
  0
ENDBLK
  5
63BB1
330
63BAF
100
AcDbEntity
  8
0
100
AcDbBlockEnd
  0
BLOCK
  5
65C18
330
65C0D
100
AcDbEntity
  8
0
100
AcDbBlockBegin
  2
*D1
 70
     1
 10
0.0
 20
0.0
 30
0.0
  3
*D1
  1

  0
LINE
  5
65C0E
330
65C0D
100
AcDbEntity
  8
AREA1
 62
     0
370
    -2
100
AcDbLine
 10
0.6371999999999997
 20
0.7744999999999976
 30
0.0
 11
-0.8676378616811561
 21
0.774499999999998
 31
0.0
  0
LINE
  5
65C0F
330
65C0D
100
AcDbEntity
  8
AREA1
 62
     0
370
    -2
100
AcDbLine
 10
0.2701999999999987
 20
-2.405500000000002
 30
0.0
 11
-0.867637861681157
 21
-2.405500000000002
 31
0.0
  0
LINE
  5
65C10
330
65C0D
100
AcDbEntity
  8
AREA1
 62
     0
370
    -2
100
AcDbLine
 10
-0.6876378616811564
 20
0.5944999999999979
 30
0.0
 11
-0.6876378616811565
 21
0.018026400204978
 31
0.0
  0
LINE
  5
65C11
330
65C0D
100
AcDbEntity
  8
AREA1
 62
     0
370
    -2
100
AcDbLine
 10
-0.687637861681157
 20
-2.225500000000002
 30
0.0
 11
-0.687637861681157
 21
-1.818640266461688
 31
0.0
  0
MTEXT
  5
65C12
330
65C0D
100
AcDbEntity
  8
AREA1
 62
     0
100
AcDbMText
 10
-0.6876378616811567
 20
-0.9003069331283555
 30
0.0
 40
0.14
 41
0.0
 46
0.0
 71
     5
 72
     1
  1
\A1;3 3/16 [80.77]
 11
0.0000000000000001
 21
1.0
 31
0.0
 73
     1
 44
1.0
  0
SOLID
  5
65C13
330
65C0D
100
AcDbEntity
  8
AREA1
 62
     0
100
AcDbTrace
 10
-0.7176378616811565
 20
0.5944999999999979
 30
0.0
 11
-0.6576378616811564
 21
0.5944999999999979
 31
0.0
 12
-0.6876378616811563
 22
0.7744999999999979
 32
0.0
 13
-0.6876378616811563
 23
0.7744999999999979
 33
0.0
  0
SOLID
  5
65C14
330
65C0D
100
AcDbEntity
  8
AREA1
 62
     0
100
AcDbTrace
 10
-0.717637861681157
 20
-2.225500000000002
 30
0.0
 11
-0.6576378616811569
 21
-2.225500000000002
 31
0.0
 12
-0.6876378616811571
 22
-2.405500000000002
 32
0.0
 13
-0.6876378616811571
 23
-2.405500000000002
 33
0.0
  0
POINT
  5
65C15
330
65C0D
100
AcDbEntity
  8
Defpoints
 62
     0
100
AcDbPoint
 10
0.6996999999999997
 20
0.7744999999999976
 30
1.386
  0
POINT
  5
65C16
330
65C0D
100
AcDbEntity
  8
Defpoints
 62
     0
100
AcDbPoint
 10
0.3326999999999987
 20
-2.405500000000002
 30
1.386
  0
POINT
  5
65C17
330
65C0D
100
AcDbEntity
  8
Defpoints
 62
     0
100
AcDbPoint
 10
-0.6876378616811571
 20
-2.405500000000002
 30
0.0
  0
ENDBLK
  5
65C19
330
65C0D
100
AcDbEntity
  8
0
100
AcDbBlockEnd
  0
BLOCK
  5
65C25
330
65C1B
100
AcDbEntity
  8
0
100
AcDbBlockBegin
  2
*D2
 70
     1
 10
0.0
 20
0.0
 30
0.0
  3
*D2
  1

  0
LINE
  5
65C27
330
65C1B
100
AcDbEntity
  8
AREA1
 62
     0
370
    -2
100
AcDbLine
 10
0.0002000000000001
 20
0.6009999999999996
 30
0.0
 11
0.0002000000000002
 21
1.316314723257205
 31
0.0
  0
LINE
  5
65C28
330
65C1B
100
AcDbEntity
  8
AREA1
 62
     0
370
    -2
100
AcDbLine
 10
1.765199999999999
 20
0.6009999999999996
 30
0.0
 11
1.765199999999999
 21
1.316314723257205
 31
0.0
  0
LINE
  5
65C29
330
65C1B
100
AcDbEntity
  8
AREA1
 62
     0
370
    -2
100
AcDbLine
 10
0.1802000000000001
 20
1.136314723257205
 30
0.0
 11
1.585199999999999
 21
1.136314723257205
 31
0.0
  0
MTEXT
  5
65C2A
330
65C1B
100
AcDbEntity
  8
AREA1
 62
     0
100
AcDbMText
 10
0.8870324168741493
 20
1.474142964507452
 30
0.0
 40
0.14
 41
0.0
 46
0.0
 71
     5
 72
     1
  1
\A1;1 49/64 [44.83]
 73
     1
 44
1.0
  0
SOLID
  5
65C2B
330
65C1B
100
AcDbEntity
  8
AREA1
 62
     0
100
AcDbTrace
 10
0.1802000000000001
 20
1.166314723257205
 30
0.0
 11
0.1802000000000001
 21
1.106314723257205
 31
0.0
 12
0.0002000000000001
 22
1.136314723257205
 32
0.0
 13
0.0002000000000001
 23
1.136314723257205
 33
0.0
  0
SOLID
  5
65C2C
330
65C1B
100
AcDbEntity
  8
AREA1
 62
     0
100
AcDbTrace
 10
1.585199999999999
 20
1.166314723257205
 30
0.0
 11
1.585199999999999
 21
1.106314723257205
 31
0.0
 12
1.765199999999999
 22
1.136314723257205
 32
0.0
 13
1.765199999999999
 23
1.136314723257205
 33
0.0
  0
POINT
  5
65C2D
330
65C1B
100
AcDbEntity
  8
Defpoints
 62
     0
100
AcDbPoint
 10
0.0002000000000001
 20
0.5384999999999996
 30
2.06
  0
POINT
  5
65C2E
330
65C1B
100
AcDbEntity
  8
Defpoints
 62
     0
100
AcDbPoint
 10
1.765199999999999
 20
0.5384999999999996
 30
2.06
  0
POINT
  5
65C2F
330
65C1B
100
AcDbEntity
  8
Defpoints
 62
     0
100
AcDbPoint
 10
1.765199999999999
 20
1.136314723257205
 30
0.0
  0
ENDBLK
  5
65C26
330
65C1B
100
AcDbEntity
  8
0
100
AcDbBlockEnd
  0
ENDSEC
  0
SECTION
  2
ENTITIES
  0
ATTDEF
  5
65834
330
458D6
100
AcDbEntity
  8
ATTRIBUTES
100
AcDbText
 10
0.1000944536306815
 20
-0.1342429569443211
 30
0.0
 40
0.0805203758744914
  1
SPRECHER+SCHUH
100
AcDbAttributeDefinition
  3
MANUFACTURER NAME?
  2
AC_VND_LABEL
 70
     1
280
     0
  0
ATTDEF
  5
65835
330
458D6
100
AcDbEntity
  8
ATTRIBUTES
100
AcDbText
 10
0.1000944536306815
 20
-0.3019937400161781
 30
0.0
 40
0.0805203758744914
  1
CA7-09U, -12U, -16U, -23U*00
100
AcDbAttributeDefinition
  3
CATALOG NUMBER?
  2
AC_PART_NO
 70
     1
280
     0
  0
ATTDEF
  5
65836
330
458D6
100
AcDbEntity
  8
ATTRIBUTES
100
AcDbText
 10
0.1000944536306815
 20
-0.4697445230880351
 30
0.0
 40
0.0805203758744914
  1
IEC AC CONTACTOR; 9A-23A; 4 Pole
100
AcDbAttributeDefinition
  3
PART DESCRIPTION?
  2
AC_DESCRIPTION
 70
     1
280
     0
  0
ATTDEF
  5
65837
330
458D6
100
AcDbEntity
  8
ATTRIBUTES
100
AcDbText
 10
0.1000944536306815
 20
-0.6374953061598921
 30
0.0
 40
0.0805203758744914
  1

100
AcDbAttributeDefinition
  3
DEVICE ID?
  2
DEVICE_ID
 70
     1
280
     0
  0
ATTDEF
  5
65838
330
458D6
100
AcDbEntity
  8
ATTRIBUTES
100
AcDbText
 10
0.1000944536306815
 20
-0.805246089231749
 30
0.0
 40
0.0805203758744914
  1

100
AcDbAttributeDefinition
  3
CUSTOMER PART NUMBER?
  2
AC_CPART_NO
 70
     1
280
     0
  0
ATTDEF
  5
65839
330
458D6
100
AcDbEntity
  8
ATTRIBUTES
100
AcDbText
 10
0.1000944536306815
 20
-0.9729968723036069
 30
0.0
 40
0.0805203758744914
  1

100
AcDbAttributeDefinition
  3
CUSTOMER NOTE?
  2
AC_NOTE
 70
     1
280
     0
  0
ATTDEF
  5
6583A
330
458D6
100
AcDbEntity
  8
ATTRIBUTES
100
AcDbText
 10
0.1000944536306815
 20
-1.140747655375463
 30
0.0
 40
0.0805203758744914
  1

100
AcDbAttributeDefinition
  3
FASTENER DATA?
  2
FASTENER
 70
     1
280
     0
  0
ATTDEF
  5
6583B
330
458D6
100
AcDbEntity
  8
ATTRIBUTES
100
AcDbText
 10
0.1000944536306815
 20
-1.30849843844732
 30
0.0
 40
0.0805203758744914
  1
INCH
100
AcDbAttributeDefinition
  3
UNIT OF SCALE?
  2
AC_SCALE_UNIT
 70
     1
280
     0
  0
ATTDEF
  5
6583C
330
458D6
100
AcDbEntity
  8
ATTRIBUTES
100
AcDbText
 10
0.1000944536306815
 20
-1.476249221519177
 30
0.0
 40
0.0805203758744914
  1
0
100
AcDbAttributeDefinition
  3
VIEW CODE?
  2
AC_VIEW_CODE
 70
     1
280
     0
  0
POLYLINE
  5
6583D
330
458D6
100
AcDbEntity
  8
0
100
AcDbPolygonMesh
 66
     1
 10
0.0
 20
0.0
 30
0.0
 70
    16
 71
     6
 72
     3
  0
VERTEX
  5
6583E
330
6583D
100
AcDbEntity
  8
0
100
AcDbVertex
100
AcDbPolygonMeshVertex
 10
1.765199999999999
 20
0.2384999999999997
 30
0.316
 70
    64
  0
VERTEX
  5
6583F
330
6583D
100
AcDbEntity
  8
0
100
AcDbVertex
100
AcDbPolygonMeshVertex
 10
1.765199999999999
 20
0.2384999999999997
 30
0.0
 70
    64
  0
VERTEX
  5
65840
330
6583D
100
AcDbEntity
  8
0
100
AcDbVertex
100
AcDbPolygonMeshVertex
 10
1.765199999999999
 20
0.2384999999999997
 30
0.0
 70
    64
  0
VERTEX
  5
65841
330
6583D
100
AcDbEntity
  8
0
100
AcDbVertex
100
AcDbPolygonMeshVertex
 10
1.374199999999999
 20
0.2384999999999997
 30
0.316
 70
    64
  0
VERTEX
  5
65842
330
6583D
100
AcDbEntity
  8
0
100
AcDbVertex
100
AcDbPolygonMeshVertex
 10
1.374199999999999
 20
0.2384999999999997
 30
0.0
 70
    64
  0
VERTEX
  5
65843
330
6583D
100
AcDbEntity
  8
0
100
AcDbVertex
100
AcDbPolygonMeshVertex
 10
1.374199999999999
 20
0.2384999999999997
 30
0.0
 70
    64
  0
VERTEX
  5
65844
330
6583D
100
AcDbEntity
  8
0
100
AcDbVertex
100
AcDbPolygonMeshVertex
 10
1.374199999999999
 20
0.5745
 30
0.316
 70
    64
  0
VERTEX
  5
65845
330
6583D
100
AcDbEntity
  8
0
100
AcDbVertex
100
AcDbPolygonMeshVertex
 10
1.374199999999999
 20
0.5745
 30
0.0
 70
    64
  0
VERTEX
  5
65846
330
6583D
100
AcDbEntity
  8
0
100
AcDbVertex
100
AcDbPolygonMeshVertex
 10
1.374199999999999
 20
0.2384999999999997
 30
0.0
 70
    64
  0
VERTEX
  5
65847
330
6583D
100
AcDbEntity
  8
0
100
AcDbVertex
100
AcDbPolygonMeshVertex
 10
1.765199999999999
 20
0.5745
 30
0.316
 70
    64
  0
VERTEX
  5
65848
330
6583D
100
AcDbEntity
  8
0
100
AcDbVertex
100
AcDbPolygonMeshVertex
 10
1.765199999999999
 20
0.5745
 30
0.0
 70
    64
  0
VERTEX
  5
65849
330
6583D
100
AcDbEntity
  8
0
100
AcDbVertex
100
AcDbPolygonMeshVertex
 10
1.765199999999999
 20
0.2384999999999997
 30
0.0
 70
    64
  0
VERTEX
  5
6584A
330
6583D
100
AcDbEntity
  8
0
100
AcDbVertex
100
AcDbPolygonMeshVertex
 10
1.765199999999999
 20
0.5745
 30
0.316
 70
    64
  0
VERTEX
  5
6584B
330
6583D
100
AcDbEntity
  8
0
100
AcDbVertex
100
AcDbPolygonMeshVertex
 10
1.765199999999999
 20
0.5745
 30
0.316
 70
    64
  0
VERTEX
  5
6584C
330
6583D
100
AcDbEntity
  8
0
100
AcDbVertex
100
AcDbPolygonMeshVertex
 10
1.765199999999999
 20
0.2384999999999997
 30
0.316
 70
    64
  0
VERTEX
  5
6584D
330
6583D
100
AcDbEntity
  8
0
100
AcDbVertex
100
AcDbPolygonMeshVertex
 10
1.374199999999999
 20
0.5745
 30
0.316
 70
    64
  0
VERTEX
  5
6584E
330
6583D
100
AcDbEntity
  8
0
100
AcDbVertex
100
AcDbPolygonMeshVertex
 10
1.374199999999999
 20
0.5745
 30
0.316
 70
    64
  0
VERTEX
  5
6584F
330
6583D
100
AcDbEntity
  8
0
100
AcDbVertex
100
AcDbPolygonMeshVertex
 10
1.374199999999999
 20
0.2384999999999997
 30
0.316
 70
    64
  0
SEQEND
  5
65850
330
6583D
100
AcDbEntity
  8
0
  0
POLYLINE
  5
65851
330
458D6
100
AcDbEntity
  8
0
100
AcDbPolygonMesh
 66
     1
 10
0.0
 20
0.0
 30
0.0
 70
    16
 71
     6
 72
     3
  0
VERTEX
  5
65852
330
65851
100
AcDbEntity
  8
0
100
AcDbVertex
100
AcDbPolygonMeshVertex
 10
0.3962
 20
-1.685499999999999
 30
1.318
 70
    64
  0
VERTEX
  5
65853
330
65851
100
AcDbEntity
  8
0
100
AcDbVertex
100
AcDbPolygonMeshVertex
 10
0.3962
 20
-1.685499999999999
 30
0.187
 70
    64
  0
VERTEX
  5
65854
330
65851
100
AcDbEntity
  8
0
100
AcDbVertex
100
AcDbPolygonMeshVertex
 10
0.3962
 20
-1.685499999999999
 30
0.187
 70
    64
  0
VERTEX
  5
65855
330
65851
100
AcDbEntity
  8
0
100
AcDbVertex
100
AcDbPolygonMeshVertex
 10
0.0052
 20
-1.685499999999999
 30
1.318
 70
    64
  0
VERTEX
  5
65856
330
65851
100
AcDbEntity
  8
0
100
AcDbVertex
100
AcDbPolygonMeshVertex
 10
0.0052
 20
-1.685499999999999
 30
0.187
 70
    64
  0
VERTEX
  5
65857
330
65851
100
AcDbEntity
  8
0
100
AcDbVertex
100
AcDbPolygonMeshVertex
 10
0.0052
 20
-1.685499999999999
 30
0.187
 70
    64
  0
VERTEX
  5
65858
330
65851
100
AcDbEntity
  8
0
100
AcDbVertex
100
AcDbPolygonMeshVertex
 10
0.0052
 20
0.5215000000000001
 30
1.318
 70
    64
  0
VERTEX
  5
65859
330
65851
100
AcDbEntity
  8
0
100
AcDbVertex
100
AcDbPolygonMeshVertex
 10
0.0052
 20
0.5215000000000001
 30
0.187
 70
    64
  0
VERTEX
  5
6585A
330
65851
100
AcDbEntity
  8
0
100
AcDbVertex
100
AcDbPolygonMeshVertex
 10
0.0052
 20
-1.685499999999999
 30
0.187
 70
    64
  0
VERTEX
  5
6585B
330
65851
100
AcDbEntity
  8
0
100
AcDbVertex
100
AcDbPolygonMeshVertex
 10
0.3962
 20
0.5215000000000001
 30
1.318
 70
    64
  0
VERTEX
  5
6585C
330
65851
100
AcDbEntity
  8
0
100
AcDbVertex
100
AcDbPolygonMeshVertex
 10
0.3962
 20
0.5215000000000001
 30
0.187
 70
    64
  0
VERTEX
  5
6585D
330
65851
100
AcDbEntity
  8
0
100
AcDbVertex
100
AcDbPolygonMeshVertex
 10
0.3962
 20
-1.685499999999999
 30
0.187
 70
    64
  0
VERTEX
  5
6585E
330
65851
100
AcDbEntity
  8
0
100
AcDbVertex
100
AcDbPolygonMeshVertex
 10
0.3962
 20
0.5215000000000001
 30
1.318
 70
    64
  0
VERTEX
  5
6585F
330
65851
100
AcDbEntity
  8
0
100
AcDbVertex
100
AcDbPolygonMeshVertex
 10
0.3962
 20
0.5215000000000001
 30
1.318
 70
    64
  0
VERTEX
  5
65860
330
65851
100
AcDbEntity
  8
0
100
AcDbVertex
100
AcDbPolygonMeshVertex
 10
0.3962
 20
-1.685499999999999
 30
1.318
 70
    64
  0
VERTEX
  5
65861
330
65851
100
AcDbEntity
  8
0
100
AcDbVertex
100
AcDbPolygonMeshVertex
 10
0.0052
 20
0.5215000000000001
 30
1.318
 70
    64
  0
VERTEX
  5
65862
330
65851
100
AcDbEntity
  8
0
100
AcDbVertex
100
AcDbPolygonMeshVertex
 10
0.0052
 20
0.5215000000000001
 30
1.318
 70
    64
  0
VERTEX
  5
65863
330
65851
100
AcDbEntity
  8
0
100
AcDbVertex
100
AcDbPolygonMeshVertex
 10
0.0052
 20
-1.685499999999999
 30
1.318
 70
    64
  0
SEQEND
  5
65864
330
65851
100
AcDbEntity
  8
0
  0
POLYLINE
  5
65865
330
458D6
100
AcDbEntity
  8
0
100
AcDbPolygonMesh
 66
     1
 10
0.0
 20
0.0
 30
0.0
 70
    16
 71
     6
 72
     3
  0
VERTEX
  5
65866
330
65865
100
AcDbEntity
  8
0
100
AcDbVertex
100
AcDbPolygonMeshVertex
 10
1.765199999999999
 20
-1.9685
 30
1.318
 70
    64
  0
VERTEX
  5
65867
330
65865
100
AcDbEntity
  8
0
100
AcDbVertex
100
AcDbPolygonMeshVertex
 10
1.765199999999999
 20
-1.9685
 30
0.187
 70
    64
  0
VERTEX
  5
65868
330
65865
100
AcDbEntity
  8
0
100
AcDbVertex
100
AcDbPolygonMeshVertex
 10
1.765199999999999
 20
-1.9685
 30
0.187
 70
    64
  0
VERTEX
  5
65869
330
65865
100
AcDbEntity
  8
0
100
AcDbVertex
100
AcDbPolygonMeshVertex
 10
1.374199999999999
 20
-1.9685
 30
1.318
 70
    64
  0
VERTEX
  5
6586A
330
65865
100
AcDbEntity
  8
0
100
AcDbVertex
100
AcDbPolygonMeshVertex
 10
1.374199999999999
 20
-1.9685
 30
0.187
 70
    64
  0
VERTEX
  5
6586B
330
65865
100
AcDbEntity
  8
0
100
AcDbVertex
100
AcDbPolygonMeshVertex
 10
1.374199999999999
 20
-1.9685
 30
0.187
 70
    64
  0
VERTEX
  5
6586C
330
65865
100
AcDbEntity
  8
0
100
AcDbVertex
100
AcDbPolygonMeshVertex
 10
1.374199999999999
 20
0.2384999999999997
 30
1.318
 70
    64
  0
VERTEX
  5
6586D
330
65865
100
AcDbEntity
  8
0
100
AcDbVertex
100
AcDbPolygonMeshVertex
 10
1.374199999999999
 20
0.2384999999999997
 30
0.187
 70
    64
  0
VERTEX
  5
6586E
330
65865
100
AcDbEntity
  8
0
100
AcDbVertex
100
AcDbPolygonMeshVertex
 10
1.374199999999999
 20
-1.9685
 30
0.187
 70
    64
  0
VERTEX
  5
6586F
330
65865
100
AcDbEntity
  8
0
100
AcDbVertex
100
AcDbPolygonMeshVertex
 10
1.765199999999999
 20
0.2384999999999997
 30
1.318
 70
    64
  0
VERTEX
  5
65870
330
65865
100
AcDbEntity
  8
0
100
AcDbVertex
100
AcDbPolygonMeshVertex
 10
1.765199999999999
 20
0.2384999999999997
 30
0.187
 70
    64
  0
VERTEX
  5
65871
330
65865
100
AcDbEntity
  8
0
100
AcDbVertex
100
AcDbPolygonMeshVertex
 10
1.765199999999999
 20
-1.9685
 30
0.187
 70
    64
  0
VERTEX
  5
65872
330
65865
100
AcDbEntity
  8
0
100
AcDbVertex
100
AcDbPolygonMeshVertex
 10
1.765199999999999
 20
0.2384999999999997
 30
1.318
 70
    64
  0
VERTEX
  5
65873
330
65865
100
AcDbEntity
  8
0
100
AcDbVertex
100
AcDbPolygonMeshVertex
 10
1.765199999999999
 20
0.2384999999999997
 30
1.318
 70
    64
  0
VERTEX
  5
65874
330
65865
100
AcDbEntity
  8
0
100
AcDbVertex
100
AcDbPolygonMeshVertex
 10
1.765199999999999
 20
-1.9685
 30
1.318
 70
    64
  0
VERTEX
  5
65875
330
65865
100
AcDbEntity
  8
0
100
AcDbVertex
100
AcDbPolygonMeshVertex
 10
1.374199999999999
 20
0.2384999999999997
 30
1.318
 70
    64
  0
VERTEX
  5
65876
330
65865
100
AcDbEntity
  8
0
100
AcDbVertex
100
AcDbPolygonMeshVertex
 10
1.374199999999999
 20
0.2384999999999997
 30
1.318
 70
    64
  0
VERTEX
  5
65877
330
65865
100
AcDbEntity
  8
0
100
AcDbVertex
100
AcDbPolygonMeshVertex
 10
1.374199999999999
 20
-1.9685
 30
1.318
 70
    64
  0
SEQEND
  5
65878
330
65865
100
AcDbEntity
  8
0
  0
POLYLINE
  5
65879
330
458D6
100
AcDbEntity
  8
0
100
AcDbPolygonMesh
 66
     1
 10
0.0
 20
0.0
 30
0.0
 70
    16
 71
     6
 72
     3
  0
VERTEX
  5
6587A
330
65879
100
AcDbEntity
  8
0
100
AcDbVertex
100
AcDbPolygonMeshVertex
 10
1.374199999999999
 20
-1.9685
 30
1.318
 70
    64
  0
VERTEX
  5
6587B
330
65879
100
AcDbEntity
  8
0
100
AcDbVertex
100
AcDbPolygonMeshVertex
 10
1.374199999999999
 20
-1.9685
 30
0.187
 70
    64
  0
VERTEX
  5
6587C
330
65879
100
AcDbEntity
  8
0
100
AcDbVertex
100
AcDbPolygonMeshVertex
 10
1.374199999999999
 20
-1.9685
 30
0.187
 70
    64
  0
VERTEX
  5
6587D
330
65879
100
AcDbEntity
  8
0
100
AcDbVertex
100
AcDbPolygonMeshVertex
 10
0.3962
 20
-1.9685
 30
1.318
 70
    64
  0
VERTEX
  5
6587E
330
65879
100
AcDbEntity
  8
0
100
AcDbVertex
100
AcDbPolygonMeshVertex
 10
0.3962
 20
-1.9685
 30
0.187
 70
    64
  0
VERTEX
  5
6587F
330
65879
100
AcDbEntity
  8
0
100
AcDbVertex
100
AcDbPolygonMeshVertex
 10
0.3962
 20
-1.9685
 30
0.187
 70
    64
  0
VERTEX
  5
65880
330
65879
100
AcDbEntity
  8
0
100
AcDbVertex
100
AcDbPolygonMeshVertex
 10
0.3962
 20
0.5215000000000001
 30
1.318
 70
    64
  0
VERTEX
  5
65881
330
65879
100
AcDbEntity
  8
0
100
AcDbVertex
100
AcDbPolygonMeshVertex
 10
0.3962
 20
0.5215000000000001
 30
0.187
 70
    64
  0
VERTEX
  5
65882
330
65879
100
AcDbEntity
  8
0
100
AcDbVertex
100
AcDbPolygonMeshVertex
 10
0.3962
 20
-1.9685
 30
0.187
 70
    64
  0
VERTEX
  5
65883
330
65879
100
AcDbEntity
  8
0
100
AcDbVertex
100
AcDbPolygonMeshVertex
 10
1.374199999999999
 20
0.5215000000000001
 30
1.318
 70
    64
  0
VERTEX
  5
65884
330
65879
100
AcDbEntity
  8
0
100
AcDbVertex
100
AcDbPolygonMeshVertex
 10
1.374199999999999
 20
0.5215000000000001
 30
0.187
 70
    64
  0
VERTEX
  5
65885
330
65879
100
AcDbEntity
  8
0
100
AcDbVertex
100
AcDbPolygonMeshVertex
 10
1.374199999999999
 20
-1.9685
 30
0.187
 70
    64
  0
VERTEX
  5
65886
330
65879
100
AcDbEntity
  8
0
100
AcDbVertex
100
AcDbPolygonMeshVertex
 10
1.374199999999999
 20
0.5215000000000001
 30
1.318
 70
    64
  0
VERTEX
  5
65887
330
65879
100
AcDbEntity
  8
0
100
AcDbVertex
100
AcDbPolygonMeshVertex
 10
1.374199999999999
 20
0.5215000000000001
 30
1.318
 70
    64
  0
VERTEX
  5
65888
330
65879
100
AcDbEntity
  8
0
100
AcDbVertex
100
AcDbPolygonMeshVertex
 10
1.374199999999999
 20
-1.9685
 30
1.318
 70
    64
  0
VERTEX
  5
65889
330
65879
100
AcDbEntity
  8
0
100
AcDbVertex
100
AcDbPolygonMeshVertex
 10
0.3962
 20
0.5215000000000001
 30
1.318
 70
    64
  0
VERTEX
  5
6588A
330
65879
100
AcDbEntity
  8
0
100
AcDbVertex
100
AcDbPolygonMeshVertex
 10
0.3962
 20
0.5215000000000001
 30
1.318
 70
    64
  0
VERTEX
  5
6588B
330
65879
100
AcDbEntity
  8
0
100
AcDbVertex
100
AcDbPolygonMeshVertex
 10
0.3962
 20
-1.9685
 30
1.318
 70
    64
  0
SEQEND
  5
6588C
330
65879
100
AcDbEntity
  8
0
  0
POLYLINE
  5
6588D
330
458D6
100
AcDbEntity
  8
0
100
AcDbPolygonMesh
 66
     1
 10
0.0
 20
0.0
 30
0.0
 70
    16
 71
     6
 72
     3
  0
VERTEX
  5
6588E
330
6588D
100
AcDbEntity
  8
0
100
AcDbVertex
100
AcDbPolygonMeshVertex
 10
1.070699999999999
 20
0.7744999999999976
 30
2.06
 70
    64
  0
VERTEX
  5
6588F
330
6588D
100
AcDbEntity
  8
0
100
AcDbVertex
100
AcDbPolygonMeshVertex
 10
1.070699999999999
 20
0.7744999999999976
 30
1.386
 70
    64
  0
VERTEX
  5
65890
330
6588D
100
AcDbEntity
  8
0
100
AcDbVertex
100
AcDbPolygonMeshVertex
 10
1.070699999999999
 20
0.7744999999999976
 30
1.386
 70
    64
  0
VERTEX
  5
65891
330
6588D
100
AcDbEntity
  8
0
100
AcDbVertex
100
AcDbPolygonMeshVertex
 10
0.6996999999999997
 20
0.7744999999999976
 30
2.06
 70
    64
  0
VERTEX
  5
65892
330
6588D
100
AcDbEntity
  8
0
100
AcDbVertex
100
AcDbPolygonMeshVertex
 10
0.6996999999999997
 20
0.7744999999999976
 30
1.386
 70
    64
  0
VERTEX
  5
65893
330
6588D
100
AcDbEntity
  8
0
100
AcDbVertex
100
AcDbPolygonMeshVertex
 10
0.6996999999999997
 20
0.7744999999999976
 30
1.386
 70
    64
  0
VERTEX
  5
65894
330
6588D
100
AcDbEntity
  8
0
100
AcDbVertex
100
AcDbPolygonMeshVertex
 10
0.6996999999999997
 20
0.5214999999999974
 30
2.06
 70
    64
  0
VERTEX
  5
65895
330
6588D
100
AcDbEntity
  8
0
100
AcDbVertex
100
AcDbPolygonMeshVertex
 10
0.6996999999999997
 20
0.5214999999999974
 30
1.386
 70
    64
  0
VERTEX
  5
65896
330
6588D
100
AcDbEntity
  8
0
100
AcDbVertex
100
AcDbPolygonMeshVertex
 10
0.6996999999999997
 20
0.7744999999999976
 30
1.386
 70
    64
  0
VERTEX
  5
65897
330
6588D
100
AcDbEntity
  8
0
100
AcDbVertex
100
AcDbPolygonMeshVertex
 10
1.070699999999999
 20
0.5214999999999974
 30
2.06
 70
    64
  0
VERTEX
  5
65898
330
6588D
100
AcDbEntity
  8
0
100
AcDbVertex
100
AcDbPolygonMeshVertex
 10
1.070699999999999
 20
0.5214999999999974
 30
1.386
 70
    64
  0
VERTEX
  5
65899
330
6588D
100
AcDbEntity
  8
0
100
AcDbVertex
100
AcDbPolygonMeshVertex
 10
1.070699999999999
 20
0.7744999999999976
 30
1.386
 70
    64
  0
VERTEX
  5
6589A
330
6588D
100
AcDbEntity
  8
0
100
AcDbVertex
100
AcDbPolygonMeshVertex
 10
1.070699999999999
 20
0.5214999999999974
 30
2.06
 70
    64
  0
VERTEX
  5
6589B
330
6588D
100
AcDbEntity
  8
0
100
AcDbVertex
100
AcDbPolygonMeshVertex
 10
1.070699999999999
 20
0.5214999999999974
 30
2.06
 70
    64
  0
VERTEX
  5
6589C
330
6588D
100
AcDbEntity
  8
0
100
AcDbVertex
100
AcDbPolygonMeshVertex
 10
1.070699999999999
 20
0.7744999999999976
 30
2.06
 70
    64
  0
VERTEX
  5
6589D
330
6588D
100
AcDbEntity
  8
0
100
AcDbVertex
100
AcDbPolygonMeshVertex
 10
0.6996999999999997
 20
0.5214999999999974
 30
2.06
 70
    64
  0
VERTEX
  5
6589E
330
6588D
100
AcDbEntity
  8
0
100
AcDbVertex
100
AcDbPolygonMeshVertex
 10
0.6996999999999997
 20
0.5214999999999974
 30
2.06
 70
    64
  0
VERTEX
  5
6589F
330
6588D
100
AcDbEntity
  8
0
100
AcDbVertex
100
AcDbPolygonMeshVertex
 10
0.6996999999999997
 20
0.7744999999999976
 30
2.06
 70
    64
  0
SEQEND
  5
658A0
330
6588D
100
AcDbEntity
  8
0
  0
LWPOLYLINE
  5
658A1
330
458D6
100
AcDbEntity
  8
0
100
AcDbPolyline
 90
        4
 70
     1
 43
0.0
 38
2.062
 10
0.7517000000000002
 20
0.5734999999999979
 10
1.0187
 20
0.5734999999999979
 10
1.0187
 20
0.722499999999998
 10
0.7517000000000002
 20
0.722499999999998
  0
LWPOLYLINE
  5
658A2
330
458D6
100
AcDbEntity
  8
0
100
AcDbPolyline
 90
        4
 70
     1
 43
0.0
 38
1.388
 10
0.7517000000000002
 20
-2.020499999999999
 10
1.0187
 20
-2.020499999999999
 10
1.0187
 20
-2.169499999999999
 10
0.7517000000000002
 20
-2.169499999999999
  0
POLYLINE
  5
658A3
330
458D6
100
AcDbEntity
  8
0
100
AcDbPolygonMesh
 66
     1
 10
0.0
 20
0.0
 30
0.0
 70
    16
 71
     6
 72
     3
  0
VERTEX
  5
658A4
330
658A3
100
AcDbEntity
  8
0
100
AcDbVertex
100
AcDbPolygonMeshVertex
 10
0.3326999999999987
 20
-2.405500000000002
 30
2.06
 70
    64
  0
VERTEX
  5
658A5
330
658A3
100
AcDbEntity
  8
0
100
AcDbVertex
100
AcDbPolygonMeshVertex
 10
0.3326999999999987
 20
-2.405500000000002
 30
1.386
 70
    64
  0
VERTEX
  5
658A6
330
658A3
100
AcDbEntity
  8
0
100
AcDbVertex
100
AcDbPolygonMeshVertex
 10
0.3326999999999987
 20
-2.405500000000002
 30
1.386
 70
    64
  0
VERTEX
  5
658A7
330
658A3
100
AcDbEntity
  8
0
100
AcDbVertex
100
AcDbPolygonMeshVertex
 10
1.437699999999999
 20
-2.405500000000002
 30
2.06
 70
    64
  0
VERTEX
  5
658A8
330
658A3
100
AcDbEntity
  8
0
100
AcDbVertex
100
AcDbPolygonMeshVertex
 10
1.437699999999999
 20
-2.405500000000002
 30
1.386
 70
    64
  0
VERTEX
  5
658A9
330
658A3
100
AcDbEntity
  8
0
100
AcDbVertex
100
AcDbPolygonMeshVertex
 10
1.437699999999999
 20
-2.405500000000002
 30
1.386
 70
    64
  0
VERTEX
  5
658AA
330
658A3
100
AcDbEntity
  8
0
100
AcDbVertex
100
AcDbPolygonMeshVertex
 10
1.437699999999999
 20
-1.968500000000002
 30
2.06
 70
    64
  0
VERTEX
  5
658AB
330
658A3
100
AcDbEntity
  8
0
100
AcDbVertex
100
AcDbPolygonMeshVertex
 10
1.437699999999999
 20
-1.968500000000002
 30
1.386
 70
    64
  0
VERTEX
  5
658AC
330
658A3
100
AcDbEntity
  8
0
100
AcDbVertex
100
AcDbPolygonMeshVertex
 10
1.437699999999999
 20
-2.405500000000002
 30
1.386
 70
    64
  0
VERTEX
  5
658AD
330
658A3
100
AcDbEntity
  8
0
100
AcDbVertex
100
AcDbPolygonMeshVertex
 10
0.3326999999999987
 20
-1.968500000000002
 30
2.06
 70
    64
  0
VERTEX
  5
658AE
330
658A3
100
AcDbEntity
  8
0
100
AcDbVertex
100
AcDbPolygonMeshVertex
 10
0.3326999999999987
 20
-1.968500000000002
 30
1.386
 70
    64
  0
VERTEX
  5
658AF
330
658A3
100
AcDbEntity
  8
0
100
AcDbVertex
100
AcDbPolygonMeshVertex
 10
0.3326999999999987
 20
-2.405500000000002
 30
1.386
 70
    64
  0
VERTEX
  5
658B0
330
658A3
100
AcDbEntity
  8
0
100
AcDbVertex
100
AcDbPolygonMeshVertex
 10
0.3326999999999987
 20
-1.968500000000002
 30
2.06
 70
    64
  0
VERTEX
  5
658B1
330
658A3
100
AcDbEntity
  8
0
100
AcDbVertex
100
AcDbPolygonMeshVertex
 10
0.3326999999999987
 20
-1.968500000000002
 30
2.06
 70
    64
  0
VERTEX
  5
658B2
330
658A3
100
AcDbEntity
  8
0
100
AcDbVertex
100
AcDbPolygonMeshVertex
 10
0.3326999999999987
 20
-2.405500000000002
 30
2.06
 70
    64
  0
VERTEX
  5
658B3
330
658A3
100
AcDbEntity
  8
0
100
AcDbVertex
100
AcDbPolygonMeshVertex
 10
1.437699999999999
 20
-1.968500000000002
 30
2.06
 70
    64
  0
VERTEX
  5
658B4
330
658A3
100
AcDbEntity
  8
0
100
AcDbVertex
100
AcDbPolygonMeshVertex
 10
1.437699999999999
 20
-1.968500000000002
 30
2.06
 70
    64
  0
VERTEX
  5
658B5
330
658A3
100
AcDbEntity
  8
0
100
AcDbVertex
100
AcDbPolygonMeshVertex
 10
1.437699999999999
 20
-2.405500000000002
 30
2.06
 70
    64
  0
SEQEND
  5
658B6
330
658A3
100
AcDbEntity
  8
0
  0
LINE
  5
658B7
330
458D6
100
AcDbEntity
  8
0
100
AcDbLine
 10
0.7451999999999993
 20
-1.968500000000002
 30
2.06
 11
0.7451999999999993
 21
-2.203500000000001
 31
2.06
  0
LINE
  5
658B8
330
458D6
100
AcDbEntity
  8
0
100
AcDbLine
 10
1.025199999999998
 20
-1.968500000000002
 30
2.06
 11
1.025199999999998
 21
-2.203500000000001
 31
2.06
  0
LINE
  5
658B9
330
458D6
100
AcDbEntity
  8
0
100
AcDbLine
 10
1.025199999999998
 20
-2.203500000000001
 30
2.06
 11
0.7451999999999993
 21
-2.203500000000001
 31
2.06
  0
CIRCLE
  5
658BA
330
458D6
100
AcDbEntity
  8
0
100
AcDbCircle
 10
0.5461999999999968
 20
-2.187000000000001
 30
2.06
 40
0.12
  0
CIRCLE
  5
658BB
330
458D6
100
AcDbEntity
  8
0
100
AcDbCircle
 10
1.224200000000001
 20
-2.187000000000001
 30
2.06
 40
0.12
  0
POLYLINE
  5
658BC
330
458D6
100
AcDbEntity
  8
0
100
AcDb3dPolyline
 66
     1
 10
0.0
 20
0.0
 30
0.0
 70
     8
  0
VERTEX
  5
658BD
330
658BC
100
AcDbEntity
  8
0
100
AcDbVertex
100
AcDb3dPolylineVertex
 10
1.765199999999999
 20
-1.352499999999999
 30
0.187
 70
    32
  0
VERTEX
  5
658BE
330
658BC
100
AcDbEntity
  8
0
100
AcDbVertex
100
AcDb3dPolylineVertex
 10
1.765199999999999
 20
-1.352499999999999
 30
1.056999999999999
 70
    32
  0
VERTEX
  5
658BF
330
658BC
100
AcDbEntity
  8
0
100
AcDbVertex
100
AcDb3dPolylineVertex
 10
1.765199999999999
 20
-1.507499999999999
 30
1.056999999999999
 70
    32
  0
VERTEX
  5
658C0
330
658BC
100
AcDbEntity
  8
0
100
AcDbVertex
100
AcDb3dPolylineVertex
 10
1.765199999999999
 20
-1.507499999999999
 30
0.187
 70
    32
  0
SEQEND
  5
658C1
330
658BC
100
AcDbEntity
  8
0
  0
POLYLINE
  5
658C2
330
458D6
100
AcDbEntity
  8
0
100
AcDb3dPolyline
 66
     1
 10
0.0
 20
0.0
 30
0.0
 70
     8
  0
VERTEX
  5
658C3
330
658C2
100
AcDbEntity
  8
0
100
AcDbVertex
100
AcDb3dPolylineVertex
 10
1.765199999999999
 20
0.0265
 30
0.187
 70
    32
  0
VERTEX
  5
658C4
330
658C2
100
AcDbEntity
  8
0
100
AcDbVertex
100
AcDb3dPolylineVertex
 10
1.765199999999999
 20
0.0265
 30
1.056999999999999
 70
    32
  0
VERTEX
  5
658C5
330
658C2
100
AcDbEntity
  8
0
100
AcDbVertex
100
AcDb3dPolylineVertex
 10
1.765199999999999
 20
-0.1285000000000003
 30
1.056999999999999
 70
    32
  0
VERTEX
  5
658C6
330
658C2
100
AcDbEntity
  8
0
100
AcDbVertex
100
AcDb3dPolylineVertex
 10
1.765199999999999
 20
-0.1285000000000003
 30
0.187
 70
    32
  0
SEQEND
  5
658C7
330
658C2
100
AcDbEntity
  8
0
  0
LINE
  5
658C8
330
458D6
100
AcDbEntity
  8
0
100
AcDbLine
 10
1.765199999999999
 20
-0.6294999999999998
 30
0.5170000000000002
 11
1.765199999999999
 21
-0.8515
 31
0.5170000000000002
  0
LINE
  5
658C9
330
458D6
100
AcDbEntity
  8
0
100
AcDbLine
 10
1.765199999999999
 20
-0.8515
 30
0.5170000000000002
 11
1.765199999999999
 21
-0.8515
 31
0.187
  0
LINE
  5
658CA
330
458D6
100
AcDbEntity
  8
0
100
AcDbLine
 10
1.765199999999999
 20
-0.6294999999999998
 30
0.5170000000000002
 11
1.765199999999999
 21
-0.6294999999999998
 31
0.187
  0
POLYLINE
  5
658CB
330
458D6
100
AcDbEntity
  8
0
100
AcDb3dPolyline
 66
     1
 10
0.0
 20
0.0
 30
0.0
 70
     8
  0
VERTEX
  5
658CC
330
658CB
100
AcDbEntity
  8
0
100
AcDbVertex
100
AcDb3dPolylineVertex
 10
0.0052
 20
0.0265
 30
0.187
 70
    32
  0
VERTEX
  5
658CD
330
658CB
100
AcDbEntity
  8
0
100
AcDbVertex
100
AcDb3dPolylineVertex
 10
0.0052
 20
0.0265
 30
1.056999999999999
 70
    32
  0
VERTEX
  5
658CE
330
658CB
100
AcDbEntity
  8
0
100
AcDbVertex
100
AcDb3dPolylineVertex
 10
0.0052
 20
-0.1285000000000003
 30
1.056999999999999
 70
    32
  0
VERTEX
  5
658CF
330
658CB
100
AcDbEntity
  8
0
100
AcDbVertex
100
AcDb3dPolylineVertex
 10
0.0052
 20
-0.1285000000000003
 30
0.187
 70
    32
  0
SEQEND
  5
658D0
330
658CB
100
AcDbEntity
  8
0
  0
POLYLINE
  5
658D1
330
458D6
100
AcDbEntity
  8
0
100
AcDb3dPolyline
 66
     1
 10
0.0
 20
0.0
 30
0.0
 70
     8
  0
VERTEX
  5
658D2
330
658D1
100
AcDbEntity
  8
0
100
AcDbVertex
100
AcDb3dPolylineVertex
 10
0.0052
 20
-1.352499999999999
 30
0.187
 70
    32
  0
VERTEX
  5
658D3
330
658D1
100
AcDbEntity
  8
0
100
AcDbVertex
100
AcDb3dPolylineVertex
 10
0.0052
 20
-1.352499999999999
 30
1.056999999999999
 70
    32
  0
VERTEX
  5
658D4
330
658D1
100
AcDbEntity
  8
0
100
AcDbVertex
100
AcDb3dPolylineVertex
 10
0.0052
 20
-1.507499999999999
 30
1.056999999999999
 70
    32
  0
VERTEX
  5
658D5
330
658D1
100
AcDbEntity
  8
0
100
AcDbVertex
100
AcDb3dPolylineVertex
 10
0.0052
 20
-1.507499999999999
 30
0.187
 70
    32
  0
SEQEND
  5
658D6
330
658D1
100
AcDbEntity
  8
0
  0
LINE
  5
658D7
330
458D6
100
AcDbEntity
  8
0
100
AcDbLine
 10
1.765199999999999
 20
-1.5675
 30
0.187
 11
1.765199999999999
 21
-1.5675
 31
0.0
  0
LINE
  5
658D8
330
458D6
100
AcDbEntity
  8
0
100
AcDbLine
 10
1.765199999999999
 20
-1.5675
 30
0.0
 11
0.8851999999999998
 21
-1.5675
 31
0.0
  0
POLYLINE
  5
658D9
330
458D6
100
AcDbEntity
  8
0
100
AcDbPolygonMesh
 66
     1
 10
0.0
 20
0.0
 30
0.0
 70
    16
 71
     6
 72
     3
  0
VERTEX
  5
658DA
330
658D9
100
AcDbEntity
  8
0
100
AcDbVertex
100
AcDbPolygonMeshVertex
 10
0.8852000000000007
 20
-1.5675
 30
0.187
 70
    64
  0
VERTEX
  5
658DB
330
658D9
100
AcDbEntity
  8
0
100
AcDbVertex
100
AcDbPolygonMeshVertex
 10
0.8852000000000007
 20
-1.5675
 30
0.0
 70
    64
  0
VERTEX
  5
658DC
330
658D9
100
AcDbEntity
  8
0
100
AcDbVertex
100
AcDbPolygonMeshVertex
 10
0.8852000000000007
 20
-1.5675
 30
0.0
 70
    64
  0
VERTEX
  5
658DD
330
658D9
100
AcDbEntity
  8
0
100
AcDbVertex
100
AcDbPolygonMeshVertex
 10
1.765199999999999
 20
-1.5675
 30
0.187
 70
    64
  0
VERTEX
  5
658DE
330
658D9
100
AcDbEntity
  8
0
100
AcDbVertex
100
AcDbPolygonMeshVertex
 10
1.765199999999999
 20
-1.5675
 30
0.0
 70
    64
  0
VERTEX
  5
658DF
330
658D9
100
AcDbEntity
  8
0
100
AcDbVertex
100
AcDbPolygonMeshVertex
 10
1.765199999999999
 20
-1.5675
 30
0.0
 70
    64
  0
VERTEX
  5
658E0
330
658D9
100
AcDbEntity
  8
0
100
AcDbVertex
100
AcDbPolygonMeshVertex
 10
1.765199999999999
 20
-2.165499999999999
 30
0.187
 70
    64
  0
VERTEX
  5
658E1
330
658D9
100
AcDbEntity
  8
0
100
AcDbVertex
100
AcDbPolygonMeshVertex
 10
1.765199999999999
 20
-2.165499999999999
 30
0.0
 70
    64
  0
VERTEX
  5
658E2
330
658D9
100
AcDbEntity
  8
0
100
AcDbVertex
100
AcDbPolygonMeshVertex
 10
1.765199999999999
 20
-1.5675
 30
0.0
 70
    64
  0
VERTEX
  5
658E3
330
658D9
100
AcDbEntity
  8
0
100
AcDbVertex
100
AcDbPolygonMeshVertex
 10
0.8852000000000007
 20
-2.165499999999999
 30
0.187
 70
    64
  0
VERTEX
  5
658E4
330
658D9
100
AcDbEntity
  8
0
100
AcDbVertex
100
AcDbPolygonMeshVertex
 10
0.8852000000000007
 20
-2.165499999999999
 30
0.0
 70
    64
  0
VERTEX
  5
658E5
330
658D9
100
AcDbEntity
  8
0
100
AcDbVertex
100
AcDbPolygonMeshVertex
 10
0.8852000000000007
 20
-1.5675
 30
0.0
 70
    64
  0
VERTEX
  5
658E6
330
658D9
100
AcDbEntity
  8
0
100
AcDbVertex
100
AcDbPolygonMeshVertex
 10
0.8852000000000007
 20
-2.165499999999999
 30
0.187
 70
    64
  0
VERTEX
  5
658E7
330
658D9
100
AcDbEntity
  8
0
100
AcDbVertex
100
AcDbPolygonMeshVertex
 10
0.8852000000000007
 20
-2.165499999999999
 30
0.187
 70
    64
  0
VERTEX
  5
658E8
330
658D9
100
AcDbEntity
  8
0
100
AcDbVertex
100
AcDbPolygonMeshVertex
 10
0.8852000000000007
 20
-1.5675
 30
0.187
 70
    64
  0
VERTEX
  5
658E9
330
658D9
100
AcDbEntity
  8
0
100
AcDbVertex
100
AcDbPolygonMeshVertex
 10
1.765199999999999
 20
-2.165499999999999
 30
0.187
 70
    64
  0
VERTEX
  5
658EA
330
658D9
100
AcDbEntity
  8
0
100
AcDbVertex
100
AcDbPolygonMeshVertex
 10
1.765199999999999
 20
-2.165499999999999
 30
0.187
 70
    64
  0
VERTEX
  5
658EB
330
658D9
100
AcDbEntity
  8
0
100
AcDbVertex
100
AcDbPolygonMeshVertex
 10
1.765199999999999
 20
-1.5675
 30
0.187
 70
    64
  0
SEQEND
  5
658EC
330
658D9
100
AcDbEntity
  8
0
  0
POLYLINE
  5
658ED
330
458D6
100
AcDbEntity
  8
0
100
AcDbPolygonMesh
 66
     1
 10
0.0
 20
0.0
 30
0.0
 70
    16
 71
     6
 72
     3
  0
VERTEX
  5
658EE
330
658ED
100
AcDbEntity
  8
0
100
AcDbVertex
100
AcDbPolygonMeshVertex
 10
0.0052
 20
0.7185000000000002
 30
0.187
 70
    64
  0
VERTEX
  5
658EF
330
658ED
100
AcDbEntity
  8
0
100
AcDbVertex
100
AcDbPolygonMeshVertex
 10
0.0052
 20
0.7185000000000002
 30
0.0
 70
    64
  0
VERTEX
  5
658F0
330
658ED
100
AcDbEntity
  8
0
100
AcDbVertex
100
AcDbPolygonMeshVertex
 10
0.0052
 20
0.7185000000000002
 30
0.0
 70
    64
  0
VERTEX
  5
658F1
330
658ED
100
AcDbEntity
  8
0
100
AcDbVertex
100
AcDbPolygonMeshVertex
 10
0.8851999999999989
 20
0.7185000000000002
 30
0.187
 70
    64
  0
VERTEX
  5
658F2
330
658ED
100
AcDbEntity
  8
0
100
AcDbVertex
100
AcDbPolygonMeshVertex
 10
0.8851999999999989
 20
0.7185000000000002
 30
0.0
 70
    64
  0
VERTEX
  5
658F3
330
658ED
100
AcDbEntity
  8
0
100
AcDbVertex
100
AcDbPolygonMeshVertex
 10
0.8851999999999989
 20
0.7185000000000002
 30
0.0
 70
    64
  0
VERTEX
  5
658F4
330
658ED
100
AcDbEntity
  8
0
100
AcDbVertex
100
AcDbPolygonMeshVertex
 10
0.8851999999999989
 20
0.1205000000000003
 30
0.187
 70
    64
  0
VERTEX
  5
658F5
330
658ED
100
AcDbEntity
  8
0
100
AcDbVertex
100
AcDbPolygonMeshVertex
 10
0.8851999999999989
 20
0.1205000000000003
 30
0.0
 70
    64
  0
VERTEX
  5
658F6
330
658ED
100
AcDbEntity
  8
0
100
AcDbVertex
100
AcDbPolygonMeshVertex
 10
0.8851999999999989
 20
0.7185000000000002
 30
0.0
 70
    64
  0
VERTEX
  5
658F7
330
658ED
100
AcDbEntity
  8
0
100
AcDbVertex
100
AcDbPolygonMeshVertex
 10
0.0052
 20
0.1205000000000003
 30
0.187
 70
    64
  0
VERTEX
  5
658F8
330
658ED
100
AcDbEntity
  8
0
100
AcDbVertex
100
AcDbPolygonMeshVertex
 10
0.0052
 20
0.1205000000000003
 30
0.0
 70
    64
  0
VERTEX
  5
658F9
330
658ED
100
AcDbEntity
  8
0
100
AcDbVertex
100
AcDbPolygonMeshVertex
 10
0.0052
 20
0.7185000000000002
 30
0.0
 70
    64
  0
VERTEX
  5
658FA
330
658ED
100
AcDbEntity
  8
0
100
AcDbVertex
100
AcDbPolygonMeshVertex
 10
0.0052
 20
0.1205000000000003
 30
0.187
 70
    64
  0
VERTEX
  5
658FB
330
658ED
100
AcDbEntity
  8
0
100
AcDbVertex
100
AcDbPolygonMeshVertex
 10
0.0052
 20
0.1205000000000003
 30
0.187
 70
    64
  0
VERTEX
  5
658FC
330
658ED
100
AcDbEntity
  8
0
100
AcDbVertex
100
AcDbPolygonMeshVertex
 10
0.0052
 20
0.7185000000000002
 30
0.187
 70
    64
  0
VERTEX
  5
658FD
330
658ED
100
AcDbEntity
  8
0
100
AcDbVertex
100
AcDbPolygonMeshVertex
 10
0.8851999999999989
 20
0.1205000000000003
 30
0.187
 70
    64
  0
VERTEX
  5
658FE
330
658ED
100
AcDbEntity
  8
0
100
AcDbVertex
100
AcDbPolygonMeshVertex
 10
0.8851999999999989
 20
0.1205000000000003
 30
0.187
 70
    64
  0
VERTEX
  5
658FF
330
658ED
100
AcDbEntity
  8
0
100
AcDbVertex
100
AcDbPolygonMeshVertex
 10
0.8851999999999989
 20
0.7185000000000002
 30
0.187
 70
    64
  0
SEQEND
  5
65900
330
658ED
100
AcDbEntity
  8
0
  0
LINE
  5
65901
330
458D6
100
AcDbEntity
  8
0
100
AcDbLine
 10
1.765199999999996
 20
-0.8065000000000001
 30
1.8785
 11
1.765199999999996
 21
-0.6404999999999999
 31
1.8785
  0
POLYLINE
  5
65902
330
458D6
100
AcDbEntity
  8
0
100
AcDb3dPolyline
 66
     1
 10
0.0
 20
0.0
 30
0.0
 70
     8
  0
VERTEX
  5
65903
330
65902
100
AcDbEntity
  8
0
100
AcDbVertex
100
AcDb3dPolylineVertex
 10
-0.0000103494035411
 20
-0.6404999999999999
 30
1.592
 70
    32
  0
VERTEX
  5
65904
330
65902
100
AcDbEntity
  8
0
100
AcDbVertex
100
AcDb3dPolylineVertex
 10
-0.0000103494035411
 20
-0.6404999999999999
 30
2.165
 70
    32
  0
VERTEX
  5
65905
330
65902
100
AcDbEntity
  8
0
100
AcDbVertex
100
AcDb3dPolylineVertex
 10
-0.0000103494035411
 20
-0.8064999999999997
 30
2.165
 70
    32
  0
VERTEX
  5
65906
330
65902
100
AcDbEntity
  8
0
100
AcDbVertex
100
AcDb3dPolylineVertex
 10
-0.0000103494035411
 20
-0.8065000000000001
 30
1.592
 70
    32
  0
VERTEX
  5
65907
330
65902
100
AcDbEntity
  8
0
100
AcDbVertex
100
AcDb3dPolylineVertex
 10
-0.0000103494035411
 20
-0.6404999999999999
 30
1.592
 70
    32
  0
SEQEND
  5
65908
330
65902
100
AcDbEntity
  8
0
  0
LINE
  5
65909
330
458D6
100
AcDbEntity
  8
0
100
AcDbLine
 10
-0.0000103494035411
 20
-0.8065000000000001
 30
1.8785
 11
-0.0000103494035411
 21
-0.6404999999999999
 31
1.8785
  0
LINE
  5
6590A
330
458D6
100
AcDbEntity
  8
0
100
AcDbLine
 10
-0.0000103494035411
 20
-0.8065000000000001
 30
2.0685
 11
-0.0000103494035411
 21
-0.6404999999999999
 31
2.0685
  0
CIRCLE
  5
6590B
330
458D6
100
AcDbEntity
  8
0
100
AcDbCircle
 10
1.571199999999999
 20
0.4255
 30
0.316
 40
0.086
  0
POLYLINE
  5
6590C
330
458D6
100
AcDbEntity
  8
0
100
AcDb3dPolyline
 66
     1
 10
0.0
 20
0.0
 30
0.0
 70
     8
  0
VERTEX
  5
6590D
330
6590C
100
AcDbEntity
  8
0
100
AcDbVertex
100
AcDb3dPolylineVertex
 10
0.5505333333333319
 20
0.5215000000000001
 30
0.187
 70
    32
  0
VERTEX
  5
6590E
330
6590C
100
AcDbEntity
  8
0
100
AcDbVertex
100
AcDb3dPolylineVertex
 10
0.5505333333333319
 20
0.6564999999999999
 30
0.187
 70
    32
  0
VERTEX
  5
6590F
330
6590C
100
AcDbEntity
  8
0
100
AcDbVertex
100
AcDb3dPolylineVertex
 10
0.3398666666666662
 20
0.6564999999999999
 30
0.187
 70
    32
  0
VERTEX
  5
65910
330
6590C
100
AcDbEntity
  8
0
100
AcDbVertex
100
AcDb3dPolylineVertex
 10
0.3398666666666662
 20
0.5215000000000001
 30
0.187
 70
    32
  0
SEQEND
  5
65911
330
6590C
100
AcDbEntity
  8
0
  0
POLYLINE
  5
65912
330
458D6
100
AcDbEntity
  8
0
100
AcDb3dPolyline
 66
     1
 10
0.0
 20
0.0
 30
0.0
 70
     8
  0
VERTEX
  5
65913
330
65912
100
AcDbEntity
  8
0
100
AcDbVertex
100
AcDb3dPolylineVertex
 10
0.2778666666666659
 20
0.5215000000000001
 30
0.187
 70
    32
  0
VERTEX
  5
65914
330
65912
100
AcDbEntity
  8
0
100
AcDbVertex
100
AcDb3dPolylineVertex
 10
0.2778666666666659
 20
0.6564999999999999
 30
0.187
 70
    32
  0
VERTEX
  5
65915
330
65912
100
AcDbEntity
  8
0
100
AcDbVertex
100
AcDb3dPolylineVertex
 10
0.0672000000000003
 20
0.6564999999999999
 30
0.187
 70
    32
  0
VERTEX
  5
65916
330
65912
100
AcDbEntity
  8
0
100
AcDbVertex
100
AcDb3dPolylineVertex
 10
0.0672000000000003
 20
0.5215000000000001
 30
0.187
 70
    32
  0
SEQEND
  5
65917
330
65912
100
AcDbEntity
  8
0
  0
POLYLINE
  5
65918
330
458D6
100
AcDbEntity
  8
0
100
AcDb3dPolyline
 66
     1
 10
0.0
 20
0.0
 30
0.0
 70
     8
  0
VERTEX
  5
65919
330
65918
100
AcDbEntity
  8
0
100
AcDbVertex
100
AcDb3dPolylineVertex
 10
0.8231999999999978
 20
0.5215000000000001
 30
0.187
 70
    32
  0
VERTEX
  5
6591A
330
65918
100
AcDbEntity
  8
0
100
AcDbVertex
100
AcDb3dPolylineVertex
 10
0.8231999999999978
 20
0.6564999999999999
 30
0.187
 70
    32
  0
VERTEX
  5
6591B
330
65918
100
AcDbEntity
  8
0
100
AcDbVertex
100
AcDb3dPolylineVertex
 10
0.6125333333333322
 20
0.6564999999999999
 30
0.187
 70
    32
  0
VERTEX
  5
6591C
330
65918
100
AcDbEntity
  8
0
100
AcDbVertex
100
AcDb3dPolylineVertex
 10
0.6125333333333322
 20
0.5215000000000001
 30
0.187
 70
    32
  0
SEQEND
  5
6591D
330
65918
100
AcDbEntity
  8
0
  0
POLYLINE
  5
6591E
330
458D6
100
AcDbEntity
  8
0
100
AcDb3dPolyline
 66
     1
 10
0.0
 20
0.0
 30
0.0
 70
     8
  0
VERTEX
  5
6591F
330
6591E
100
AcDbEntity
  8
0
100
AcDbVertex
100
AcDb3dPolylineVertex
 10
1.492533333333333
 20
-1.9685
 30
0.187
 70
    32
  0
VERTEX
  5
65920
330
6591E
100
AcDbEntity
  8
0
100
AcDbVertex
100
AcDb3dPolylineVertex
 10
1.492533333333333
 20
-2.103499999999999
 30
0.187
 70
    32
  0
VERTEX
  5
65921
330
6591E
100
AcDbEntity
  8
0
100
AcDbVertex
100
AcDb3dPolylineVertex
 10
1.703199999999998
 20
-2.103499999999999
 30
0.187
 70
    32
  0
VERTEX
  5
65922
330
6591E
100
AcDbEntity
  8
0
100
AcDbVertex
100
AcDb3dPolylineVertex
 10
1.703199999999998
 20
-1.9685
 30
0.187
 70
    32
  0
SEQEND
  5
65923
330
6591E
100
AcDbEntity
  8
0
  0
POLYLINE
  5
65924
330
458D6
100
AcDbEntity
  8
0
100
AcDb3dPolyline
 66
     1
 10
0.0
 20
0.0
 30
0.0
 70
     8
  0
VERTEX
  5
65925
330
65924
100
AcDbEntity
  8
0
100
AcDbVertex
100
AcDb3dPolylineVertex
 10
1.219866666666667
 20
-1.9685
 30
0.187
 70
    32
  0
VERTEX
  5
65926
330
65924
100
AcDbEntity
  8
0
100
AcDbVertex
100
AcDb3dPolylineVertex
 10
1.219866666666667
 20
-2.103499999999999
 30
0.187
 70
    32
  0
VERTEX
  5
65927
330
65924
100
AcDbEntity
  8
0
100
AcDbVertex
100
AcDb3dPolylineVertex
 10
1.430533333333332
 20
-2.103499999999999
 30
0.187
 70
    32
  0
VERTEX
  5
65928
330
65924
100
AcDbEntity
  8
0
100
AcDbVertex
100
AcDb3dPolylineVertex
 10
1.430533333333332
 20
-1.9685
 30
0.187
 70
    32
  0
SEQEND
  5
65929
330
65924
100
AcDbEntity
  8
0
  0
POLYLINE
  5
6592A
330
458D6
100
AcDbEntity
  8
0
100
AcDb3dPolyline
 66
     1
 10
0.0
 20
0.0
 30
0.0
 70
     8
  0
VERTEX
  5
6592B
330
6592A
100
AcDbEntity
  8
0
100
AcDbVertex
100
AcDb3dPolylineVertex
 10
0.9472000000000019
 20
-1.9685
 30
0.187
 70
    32
  0
VERTEX
  5
6592C
330
6592A
100
AcDbEntity
  8
0
100
AcDbVertex
100
AcDb3dPolylineVertex
 10
0.9472000000000019
 20
-2.103499999999999
 30
0.187
 70
    32
  0
VERTEX
  5
6592D
330
6592A
100
AcDbEntity
  8
0
100
AcDbVertex
100
AcDb3dPolylineVertex
 10
1.157866666666666
 20
-2.103499999999999
 30
0.187
 70
    32
  0
VERTEX
  5
6592E
330
6592A
100
AcDbEntity
  8
0
100
AcDbVertex
100
AcDb3dPolylineVertex
 10
1.157866666666666
 20
-1.9685
 30
0.187
 70
    32
  0
SEQEND
  5
6592F
330
6592A
100
AcDbEntity
  8
0
  0
CIRCLE
  5
65930
330
458D6
100
AcDbEntity
  8
0
100
AcDbCircle
 10
0.1912000000000008
 20
-1.934499999999999
 30
0.316
 40
0.086
  0
INSERT
  5
65931
330
458D6
100
AcDbEntity
  8
0
 62
     1
100
AcDbBlockReference
  2
AVE_RENDER
 10
-6.627509659116597
 20
-2.735105295632668
 30
0.0
1001
AVE_RENDER
1002
{
1070
     2
1000
Pref
1070
    30
1070
    20
1070
     0
1070
     0
1000

1070
    10
1070
     0
1070
    30
1040
1.0
1070
     1
1040
0.3
1040
0.4
1040
0.76
1040
1.538461538461538
1010
-1.0
1020
-1.0
1030
-1.0
1040
0.3
1070
    49
1002
}
  0
INSERT
  5
65932
330
458D6
100
AcDbEntity
  8
0
 62
     3
100
AcDbBlockReference
  2
AVE_RENDER
 10
-6.627509659116597
 20
-2.735105295632668
 30
0.0
1001
AVE_RENDER
1002
{
1070
     0
1000
Full Opt
1070
     0
1070
     1
1070
     1
1070
     1
1070
     0
1070
     0
1070
     0
1070
     1
1070
     1
1040
0.0001
1040
0.0001
1002
}
  0
INSERT
  5
65933
330
458D6
100
AcDbEntity
  8
0
 62
     4
100
AcDbBlockReference
  2
AVE_RENDER
 10
-6.627509659116597
 20
-2.735105295632668
 30
0.0
1001
AVE_RENDER
1002
{
1070
     0
1000
Quick Opt
1070
     0
1070
     1
1070
     1
1070
     1
1070
     0
1070
     0
1070
     1
1002
}
  0
CIRCLE
  5
65934
330
458D6
100
AcDbEntity
  8
0
100
AcDbCircle
 10
0.1911999999999999
 20
-1.934499999999999
 30
0.0
 40
0.086
  0
CIRCLE
  5
65935
330
458D6
100
AcDbEntity
  8
0
100
AcDbCircle
 10
1.571199999999999
 20
0.4255
 30
0.0
 40
0.086
  0
POLYLINE
  5
65936
330
458D6
100
AcDbEntity
  8
0
100
AcDb3dPolyline
 66
     1
 10
0.0
 20
0.0
 30
0.0
 70
     8
  0
VERTEX
  5
65937
330
65936
100
AcDbEntity
  8
0
100
AcDbVertex
100
AcDb3dPolylineVertex
 10
0.9472000000000019
 20
-1.9685
 30
-0.0000000000000001
 70
    32
  0
VERTEX
  5
65938
330
65936
100
AcDbEntity
  8
0
100
AcDbVertex
100
AcDb3dPolylineVertex
 10
0.9472000000000019
 20
-2.103499999999999
 30
0.0
 70
    32
  0
VERTEX
  5
65939
330
65936
100
AcDbEntity
  8
0
100
AcDbVertex
100
AcDb3dPolylineVertex
 10
1.157866666666666
 20
-2.103499999999999
 30
0.0
 70
    32
  0
VERTEX
  5
6593A
330
65936
100
AcDbEntity
  8
0
100
AcDbVertex
100
AcDb3dPolylineVertex
 10
1.157866666666666
 20
-1.9685
 30
-0.0000000000000001
 70
    32
  0
SEQEND
  5
6593B
330
65936
100
AcDbEntity
  8
0
  0
POLYLINE
  5
6593C
330
458D6
100
AcDbEntity
  8
0
100
AcDb3dPolyline
 66
     1
 10
0.0
 20
0.0
 30
0.0
 70
     8
  0
VERTEX
  5
6593D
330
6593C
100
AcDbEntity
  8
0
100
AcDbVertex
100
AcDb3dPolylineVertex
 10
1.219866666666667
 20
-1.9685
 30
-0.0000000000000001
 70
    32
  0
VERTEX
  5
6593E
330
6593C
100
AcDbEntity
  8
0
100
AcDbVertex
100
AcDb3dPolylineVertex
 10
1.219866666666667
 20
-2.103499999999999
 30
0.0
 70
    32
  0
VERTEX
  5
6593F
330
6593C
100
AcDbEntity
  8
0
100
AcDbVertex
100
AcDb3dPolylineVertex
 10
1.430533333333332
 20
-2.103499999999999
 30
0.0
 70
    32
  0
VERTEX
  5
65940
330
6593C
100
AcDbEntity
  8
0
100
AcDbVertex
100
AcDb3dPolylineVertex
 10
1.430533333333332
 20
-1.9685
 30
-0.0000000000000001
 70
    32
  0
SEQEND
  5
65941
330
6593C
100
AcDbEntity
  8
0
  0
POLYLINE
  5
65942
330
458D6
100
AcDbEntity
  8
0
100
AcDb3dPolyline
 66
     1
 10
0.0
 20
0.0
 30
0.0
 70
     8
  0
VERTEX
  5
65943
330
65942
100
AcDbEntity
  8
0
100
AcDbVertex
100
AcDb3dPolylineVertex
 10
1.492533333333333
 20
-1.9685
 30
-0.0000000000000001
 70
    32
  0
VERTEX
  5
65944
330
65942
100
AcDbEntity
  8
0
100
AcDbVertex
100
AcDb3dPolylineVertex
 10
1.492533333333333
 20
-2.103499999999999
 30
0.0
 70
    32
  0
VERTEX
  5
65945
330
65942
100
AcDbEntity
  8
0
100
AcDbVertex
100
AcDb3dPolylineVertex
 10
1.703199999999998
 20
-2.103499999999999
 30
0.0
 70
    32
  0
VERTEX
  5
65946
330
65942
100
AcDbEntity
  8
0
100
AcDbVertex
100
AcDb3dPolylineVertex
 10
1.703199999999998
 20
-1.9685
 30
-0.0000000000000001
 70
    32
  0
SEQEND
  5
65947
330
65942
100
AcDbEntity
  8
0
  0
POLYLINE
  5
65948
330
458D6
100
AcDbEntity
  8
0
100
AcDb3dPolyline
 66
     1
 10
0.0
 20
0.0
 30
0.0
 70
     8
  0
VERTEX
  5
65949
330
65948
100
AcDbEntity
  8
0
100
AcDbVertex
100
AcDb3dPolylineVertex
 10
0.8231999999999978
 20
0.5215000000000001
 30
-0.0000000000000001
 70
    32
  0
VERTEX
  5
6594A
330
65948
100
AcDbEntity
  8
0
100
AcDbVertex
100
AcDb3dPolylineVertex
 10
0.8231999999999978
 20
0.6564999999999999
 30
0.0
 70
    32
  0
VERTEX
  5
6594B
330
65948
100
AcDbEntity
  8
0
100
AcDbVertex
100
AcDb3dPolylineVertex
 10
0.6125333333333322
 20
0.6564999999999999
 30
0.0
 70
    32
  0
VERTEX
  5
6594C
330
65948
100
AcDbEntity
  8
0
100
AcDbVertex
100
AcDb3dPolylineVertex
 10
0.6125333333333322
 20
0.5215000000000001
 30
-0.0000000000000001
 70
    32
  0
SEQEND
  5
6594D
330
65948
100
AcDbEntity
  8
0
  0
POLYLINE
  5
6594E
330
458D6
100
AcDbEntity
  8
0
100
AcDb3dPolyline
 66
     1
 10
0.0
 20
0.0
 30
0.0
 70
     8
  0
VERTEX
  5
6594F
330
6594E
100
AcDbEntity
  8
0
100
AcDbVertex
100
AcDb3dPolylineVertex
 10
0.5505333333333319
 20
0.5215000000000001
 30
-0.0000000000000001
 70
    32
  0
VERTEX
  5
65950
330
6594E
100
AcDbEntity
  8
0
100
AcDbVertex
100
AcDb3dPolylineVertex
 10
0.5505333333333319
 20
0.6564999999999999
 30
0.0
 70
    32
  0
VERTEX
  5
65951
330
6594E
100
AcDbEntity
  8
0
100
AcDbVertex
100
AcDb3dPolylineVertex
 10
0.3398666666666662
 20
0.6564999999999999
 30
0.0
 70
    32
  0
VERTEX
  5
65952
330
6594E
100
AcDbEntity
  8
0
100
AcDbVertex
100
AcDb3dPolylineVertex
 10
0.3398666666666662
 20
0.5215000000000001
 30
-0.0000000000000001
 70
    32
  0
SEQEND
  5
65953
330
6594E
100
AcDbEntity
  8
0
  0
POLYLINE
  5
65954
330
458D6
100
AcDbEntity
  8
0
100
AcDb3dPolyline
 66
     1
 10
0.0
 20
0.0
 30
0.0
 70
     8
  0
VERTEX
  5
65955
330
65954
100
AcDbEntity
  8
0
100
AcDbVertex
100
AcDb3dPolylineVertex
 10
0.2778666666666659
 20
0.5215000000000001
 30
-0.0000000000000001
 70
    32
  0
VERTEX
  5
65956
330
65954
100
AcDbEntity
  8
0
100
AcDbVertex
100
AcDb3dPolylineVertex
 10
0.2778666666666659
 20
0.6564999999999999
 30
0.0
 70
    32
  0
VERTEX
  5
65957
330
65954
100
AcDbEntity
  8
0
100
AcDbVertex
100
AcDb3dPolylineVertex
 10
0.0672000000000003
 20
0.6564999999999999
 30
0.0
 70
    32
  0
VERTEX
  5
65958
330
65954
100
AcDbEntity
  8
0
100
AcDbVertex
100
AcDb3dPolylineVertex
 10
0.0672000000000003
 20
0.5215000000000001
 30
-0.0000000000000001
 70
    32
  0
SEQEND
  5
65959
330
65954
100
AcDbEntity
  8
0
  0
LINE
  5
6595A
330
458D6
100
AcDbEntity
  8
0
100
AcDbLine
 10
1.703199999999998
 20
-1.9685
 30
-0.0000000000000001
 11
1.492533333333333
 21
-1.9685
 31
-0.0000000000000001
  0
LINE
  5
6595B
330
458D6
100
AcDbEntity
  8
0
100
AcDbLine
 10
1.430533333333332
 20
-1.9685
 30
-0.0000000000000001
 11
1.219866666666667
 21
-1.9685
 31
-0.0000000000000001
  0
LINE
  5
6595C
330
458D6
100
AcDbEntity
  8
0
100
AcDbLine
 10
1.157866666666666
 20
-1.9685
 30
-0.0000000000000001
 11
0.9472000000000019
 21
-1.9685
 31
-0.0000000000000001
  0
LINE
  5
6595D
330
458D6
100
AcDbEntity
  8
0
100
AcDbLine
 10
0.8231999999999978
 20
0.5215000000000001
 30
-0.0000000000000001
 11
0.6125333333333322
 21
0.5215000000000001
 31
-0.0000000000000001
  0
LINE
  5
6595E
330
458D6
100
AcDbEntity
  8
0
100
AcDbLine
 10
0.5505333333333319
 20
0.5215000000000001
 30
-0.0000000000000001
 11
0.3398666666666662
 21
0.5215000000000001
 31
-0.0000000000000001
  0
LINE
  5
6595F
330
458D6
100
AcDbEntity
  8
0
100
AcDbLine
 10
0.2778666666666659
 20
0.5215000000000001
 30
-0.0000000000000001
 11
0.0672000000000003
 21
0.5215000000000001
 31
-0.0000000000000001
  0
POLYLINE
  5
65960
330
458D6
100
AcDbEntity
  8
0
100
AcDbPolygonMesh
 66
     1
 10
0.0
 20
0.0
 30
0.0
 70
    16
 71
     6
 72
     3
  0
VERTEX
  5
65961
330
65960
100
AcDbEntity
  8
0
100
AcDbVertex
100
AcDbPolygonMeshVertex
 10
0.9057
 20
-1.985499999999999
 30
2.929
 70
    64
  0
VERTEX
  5
65962
330
65960
100
AcDbEntity
  8
0
100
AcDbVertex
100
AcDbPolygonMeshVertex
 10
0.9057
 20
-1.985499999999999
 30
2.319
 70
    64
  0
VERTEX
  5
65963
330
65960
100
AcDbEntity
  8
0
100
AcDbVertex
100
AcDbPolygonMeshVertex
 10
0.9057
 20
-1.985499999999999
 30
2.319
 70
    64
  0
VERTEX
  5
65964
330
65960
100
AcDbEntity
  8
0
100
AcDbVertex
100
AcDbPolygonMeshVertex
 10
0.8596999999999997
 20
-1.985499999999999
 30
2.929
 70
    64
  0
VERTEX
  5
65965
330
65960
100
AcDbEntity
  8
0
100
AcDbVertex
100
AcDbPolygonMeshVertex
 10
0.8596999999999997
 20
-1.985499999999999
 30
2.319
 70
    64
  0
VERTEX
  5
65966
330
65960
100
AcDbEntity
  8
0
100
AcDbVertex
100
AcDbPolygonMeshVertex
 10
0.8596999999999997
 20
-1.985499999999999
 30
2.319
 70
    64
  0
VERTEX
  5
65967
330
65960
100
AcDbEntity
  8
0
100
AcDbVertex
100
AcDbPolygonMeshVertex
 10
0.8596999999999997
 20
-1.845499999999999
 30
2.929
 70
    64
  0
VERTEX
  5
65968
330
65960
100
AcDbEntity
  8
0
100
AcDbVertex
100
AcDbPolygonMeshVertex
 10
0.8596999999999997
 20
-1.845499999999999
 30
2.319
 70
    64
  0
VERTEX
  5
65969
330
65960
100
AcDbEntity
  8
0
100
AcDbVertex
100
AcDbPolygonMeshVertex
 10
0.8596999999999997
 20
-1.985499999999999
 30
2.319
 70
    64
  0
VERTEX
  5
6596A
330
65960
100
AcDbEntity
  8
0
100
AcDbVertex
100
AcDbPolygonMeshVertex
 10
0.9057
 20
-1.845499999999999
 30
2.929
 70
    64
  0
VERTEX
  5
6596B
330
65960
100
AcDbEntity
  8
0
100
AcDbVertex
100
AcDbPolygonMeshVertex
 10
0.9057
 20
-1.845499999999999
 30
2.319
 70
    64
  0
VERTEX
  5
6596C
330
65960
100
AcDbEntity
  8
0
100
AcDbVertex
100
AcDbPolygonMeshVertex
 10
0.9057
 20
-1.985499999999999
 30
2.319
 70
    64
  0
VERTEX
  5
6596D
330
65960
100
AcDbEntity
  8
0
100
AcDbVertex
100
AcDbPolygonMeshVertex
 10
0.9057
 20
-1.845499999999999
 30
2.929
 70
    64
  0
VERTEX
  5
6596E
330
65960
100
AcDbEntity
  8
0
100
AcDbVertex
100
AcDbPolygonMeshVertex
 10
0.9057
 20
-1.845499999999999
 30
2.929
 70
    64
  0
VERTEX
  5
6596F
330
65960
100
AcDbEntity
  8
0
100
AcDbVertex
100
AcDbPolygonMeshVertex
 10
0.9057
 20
-1.985499999999999
 30
2.929
 70
    64
  0
VERTEX
  5
65970
330
65960
100
AcDbEntity
  8
0
100
AcDbVertex
100
AcDbPolygonMeshVertex
 10
0.8596999999999997
 20
-1.845499999999999
 30
2.929
 70
    64
  0
VERTEX
  5
65971
330
65960
100
AcDbEntity
  8
0
100
AcDbVertex
100
AcDbPolygonMeshVertex
 10
0.8596999999999997
 20
-1.845499999999999
 30
2.929
 70
    64
  0
VERTEX
  5
65972
330
65960
100
AcDbEntity
  8
0
100
AcDbVertex
100
AcDbPolygonMeshVertex
 10
0.8596999999999997
 20
-1.985499999999999
 30
2.929
 70
    64
  0
SEQEND
  5
65973
330
65960
100
AcDbEntity
  8
0
  0
POLYLINE
  5
65974
330
458D6
100
AcDbEntity
  8
0
100
AcDbPolygonMesh
 66
     1
 10
0.0
 20
0.0
 30
0.0
 70
    16
 71
     6
 72
     3
  0
VERTEX
  5
65975
330
65974
100
AcDbEntity
  8
0
100
AcDbVertex
100
AcDbPolygonMeshVertex
 10
1.33545
 20
-1.985499999999999
 30
2.929
 70
    64
  0
VERTEX
  5
65976
330
65974
100
AcDbEntity
  8
0
100
AcDbVertex
100
AcDbPolygonMeshVertex
 10
1.33545
 20
-1.985499999999999
 30
2.319
 70
    64
  0
VERTEX
  5
65977
330
65974
100
AcDbEntity
  8
0
100
AcDbVertex
100
AcDbPolygonMeshVertex
 10
1.33545
 20
-1.985499999999999
 30
2.319
 70
    64
  0
VERTEX
  5
65978
330
65974
100
AcDbEntity
  8
0
100
AcDbVertex
100
AcDbPolygonMeshVertex
 10
1.28945
 20
-1.985499999999999
 30
2.929
 70
    64
  0
VERTEX
  5
65979
330
65974
100
AcDbEntity
  8
0
100
AcDbVertex
100
AcDbPolygonMeshVertex
 10
1.28945
 20
-1.985499999999999
 30
2.319
 70
    64
  0
VERTEX
  5
6597A
330
65974
100
AcDbEntity
  8
0
100
AcDbVertex
100
AcDbPolygonMeshVertex
 10
1.28945
 20
-1.985499999999999
 30
2.319
 70
    64
  0
VERTEX
  5
6597B
330
65974
100
AcDbEntity
  8
0
100
AcDbVertex
100
AcDbPolygonMeshVertex
 10
1.28945
 20
-1.845499999999999
 30
2.929
 70
    64
  0
VERTEX
  5
6597C
330
65974
100
AcDbEntity
  8
0
100
AcDbVertex
100
AcDbPolygonMeshVertex
 10
1.28945
 20
-1.845499999999999
 30
2.319
 70
    64
  0
VERTEX
  5
6597D
330
65974
100
AcDbEntity
  8
0
100
AcDbVertex
100
AcDbPolygonMeshVertex
 10
1.28945
 20
-1.985499999999999
 30
2.319
 70
    64
  0
VERTEX
  5
6597E
330
65974
100
AcDbEntity
  8
0
100
AcDbVertex
100
AcDbPolygonMeshVertex
 10
1.33545
 20
-1.845499999999999
 30
2.929
 70
    64
  0
VERTEX
  5
6597F
330
65974
100
AcDbEntity
  8
0
100
AcDbVertex
100
AcDbPolygonMeshVertex
 10
1.33545
 20
-1.845499999999999
 30
2.319
 70
    64
  0
VERTEX
  5
65980
330
65974
100
AcDbEntity
  8
0
100
AcDbVertex
100
AcDbPolygonMeshVertex
 10
1.33545
 20
-1.985499999999999
 30
2.319
 70
    64
  0
VERTEX
  5
65981
330
65974
100
AcDbEntity
  8
0
100
AcDbVertex
100
AcDbPolygonMeshVertex
 10
1.33545
 20
-1.845499999999999
 30
2.929
 70
    64
  0
VERTEX
  5
65982
330
65974
100
AcDbEntity
  8
0
100
AcDbVertex
100
AcDbPolygonMeshVertex
 10
1.33545
 20
-1.845499999999999
 30
2.929
 70
    64
  0
VERTEX
  5
65983
330
65974
100
AcDbEntity
  8
0
100
AcDbVertex
100
AcDbPolygonMeshVertex
 10
1.33545
 20
-1.985499999999999
 30
2.929
 70
    64
  0
VERTEX
  5
65984
330
65974
100
AcDbEntity
  8
0
100
AcDbVertex
100
AcDbPolygonMeshVertex
 10
1.28945
 20
-1.845499999999999
 30
2.929
 70
    64
  0
VERTEX
  5
65985
330
65974
100
AcDbEntity
  8
0
100
AcDbVertex
100
AcDbPolygonMeshVertex
 10
1.28945
 20
-1.845499999999999
 30
2.929
 70
    64
  0
VERTEX
  5
65986
330
65974
100
AcDbEntity
  8
0
100
AcDbVertex
100
AcDbPolygonMeshVertex
 10
1.28945
 20
-1.985499999999999
 30
2.929
 70
    64
  0
SEQEND
  5
65987
330
65974
100
AcDbEntity
  8
0
  0
POLYLINE
  5
65988
330
458D6
100
AcDbEntity
  8
0
100
AcDbPolygonMesh
 66
     1
 10
0.0
 20
0.0
 30
0.0
 70
    16
 71
     6
 72
     3
  0
VERTEX
  5
65989
330
65988
100
AcDbEntity
  8
0
100
AcDbVertex
100
AcDbPolygonMeshVertex
 10
1.719199999999999
 20
-2.057499999999999
 30
2.319
 70
    64
  0
VERTEX
  5
6598A
330
65988
100
AcDbEntity
  8
0
100
AcDbVertex
100
AcDbPolygonMeshVertex
 10
1.719199999999999
 20
-2.057499999999999
 30
2.06
 70
    64
  0
VERTEX
  5
6598B
330
65988
100
AcDbEntity
  8
0
100
AcDbVertex
100
AcDbPolygonMeshVertex
 10
1.719199999999999
 20
-2.057499999999999
 30
2.06
 70
    64
  0
VERTEX
  5
6598C
330
65988
100
AcDbEntity
  8
0
100
AcDbVertex
100
AcDbPolygonMeshVertex
 10
0.0461999999999999
 20
-2.057499999999999
 30
2.319
 70
    64
  0
VERTEX
  5
6598D
330
65988
100
AcDbEntity
  8
0
100
AcDbVertex
100
AcDbPolygonMeshVertex
 10
0.0461999999999999
 20
-2.057499999999999
 30
2.06
 70
    64
  0
VERTEX
  5
6598E
330
65988
100
AcDbEntity
  8
0
100
AcDbVertex
100
AcDbPolygonMeshVertex
 10
0.0461999999999999
 20
-2.057499999999999
 30
2.06
 70
    64
  0
VERTEX
  5
6598F
330
65988
100
AcDbEntity
  8
0
100
AcDbVertex
100
AcDbPolygonMeshVertex
 10
0.0461999999999999
 20
-1.845499999999999
 30
2.319
 70
    64
  0
VERTEX
  5
65990
330
65988
100
AcDbEntity
  8
0
100
AcDbVertex
100
AcDbPolygonMeshVertex
 10
0.0461999999999999
 20
-1.845499999999999
 30
2.06
 70
    64
  0
VERTEX
  5
65991
330
65988
100
AcDbEntity
  8
0
100
AcDbVertex
100
AcDbPolygonMeshVertex
 10
0.0461999999999999
 20
-2.057499999999999
 30
2.06
 70
    64
  0
VERTEX
  5
65992
330
65988
100
AcDbEntity
  8
0
100
AcDbVertex
100
AcDbPolygonMeshVertex
 10
1.719199999999999
 20
-1.845499999999999
 30
2.319
 70
    64
  0
VERTEX
  5
65993
330
65988
100
AcDbEntity
  8
0
100
AcDbVertex
100
AcDbPolygonMeshVertex
 10
1.719199999999999
 20
-1.845499999999999
 30
2.06
 70
    64
  0
VERTEX
  5
65994
330
65988
100
AcDbEntity
  8
0
100
AcDbVertex
100
AcDbPolygonMeshVertex
 10
1.719199999999999
 20
-2.057499999999999
 30
2.06
 70
    64
  0
VERTEX
  5
65995
330
65988
100
AcDbEntity
  8
0
100
AcDbVertex
100
AcDbPolygonMeshVertex
 10
1.719199999999999
 20
-1.845499999999999
 30
2.319
 70
    64
  0
VERTEX
  5
65996
330
65988
100
AcDbEntity
  8
0
100
AcDbVertex
100
AcDbPolygonMeshVertex
 10
1.719199999999999
 20
-1.845499999999999
 30
2.319
 70
    64
  0
VERTEX
  5
65997
330
65988
100
AcDbEntity
  8
0
100
AcDbVertex
100
AcDbPolygonMeshVertex
 10
1.719199999999999
 20
-2.057499999999999
 30
2.319
 70
    64
  0
VERTEX
  5
65998
330
65988
100
AcDbEntity
  8
0
100
AcDbVertex
100
AcDbPolygonMeshVertex
 10
0.0461999999999999
 20
-1.845499999999999
 30
2.319
 70
    64
  0
VERTEX
  5
65999
330
65988
100
AcDbEntity
  8
0
100
AcDbVertex
100
AcDbPolygonMeshVertex
 10
0.0461999999999999
 20
-1.845499999999999
 30
2.319
 70
    64
  0
VERTEX
  5
6599A
330
65988
100
AcDbEntity
  8
0
100
AcDbVertex
100
AcDbPolygonMeshVertex
 10
0.0461999999999999
 20
-2.057499999999999
 30
2.319
 70
    64
  0
SEQEND
  5
6599B
330
65988
100
AcDbEntity
  8
0
  0
POLYLINE
  5
6599C
330
458D6
100
AcDbEntity
  8
0
100
AcDbPolygonMesh
 66
     1
 10
0.0
 20
0.0
 30
0.0
 70
    16
 71
     6
 72
     3
  0
VERTEX
  5
6599D
330
6599C
100
AcDbEntity
  8
0
100
AcDbVertex
100
AcDbPolygonMeshVertex
 10
1.765199999999999
 20
-1.9685
 30
2.06
 70
    64
  0
VERTEX
  5
6599E
330
6599C
100
AcDbEntity
  8
0
100
AcDbVertex
100
AcDbPolygonMeshVertex
 10
1.765199999999999
 20
-1.9685
 30
1.318
 70
    64
  0
VERTEX
  5
6599F
330
6599C
100
AcDbEntity
  8
0
100
AcDbVertex
100
AcDbPolygonMeshVertex
 10
1.765199999999999
 20
-1.9685
 30
1.318
 70
    64
  0
VERTEX
  5
659A0
330
6599C
100
AcDbEntity
  8
0
100
AcDbVertex
100
AcDbPolygonMeshVertex
 10
0.0002000000000001
 20
-1.9685
 30
2.06
 70
    64
  0
VERTEX
  5
659A1
330
6599C
100
AcDbEntity
  8
0
100
AcDbVertex
100
AcDbPolygonMeshVertex
 10
0.0002000000000001
 20
-1.9685
 30
1.318
 70
    64
  0
VERTEX
  5
659A2
330
6599C
100
AcDbEntity
  8
0
100
AcDbVertex
100
AcDbPolygonMeshVertex
 10
0.0002000000000001
 20
-1.9685
 30
1.318
 70
    64
  0
VERTEX
  5
659A3
330
6599C
100
AcDbEntity
  8
0
100
AcDbVertex
100
AcDbPolygonMeshVertex
 10
0.0002000000000001
 20
0.5215000000000001
 30
2.06
 70
    64
  0
VERTEX
  5
659A4
330
6599C
100
AcDbEntity
  8
0
100
AcDbVertex
100
AcDbPolygonMeshVertex
 10
0.0002000000000001
 20
0.5215000000000001
 30
1.318
 70
    64
  0
VERTEX
  5
659A5
330
6599C
100
AcDbEntity
  8
0
100
AcDbVertex
100
AcDbPolygonMeshVertex
 10
0.0002000000000001
 20
-1.9685
 30
1.318
 70
    64
  0
VERTEX
  5
659A6
330
6599C
100
AcDbEntity
  8
0
100
AcDbVertex
100
AcDbPolygonMeshVertex
 10
1.765199999999999
 20
0.5215000000000001
 30
2.06
 70
    64
  0
VERTEX
  5
659A7
330
6599C
100
AcDbEntity
  8
0
100
AcDbVertex
100
AcDbPolygonMeshVertex
 10
1.765199999999999
 20
0.5215000000000001
 30
1.318
 70
    64
  0
VERTEX
  5
659A8
330
6599C
100
AcDbEntity
  8
0
100
AcDbVertex
100
AcDbPolygonMeshVertex
 10
1.765199999999999
 20
-1.9685
 30
1.318
 70
    64
  0
VERTEX
  5
659A9
330
6599C
100
AcDbEntity
  8
0
100
AcDbVertex
100
AcDbPolygonMeshVertex
 10
1.765199999999999
 20
0.5215000000000001
 30
2.06
 70
    64
  0
VERTEX
  5
659AA
330
6599C
100
AcDbEntity
  8
0
100
AcDbVertex
100
AcDbPolygonMeshVertex
 10
1.765199999999999
 20
0.5215000000000001
 30
2.06
 70
    64
  0
VERTEX
  5
659AB
330
6599C
100
AcDbEntity
  8
0
100
AcDbVertex
100
AcDbPolygonMeshVertex
 10
1.765199999999999
 20
-1.9685
 30
2.06
 70
    64
  0
VERTEX
  5
659AC
330
6599C
100
AcDbEntity
  8
0
100
AcDbVertex
100
AcDbPolygonMeshVertex
 10
0.0002000000000001
 20
0.5215000000000001
 30
2.06
 70
    64
  0
VERTEX
  5
659AD
330
6599C
100
AcDbEntity
  8
0
100
AcDbVertex
100
AcDbPolygonMeshVertex
 10
0.0002000000000001
 20
0.5215000000000001
 30
2.06
 70
    64
  0
VERTEX
  5
659AE
330
6599C
100
AcDbEntity
  8
0
100
AcDbVertex
100
AcDbPolygonMeshVertex
 10
0.0002000000000001
 20
-1.9685
 30
2.06
 70
    64
  0
SEQEND
  5
659AF
330
6599C
100
AcDbEntity
  8
0
  0
POLYLINE
  5
659B0
330
458D6
100
AcDbEntity
  8
0
100
AcDbPolygonMesh
 66
     1
 10
0.0
 20
0.0
 30
0.0
 70
    16
 71
     6
 72
     3
  0
VERTEX
  5
659B1
330
659B0
100
AcDbEntity
  8
0
100
AcDbVertex
100
AcDbPolygonMeshVertex
 10
0.42995
 20
-1.985499999999999
 30
2.929
 70
    64
  0
VERTEX
  5
659B2
330
659B0
100
AcDbEntity
  8
0
100
AcDbVertex
100
AcDbPolygonMeshVertex
 10
0.42995
 20
-1.985499999999999
 30
2.319
 70
    64
  0
VERTEX
  5
659B3
330
659B0
100
AcDbEntity
  8
0
100
AcDbVertex
100
AcDbPolygonMeshVertex
 10
0.42995
 20
-1.985499999999999
 30
2.319
 70
    64
  0
VERTEX
  5
659B4
330
659B0
100
AcDbEntity
  8
0
100
AcDbVertex
100
AcDbPolygonMeshVertex
 10
0.4759499999999998
 20
-1.985499999999999
 30
2.929
 70
    64
  0
VERTEX
  5
659B5
330
659B0
100
AcDbEntity
  8
0
100
AcDbVertex
100
AcDbPolygonMeshVertex
 10
0.4759499999999998
 20
-1.985499999999999
 30
2.319
 70
    64
  0
VERTEX
  5
659B6
330
659B0
100
AcDbEntity
  8
0
100
AcDbVertex
100
AcDbPolygonMeshVertex
 10
0.4759499999999998
 20
-1.985499999999999
 30
2.319
 70
    64
  0
VERTEX
  5
659B7
330
659B0
100
AcDbEntity
  8
0
100
AcDbVertex
100
AcDbPolygonMeshVertex
 10
0.4759499999999998
 20
-1.845499999999999
 30
2.929
 70
    64
  0
VERTEX
  5
659B8
330
659B0
100
AcDbEntity
  8
0
100
AcDbVertex
100
AcDbPolygonMeshVertex
 10
0.4759499999999998
 20
-1.845499999999999
 30
2.319
 70
    64
  0
VERTEX
  5
659B9
330
659B0
100
AcDbEntity
  8
0
100
AcDbVertex
100
AcDbPolygonMeshVertex
 10
0.4759499999999998
 20
-1.985499999999999
 30
2.319
 70
    64
  0
VERTEX
  5
659BA
330
659B0
100
AcDbEntity
  8
0
100
AcDbVertex
100
AcDbPolygonMeshVertex
 10
0.42995
 20
-1.845499999999999
 30
2.929
 70
    64
  0
VERTEX
  5
659BB
330
659B0
100
AcDbEntity
  8
0
100
AcDbVertex
100
AcDbPolygonMeshVertex
 10
0.42995
 20
-1.845499999999999
 30
2.319
 70
    64
  0
VERTEX
  5
659BC
330
659B0
100
AcDbEntity
  8
0
100
AcDbVertex
100
AcDbPolygonMeshVertex
 10
0.42995
 20
-1.985499999999999
 30
2.319
 70
    64
  0
VERTEX
  5
659BD
330
659B0
100
AcDbEntity
  8
0
100
AcDbVertex
100
AcDbPolygonMeshVertex
 10
0.42995
 20
-1.845499999999999
 30
2.929
 70
    64
  0
VERTEX
  5
659BE
330
659B0
100
AcDbEntity
  8
0
100
AcDbVertex
100
AcDbPolygonMeshVertex
 10
0.42995
 20
-1.845499999999999
 30
2.929
 70
    64
  0
VERTEX
  5
659BF
330
659B0
100
AcDbEntity
  8
0
100
AcDbVertex
100
AcDbPolygonMeshVertex
 10
0.42995
 20
-1.985499999999999
 30
2.929
 70
    64
  0
VERTEX
  5
659C0
330
659B0
100
AcDbEntity
  8
0
100
AcDbVertex
100
AcDbPolygonMeshVertex
 10
0.4759499999999998
 20
-1.845499999999999
 30
2.929
 70
    64
  0
VERTEX
  5
659C1
330
659B0
100
AcDbEntity
  8
0
100
AcDbVertex
100
AcDbPolygonMeshVertex
 10
0.4759499999999998
 20
-1.845499999999999
 30
2.929
 70
    64
  0
VERTEX
  5
659C2
330
659B0
100
AcDbEntity
  8
0
100
AcDbVertex
100
AcDbPolygonMeshVertex
 10
0.4759499999999998
 20
-1.985499999999999
 30
2.929
 70
    64
  0
SEQEND
  5
659C3
330
659B0
100
AcDbEntity
  8
0
  0
LINE
  5
659C4
330
458D6
100
AcDbEntity
  8
0
100
AcDbLine
 10
0.9057
 20
-1.845499999999999
 30
2.646
 11
1.28945
 21
-1.845499999999999
 31
2.646
  0
LINE
  5
659C5
330
458D6
100
AcDbEntity
  8
0
100
AcDbLine
 10
1.33545
 20
-1.845499999999999
 30
2.646
 11
1.719199999999999
 21
-1.845499999999999
 31
2.646
  0
LINE
  5
659C6
330
458D6
100
AcDbEntity
  8
0
100
AcDbLine
 10
0.4759499999999998
 20
-1.845499999999999
 30
2.646
 11
0.8596999999999997
 21
-1.845499999999999
 31
2.646
  0
LINE
  5
659C7
330
458D6
100
AcDbEntity
  8
0
100
AcDbLine
 10
0.0462000000000004
 20
-1.845499999999999
 30
2.646
 11
0.42995
 21
-1.845499999999999
 31
2.646
  0
POLYLINE
  5
659C8
330
458D6
100
AcDbEntity
  8
0
100
AcDbPolygonMesh
 66
     1
 10
0.0
 20
0.0
 30
0.0
 70
    16
 71
     6
 72
     3
  0
VERTEX
  5
659C9
330
659C8
100
AcDbEntity
  8
0
100
AcDbVertex
100
AcDbPolygonMeshVertex
 10
0.0461999999999999
 20
-1.985499999999999
 30
2.929
 70
    64
  0
VERTEX
  5
659CA
330
659C8
100
AcDbEntity
  8
0
100
AcDbVertex
100
AcDbPolygonMeshVertex
 10
0.0461999999999999
 20
-1.985499999999999
 30
2.06
 70
    64
  0
VERTEX
  5
659CB
330
659C8
100
AcDbEntity
  8
0
100
AcDbVertex
100
AcDbPolygonMeshVertex
 10
0.0461999999999999
 20
-1.985499999999999
 30
2.06
 70
    64
  0
VERTEX
  5
659CC
330
659C8
100
AcDbEntity
  8
0
100
AcDbVertex
100
AcDbPolygonMeshVertex
 10
0.0002000000000001
 20
-1.985499999999999
 30
2.929
 70
    64
  0
VERTEX
  5
659CD
330
659C8
100
AcDbEntity
  8
0
100
AcDbVertex
100
AcDbPolygonMeshVertex
 10
0.0002000000000001
 20
-1.985499999999999
 30
2.06
 70
    64
  0
VERTEX
  5
659CE
330
659C8
100
AcDbEntity
  8
0
100
AcDbVertex
100
AcDbPolygonMeshVertex
 10
0.0002000000000001
 20
-1.985499999999999
 30
2.06
 70
    64
  0
VERTEX
  5
659CF
330
659C8
100
AcDbEntity
  8
0
100
AcDbVertex
100
AcDbPolygonMeshVertex
 10
0.0002000000000001
 20
-1.845499999999999
 30
2.929
 70
    64
  0
VERTEX
  5
659D0
330
659C8
100
AcDbEntity
  8
0
100
AcDbVertex
100
AcDbPolygonMeshVertex
 10
0.0002000000000001
 20
-1.845499999999999
 30
2.06
 70
    64
  0
VERTEX
  5
659D1
330
659C8
100
AcDbEntity
  8
0
100
AcDbVertex
100
AcDbPolygonMeshVertex
 10
0.0002000000000001
 20
-1.985499999999999
 30
2.06
 70
    64
  0
VERTEX
  5
659D2
330
659C8
100
AcDbEntity
  8
0
100
AcDbVertex
100
AcDbPolygonMeshVertex
 10
0.0461999999999999
 20
-1.845499999999999
 30
2.929
 70
    64
  0
VERTEX
  5
659D3
330
659C8
100
AcDbEntity
  8
0
100
AcDbVertex
100
AcDbPolygonMeshVertex
 10
0.0461999999999999
 20
-1.845499999999999
 30
2.06
 70
    64
  0
VERTEX
  5
659D4
330
659C8
100
AcDbEntity
  8
0
100
AcDbVertex
100
AcDbPolygonMeshVertex
 10
0.0461999999999999
 20
-1.985499999999999
 30
2.06
 70
    64
  0
VERTEX
  5
659D5
330
659C8
100
AcDbEntity
  8
0
100
AcDbVertex
100
AcDbPolygonMeshVertex
 10
0.0461999999999999
 20
-1.845499999999999
 30
2.929
 70
    64
  0
VERTEX
  5
659D6
330
659C8
100
AcDbEntity
  8
0
100
AcDbVertex
100
AcDbPolygonMeshVertex
 10
0.0461999999999999
 20
-1.845499999999999
 30
2.929
 70
    64
  0
VERTEX
  5
659D7
330
659C8
100
AcDbEntity
  8
0
100
AcDbVertex
100
AcDbPolygonMeshVertex
 10
0.0461999999999999
 20
-1.985499999999999
 30
2.929
 70
    64
  0
VERTEX
  5
659D8
330
659C8
100
AcDbEntity
  8
0
100
AcDbVertex
100
AcDbPolygonMeshVertex
 10
0.0002000000000001
 20
-1.845499999999999
 30
2.929
 70
    64
  0
VERTEX
  5
659D9
330
659C8
100
AcDbEntity
  8
0
100
AcDbVertex
100
AcDbPolygonMeshVertex
 10
0.0002000000000001
 20
-1.845499999999999
 30
2.929
 70
    64
  0
VERTEX
  5
659DA
330
659C8
100
AcDbEntity
  8
0
100
AcDbVertex
100
AcDbPolygonMeshVertex
 10
0.0002000000000001
 20
-1.985499999999999
 30
2.929
 70
    64
  0
SEQEND
  5
659DB
330
659C8
100
AcDbEntity
  8
0
  0
POLYLINE
  5
659DC
330
458D6
100
AcDbEntity
  8
0
100
AcDbPolygonMesh
 66
     1
 10
0.0
 20
0.0
 30
0.0
 70
    16
 71
     6
 72
     3
  0
VERTEX
  5
659DD
330
659DC
100
AcDbEntity
  8
0
100
AcDbVertex
100
AcDbPolygonMeshVertex
 10
1.765199999999999
 20
-1.985499999999999
 30
2.929
 70
    64
  0
VERTEX
  5
659DE
330
659DC
100
AcDbEntity
  8
0
100
AcDbVertex
100
AcDbPolygonMeshVertex
 10
1.765199999999999
 20
-1.985499999999999
 30
2.06
 70
    64
  0
VERTEX
  5
659DF
330
659DC
100
AcDbEntity
  8
0
100
AcDbVertex
100
AcDbPolygonMeshVertex
 10
1.765199999999999
 20
-1.985499999999999
 30
2.06
 70
    64
  0
VERTEX
  5
659E0
330
659DC
100
AcDbEntity
  8
0
100
AcDbVertex
100
AcDbPolygonMeshVertex
 10
1.7192
 20
-1.985499999999999
 30
2.929
 70
    64
  0
VERTEX
  5
659E1
330
659DC
100
AcDbEntity
  8
0
100
AcDbVertex
100
AcDbPolygonMeshVertex
 10
1.7192
 20
-1.985499999999999
 30
2.06
 70
    64
  0
VERTEX
  5
659E2
330
659DC
100
AcDbEntity
  8
0
100
AcDbVertex
100
AcDbPolygonMeshVertex
 10
1.7192
 20
-1.985499999999999
 30
2.06
 70
    64
  0
VERTEX
  5
659E3
330
659DC
100
AcDbEntity
  8
0
100
AcDbVertex
100
AcDbPolygonMeshVertex
 10
1.7192
 20
-1.845499999999999
 30
2.929
 70
    64
  0
VERTEX
  5
659E4
330
659DC
100
AcDbEntity
  8
0
100
AcDbVertex
100
AcDbPolygonMeshVertex
 10
1.7192
 20
-1.845499999999999
 30
2.06
 70
    64
  0
VERTEX
  5
659E5
330
659DC
100
AcDbEntity
  8
0
100
AcDbVertex
100
AcDbPolygonMeshVertex
 10
1.7192
 20
-1.985499999999999
 30
2.06
 70
    64
  0
VERTEX
  5
659E6
330
659DC
100
AcDbEntity
  8
0
100
AcDbVertex
100
AcDbPolygonMeshVertex
 10
1.765199999999999
 20
-1.845499999999999
 30
2.929
 70
    64
  0
VERTEX
  5
659E7
330
659DC
100
AcDbEntity
  8
0
100
AcDbVertex
100
AcDbPolygonMeshVertex
 10
1.765199999999999
 20
-1.845499999999999
 30
2.06
 70
    64
  0
VERTEX
  5
659E8
330
659DC
100
AcDbEntity
  8
0
100
AcDbVertex
100
AcDbPolygonMeshVertex
 10
1.765199999999999
 20
-1.985499999999999
 30
2.06
 70
    64
  0
VERTEX
  5
659E9
330
659DC
100
AcDbEntity
  8
0
100
AcDbVertex
100
AcDbPolygonMeshVertex
 10
1.765199999999999
 20
-1.845499999999999
 30
2.929
 70
    64
  0
VERTEX
  5
659EA
330
659DC
100
AcDbEntity
  8
0
100
AcDbVertex
100
AcDbPolygonMeshVertex
 10
1.765199999999999
 20
-1.845499999999999
 30
2.929
 70
    64
  0
VERTEX
  5
659EB
330
659DC
100
AcDbEntity
  8
0
100
AcDbVertex
100
AcDbPolygonMeshVertex
 10
1.765199999999999
 20
-1.985499999999999
 30
2.929
 70
    64
  0
VERTEX
  5
659EC
330
659DC
100
AcDbEntity
  8
0
100
AcDbVertex
100
AcDbPolygonMeshVertex
 10
1.7192
 20
-1.845499999999999
 30
2.929
 70
    64
  0
VERTEX
  5
659ED
330
659DC
100
AcDbEntity
  8
0
100
AcDbVertex
100
AcDbPolygonMeshVertex
 10
1.7192
 20
-1.845499999999999
 30
2.929
 70
    64
  0
VERTEX
  5
659EE
330
659DC
100
AcDbEntity
  8
0
100
AcDbVertex
100
AcDbPolygonMeshVertex
 10
1.7192
 20
-1.985499999999999
 30
2.929
 70
    64
  0
SEQEND
  5
659EF
330
659DC
100
AcDbEntity
  8
0
  0
POLYLINE
  5
659F0
330
458D6
100
AcDbEntity
  8
0
100
AcDbPolygonMesh
 66
     1
 10
0.0
 20
0.0
 30
0.0
 70
    16
 71
     6
 72
     3
  0
VERTEX
  5
659F1
330
659F0
100
AcDbEntity
  8
0
100
AcDbVertex
100
AcDbPolygonMeshVertex
 10
1.765199999999999
 20
0.5384999999999996
 30
2.929
 70
    64
  0
VERTEX
  5
659F2
330
659F0
100
AcDbEntity
  8
0
100
AcDbVertex
100
AcDbPolygonMeshVertex
 10
1.765199999999999
 20
0.5384999999999996
 30
2.06
 70
    64
  0
VERTEX
  5
659F3
330
659F0
100
AcDbEntity
  8
0
100
AcDbVertex
100
AcDbPolygonMeshVertex
 10
1.765199999999999
 20
0.5384999999999996
 30
2.06
 70
    64
  0
VERTEX
  5
659F4
330
659F0
100
AcDbEntity
  8
0
100
AcDbVertex
100
AcDbPolygonMeshVertex
 10
1.7192
 20
0.5384999999999996
 30
2.929
 70
    64
  0
VERTEX
  5
659F5
330
659F0
100
AcDbEntity
  8
0
100
AcDbVertex
100
AcDbPolygonMeshVertex
 10
1.7192
 20
0.5384999999999996
 30
2.06
 70
    64
  0
VERTEX
  5
659F6
330
659F0
100
AcDbEntity
  8
0
100
AcDbVertex
100
AcDbPolygonMeshVertex
 10
1.7192
 20
0.5384999999999996
 30
2.06
 70
    64
  0
VERTEX
  5
659F7
330
659F0
100
AcDbEntity
  8
0
100
AcDbVertex
100
AcDbPolygonMeshVertex
 10
1.7192
 20
0.3984999999999994
 30
2.929
 70
    64
  0
VERTEX
  5
659F8
330
659F0
100
AcDbEntity
  8
0
100
AcDbVertex
100
AcDbPolygonMeshVertex
 10
1.7192
 20
0.3984999999999994
 30
2.06
 70
    64
  0
VERTEX
  5
659F9
330
659F0
100
AcDbEntity
  8
0
100
AcDbVertex
100
AcDbPolygonMeshVertex
 10
1.7192
 20
0.5384999999999996
 30
2.06
 70
    64
  0
VERTEX
  5
659FA
330
659F0
100
AcDbEntity
  8
0
100
AcDbVertex
100
AcDbPolygonMeshVertex
 10
1.765199999999999
 20
0.3984999999999994
 30
2.929
 70
    64
  0
VERTEX
  5
659FB
330
659F0
100
AcDbEntity
  8
0
100
AcDbVertex
100
AcDbPolygonMeshVertex
 10
1.765199999999999
 20
0.3984999999999994
 30
2.06
 70
    64
  0
VERTEX
  5
659FC
330
659F0
100
AcDbEntity
  8
0
100
AcDbVertex
100
AcDbPolygonMeshVertex
 10
1.765199999999999
 20
0.5384999999999996
 30
2.06
 70
    64
  0
VERTEX
  5
659FD
330
659F0
100
AcDbEntity
  8
0
100
AcDbVertex
100
AcDbPolygonMeshVertex
 10
1.765199999999999
 20
0.3984999999999994
 30
2.929
 70
    64
  0
VERTEX
  5
659FE
330
659F0
100
AcDbEntity
  8
0
100
AcDbVertex
100
AcDbPolygonMeshVertex
 10
1.765199999999999
 20
0.3984999999999994
 30
2.929
 70
    64
  0
VERTEX
  5
659FF
330
659F0
100
AcDbEntity
  8
0
100
AcDbVertex
100
AcDbPolygonMeshVertex
 10
1.765199999999999
 20
0.5384999999999996
 30
2.929
 70
    64
  0
VERTEX
  5
65A00
330
659F0
100
AcDbEntity
  8
0
100
AcDbVertex
100
AcDbPolygonMeshVertex
 10
1.7192
 20
0.3984999999999994
 30
2.929
 70
    64
  0
VERTEX
  5
65A01
330
659F0
100
AcDbEntity
  8
0
100
AcDbVertex
100
AcDbPolygonMeshVertex
 10
1.7192
 20
0.3984999999999994
 30
2.929
 70
    64
  0
VERTEX
  5
65A02
330
659F0
100
AcDbEntity
  8
0
100
AcDbVertex
100
AcDbPolygonMeshVertex
 10
1.7192
 20
0.5384999999999996
 30
2.929
 70
    64
  0
SEQEND
  5
65A03
330
659F0
100
AcDbEntity
  8
0
  0
LINE
  5
65A04
330
458D6
100
AcDbEntity
  8
0
100
AcDbLine
 10
1.33545
 20
0.3984999999999994
 30
2.646
 11
1.719199999999999
 21
0.3984999999999994
 31
2.646
  0
POLYLINE
  5
65A05
330
458D6
100
AcDbEntity
  8
0
100
AcDbPolygonMesh
 66
     1
 10
0.0
 20
0.0
 30
0.0
 70
    16
 71
     6
 72
     3
  0
VERTEX
  5
65A06
330
65A05
100
AcDbEntity
  8
0
100
AcDbVertex
100
AcDbPolygonMeshVertex
 10
1.33545
 20
0.5384999999999996
 30
2.929
 70
    64
  0
VERTEX
  5
65A07
330
65A05
100
AcDbEntity
  8
0
100
AcDbVertex
100
AcDbPolygonMeshVertex
 10
1.33545
 20
0.5384999999999996
 30
2.319
 70
    64
  0
VERTEX
  5
65A08
330
65A05
100
AcDbEntity
  8
0
100
AcDbVertex
100
AcDbPolygonMeshVertex
 10
1.33545
 20
0.5384999999999996
 30
2.319
 70
    64
  0
VERTEX
  5
65A09
330
65A05
100
AcDbEntity
  8
0
100
AcDbVertex
100
AcDbPolygonMeshVertex
 10
1.28945
 20
0.5384999999999996
 30
2.929
 70
    64
  0
VERTEX
  5
65A0A
330
65A05
100
AcDbEntity
  8
0
100
AcDbVertex
100
AcDbPolygonMeshVertex
 10
1.28945
 20
0.5384999999999996
 30
2.319
 70
    64
  0
VERTEX
  5
65A0B
330
65A05
100
AcDbEntity
  8
0
100
AcDbVertex
100
AcDbPolygonMeshVertex
 10
1.28945
 20
0.5384999999999996
 30
2.319
 70
    64
  0
VERTEX
  5
65A0C
330
65A05
100
AcDbEntity
  8
0
100
AcDbVertex
100
AcDbPolygonMeshVertex
 10
1.28945
 20
0.3984999999999994
 30
2.929
 70
    64
  0
VERTEX
  5
65A0D
330
65A05
100
AcDbEntity
  8
0
100
AcDbVertex
100
AcDbPolygonMeshVertex
 10
1.28945
 20
0.3984999999999994
 30
2.319
 70
    64
  0
VERTEX
  5
65A0E
330
65A05
100
AcDbEntity
  8
0
100
AcDbVertex
100
AcDbPolygonMeshVertex
 10
1.28945
 20
0.5384999999999996
 30
2.319
 70
    64
  0
VERTEX
  5
65A0F
330
65A05
100
AcDbEntity
  8
0
100
AcDbVertex
100
AcDbPolygonMeshVertex
 10
1.33545
 20
0.3984999999999994
 30
2.929
 70
    64
  0
VERTEX
  5
65A10
330
65A05
100
AcDbEntity
  8
0
100
AcDbVertex
100
AcDbPolygonMeshVertex
 10
1.33545
 20
0.3984999999999994
 30
2.319
 70
    64
  0
VERTEX
  5
65A11
330
65A05
100
AcDbEntity
  8
0
100
AcDbVertex
100
AcDbPolygonMeshVertex
 10
1.33545
 20
0.5384999999999996
 30
2.319
 70
    64
  0
VERTEX
  5
65A12
330
65A05
100
AcDbEntity
  8
0
100
AcDbVertex
100
AcDbPolygonMeshVertex
 10
1.33545
 20
0.3984999999999994
 30
2.929
 70
    64
  0
VERTEX
  5
65A13
330
65A05
100
AcDbEntity
  8
0
100
AcDbVertex
100
AcDbPolygonMeshVertex
 10
1.33545
 20
0.3984999999999994
 30
2.929
 70
    64
  0
VERTEX
  5
65A14
330
65A05
100
AcDbEntity
  8
0
100
AcDbVertex
100
AcDbPolygonMeshVertex
 10
1.33545
 20
0.5384999999999996
 30
2.929
 70
    64
  0
VERTEX
  5
65A15
330
65A05
100
AcDbEntity
  8
0
100
AcDbVertex
100
AcDbPolygonMeshVertex
 10
1.28945
 20
0.3984999999999994
 30
2.929
 70
    64
  0
VERTEX
  5
65A16
330
65A05
100
AcDbEntity
  8
0
100
AcDbVertex
100
AcDbPolygonMeshVertex
 10
1.28945
 20
0.3984999999999994
 30
2.929
 70
    64
  0
VERTEX
  5
65A17
330
65A05
100
AcDbEntity
  8
0
100
AcDbVertex
100
AcDbPolygonMeshVertex
 10
1.28945
 20
0.5384999999999996
 30
2.929
 70
    64
  0
SEQEND
  5
65A18
330
65A05
100
AcDbEntity
  8
0
  0
LINE
  5
65A19
330
458D6
100
AcDbEntity
  8
0
100
AcDbLine
 10
0.9057
 20
0.3984999999999994
 30
2.646
 11
1.28945
 21
0.3984999999999994
 31
2.646
  0
POLYLINE
  5
65A1A
330
458D6
100
AcDbEntity
  8
0
100
AcDbPolygonMesh
 66
     1
 10
0.0
 20
0.0
 30
0.0
 70
    16
 71
     6
 72
     3
  0
VERTEX
  5
65A1B
330
65A1A
100
AcDbEntity
  8
0
100
AcDbVertex
100
AcDbPolygonMeshVertex
 10
0.9057
 20
0.5384999999999996
 30
2.929
 70
    64
  0
VERTEX
  5
65A1C
330
65A1A
100
AcDbEntity
  8
0
100
AcDbVertex
100
AcDbPolygonMeshVertex
 10
0.9057
 20
0.5384999999999996
 30
2.319
 70
    64
  0
VERTEX
  5
65A1D
330
65A1A
100
AcDbEntity
  8
0
100
AcDbVertex
100
AcDbPolygonMeshVertex
 10
0.9057
 20
0.5384999999999996
 30
2.319
 70
    64
  0
VERTEX
  5
65A1E
330
65A1A
100
AcDbEntity
  8
0
100
AcDbVertex
100
AcDbPolygonMeshVertex
 10
0.8596999999999997
 20
0.5384999999999996
 30
2.929
 70
    64
  0
VERTEX
  5
65A1F
330
65A1A
100
AcDbEntity
  8
0
100
AcDbVertex
100
AcDbPolygonMeshVertex
 10
0.8596999999999997
 20
0.5384999999999996
 30
2.319
 70
    64
  0
VERTEX
  5
65A20
330
65A1A
100
AcDbEntity
  8
0
100
AcDbVertex
100
AcDbPolygonMeshVertex
 10
0.8596999999999997
 20
0.5384999999999996
 30
2.319
 70
    64
  0
VERTEX
  5
65A21
330
65A1A
100
AcDbEntity
  8
0
100
AcDbVertex
100
AcDbPolygonMeshVertex
 10
0.8596999999999997
 20
0.3984999999999994
 30
2.929
 70
    64
  0
VERTEX
  5
65A22
330
65A1A
100
AcDbEntity
  8
0
100
AcDbVertex
100
AcDbPolygonMeshVertex
 10
0.8596999999999997
 20
0.3984999999999994
 30
2.319
 70
    64
  0
VERTEX
  5
65A23
330
65A1A
100
AcDbEntity
  8
0
100
AcDbVertex
100
AcDbPolygonMeshVertex
 10
0.8596999999999997
 20
0.5384999999999996
 30
2.319
 70
    64
  0
VERTEX
  5
65A24
330
65A1A
100
AcDbEntity
  8
0
100
AcDbVertex
100
AcDbPolygonMeshVertex
 10
0.9057
 20
0.3984999999999994
 30
2.929
 70
    64
  0
VERTEX
  5
65A25
330
65A1A
100
AcDbEntity
  8
0
100
AcDbVertex
100
AcDbPolygonMeshVertex
 10
0.9057
 20
0.3984999999999994
 30
2.319
 70
    64
  0
VERTEX
  5
65A26
330
65A1A
100
AcDbEntity
  8
0
100
AcDbVertex
100
AcDbPolygonMeshVertex
 10
0.9057
 20
0.5384999999999996
 30
2.319
 70
    64
  0
VERTEX
  5
65A27
330
65A1A
100
AcDbEntity
  8
0
100
AcDbVertex
100
AcDbPolygonMeshVertex
 10
0.9057
 20
0.3984999999999994
 30
2.929
 70
    64
  0
VERTEX
  5
65A28
330
65A1A
100
AcDbEntity
  8
0
100
AcDbVertex
100
AcDbPolygonMeshVertex
 10
0.9057
 20
0.3984999999999994
 30
2.929
 70
    64
  0
VERTEX
  5
65A29
330
65A1A
100
AcDbEntity
  8
0
100
AcDbVertex
100
AcDbPolygonMeshVertex
 10
0.9057
 20
0.5384999999999996
 30
2.929
 70
    64
  0
VERTEX
  5
65A2A
330
65A1A
100
AcDbEntity
  8
0
100
AcDbVertex
100
AcDbPolygonMeshVertex
 10
0.8596999999999997
 20
0.3984999999999994
 30
2.929
 70
    64
  0
VERTEX
  5
65A2B
330
65A1A
100
AcDbEntity
  8
0
100
AcDbVertex
100
AcDbPolygonMeshVertex
 10
0.8596999999999997
 20
0.3984999999999994
 30
2.929
 70
    64
  0
VERTEX
  5
65A2C
330
65A1A
100
AcDbEntity
  8
0
100
AcDbVertex
100
AcDbPolygonMeshVertex
 10
0.8596999999999997
 20
0.5384999999999996
 30
2.929
 70
    64
  0
SEQEND
  5
65A2D
330
65A1A
100
AcDbEntity
  8
0
  0
POLYLINE
  5
65A2E
330
458D6
100
AcDbEntity
  8
0
100
AcDbPolygonMesh
 66
     1
 10
0.0
 20
0.0
 30
0.0
 70
    16
 71
     6
 72
     3
  0
VERTEX
  5
65A2F
330
65A2E
100
AcDbEntity
  8
0
100
AcDbVertex
100
AcDbPolygonMeshVertex
 10
0.42995
 20
0.5384999999999996
 30
2.929
 70
    64
  0
VERTEX
  5
65A30
330
65A2E
100
AcDbEntity
  8
0
100
AcDbVertex
100
AcDbPolygonMeshVertex
 10
0.42995
 20
0.5384999999999996
 30
2.319
 70
    64
  0
VERTEX
  5
65A31
330
65A2E
100
AcDbEntity
  8
0
100
AcDbVertex
100
AcDbPolygonMeshVertex
 10
0.42995
 20
0.5384999999999996
 30
2.319
 70
    64
  0
VERTEX
  5
65A32
330
65A2E
100
AcDbEntity
  8
0
100
AcDbVertex
100
AcDbPolygonMeshVertex
 10
0.4759499999999998
 20
0.5384999999999996
 30
2.929
 70
    64
  0
VERTEX
  5
65A33
330
65A2E
100
AcDbEntity
  8
0
100
AcDbVertex
100
AcDbPolygonMeshVertex
 10
0.4759499999999998
 20
0.5384999999999996
 30
2.319
 70
    64
  0
VERTEX
  5
65A34
330
65A2E
100
AcDbEntity
  8
0
100
AcDbVertex
100
AcDbPolygonMeshVertex
 10
0.4759499999999998
 20
0.5384999999999996
 30
2.319
 70
    64
  0
VERTEX
  5
65A35
330
65A2E
100
AcDbEntity
  8
0
100
AcDbVertex
100
AcDbPolygonMeshVertex
 10
0.4759499999999998
 20
0.3984999999999994
 30
2.929
 70
    64
  0
VERTEX
  5
65A36
330
65A2E
100
AcDbEntity
  8
0
100
AcDbVertex
100
AcDbPolygonMeshVertex
 10
0.4759499999999998
 20
0.3984999999999994
 30
2.319
 70
    64
  0
VERTEX
  5
65A37
330
65A2E
100
AcDbEntity
  8
0
100
AcDbVertex
100
AcDbPolygonMeshVertex
 10
0.4759499999999998
 20
0.5384999999999996
 30
2.319
 70
    64
  0
VERTEX
  5
65A38
330
65A2E
100
AcDbEntity
  8
0
100
AcDbVertex
100
AcDbPolygonMeshVertex
 10
0.42995
 20
0.3984999999999994
 30
2.929
 70
    64
  0
VERTEX
  5
65A39
330
65A2E
100
AcDbEntity
  8
0
100
AcDbVertex
100
AcDbPolygonMeshVertex
 10
0.42995
 20
0.3984999999999994
 30
2.319
 70
    64
  0
VERTEX
  5
65A3A
330
65A2E
100
AcDbEntity
  8
0
100
AcDbVertex
100
AcDbPolygonMeshVertex
 10
0.42995
 20
0.5384999999999996
 30
2.319
 70
    64
  0
VERTEX
  5
65A3B
330
65A2E
100
AcDbEntity
  8
0
100
AcDbVertex
100
AcDbPolygonMeshVertex
 10
0.42995
 20
0.3984999999999994
 30
2.929
 70
    64
  0
VERTEX
  5
65A3C
330
65A2E
100
AcDbEntity
  8
0
100
AcDbVertex
100
AcDbPolygonMeshVertex
 10
0.42995
 20
0.3984999999999994
 30
2.929
 70
    64
  0
VERTEX
  5
65A3D
330
65A2E
100
AcDbEntity
  8
0
100
AcDbVertex
100
AcDbPolygonMeshVertex
 10
0.42995
 20
0.5384999999999996
 30
2.929
 70
    64
  0
VERTEX
  5
65A3E
330
65A2E
100
AcDbEntity
  8
0
100
AcDbVertex
100
AcDbPolygonMeshVertex
 10
0.4759499999999998
 20
0.3984999999999994
 30
2.929
 70
    64
  0
VERTEX
  5
65A3F
330
65A2E
100
AcDbEntity
  8
0
100
AcDbVertex
100
AcDbPolygonMeshVertex
 10
0.4759499999999998
 20
0.3984999999999994
 30
2.929
 70
    64
  0
VERTEX
  5
65A40
330
65A2E
100
AcDbEntity
  8
0
100
AcDbVertex
100
AcDbPolygonMeshVertex
 10
0.4759499999999998
 20
0.5384999999999996
 30
2.929
 70
    64
  0
SEQEND
  5
65A41
330
65A2E
100
AcDbEntity
  8
0
  0
LINE
  5
65A42
330
458D6
100
AcDbEntity
  8
0
100
AcDbLine
 10
0.0462000000000004
 20
0.3984999999999994
 30
2.646
 11
0.42995
 21
0.3984999999999994
 31
2.646
  0
LINE
  5
65A43
330
458D6
100
AcDbEntity
  8
0
100
AcDbLine
 10
0.4759499999999998
 20
0.3984999999999994
 30
2.646
 11
0.8596999999999997
 21
0.3984999999999994
 31
2.646
  0
POLYLINE
  5
65A44
330
458D6
100
AcDbEntity
  8
0
100
AcDbPolygonMesh
 66
     1
 10
0.0
 20
0.0
 30
0.0
 70
    16
 71
     6
 72
     3
  0
VERTEX
  5
65A45
330
65A44
100
AcDbEntity
  8
0
100
AcDbVertex
100
AcDbPolygonMeshVertex
 10
0.0461999999999999
 20
0.5384999999999996
 30
2.929
 70
    64
  0
VERTEX
  5
65A46
330
65A44
100
AcDbEntity
  8
0
100
AcDbVertex
100
AcDbPolygonMeshVertex
 10
0.0461999999999999
 20
0.5384999999999996
 30
2.06
 70
    64
  0
VERTEX
  5
65A47
330
65A44
100
AcDbEntity
  8
0
100
AcDbVertex
100
AcDbPolygonMeshVertex
 10
0.0461999999999999
 20
0.5384999999999996
 30
2.06
 70
    64
  0
VERTEX
  5
65A48
330
65A44
100
AcDbEntity
  8
0
100
AcDbVertex
100
AcDbPolygonMeshVertex
 10
0.0002000000000001
 20
0.5384999999999996
 30
2.929
 70
    64
  0
VERTEX
  5
65A49
330
65A44
100
AcDbEntity
  8
0
100
AcDbVertex
100
AcDbPolygonMeshVertex
 10
0.0002000000000001
 20
0.5384999999999996
 30
2.06
 70
    64
  0
VERTEX
  5
65A4A
330
65A44
100
AcDbEntity
  8
0
100
AcDbVertex
100
AcDbPolygonMeshVertex
 10
0.0002000000000001
 20
0.5384999999999996
 30
2.06
 70
    64
  0
VERTEX
  5
65A4B
330
65A44
100
AcDbEntity
  8
0
100
AcDbVertex
100
AcDbPolygonMeshVertex
 10
0.0002000000000001
 20
0.3984999999999994
 30
2.929
 70
    64
  0
VERTEX
  5
65A4C
330
65A44
100
AcDbEntity
  8
0
100
AcDbVertex
100
AcDbPolygonMeshVertex
 10
0.0002000000000001
 20
0.3984999999999994
 30
2.06
 70
    64
  0
VERTEX
  5
65A4D
330
65A44
100
AcDbEntity
  8
0
100
AcDbVertex
100
AcDbPolygonMeshVertex
 10
0.0002000000000001
 20
0.5384999999999996
 30
2.06
 70
    64
  0
VERTEX
  5
65A4E
330
65A44
100
AcDbEntity
  8
0
100
AcDbVertex
100
AcDbPolygonMeshVertex
 10
0.0461999999999999
 20
0.3984999999999994
 30
2.929
 70
    64
  0
VERTEX
  5
65A4F
330
65A44
100
AcDbEntity
  8
0
100
AcDbVertex
100
AcDbPolygonMeshVertex
 10
0.0461999999999999
 20
0.3984999999999994
 30
2.06
 70
    64
  0
VERTEX
  5
65A50
330
65A44
100
AcDbEntity
  8
0
100
AcDbVertex
100
AcDbPolygonMeshVertex
 10
0.0461999999999999
 20
0.5384999999999996
 30
2.06
 70
    64
  0
VERTEX
  5
65A51
330
65A44
100
AcDbEntity
  8
0
100
AcDbVertex
100
AcDbPolygonMeshVertex
 10
0.0461999999999999
 20
0.3984999999999994
 30
2.929
 70
    64
  0
VERTEX
  5
65A52
330
65A44
100
AcDbEntity
  8
0
100
AcDbVertex
100
AcDbPolygonMeshVertex
 10
0.0461999999999999
 20
0.3984999999999994
 30
2.929
 70
    64
  0
VERTEX
  5
65A53
330
65A44
100
AcDbEntity
  8
0
100
AcDbVertex
100
AcDbPolygonMeshVertex
 10
0.0461999999999999
 20
0.5384999999999996
 30
2.929
 70
    64
  0
VERTEX
  5
65A54
330
65A44
100
AcDbEntity
  8
0
100
AcDbVertex
100
AcDbPolygonMeshVertex
 10
0.0002000000000001
 20
0.3984999999999994
 30
2.929
 70
    64
  0
VERTEX
  5
65A55
330
65A44
100
AcDbEntity
  8
0
100
AcDbVertex
100
AcDbPolygonMeshVertex
 10
0.0002000000000001
 20
0.3984999999999994
 30
2.929
 70
    64
  0
VERTEX
  5
65A56
330
65A44
100
AcDbEntity
  8
0
100
AcDbVertex
100
AcDbPolygonMeshVertex
 10
0.0002000000000001
 20
0.5384999999999996
 30
2.929
 70
    64
  0
SEQEND
  5
65A57
330
65A44
100
AcDbEntity
  8
0
  0
POLYLINE
  5
65A58
330
458D6
100
AcDbEntity
  8
0
100
AcDbPolygonMesh
 66
     1
 10
0.0
 20
0.0
 30
0.0
 70
    16
 71
     6
 72
     3
  0
VERTEX
  5
65A59
330
65A58
100
AcDbEntity
  8
0
100
AcDbVertex
100
AcDbPolygonMeshVertex
 10
1.719199999999999
 20
0.6104999999999992
 30
2.319
 70
    64
  0
VERTEX
  5
65A5A
330
65A58
100
AcDbEntity
  8
0
100
AcDbVertex
100
AcDbPolygonMeshVertex
 10
1.719199999999999
 20
0.6104999999999992
 30
2.06
 70
    64
  0
VERTEX
  5
65A5B
330
65A58
100
AcDbEntity
  8
0
100
AcDbVertex
100
AcDbPolygonMeshVertex
 10
1.719199999999999
 20
0.6104999999999992
 30
2.06
 70
    64
  0
VERTEX
  5
65A5C
330
65A58
100
AcDbEntity
  8
0
100
AcDbVertex
100
AcDbPolygonMeshVertex
 10
0.0461999999999999
 20
0.6104999999999992
 30
2.319
 70
    64
  0
VERTEX
  5
65A5D
330
65A58
100
AcDbEntity
  8
0
100
AcDbVertex
100
AcDbPolygonMeshVertex
 10
0.0461999999999999
 20
0.6104999999999992
 30
2.06
 70
    64
  0
VERTEX
  5
65A5E
330
65A58
100
AcDbEntity
  8
0
100
AcDbVertex
100
AcDbPolygonMeshVertex
 10
0.0461999999999999
 20
0.6104999999999992
 30
2.06
 70
    64
  0
VERTEX
  5
65A5F
330
65A58
100
AcDbEntity
  8
0
100
AcDbVertex
100
AcDbPolygonMeshVertex
 10
0.0461999999999999
 20
0.3984999999999994
 30
2.319
 70
    64
  0
VERTEX
  5
65A60
330
65A58
100
AcDbEntity
  8
0
100
AcDbVertex
100
AcDbPolygonMeshVertex
 10
0.0461999999999999
 20
0.3984999999999994
 30
2.06
 70
    64
  0
VERTEX
  5
65A61
330
65A58
100
AcDbEntity
  8
0
100
AcDbVertex
100
AcDbPolygonMeshVertex
 10
0.0461999999999999
 20
0.6104999999999992
 30
2.06
 70
    64
  0
VERTEX
  5
65A62
330
65A58
100
AcDbEntity
  8
0
100
AcDbVertex
100
AcDbPolygonMeshVertex
 10
1.719199999999999
 20
0.3984999999999994
 30
2.319
 70
    64
  0
VERTEX
  5
65A63
330
65A58
100
AcDbEntity
  8
0
100
AcDbVertex
100
AcDbPolygonMeshVertex
 10
1.719199999999999
 20
0.3984999999999994
 30
2.06
 70
    64
  0
VERTEX
  5
65A64
330
65A58
100
AcDbEntity
  8
0
100
AcDbVertex
100
AcDbPolygonMeshVertex
 10
1.719199999999999
 20
0.6104999999999992
 30
2.06
 70
    64
  0
VERTEX
  5
65A65
330
65A58
100
AcDbEntity
  8
0
100
AcDbVertex
100
AcDbPolygonMeshVertex
 10
1.719199999999999
 20
0.3984999999999994
 30
2.319
 70
    64
  0
VERTEX
  5
65A66
330
65A58
100
AcDbEntity
  8
0
100
AcDbVertex
100
AcDbPolygonMeshVertex
 10
1.719199999999999
 20
0.3984999999999994
 30
2.319
 70
    64
  0
VERTEX
  5
65A67
330
65A58
100
AcDbEntity
  8
0
100
AcDbVertex
100
AcDbPolygonMeshVertex
 10
1.719199999999999
 20
0.6104999999999992
 30
2.319
 70
    64
  0
VERTEX
  5
65A68
330
65A58
100
AcDbEntity
  8
0
100
AcDbVertex
100
AcDbPolygonMeshVertex
 10
0.0461999999999999
 20
0.3984999999999994
 30
2.319
 70
    64
  0
VERTEX
  5
65A69
330
65A58
100
AcDbEntity
  8
0
100
AcDbVertex
100
AcDbPolygonMeshVertex
 10
0.0461999999999999
 20
0.3984999999999994
 30
2.319
 70
    64
  0
VERTEX
  5
65A6A
330
65A58
100
AcDbEntity
  8
0
100
AcDbVertex
100
AcDbPolygonMeshVertex
 10
0.0461999999999999
 20
0.6104999999999992
 30
2.319
 70
    64
  0
SEQEND
  5
65A6B
330
65A58
100
AcDbEntity
  8
0
  0
TEXT
  5
65A6C
330
458D6
100
AcDbEntity
  8
0
100
AcDbText
 39
0.0000001
 10
0.3648370764473055
 20
-2.30158237681768
 30
2.06
 40
0.0834654981097751
  1
A1
 50
180.0
 71
     2
100
AcDbText
  0
TEXT
  5
65A6D
330
458D6
100
AcDbEntity
  8
0
100
AcDbText
 39
0.0000001
 10
1.285817362457554
 20
-2.300740510711833
 30
2.06
 40
0.0834654981097751
  1
A2
 50
180.0
 71
     2
100
AcDbText
  0
LINE
  5
65A6E
330
458D6
100
AcDbEntity
  8
0
100
AcDbLine
 10
0.652923391696637
 20
-1.9685
 30
-0.0000000000000003
 11
0.8635900583633034
 21
-1.9685
 31
-0.0000000000000003
  0
POLYLINE
  5
65A6F
330
458D6
100
AcDbEntity
  8
0
100
AcDb3dPolyline
 66
     1
 10
0.0
 20
0.0
 30
0.0
 70
     8
  0
VERTEX
  5
65A70
330
65A6F
100
AcDbEntity
  8
0
100
AcDbVertex
100
AcDb3dPolylineVertex
 10
0.652923391696637
 20
-1.9685
 30
-0.0000000000000003
 70
    32
  0
VERTEX
  5
65A71
330
65A6F
100
AcDbEntity
  8
0
100
AcDbVertex
100
AcDb3dPolylineVertex
 10
0.652923391696637
 20
-2.103499999999999
 30
-0.0000000000000002
 70
    32
  0
VERTEX
  5
65A72
330
65A6F
100
AcDbEntity
  8
0
100
AcDbVertex
100
AcDb3dPolylineVertex
 10
0.8635900583633034
 20
-2.103499999999999
 30
-0.0000000000000002
 70
    32
  0
VERTEX
  5
65A73
330
65A6F
100
AcDbEntity
  8
0
100
AcDbVertex
100
AcDb3dPolylineVertex
 10
0.8635900583633034
 20
-1.9685
 30
-0.0000000000000003
 70
    32
  0
SEQEND
  5
65A74
330
65A6F
100
AcDbEntity
  8
0
  0
POLYLINE
  5
65A75
330
458D6
100
AcDbEntity
  8
0
100
AcDb3dPolyline
 66
     1
 10
0.0
 20
0.0
 30
0.0
 70
     8
  0
VERTEX
  5
65A76
330
65A75
100
AcDbEntity
  8
0
100
AcDbVertex
100
AcDb3dPolylineVertex
 10
0.581132708066341
 20
-1.9685
 30
0.1869999999999998
 70
    32
  0
VERTEX
  5
65A77
330
65A75
100
AcDbEntity
  8
0
100
AcDbVertex
100
AcDb3dPolylineVertex
 10
0.581132708066341
 20
-2.103499999999999
 30
0.1869999999999998
 70
    32
  0
VERTEX
  5
65A78
330
65A75
100
AcDbEntity
  8
0
100
AcDbVertex
100
AcDb3dPolylineVertex
 10
0.7917993747330076
 20
-2.103499999999999
 30
0.1869999999999998
 70
    32
  0
VERTEX
  5
65A79
330
65A75
100
AcDbEntity
  8
0
100
AcDbVertex
100
AcDb3dPolylineVertex
 10
0.7917993747330076
 20
-1.9685
 30
0.1869999999999998
 70
    32
  0
SEQEND
  5
65A7A
330
65A75
100
AcDbEntity
  8
0
  0
POLYLINE
  5
65A7B
330
458D6
100
AcDbEntity
  8
0
100
AcDbPolygonMesh
 66
     1
 10
0.0
 20
0.0
 30
0.0
 70
    16
 71
     6
 72
     3
  0
VERTEX
  5
65A7C
330
65A7B
100
AcDbEntity
  8
0
100
AcDbVertex
100
AcDbPolygonMeshVertex
 10
0.8537993747330069
 20
-2.1655
 30
0.1869999999999998
 70
    64
  0
VERTEX
  5
65A7D
330
65A7B
100
AcDbEntity
  8
0
100
AcDbVertex
100
AcDbPolygonMeshVertex
 10
0.8537993747330069
 20
-2.1655
 30
0.0
 70
    64
  0
VERTEX
  5
65A7E
330
65A7B
100
AcDbEntity
  8
0
100
AcDbVertex
100
AcDbPolygonMeshVertex
 10
0.8537993747330069
 20
-2.1655
 30
0.0
 70
    64
  0
VERTEX
  5
65A7F
330
65A7B
100
AcDbEntity
  8
0
100
AcDbVertex
100
AcDbPolygonMeshVertex
 10
0.2464660413996739
 20
-2.1655
 30
0.1869999999999998
 70
    64
  0
VERTEX
  5
65A80
330
65A7B
100
AcDbEntity
  8
0
100
AcDbVertex
100
AcDbPolygonMeshVertex
 10
0.2464660413996739
 20
-2.1655
 30
0.0
 70
    64
  0
VERTEX
  5
65A81
330
65A7B
100
AcDbEntity
  8
0
100
AcDbVertex
100
AcDbPolygonMeshVertex
 10
0.2464660413996739
 20
-2.1655
 30
0.0
 70
    64
  0
VERTEX
  5
65A82
330
65A7B
100
AcDbEntity
  8
0
100
AcDbVertex
100
AcDbPolygonMeshVertex
 10
0.2464660413996739
 20
-2.103499999999999
 30
0.1869999999999998
 70
    64
  0
VERTEX
  5
65A83
330
65A7B
100
AcDbEntity
  8
0
100
AcDbVertex
100
AcDbPolygonMeshVertex
 10
0.2464660413996739
 20
-2.103499999999999
 30
0.0
 70
    64
  0
VERTEX
  5
65A84
330
65A7B
100
AcDbEntity
  8
0
100
AcDbVertex
100
AcDbPolygonMeshVertex
 10
0.2464660413996739
 20
-2.1655
 30
0.0
 70
    64
  0
VERTEX
  5
65A85
330
65A7B
100
AcDbEntity
  8
0
100
AcDbVertex
100
AcDbPolygonMeshVertex
 10
0.8537993747330069
 20
-2.103499999999999
 30
0.1869999999999998
 70
    64
  0
VERTEX
  5
65A86
330
65A7B
100
AcDbEntity
  8
0
100
AcDbVertex
100
AcDbPolygonMeshVertex
 10
0.8537993747330069
 20
-2.103499999999999
 30
0.0
 70
    64
  0
VERTEX
  5
65A87
330
65A7B
100
AcDbEntity
  8
0
100
AcDbVertex
100
AcDbPolygonMeshVertex
 10
0.8537993747330069
 20
-2.1655
 30
0.0
 70
    64
  0
VERTEX
  5
65A88
330
65A7B
100
AcDbEntity
  8
0
100
AcDbVertex
100
AcDbPolygonMeshVertex
 10
0.8537993747330069
 20
-2.103499999999999
 30
0.1869999999999998
 70
    64
  0
VERTEX
  5
65A89
330
65A7B
100
AcDbEntity
  8
0
100
AcDbVertex
100
AcDbPolygonMeshVertex
 10
0.8537993747330069
 20
-2.103499999999999
 30
0.1869999999999998
 70
    64
  0
VERTEX
  5
65A8A
330
65A7B
100
AcDbEntity
  8
0
100
AcDbVertex
100
AcDbPolygonMeshVertex
 10
0.8537993747330069
 20
-2.1655
 30
0.1869999999999998
 70
    64
  0
VERTEX
  5
65A8B
330
65A7B
100
AcDbEntity
  8
0
100
AcDbVertex
100
AcDbPolygonMeshVertex
 10
0.2464660413996739
 20
-2.103499999999999
 30
0.1869999999999998
 70
    64
  0
VERTEX
  5
65A8C
330
65A7B
100
AcDbEntity
  8
0
100
AcDbVertex
100
AcDbPolygonMeshVertex
 10
0.2464660413996739
 20
-2.103499999999999
 30
0.1869999999999998
 70
    64
  0
VERTEX
  5
65A8D
330
65A7B
100
AcDbEntity
  8
0
100
AcDbVertex
100
AcDbPolygonMeshVertex
 10
0.2464660413996739
 20
-2.1655
 30
0.1869999999999998
 70
    64
  0
SEQEND
  5
65A8E
330
65A7B
100
AcDbEntity
  8
0
  0
POLYLINE
  5
65A8F
330
458D6
100
AcDbEntity
  8
0
100
AcDbPolygonMesh
 66
     1
 10
0.0
 20
0.0
 30
0.0
 70
    16
 71
     6
 72
     3
  0
VERTEX
  5
65A90
330
65A8F
100
AcDbEntity
  8
0
100
AcDbVertex
100
AcDbPolygonMeshVertex
 10
0.8537993747330069
 20
-2.103499999999999
 30
0.1869999999999998
 70
    64
  0
VERTEX
  5
65A91
330
65A8F
100
AcDbEntity
  8
0
100
AcDbVertex
100
AcDbPolygonMeshVertex
 10
0.8537993747330069
 20
-2.103499999999999
 30
0.0
 70
    64
  0
VERTEX
  5
65A92
330
65A8F
100
AcDbEntity
  8
0
100
AcDbVertex
100
AcDbPolygonMeshVertex
 10
0.8537993747330069
 20
-2.103499999999999
 30
0.0
 70
    64
  0
VERTEX
  5
65A93
330
65A8F
100
AcDbEntity
  8
0
100
AcDbVertex
100
AcDbPolygonMeshVertex
 10
0.5191327080663416
 20
-2.103499999999999
 30
0.1869999999999998
 70
    64
  0
VERTEX
  5
65A94
330
65A8F
100
AcDbEntity
  8
0
100
AcDbVertex
100
AcDbPolygonMeshVertex
 10
0.5191327080663416
 20
-2.103499999999999
 30
0.0
 70
    64
  0
VERTEX
  5
65A95
330
65A8F
100
AcDbEntity
  8
0
100
AcDbVertex
100
AcDbPolygonMeshVertex
 10
0.5191327080663416
 20
-2.103499999999999
 30
0.0
 70
    64
  0
VERTEX
  5
65A96
330
65A8F
100
AcDbEntity
  8
0
100
AcDbVertex
100
AcDbPolygonMeshVertex
 10
0.5191327080663416
 20
-1.9065
 30
0.1869999999999998
 70
    64
  0
VERTEX
  5
65A97
330
65A8F
100
AcDbEntity
  8
0
100
AcDbVertex
100
AcDbPolygonMeshVertex
 10
0.5191327080663416
 20
-1.9065
 30
0.0
 70
    64
  0
VERTEX
  5
65A98
330
65A8F
100
AcDbEntity
  8
0
100
AcDbVertex
100
AcDbPolygonMeshVertex
 10
0.5191327080663416
 20
-2.103499999999999
 30
0.0
 70
    64
  0
VERTEX
  5
65A99
330
65A8F
100
AcDbEntity
  8
0
100
AcDbVertex
100
AcDbPolygonMeshVertex
 10
0.8537993747330069
 20
-1.9065
 30
0.1869999999999998
 70
    64
  0
VERTEX
  5
65A9A
330
65A8F
100
AcDbEntity
  8
0
100
AcDbVertex
100
AcDbPolygonMeshVertex
 10
0.8537993747330069
 20
-1.9065
 30
0.0
 70
    64
  0
VERTEX
  5
65A9B
330
65A8F
100
AcDbEntity
  8
0
100
AcDbVertex
100
AcDbPolygonMeshVertex
 10
0.8537993747330069
 20
-2.103499999999999
 30
0.0
 70
    64
  0
VERTEX
  5
65A9C
330
65A8F
100
AcDbEntity
  8
0
100
AcDbVertex
100
AcDbPolygonMeshVertex
 10
0.8537993747330069
 20
-1.9065
 30
0.1869999999999998
 70
    64
  0
VERTEX
  5
65A9D
330
65A8F
100
AcDbEntity
  8
0
100
AcDbVertex
100
AcDbPolygonMeshVertex
 10
0.8537993747330069
 20
-1.9065
 30
0.1869999999999998
 70
    64
  0
VERTEX
  5
65A9E
330
65A8F
100
AcDbEntity
  8
0
100
AcDbVertex
100
AcDbPolygonMeshVertex
 10
0.8537993747330069
 20
-2.103499999999999
 30
0.1869999999999998
 70
    64
  0
VERTEX
  5
65A9F
330
65A8F
100
AcDbEntity
  8
0
100
AcDbVertex
100
AcDbPolygonMeshVertex
 10
0.5191327080663416
 20
-1.9065
 30
0.1869999999999998
 70
    64
  0
VERTEX
  5
65AA0
330
65A8F
100
AcDbEntity
  8
0
100
AcDbVertex
100
AcDbPolygonMeshVertex
 10
0.5191327080663416
 20
-1.9065
 30
0.1869999999999998
 70
    64
  0
VERTEX
  5
65AA1
330
65A8F
100
AcDbEntity
  8
0
100
AcDbVertex
100
AcDbPolygonMeshVertex
 10
0.5191327080663416
 20
-2.103499999999999
 30
0.1869999999999998
 70
    64
  0
SEQEND
  5
65AA2
330
65A8F
100
AcDbEntity
  8
0
  0
LINE
  5
65AA3
330
458D6
100
AcDbEntity
  8
0
100
AcDbLine
 10
0.652923391696637
 20
-1.9685
 30
0.1869999999999998
 11
0.8635900583633034
 21
-1.9685
 31
0.1869999999999998
  0
POLYLINE
  5
65AA4
330
458D6
100
AcDbEntity
  8
0
100
AcDbPolygonMesh
 66
     1
 10
0.0
 20
0.0
 30
0.0
 70
    16
 71
     6
 72
     3
  0
VERTEX
  5
65AA5
330
65AA4
100
AcDbEntity
  8
0
100
AcDbVertex
100
AcDbPolygonMeshVertex
 10
1.765199999999999
 20
-1.685499999999999
 30
0.187
 70
    64
  0
VERTEX
  5
65AA6
330
65AA4
100
AcDbEntity
  8
0
100
AcDbVertex
100
AcDbPolygonMeshVertex
 10
1.765199999999999
 20
-1.685499999999999
 30
0.0
 70
    64
  0
VERTEX
  5
65AA7
330
65AA4
100
AcDbEntity
  8
0
100
AcDbVertex
100
AcDbPolygonMeshVertex
 10
1.765199999999999
 20
-1.685499999999999
 30
0.0
 70
    64
  0
VERTEX
  5
65AA8
330
65AA4
100
AcDbEntity
  8
0
100
AcDbVertex
100
AcDbPolygonMeshVertex
 10
0.0052
 20
-1.685499999999999
 30
0.187
 70
    64
  0
VERTEX
  5
65AA9
330
65AA4
100
AcDbEntity
  8
0
100
AcDbVertex
100
AcDbPolygonMeshVertex
 10
0.0052
 20
-1.685499999999999
 30
0.0
 70
    64
  0
VERTEX
  5
65AAA
330
65AA4
100
AcDbEntity
  8
0
100
AcDbVertex
100
AcDbPolygonMeshVertex
 10
0.0052
 20
-1.685499999999999
 30
0.0
 70
    64
  0
VERTEX
  5
65AAB
330
65AA4
100
AcDbEntity
  8
0
100
AcDbVertex
100
AcDbPolygonMeshVertex
 10
0.0052
 20
-1.480999999999999
 30
0.187
 70
    64
  0
VERTEX
  5
65AAC
330
65AA4
100
AcDbEntity
  8
0
100
AcDbVertex
100
AcDbPolygonMeshVertex
 10
0.0052
 20
-1.480999999999999
 30
0.0
 70
    64
  0
VERTEX
  5
65AAD
330
65AA4
100
AcDbEntity
  8
0
100
AcDbVertex
100
AcDbPolygonMeshVertex
 10
0.0052
 20
-1.685499999999999
 30
0.0
 70
    64
  0
VERTEX
  5
65AAE
330
65AA4
100
AcDbEntity
  8
0
100
AcDbVertex
100
AcDbPolygonMeshVertex
 10
1.765199999999999
 20
-1.480999999999999
 30
0.187
 70
    64
  0
VERTEX
  5
65AAF
330
65AA4
100
AcDbEntity
  8
0
100
AcDbVertex
100
AcDbPolygonMeshVertex
 10
1.765199999999999
 20
-1.480999999999999
 30
0.0
 70
    64
  0
VERTEX
  5
65AB0
330
65AA4
100
AcDbEntity
  8
0
100
AcDbVertex
100
AcDbPolygonMeshVertex
 10
1.765199999999999
 20
-1.685499999999999
 30
0.0
 70
    64
  0
VERTEX
  5
65AB1
330
65AA4
100
AcDbEntity
  8
0
100
AcDbVertex
100
AcDbPolygonMeshVertex
 10
1.765199999999999
 20
-1.480999999999999
 30
0.187
 70
    64
  0
VERTEX
  5
65AB2
330
65AA4
100
AcDbEntity
  8
0
100
AcDbVertex
100
AcDbPolygonMeshVertex
 10
1.765199999999999
 20
-1.480999999999999
 30
0.187
 70
    64
  0
VERTEX
  5
65AB3
330
65AA4
100
AcDbEntity
  8
0
100
AcDbVertex
100
AcDbPolygonMeshVertex
 10
1.765199999999999
 20
-1.685499999999999
 30
0.187
 70
    64
  0
VERTEX
  5
65AB4
330
65AA4
100
AcDbEntity
  8
0
100
AcDbVertex
100
AcDbPolygonMeshVertex
 10
0.0052
 20
-1.480999999999999
 30
0.187
 70
    64
  0
VERTEX
  5
65AB5
330
65AA4
100
AcDbEntity
  8
0
100
AcDbVertex
100
AcDbPolygonMeshVertex
 10
0.0052
 20
-1.480999999999999
 30
0.187
 70
    64
  0
VERTEX
  5
65AB6
330
65AA4
100
AcDbEntity
  8
0
100
AcDbVertex
100
AcDbPolygonMeshVertex
 10
0.0052
 20
-1.685499999999999
 30
0.187
 70
    64
  0
SEQEND
  5
65AB7
330
65AA4
100
AcDbEntity
  8
0
  0
POLYLINE
  5
65AB8
330
458D6
100
AcDbEntity
  8
0
100
AcDbPolygonMesh
 66
     1
 10
0.0
 20
0.0
 30
0.0
 70
    16
 71
     6
 72
     3
  0
VERTEX
  5
65AB9
330
65AB8
100
AcDbEntity
  8
0
100
AcDbVertex
100
AcDbPolygonMeshVertex
 10
1.765199999999999
 20
0.2044999999999999
 30
0.187
 70
    64
  0
VERTEX
  5
65ABA
330
65AB8
100
AcDbEntity
  8
0
100
AcDbVertex
100
AcDbPolygonMeshVertex
 10
1.765199999999999
 20
0.2044999999999999
 30
0.0
 70
    64
  0
VERTEX
  5
65ABB
330
65AB8
100
AcDbEntity
  8
0
100
AcDbVertex
100
AcDbPolygonMeshVertex
 10
1.765199999999999
 20
0.2044999999999999
 30
0.0
 70
    64
  0
VERTEX
  5
65ABC
330
65AB8
100
AcDbEntity
  8
0
100
AcDbVertex
100
AcDbPolygonMeshVertex
 10
0.0052
 20
0.2044999999999999
 30
0.187
 70
    64
  0
VERTEX
  5
65ABD
330
65AB8
100
AcDbEntity
  8
0
100
AcDbVertex
100
AcDbPolygonMeshVertex
 10
0.0052
 20
0.2044999999999999
 30
0.0
 70
    64
  0
VERTEX
  5
65ABE
330
65AB8
100
AcDbEntity
  8
0
100
AcDbVertex
100
AcDbPolygonMeshVertex
 10
0.0052
 20
0.2044999999999999
 30
0.0
 70
    64
  0
VERTEX
  5
65ABF
330
65AB8
100
AcDbEntity
  8
0
100
AcDbVertex
100
AcDbPolygonMeshVertex
 10
0.0052
 20
0.0
 30
0.187
 70
    64
  0
VERTEX
  5
65AC0
330
65AB8
100
AcDbEntity
  8
0
100
AcDbVertex
100
AcDbPolygonMeshVertex
 10
0.0052
 20
0.0
 30
0.0
 70
    64
  0
VERTEX
  5
65AC1
330
65AB8
100
AcDbEntity
  8
0
100
AcDbVertex
100
AcDbPolygonMeshVertex
 10
0.0052
 20
0.2044999999999999
 30
0.0
 70
    64
  0
VERTEX
  5
65AC2
330
65AB8
100
AcDbEntity
  8
0
100
AcDbVertex
100
AcDbPolygonMeshVertex
 10
1.765199999999999
 20
0.0
 30
0.187
 70
    64
  0
VERTEX
  5
65AC3
330
65AB8
100
AcDbEntity
  8
0
100
AcDbVertex
100
AcDbPolygonMeshVertex
 10
1.765199999999999
 20
0.0
 30
0.0
 70
    64
  0
VERTEX
  5
65AC4
330
65AB8
100
AcDbEntity
  8
0
100
AcDbVertex
100
AcDbPolygonMeshVertex
 10
1.765199999999999
 20
0.2044999999999999
 30
0.0
 70
    64
  0
VERTEX
  5
65AC5
330
65AB8
100
AcDbEntity
  8
0
100
AcDbVertex
100
AcDbPolygonMeshVertex
 10
1.765199999999999
 20
0.0
 30
0.187
 70
    64
  0
VERTEX
  5
65AC6
330
65AB8
100
AcDbEntity
  8
0
100
AcDbVertex
100
AcDbPolygonMeshVertex
 10
1.765199999999999
 20
0.0
 30
0.187
 70
    64
  0
VERTEX
  5
65AC7
330
65AB8
100
AcDbEntity
  8
0
100
AcDbVertex
100
AcDbPolygonMeshVertex
 10
1.765199999999999
 20
0.2044999999999999
 30
0.187
 70
    64
  0
VERTEX
  5
65AC8
330
65AB8
100
AcDbEntity
  8
0
100
AcDbVertex
100
AcDbPolygonMeshVertex
 10
0.0052
 20
0.0
 30
0.187
 70
    64
  0
VERTEX
  5
65AC9
330
65AB8
100
AcDbEntity
  8
0
100
AcDbVertex
100
AcDbPolygonMeshVertex
 10
0.0052
 20
0.0
 30
0.187
 70
    64
  0
VERTEX
  5
65ACA
330
65AB8
100
AcDbEntity
  8
0
100
AcDbVertex
100
AcDbPolygonMeshVertex
 10
0.0052
 20
0.2044999999999999
 30
0.187
 70
    64
  0
SEQEND
  5
65ACB
330
65AB8
100
AcDbEntity
  8
0
  0
POLYLINE
  5
65ACC
330
458D6
100
AcDbEntity
  8
0
100
AcDbPolygonMesh
 66
     1
 10
0.0
 20
0.0
 30
0.0
 70
    16
 71
     6
 72
     3
  0
VERTEX
  5
65ACD
330
65ACC
100
AcDbEntity
  8
0
100
AcDbVertex
100
AcDbPolygonMeshVertex
 10
0.3962
 20
-2.081499999999999
 30
0.316
 70
    64
  0
VERTEX
  5
65ACE
330
65ACC
100
AcDbEntity
  8
0
100
AcDbVertex
100
AcDbPolygonMeshVertex
 10
0.3962
 20
-2.081499999999999
 30
0.0
 70
    64
  0
VERTEX
  5
65ACF
330
65ACC
100
AcDbEntity
  8
0
100
AcDbVertex
100
AcDbPolygonMeshVertex
 10
0.3962
 20
-2.081499999999999
 30
0.0
 70
    64
  0
VERTEX
  5
65AD0
330
65ACC
100
AcDbEntity
  8
0
100
AcDbVertex
100
AcDbPolygonMeshVertex
 10
0.0052
 20
-2.081499999999999
 30
0.316
 70
    64
  0
VERTEX
  5
65AD1
330
65ACC
100
AcDbEntity
  8
0
100
AcDbVertex
100
AcDbPolygonMeshVertex
 10
0.0052
 20
-2.081499999999999
 30
0.0
 70
    64
  0
VERTEX
  5
65AD2
330
65ACC
100
AcDbEntity
  8
0
100
AcDbVertex
100
AcDbPolygonMeshVertex
 10
0.0052
 20
-2.081499999999999
 30
0.0
 70
    64
  0
VERTEX
  5
65AD3
330
65ACC
100
AcDbEntity
  8
0
100
AcDbVertex
100
AcDbPolygonMeshVertex
 10
0.0052
 20
-1.685499999999999
 30
0.316
 70
    64
  0
VERTEX
  5
65AD4
330
65ACC
100
AcDbEntity
  8
0
100
AcDbVertex
100
AcDbPolygonMeshVertex
 10
0.0052
 20
-1.685499999999999
 30
0.0
 70
    64
  0
VERTEX
  5
65AD5
330
65ACC
100
AcDbEntity
  8
0
100
AcDbVertex
100
AcDbPolygonMeshVertex
 10
0.0052
 20
-2.081499999999999
 30
0.0
 70
    64
  0
VERTEX
  5
65AD6
330
65ACC
100
AcDbEntity
  8
0
100
AcDbVertex
100
AcDbPolygonMeshVertex
 10
0.3962
 20
-1.685499999999999
 30
0.316
 70
    64
  0
VERTEX
  5
65AD7
330
65ACC
100
AcDbEntity
  8
0
100
AcDbVertex
100
AcDbPolygonMeshVertex
 10
0.3962
 20
-1.685499999999999
 30
0.0
 70
    64
  0
VERTEX
  5
65AD8
330
65ACC
100
AcDbEntity
  8
0
100
AcDbVertex
100
AcDbPolygonMeshVertex
 10
0.3962
 20
-2.081499999999999
 30
0.0
 70
    64
  0
VERTEX
  5
65AD9
330
65ACC
100
AcDbEntity
  8
0
100
AcDbVertex
100
AcDbPolygonMeshVertex
 10
0.3962
 20
-1.685499999999999
 30
0.316
 70
    64
  0
VERTEX
  5
65ADA
330
65ACC
100
AcDbEntity
  8
0
100
AcDbVertex
100
AcDbPolygonMeshVertex
 10
0.3962
 20
-1.685499999999999
 30
0.316
 70
    64
  0
VERTEX
  5
65ADB
330
65ACC
100
AcDbEntity
  8
0
100
AcDbVertex
100
AcDbPolygonMeshVertex
 10
0.3962
 20
-2.081499999999999
 30
0.316
 70
    64
  0
VERTEX
  5
65ADC
330
65ACC
100
AcDbEntity
  8
0
100
AcDbVertex
100
AcDbPolygonMeshVertex
 10
0.0052
 20
-1.685499999999999
 30
0.316
 70
    64
  0
VERTEX
  5
65ADD
330
65ACC
100
AcDbEntity
  8
0
100
AcDbVertex
100
AcDbPolygonMeshVertex
 10
0.0052
 20
-1.685499999999999
 30
0.316
 70
    64
  0
VERTEX
  5
65ADE
330
65ACC
100
AcDbEntity
  8
0
100
AcDbVertex
100
AcDbPolygonMeshVertex
 10
0.0052
 20
-2.081499999999999
 30
0.316
 70
    64
  0
SEQEND
  5
65ADF
330
65ACC
100
AcDbEntity
  8
0
  0
POINT
  5
65AE0
330
458D6
100
AcDbEntity
  8
SNAP_POINTS
100
AcDbPoint
 10
0.0
 20
0.0
 30
0.0
  0
3DFACE
  5
65AE1
330
458D6
100
AcDbEntity
  8
0
100
AcDbFace
 10
1.765199999999999
 20
-1.845499999999999
 30
2.06
 11
1.765199999999999
 21
-1.845499999999999
 31
2.06
 12
0.0002000000000001
 22
-1.845499999999999
 32
2.06
 13
0.0002000000000001
 23
-1.845499999999999
 33
2.06
  0
3DFACE
  5
65AE2
330
458D6
100
AcDbEntity
  8
0
100
AcDbFace
 10
0.0002000000000001
 20
-1.845499999999999
 30
2.06
 11
0.0002000000000001
 21
-1.845499999999999
 31
2.06
 12
0.0002000000000001
 22
-1.845499999999999
 32
2.06
 13
0.0002000000000001
 23
0.3984999999999994
 33
2.06
  0
3DFACE
  5
65AE3
330
458D6
100
AcDbEntity
  8
0
100
AcDbFace
 10
0.0002000000000001
 20
0.3984999999999994
 30
2.06
 11
0.0002000000000001
 21
-1.845499999999999
 31
2.06
 12
1.765199999999999
 22
-1.845499999999999
 32
2.06
 13
1.765199999999999
 23
0.3984999999999994
 33
2.06
  0
POLYLINE
  5
65AE4
330
458D6
100
AcDbEntity
  8
0
  6
Continuous
100
AcDb3dPolyline
 66
     1
 10
0.0
 20
0.0
 30
0.0
 70
     8
  0
VERTEX
  5
65AE5
330
65AE4
100
AcDbEntity
  8
0
  6
Continuous
100
AcDbVertex
100
AcDb3dPolylineVertex
 10
1.765199999999999
 20
0.3984999999999994
 30
2.06
 70
    32
1001
ACAD
1000
R13OBJECT
1002
{
1005
65AE4
1002
}
  0
VERTEX
  5
65AE6
330
65AE4
100
AcDbEntity
  8
0
  6
Continuous
100
AcDbVertex
100
AcDb3dPolylineVertex
 10
1.765199999999999
 20
-1.845500000000001
 30
2.06
 70
    32
1001
ACAD
1000
R13OBJECT
1002
{
1005
65AE4
1002
}
  0
SEQEND
  5
65AE7
330
65AE4
100
AcDbEntity
  8
0
  6
Continuous
  0
POLYLINE
  5
65AE8
330
458D6
100
AcDbEntity
  8
0
  6
Continuous
100
AcDb3dPolyline
 66
     1
 10
0.0
 20
0.0
 30
0.0
 70
     8
1001
ACAD
1000
R13OBJECT
1002
{
1005
65AE4
1002
}
  0
VERTEX
  5
65AE9
330
65AE8
100
AcDbEntity
  8
0
  6
Continuous
100
AcDbVertex
100
AcDb3dPolylineVertex
 10
1.765199999999999
 20
-1.845500000000001
 30
2.06
 70
    32
1001
ACAD
1000
R13OBJECT
1002
{
1005
65AE4
1002
}
  0
VERTEX
  5
65AEA
330
65AE8
100
AcDbEntity
  8
0
  6
Continuous
100
AcDbVertex
100
AcDb3dPolylineVertex
 10
0.0002000000000001
 20
-1.845500000000001
 30
2.06
 70
    32
1001
ACAD
1000
R13OBJECT
1002
{
1005
65AE4
1002
}
  0
SEQEND
  5
65AEB
330
65AE8
100
AcDbEntity
  8
0
  6
Continuous
  0
POLYLINE
  5
65AEC
330
458D6
100
AcDbEntity
  8
0
  6
Continuous
100
AcDb3dPolyline
 66
     1
 10
0.0
 20
0.0
 30
0.0
 70
     8
1001
ACAD
1000
R13OBJECT
1002
{
1005
65AE4
1002
}
  0
VERTEX
  5
65AED
330
65AEC
100
AcDbEntity
  8
0
  6
Continuous
100
AcDbVertex
100
AcDb3dPolylineVertex
 10
0.0002000000000001
 20
-1.845500000000001
 30
2.06
 70
    32
1001
ACAD
1000
R13OBJECT
1002
{
1005
65AE4
1002
}
  0
VERTEX
  5
65AEE
330
65AEC
100
AcDbEntity
  8
0
  6
Continuous
100
AcDbVertex
100
AcDb3dPolylineVertex
 10
0.0002000000000001
 20
0.3984999999999994
 30
2.06
 70
    32
1001
ACAD
1000
R13OBJECT
1002
{
1005
65AE4
1002
}
  0
SEQEND
  5
65AEF
330
65AEC
100
AcDbEntity
  8
0
  6
Continuous
  0
POLYLINE
  5
65AF0
330
458D6
100
AcDbEntity
  8
0
  6
Continuous
100
AcDb3dPolyline
 66
     1
 10
0.0
 20
0.0
 30
0.0
 70
     8
1001
ACAD
1000
R13OBJECT
1002
{
1005
65AE4
1002
}
  0
VERTEX
  5
65AF1
330
65AF0
100
AcDbEntity
  8
0
  6
Continuous
100
AcDbVertex
100
AcDb3dPolylineVertex
 10
0.0002000000000001
 20
0.3984999999999994
 30
2.06
 70
    32
1001
ACAD
1000
R13OBJECT
1002
{
1005
65AE4
1002
}
  0
VERTEX
  5
65AF2
330
65AF0
100
AcDbEntity
  8
0
  6
Continuous
100
AcDbVertex
100
AcDb3dPolylineVertex
 10
1.765199999999999
 20
0.3984999999999994
 30
2.06
 70
    32
1001
ACAD
1000
R13OBJECT
1002
{
1005
65AE4
1002
}
  0
SEQEND
  5
65AF3
330
65AF0
100
AcDbEntity
  8
0
  6
Continuous
  0
POLYLINE
  5
65AF4
330
458D6
100
AcDbEntity
  8
0
  6
Continuous
100
AcDb3dPolyline
 66
     1
 10
0.0
 20
0.0
 30
0.0
 70
     8
  0
VERTEX
  5
65AF5
330
65AF4
100
AcDbEntity
  8
0
  6
Continuous
100
AcDbVertex
100
AcDb3dPolylineVertex
 10
0.0002000000000001
 20
-1.845500000000001
 30
3.082
 70
    32
1001
ACAD
1000
R13OBJECT
1002
{
1005
65AF4
1002
}
  0
VERTEX
  5
65AF6
330
65AF4
100
AcDbEntity
  8
0
  6
Continuous
100
AcDbVertex
100
AcDb3dPolylineVertex
 10
0.0002000000000001
 20
-1.845500000000001
 30
2.06
 70
    32
1001
ACAD
1000
R13OBJECT
1002
{
1005
65AF4
1002
}
  0
SEQEND
  5
65AF7
330
65AF4
100
AcDbEntity
  8
0
  6
Continuous
  0
POLYLINE
  5
65AF8
330
458D6
100
AcDbEntity
  8
0
  6
Continuous
100
AcDb3dPolyline
 66
     1
 10
0.0
 20
0.0
 30
0.0
 70
     8
1001
ACAD
1000
R13OBJECT
1002
{
1005
65AF4
1002
}
  0
VERTEX
  5
65AF9
330
65AF8
100
AcDbEntity
  8
0
  6
Continuous
100
AcDbVertex
100
AcDb3dPolylineVertex
 10
1.765199999999999
 20
-1.845500000000001
 30
2.06
 70
    32
1001
ACAD
1000
R13OBJECT
1002
{
1005
65AF4
1002
}
  0
VERTEX
  5
65AFA
330
65AF8
100
AcDbEntity
  8
0
  6
Continuous
100
AcDbVertex
100
AcDb3dPolylineVertex
 10
0.0002000000000001
 20
-1.845500000000001
 30
2.06
 70
    32
1001
ACAD
1000
R13OBJECT
1002
{
1005
65AF4
1002
}
  0
SEQEND
  5
65AFB
330
65AF8
100
AcDbEntity
  8
0
  6
Continuous
  0
POLYLINE
  5
65AFC
330
458D6
100
AcDbEntity
  8
0
  6
Continuous
100
AcDb3dPolyline
 66
     1
 10
0.0
 20
0.0
 30
0.0
 70
     8
1001
ACAD
1000
R13OBJECT
1002
{
1005
65AF4
1002
}
  0
VERTEX
  5
65AFD
330
65AFC
100
AcDbEntity
  8
0
  6
Continuous
100
AcDbVertex
100
AcDb3dPolylineVertex
 10
1.765199999999999
 20
-1.845500000000001
 30
3.082
 70
    32
1001
ACAD
1000
R13OBJECT
1002
{
1005
65AF4
1002
}
  0
VERTEX
  5
65AFE
330
65AFC
100
AcDbEntity
  8
0
  6
Continuous
100
AcDbVertex
100
AcDb3dPolylineVertex
 10
1.765199999999999
 20
-1.845500000000001
 30
2.06
 70
    32
1001
ACAD
1000
R13OBJECT
1002
{
1005
65AF4
1002
}
  0
SEQEND
  5
65AFF
330
65AFC
100
AcDbEntity
  8
0
  6
Continuous
  0
POLYLINE
  5
65B00
330
458D6
100
AcDbEntity
  8
0
  6
Continuous
100
AcDb3dPolyline
 66
     1
 10
0.0
 20
0.0
 30
0.0
 70
     8
1001
ACAD
1000
R13OBJECT
1002
{
1005
65AF4
1002
}
  0
VERTEX
  5
65B01
330
65B00
100
AcDbEntity
  8
0
  6
Continuous
100
AcDbVertex
100
AcDb3dPolylineVertex
 10
0.0002000000000001
 20
-1.845500000000001
 30
3.082
 70
    32
1001
ACAD
1000
R13OBJECT
1002
{
1005
65AF4
1002
}
  0
VERTEX
  5
65B02
330
65B00
100
AcDbEntity
  8
0
  6
Continuous
100
AcDbVertex
100
AcDb3dPolylineVertex
 10
1.765199999999999
 20
-1.845500000000001
 30
3.082
 70
    32
1001
ACAD
1000
R13OBJECT
1002
{
1005
65AF4
1002
}
  0
SEQEND
  5
65B03
330
65B00
100
AcDbEntity
  8
0
  6
Continuous
  0
POLYLINE
  5
65B04
330
458D6
100
AcDbEntity
  8
0
  6
Continuous
100
AcDb3dPolyline
 66
     1
 10
0.0
 20
0.0
 30
0.0
 70
     8
  0
VERTEX
  5
65B05
330
65B04
100
AcDbEntity
  8
0
  6
Continuous
100
AcDbVertex
100
AcDb3dPolylineVertex
 10
1.765199999999999
 20
0.3984999999999994
 30
3.082
 70
    32
1001
ACAD
1000
R13OBJECT
1002
{
1005
65B04
1002
}
  0
VERTEX
  5
65B06
330
65B04
100
AcDbEntity
  8
0
  6
Continuous
100
AcDbVertex
100
AcDb3dPolylineVertex
 10
1.765199999999999
 20
0.3984999999999994
 30
2.06
 70
    32
1001
ACAD
1000
R13OBJECT
1002
{
1005
65B04
1002
}
  0
SEQEND
  5
65B07
330
65B04
100
AcDbEntity
  8
0
  6
Continuous
  0
POLYLINE
  5
65B08
330
458D6
100
AcDbEntity
  8
0
  6
Continuous
100
AcDb3dPolyline
 66
     1
 10
0.0
 20
0.0
 30
0.0
 70
     8
1001
ACAD
1000
R13OBJECT
1002
{
1005
65B04
1002
}
  0
VERTEX
  5
65B09
330
65B08
100
AcDbEntity
  8
0
  6
Continuous
100
AcDbVertex
100
AcDb3dPolylineVertex
 10
0.0002000000000001
 20
0.3984999999999994
 30
2.06
 70
    32
1001
ACAD
1000
R13OBJECT
1002
{
1005
65B04
1002
}
  0
VERTEX
  5
65B0A
330
65B08
100
AcDbEntity
  8
0
  6
Continuous
100
AcDbVertex
100
AcDb3dPolylineVertex
 10
1.765199999999999
 20
0.3984999999999994
 30
2.06
 70
    32
1001
ACAD
1000
R13OBJECT
1002
{
1005
65B04
1002
}
  0
SEQEND
  5
65B0B
330
65B08
100
AcDbEntity
  8
0
  6
Continuous
  0
POLYLINE
  5
65B0C
330
458D6
100
AcDbEntity
  8
0
  6
Continuous
100
AcDb3dPolyline
 66
     1
 10
0.0
 20
0.0
 30
0.0
 70
     8
1001
ACAD
1000
R13OBJECT
1002
{
1005
65B04
1002
}
  0
VERTEX
  5
65B0D
330
65B0C
100
AcDbEntity
  8
0
  6
Continuous
100
AcDbVertex
100
AcDb3dPolylineVertex
 10
0.0002000000000001
 20
0.3984999999999994
 30
3.082
 70
    32
1001
ACAD
1000
R13OBJECT
1002
{
1005
65B04
1002
}
  0
VERTEX
  5
65B0E
330
65B0C
100
AcDbEntity
  8
0
  6
Continuous
100
AcDbVertex
100
AcDb3dPolylineVertex
 10
0.0002000000000001
 20
0.3984999999999994
 30
2.06
 70
    32
1001
ACAD
1000
R13OBJECT
1002
{
1005
65B04
1002
}
  0
SEQEND
  5
65B0F
330
65B0C
100
AcDbEntity
  8
0
  6
Continuous
  0
POLYLINE
  5
65B10
330
458D6
100
AcDbEntity
  8
0
  6
Continuous
100
AcDb3dPolyline
 66
     1
 10
0.0
 20
0.0
 30
0.0
 70
     8
1001
ACAD
1000
R13OBJECT
1002
{
1005
65B04
1002
}
  0
VERTEX
  5
65B11
330
65B10
100
AcDbEntity
  8
0
  6
Continuous
100
AcDbVertex
100
AcDb3dPolylineVertex
 10
1.765199999999999
 20
0.3984999999999994
 30
3.082
 70
    32
1001
ACAD
1000
R13OBJECT
1002
{
1005
65B04
1002
}
  0
VERTEX
  5
65B12
330
65B10
100
AcDbEntity
  8
0
  6
Continuous
100
AcDbVertex
100
AcDb3dPolylineVertex
 10
0.0002000000000001
 20
0.3984999999999994
 30
3.082
 70
    32
1001
ACAD
1000
R13OBJECT
1002
{
1005
65B04
1002
}
  0
SEQEND
  5
65B13
330
65B10
100
AcDbEntity
  8
0
  6
Continuous
  0
POLYLINE
  5
65B14
330
458D6
100
AcDbEntity
  8
0
  6
Continuous
100
AcDb3dPolyline
 66
     1
 10
0.0
 20
0.0
 30
0.0
 70
     8
  0
VERTEX
  5
65B15
330
65B14
100
AcDbEntity
  8
0
  6
Continuous
100
AcDbVertex
100
AcDb3dPolylineVertex
 10
1.765199999999999
 20
-1.845500000000001
 30
3.082
 70
    32
1001
ACAD
1000
R13OBJECT
1002
{
1005
65B14
1002
}
  0
VERTEX
  5
65B16
330
65B14
100
AcDbEntity
  8
0
  6
Continuous
100
AcDbVertex
100
AcDb3dPolylineVertex
 10
1.765199999999999
 20
-1.845500000000001
 30
2.06
 70
    32
1001
ACAD
1000
R13OBJECT
1002
{
1005
65B14
1002
}
  0
SEQEND
  5
65B17
330
65B14
100
AcDbEntity
  8
0
  6
Continuous
  0
POLYLINE
  5
65B18
330
458D6
100
AcDbEntity
  8
0
  6
Continuous
100
AcDb3dPolyline
 66
     1
 10
0.0
 20
0.0
 30
0.0
 70
     8
1001
ACAD
1000
R13OBJECT
1002
{
1005
65B14
1002
}
  0
VERTEX
  5
65B19
330
65B18
100
AcDbEntity
  8
0
  6
Continuous
100
AcDbVertex
100
AcDb3dPolylineVertex
 10
1.765199999999999
 20
0.3984999999999994
 30
2.06
 70
    32
1001
ACAD
1000
R13OBJECT
1002
{
1005
65B14
1002
}
  0
VERTEX
  5
65B1A
330
65B18
100
AcDbEntity
  8
0
  6
Continuous
100
AcDbVertex
100
AcDb3dPolylineVertex
 10
1.765199999999999
 20
-1.845500000000001
 30
2.06
 70
    32
1001
ACAD
1000
R13OBJECT
1002
{
1005
65B14
1002
}
  0
SEQEND
  5
65B1B
330
65B18
100
AcDbEntity
  8
0
  6
Continuous
  0
POLYLINE
  5
65B1C
330
458D6
100
AcDbEntity
  8
0
  6
Continuous
100
AcDb3dPolyline
 66
     1
 10
0.0
 20
0.0
 30
0.0
 70
     8
1001
ACAD
1000
R13OBJECT
1002
{
1005
65B14
1002
}
  0
VERTEX
  5
65B1D
330
65B1C
100
AcDbEntity
  8
0
  6
Continuous
100
AcDbVertex
100
AcDb3dPolylineVertex
 10
1.765199999999999
 20
0.3984999999999994
 30
3.082
 70
    32
1001
ACAD
1000
R13OBJECT
1002
{
1005
65B14
1002
}
  0
VERTEX
  5
65B1E
330
65B1C
100
AcDbEntity
  8
0
  6
Continuous
100
AcDbVertex
100
AcDb3dPolylineVertex
 10
1.765199999999999
 20
0.3984999999999994
 30
2.06
 70
    32
1001
ACAD
1000
R13OBJECT
1002
{
1005
65B14
1002
}
  0
SEQEND
  5
65B1F
330
65B1C
100
AcDbEntity
  8
0
  6
Continuous
  0
POLYLINE
  5
65B20
330
458D6
100
AcDbEntity
  8
0
  6
Continuous
100
AcDb3dPolyline
 66
     1
 10
0.0
 20
0.0
 30
0.0
 70
     8
1001
ACAD
1000
R13OBJECT
1002
{
1005
65B14
1002
}
  0
VERTEX
  5
65B21
330
65B20
100
AcDbEntity
  8
0
  6
Continuous
100
AcDbVertex
100
AcDb3dPolylineVertex
 10
1.765199999999999
 20
-1.845500000000001
 30
3.082
 70
    32
1001
ACAD
1000
R13OBJECT
1002
{
1005
65B14
1002
}
  0
VERTEX
  5
65B22
330
65B20
100
AcDbEntity
  8
0
  6
Continuous
100
AcDbVertex
100
AcDb3dPolylineVertex
 10
1.765199999999999
 20
0.3984999999999994
 30
3.082
 70
    32
1001
ACAD
1000
R13OBJECT
1002
{
1005
65B14
1002
}
  0
SEQEND
  5
65B23
330
65B20
100
AcDbEntity
  8
0
  6
Continuous
  0
LINE
  5
65B24
330
458D6
100
AcDbEntity
  8
0
100
AcDbLine
 10
0.0002000000000001
 20
0.3984999999999994
 30
3.082
 11
0.0002000000000001
 21
0.3984999999999994
 31
2.06
210
-1.0
220
0.0
230
0.0
  0
LINE
  5
65B25
330
458D6
100
AcDbEntity
  8
0
100
AcDbLine
 10
0.0002000000000001
 20
0.3984999999999994
 30
3.082
 11
0.0002000000000001
 21
-1.845500000000001
 31
3.082
210
-1.0
220
0.0
230
0.0
  0
LINE
  5
65B26
330
458D6
100
AcDbEntity
  8
0
100
AcDbLine
 10
0.0002000000000001
 20
-1.845500000000001
 30
3.082
 11
0.0002000000000001
 21
-1.845500000000001
 31
2.06
210
-1.0
220
0.0
230
0.0
  0
3DFACE
  5
65B27
330
458D6
100
AcDbEntity
  8
0
100
AcDbFace
 10
1.765199999999999
 20
0.3984999999999981
 30
3.082
 11
1.765199999999999
 21
-1.845500000000001
 31
3.082
 12
0.0002000000000001
 22
-1.845500000000001
 32
3.082
 13
0.0002000000000001
 23
0.3984999999999981
 33
3.082
  0
POLYLINE
  5
65B28
330
458D6
100
AcDbEntity
  8
0
100
AcDbPolygonMesh
 66
     1
 10
0.0
 20
0.0
 30
0.0
 70
    16
 71
     6
 72
     3
  0
VERTEX
  5
65B29
330
65B28
100
AcDbEntity
  8
0
100
AcDbVertex
100
AcDbPolygonMeshVertex
 10
1.250699999999999
 20
-0.4394862069696881
 30
3.293
 70
    64
  0
VERTEX
  5
65B2A
330
65B28
100
AcDbEntity
  8
0
100
AcDbVertex
100
AcDbPolygonMeshVertex
 10
1.250699999999999
 20
-0.4394862069696881
 30
3.116
 70
    64
  0
VERTEX
  5
65B2B
330
65B28
100
AcDbEntity
  8
0
100
AcDbVertex
100
AcDbPolygonMeshVertex
 10
1.250699999999999
 20
-0.4394862069696881
 30
3.116
 70
    64
  0
VERTEX
  5
65B2C
330
65B28
100
AcDbEntity
  8
0
100
AcDbVertex
100
AcDbPolygonMeshVertex
 10
1.081199999999998
 20
-0.4394862069696881
 30
3.293
 70
    64
  0
VERTEX
  5
65B2D
330
65B28
100
AcDbEntity
  8
0
100
AcDbVertex
100
AcDbPolygonMeshVertex
 10
1.081199999999998
 20
-0.4394862069696881
 30
3.116
 70
    64
  0
VERTEX
  5
65B2E
330
65B28
100
AcDbEntity
  8
0
100
AcDbVertex
100
AcDbPolygonMeshVertex
 10
1.081199999999998
 20
-0.4394862069696881
 30
3.116
 70
    64
  0
VERTEX
  5
65B2F
330
65B28
100
AcDbEntity
  8
0
100
AcDbVertex
100
AcDbPolygonMeshVertex
 10
1.081199999999998
 20
-0.0864862069696884
 30
3.293
 70
    64
  0
VERTEX
  5
65B30
330
65B28
100
AcDbEntity
  8
0
100
AcDbVertex
100
AcDbPolygonMeshVertex
 10
1.081199999999998
 20
-0.0864862069696884
 30
3.116
 70
    64
  0
VERTEX
  5
65B31
330
65B28
100
AcDbEntity
  8
0
100
AcDbVertex
100
AcDbPolygonMeshVertex
 10
1.081199999999998
 20
-0.4394862069696881
 30
3.116
 70
    64
  0
VERTEX
  5
65B32
330
65B28
100
AcDbEntity
  8
0
100
AcDbVertex
100
AcDbPolygonMeshVertex
 10
1.250699999999999
 20
-0.0864862069696884
 30
3.293
 70
    64
  0
VERTEX
  5
65B33
330
65B28
100
AcDbEntity
  8
0
100
AcDbVertex
100
AcDbPolygonMeshVertex
 10
1.250699999999999
 20
-0.0864862069696884
 30
3.116
 70
    64
  0
VERTEX
  5
65B34
330
65B28
100
AcDbEntity
  8
0
100
AcDbVertex
100
AcDbPolygonMeshVertex
 10
1.250699999999999
 20
-0.4394862069696881
 30
3.116
 70
    64
  0
VERTEX
  5
65B35
330
65B28
100
AcDbEntity
  8
0
100
AcDbVertex
100
AcDbPolygonMeshVertex
 10
1.250699999999999
 20
-0.0864862069696884
 30
3.293
 70
    64
  0
VERTEX
  5
65B36
330
65B28
100
AcDbEntity
  8
0
100
AcDbVertex
100
AcDbPolygonMeshVertex
 10
1.250699999999999
 20
-0.0864862069696884
 30
3.293
 70
    64
  0
VERTEX
  5
65B37
330
65B28
100
AcDbEntity
  8
0
100
AcDbVertex
100
AcDbPolygonMeshVertex
 10
1.250699999999999
 20
-0.4394862069696881
 30
3.293
 70
    64
  0
VERTEX
  5
65B38
330
65B28
100
AcDbEntity
  8
0
100
AcDbVertex
100
AcDbPolygonMeshVertex
 10
1.081199999999998
 20
-0.0864862069696884
 30
3.293
 70
    64
  0
VERTEX
  5
65B39
330
65B28
100
AcDbEntity
  8
0
100
AcDbVertex
100
AcDbPolygonMeshVertex
 10
1.081199999999998
 20
-0.0864862069696884
 30
3.293
 70
    64
  0
VERTEX
  5
65B3A
330
65B28
100
AcDbEntity
  8
0
100
AcDbVertex
100
AcDbPolygonMeshVertex
 10
1.081199999999998
 20
-0.4394862069696881
 30
3.293
 70
    64
  0
SEQEND
  5
65B3B
330
65B28
100
AcDbEntity
  8
0
  0
POLYLINE
  5
65B3C
330
458D6
100
AcDbEntity
  8
0
100
AcDbPolygonMesh
 66
     1
 10
0.0
 20
0.0
 30
0.0
 70
    16
 71
     6
 72
     3
  0
VERTEX
  5
65B3D
330
65B3C
100
AcDbEntity
  8
0
100
AcDbVertex
100
AcDbPolygonMeshVertex
 10
1.122699999999998
 20
-0.8944862069696878
 30
3.332000000000001
 70
    64
  0
VERTEX
  5
65B3E
330
65B3C
100
AcDbEntity
  8
0
100
AcDbVertex
100
AcDbPolygonMeshVertex
 10
1.122699999999998
 20
-0.8944862069696878
 30
3.116
 70
    64
  0
VERTEX
  5
65B3F
330
65B3C
100
AcDbEntity
  8
0
100
AcDbVertex
100
AcDbPolygonMeshVertex
 10
1.122699999999998
 20
-0.8944862069696878
 30
3.116
 70
    64
  0
VERTEX
  5
65B40
330
65B3C
100
AcDbEntity
  8
0
100
AcDbVertex
100
AcDbPolygonMeshVertex
 10
0.987699999999999
 20
-0.8944862069696878
 30
3.332000000000001
 70
    64
  0
VERTEX
  5
65B41
330
65B3C
100
AcDbEntity
  8
0
100
AcDbVertex
100
AcDbPolygonMeshVertex
 10
0.987699999999999
 20
-0.8944862069696878
 30
3.116
 70
    64
  0
VERTEX
  5
65B42
330
65B3C
100
AcDbEntity
  8
0
100
AcDbVertex
100
AcDbPolygonMeshVertex
 10
0.987699999999999
 20
-0.8944862069696878
 30
3.116
 70
    64
  0
VERTEX
  5
65B43
330
65B3C
100
AcDbEntity
  8
0
100
AcDbVertex
100
AcDbPolygonMeshVertex
 10
0.987699999999999
 20
-0.5494862069696876
 30
3.332000000000001
 70
    64
  0
VERTEX
  5
65B44
330
65B3C
100
AcDbEntity
  8
0
100
AcDbVertex
100
AcDbPolygonMeshVertex
 10
0.987699999999999
 20
-0.5494862069696876
 30
3.116
 70
    64
  0
VERTEX
  5
65B45
330
65B3C
100
AcDbEntity
  8
0
100
AcDbVertex
100
AcDbPolygonMeshVertex
 10
0.987699999999999
 20
-0.8944862069696878
 30
3.116
 70
    64
  0
VERTEX
  5
65B46
330
65B3C
100
AcDbEntity
  8
0
100
AcDbVertex
100
AcDbPolygonMeshVertex
 10
1.122699999999998
 20
-0.5494862069696876
 30
3.332000000000001
 70
    64
  0
VERTEX
  5
65B47
330
65B3C
100
AcDbEntity
  8
0
100
AcDbVertex
100
AcDbPolygonMeshVertex
 10
1.122699999999998
 20
-0.5494862069696876
 30
3.116
 70
    64
  0
VERTEX
  5
65B48
330
65B3C
100
AcDbEntity
  8
0
100
AcDbVertex
100
AcDbPolygonMeshVertex
 10
1.122699999999998
 20
-0.8944862069696878
 30
3.116
 70
    64
  0
VERTEX
  5
65B49
330
65B3C
100
AcDbEntity
  8
0
100
AcDbVertex
100
AcDbPolygonMeshVertex
 10
1.122699999999998
 20
-0.5494862069696876
 30
3.332000000000001
 70
    64
  0
VERTEX
  5
65B4A
330
65B3C
100
AcDbEntity
  8
0
100
AcDbVertex
100
AcDbPolygonMeshVertex
 10
1.122699999999998
 20
-0.5494862069696876
 30
3.332000000000001
 70
    64
  0
VERTEX
  5
65B4B
330
65B3C
100
AcDbEntity
  8
0
100
AcDbVertex
100
AcDbPolygonMeshVertex
 10
1.122699999999998
 20
-0.8944862069696878
 30
3.332000000000001
 70
    64
  0
VERTEX
  5
65B4C
330
65B3C
100
AcDbEntity
  8
0
100
AcDbVertex
100
AcDbPolygonMeshVertex
 10
0.987699999999999
 20
-0.5494862069696876
 30
3.332000000000001
 70
    64
  0
VERTEX
  5
65B4D
330
65B3C
100
AcDbEntity
  8
0
100
AcDbVertex
100
AcDbPolygonMeshVertex
 10
0.987699999999999
 20
-0.5494862069696876
 30
3.332000000000001
 70
    64
  0
VERTEX
  5
65B4E
330
65B3C
100
AcDbEntity
  8
0
100
AcDbVertex
100
AcDbPolygonMeshVertex
 10
0.987699999999999
 20
-0.8944862069696878
 30
3.332000000000001
 70
    64
  0
SEQEND
  5
65B4F
330
65B3C
100
AcDbEntity
  8
0
  0
3DFACE
  5
65B50
330
458D6
100
AcDbEntity
  8
0
100
AcDbFace
 10
1.765199999999999
 20
0.3984999999999981
 30
3.082
 11
1.765199999999999
 21
0.3984999999999981
 31
3.082
 12
0.0002000000000001
 22
0.3984999999999981
 32
3.082
 13
0.0002000000000001
 23
0.3984999999999981
 33
3.082
  0
CIRCLE
  5
65B51
330
458D6
100
AcDbEntity
  8
0
100
AcDbCircle
 10
0.2380749999999995
 20
0.1549075779401257
 30
3.082
 40
0.138
  0
TEXT
  5
65B52
330
458D6
100
AcDbEntity
  8
0
100
AcDbText
 10
0.0726171893171534
 20
0.301596169847989
 30
3.082
 40
0.0834654981097751
  1
1
100
AcDbText
  0
TEXT
  5
65B53
330
458D6
100
AcDbEntity
  8
0
100
AcDbText
 10
1.169566170998377
 20
0.304735651778393
 30
3.082
 40
0.0834654981097751
  1
L3
100
AcDbText
  0
CIRCLE
  5
65B54
330
458D6
100
AcDbEntity
  8
0
100
AcDbCircle
 10
0.6678249999999998
 20
0.1549075779401257
 30
3.082
 40
0.138
  0
TEXT
  5
65B55
330
458D6
100
AcDbEntity
  8
0
100
AcDbText
 10
0.7630191193613373
 20
0.3013239366769129
 30
3.082
 40
0.0834654981097751
  1
L2
100
AcDbText
  0
TEXT
  5
65B56
330
458D6
100
AcDbEntity
  8
0
100
AcDbText
 10
0.3363953097455404
 20
0.3007543037421425
 30
3.082
 40
0.0834654981097751
  1
L1
100
AcDbText
  0
TEXT
  5
65B57
330
458D6
100
AcDbEntity
  8
0
100
AcDbText
 10
0.5233684387662298
 20
0.299912437636296
 30
3.082
 40
0.0834654981097751
  1
3
100
AcDbText
  0
TEXT
  5
65B58
330
458D6
100
AcDbEntity
  8
0
100
AcDbText
 10
0.9649023543462657
 20
0.3027354357175302
 30
3.082
 40
0.0834654981097751
  1
5
100
AcDbText
  0
CIRCLE
  5
65B59
330
458D6
100
AcDbEntity
  8
0
100
AcDbCircle
 10
1.097574999999999
 20
0.1549075779401257
 30
3.082
 40
0.138
  0
TEXT
  5
65B5A
330
458D6
100
AcDbEntity
  8
0
100
AcDbText
 10
1.599316170998377
 20
0.304735651778393
 30
3.082
 40
0.0834654981097751
  1
L4
100
AcDbText
  0
TEXT
  5
65B5B
330
458D6
100
AcDbEntity
  8
0
100
AcDbText
 10
1.370108047435937
 20
0.3027354357175302
 30
3.082
 40
0.0834654981097751
  1
7
100
AcDbText
  0
CIRCLE
  5
65B5C
330
458D6
100
AcDbEntity
  8
0
100
AcDbCircle
 10
1.527325
 20
0.1549075779401257
 30
3.082
 40
0.138
  0
POLYLINE
  5
65B5D
330
458D6
100
AcDbEntity
  8
0
100
AcDbPolygonMesh
 66
     1
 10
0.0
 20
0.0
 30
0.0
 70
    16
 71
     6
 72
     3
  0
VERTEX
  5
65B5E
330
65B5D
100
AcDbEntity
  8
0
100
AcDbVertex
100
AcDbPolygonMeshVertex
 10
1.2707
 20
-1.376486206969687
 30
3.282
 70
    64
  0
VERTEX
  5
65B5F
330
65B5D
100
AcDbEntity
  8
0
100
AcDbVertex
100
AcDbPolygonMeshVertex
 10
1.2707
 20
-1.376486206969687
 30
3.082
 70
    64
  0
VERTEX
  5
65B60
330
65B5D
100
AcDbEntity
  8
0
100
AcDbVertex
100
AcDbPolygonMeshVertex
 10
1.2707
 20
-1.376486206969687
 30
3.082
 70
    64
  0
VERTEX
  5
65B61
330
65B5D
100
AcDbEntity
  8
0
100
AcDbVertex
100
AcDbPolygonMeshVertex
 10
0.4996999999999995
 20
-1.376486206969687
 30
3.282
 70
    64
  0
VERTEX
  5
65B62
330
65B5D
100
AcDbEntity
  8
0
100
AcDbVertex
100
AcDbPolygonMeshVertex
 10
0.4996999999999995
 20
-1.376486206969687
 30
3.082
 70
    64
  0
VERTEX
  5
65B63
330
65B5D
100
AcDbEntity
  8
0
100
AcDbVertex
100
AcDbPolygonMeshVertex
 10
0.4996999999999995
 20
-1.376486206969687
 30
3.082
 70
    64
  0
VERTEX
  5
65B64
330
65B5D
100
AcDbEntity
  8
0
100
AcDbVertex
100
AcDbPolygonMeshVertex
 10
0.4996999999999995
 20
-1.094486206969687
 30
3.282
 70
    64
  0
VERTEX
  5
65B65
330
65B5D
100
AcDbEntity
  8
0
100
AcDbVertex
100
AcDbPolygonMeshVertex
 10
0.4996999999999995
 20
-1.094486206969687
 30
3.082
 70
    64
  0
VERTEX
  5
65B66
330
65B5D
100
AcDbEntity
  8
0
100
AcDbVertex
100
AcDbPolygonMeshVertex
 10
0.4996999999999995
 20
-1.376486206969687
 30
3.082
 70
    64
  0
VERTEX
  5
65B67
330
65B5D
100
AcDbEntity
  8
0
100
AcDbVertex
100
AcDbPolygonMeshVertex
 10
1.2707
 20
-1.094486206969687
 30
3.282
 70
    64
  0
VERTEX
  5
65B68
330
65B5D
100
AcDbEntity
  8
0
100
AcDbVertex
100
AcDbPolygonMeshVertex
 10
1.2707
 20
-1.094486206969687
 30
3.082
 70
    64
  0
VERTEX
  5
65B69
330
65B5D
100
AcDbEntity
  8
0
100
AcDbVertex
100
AcDbPolygonMeshVertex
 10
1.2707
 20
-1.376486206969687
 30
3.082
 70
    64
  0
VERTEX
  5
65B6A
330
65B5D
100
AcDbEntity
  8
0
100
AcDbVertex
100
AcDbPolygonMeshVertex
 10
1.2707
 20
-1.094486206969687
 30
3.282
 70
    64
  0
VERTEX
  5
65B6B
330
65B5D
100
AcDbEntity
  8
0
100
AcDbVertex
100
AcDbPolygonMeshVertex
 10
1.2707
 20
-1.094486206969687
 30
3.282
 70
    64
  0
VERTEX
  5
65B6C
330
65B5D
100
AcDbEntity
  8
0
100
AcDbVertex
100
AcDbPolygonMeshVertex
 10
1.2707
 20
-1.376486206969687
 30
3.282
 70
    64
  0
VERTEX
  5
65B6D
330
65B5D
100
AcDbEntity
  8
0
100
AcDbVertex
100
AcDbPolygonMeshVertex
 10
0.4996999999999995
 20
-1.094486206969687
 30
3.282
 70
    64
  0
VERTEX
  5
65B6E
330
65B5D
100
AcDbEntity
  8
0
100
AcDbVertex
100
AcDbPolygonMeshVertex
 10
0.4996999999999995
 20
-1.094486206969687
 30
3.282
 70
    64
  0
VERTEX
  5
65B6F
330
65B5D
100
AcDbEntity
  8
0
100
AcDbVertex
100
AcDbPolygonMeshVertex
 10
0.4996999999999995
 20
-1.376486206969687
 30
3.282
 70
    64
  0
SEQEND
  5
65B70
330
65B5D
100
AcDbEntity
  8
0
  0
POLYLINE
  5
65B71
330
458D6
100
AcDbEntity
  8
0
100
AcDbPolygonMesh
 66
     1
 10
0.0
 20
0.0
 30
0.0
 70
    16
 71
     6
 72
     3
  0
VERTEX
  5
65B72
330
65B71
100
AcDbEntity
  8
0
100
AcDbVertex
100
AcDbPolygonMeshVertex
 10
1.250699999999999
 20
-0.4394862069696881
 30
3.116
 70
    64
  0
VERTEX
  5
65B73
330
65B71
100
AcDbEntity
  8
0
100
AcDbVertex
100
AcDbPolygonMeshVertex
 10
1.250699999999999
 20
-0.4394862069696881
 30
3.082
 70
    64
  0
VERTEX
  5
65B74
330
65B71
100
AcDbEntity
  8
0
100
AcDbVertex
100
AcDbPolygonMeshVertex
 10
1.250699999999999
 20
-0.4394862069696881
 30
3.082
 70
    64
  0
VERTEX
  5
65B75
330
65B71
100
AcDbEntity
  8
0
100
AcDbVertex
100
AcDbPolygonMeshVertex
 10
0.5196999999999991
 20
-0.4394862069696881
 30
3.116
 70
    64
  0
VERTEX
  5
65B76
330
65B71
100
AcDbEntity
  8
0
100
AcDbVertex
100
AcDbPolygonMeshVertex
 10
0.5196999999999991
 20
-0.4394862069696881
 30
3.082
 70
    64
  0
VERTEX
  5
65B77
330
65B71
100
AcDbEntity
  8
0
100
AcDbVertex
100
AcDbPolygonMeshVertex
 10
0.5196999999999991
 20
-0.4394862069696881
 30
3.082
 70
    64
  0
VERTEX
  5
65B78
330
65B71
100
AcDbEntity
  8
0
100
AcDbVertex
100
AcDbPolygonMeshVertex
 10
0.5196999999999991
 20
-0.0864862069696884
 30
3.116
 70
    64
  0
VERTEX
  5
65B79
330
65B71
100
AcDbEntity
  8
0
100
AcDbVertex
100
AcDbPolygonMeshVertex
 10
0.5196999999999991
 20
-0.0864862069696884
 30
3.082
 70
    64
  0
VERTEX
  5
65B7A
330
65B71
100
AcDbEntity
  8
0
100
AcDbVertex
100
AcDbPolygonMeshVertex
 10
0.5196999999999991
 20
-0.4394862069696881
 30
3.082
 70
    64
  0
VERTEX
  5
65B7B
330
65B71
100
AcDbEntity
  8
0
100
AcDbVertex
100
AcDbPolygonMeshVertex
 10
1.250699999999999
 20
-0.0864862069696884
 30
3.116
 70
    64
  0
VERTEX
  5
65B7C
330
65B71
100
AcDbEntity
  8
0
100
AcDbVertex
100
AcDbPolygonMeshVertex
 10
1.250699999999999
 20
-0.0864862069696884
 30
3.082
 70
    64
  0
VERTEX
  5
65B7D
330
65B71
100
AcDbEntity
  8
0
100
AcDbVertex
100
AcDbPolygonMeshVertex
 10
1.250699999999999
 20
-0.4394862069696881
 30
3.082
 70
    64
  0
VERTEX
  5
65B7E
330
65B71
100
AcDbEntity
  8
0
100
AcDbVertex
100
AcDbPolygonMeshVertex
 10
1.250699999999999
 20
-0.0864862069696884
 30
3.116
 70
    64
  0
VERTEX
  5
65B7F
330
65B71
100
AcDbEntity
  8
0
100
AcDbVertex
100
AcDbPolygonMeshVertex
 10
1.250699999999999
 20
-0.0864862069696884
 30
3.116
 70
    64
  0
VERTEX
  5
65B80
330
65B71
100
AcDbEntity
  8
0
100
AcDbVertex
100
AcDbPolygonMeshVertex
 10
1.250699999999999
 20
-0.4394862069696881
 30
3.116
 70
    64
  0
VERTEX
  5
65B81
330
65B71
100
AcDbEntity
  8
0
100
AcDbVertex
100
AcDbPolygonMeshVertex
 10
0.5196999999999991
 20
-0.0864862069696884
 30
3.116
 70
    64
  0
VERTEX
  5
65B82
330
65B71
100
AcDbEntity
  8
0
100
AcDbVertex
100
AcDbPolygonMeshVertex
 10
0.5196999999999991
 20
-0.0864862069696884
 30
3.116
 70
    64
  0
VERTEX
  5
65B83
330
65B71
100
AcDbEntity
  8
0
100
AcDbVertex
100
AcDbPolygonMeshVertex
 10
0.5196999999999991
 20
-0.4394862069696881
 30
3.116
 70
    64
  0
SEQEND
  5
65B84
330
65B71
100
AcDbEntity
  8
0
  0
POLYLINE
  5
65B85
330
458D6
100
AcDbEntity
  8
0
100
AcDbPolygonMesh
 66
     1
 10
0.0
 20
0.0
 30
0.0
 70
    16
 71
     6
 72
     3
  0
VERTEX
  5
65B86
330
65B85
100
AcDbEntity
  8
0
100
AcDbVertex
100
AcDbPolygonMeshVertex
 10
0.6891999999999993
 20
-0.4394862069696881
 30
3.293
 70
    64
  0
VERTEX
  5
65B87
330
65B85
100
AcDbEntity
  8
0
100
AcDbVertex
100
AcDbPolygonMeshVertex
 10
0.6891999999999993
 20
-0.4394862069696881
 30
3.116
 70
    64
  0
VERTEX
  5
65B88
330
65B85
100
AcDbEntity
  8
0
100
AcDbVertex
100
AcDbPolygonMeshVertex
 10
0.6891999999999993
 20
-0.4394862069696881
 30
3.116
 70
    64
  0
VERTEX
  5
65B89
330
65B85
100
AcDbEntity
  8
0
100
AcDbVertex
100
AcDbPolygonMeshVertex
 10
0.5196999999999991
 20
-0.4394862069696881
 30
3.293
 70
    64
  0
VERTEX
  5
65B8A
330
65B85
100
AcDbEntity
  8
0
100
AcDbVertex
100
AcDbPolygonMeshVertex
 10
0.5196999999999991
 20
-0.4394862069696881
 30
3.116
 70
    64
  0
VERTEX
  5
65B8B
330
65B85
100
AcDbEntity
  8
0
100
AcDbVertex
100
AcDbPolygonMeshVertex
 10
0.5196999999999991
 20
-0.4394862069696881
 30
3.116
 70
    64
  0
VERTEX
  5
65B8C
330
65B85
100
AcDbEntity
  8
0
100
AcDbVertex
100
AcDbPolygonMeshVertex
 10
0.5196999999999991
 20
-0.0864862069696884
 30
3.293
 70
    64
  0
VERTEX
  5
65B8D
330
65B85
100
AcDbEntity
  8
0
100
AcDbVertex
100
AcDbPolygonMeshVertex
 10
0.5196999999999991
 20
-0.0864862069696884
 30
3.116
 70
    64
  0
VERTEX
  5
65B8E
330
65B85
100
AcDbEntity
  8
0
100
AcDbVertex
100
AcDbPolygonMeshVertex
 10
0.5196999999999991
 20
-0.4394862069696881
 30
3.116
 70
    64
  0
VERTEX
  5
65B8F
330
65B85
100
AcDbEntity
  8
0
100
AcDbVertex
100
AcDbPolygonMeshVertex
 10
0.6891999999999993
 20
-0.0864862069696884
 30
3.293
 70
    64
  0
VERTEX
  5
65B90
330
65B85
100
AcDbEntity
  8
0
100
AcDbVertex
100
AcDbPolygonMeshVertex
 10
0.6891999999999993
 20
-0.0864862069696884
 30
3.116
 70
    64
  0
VERTEX
  5
65B91
330
65B85
100
AcDbEntity
  8
0
100
AcDbVertex
100
AcDbPolygonMeshVertex
 10
0.6891999999999993
 20
-0.4394862069696881
 30
3.116
 70
    64
  0
VERTEX
  5
65B92
330
65B85
100
AcDbEntity
  8
0
100
AcDbVertex
100
AcDbPolygonMeshVertex
 10
0.6891999999999993
 20
-0.0864862069696884
 30
3.293
 70
    64
  0
VERTEX
  5
65B93
330
65B85
100
AcDbEntity
  8
0
100
AcDbVertex
100
AcDbPolygonMeshVertex
 10
0.6891999999999993
 20
-0.0864862069696884
 30
3.293
 70
    64
  0
VERTEX
  5
65B94
330
65B85
100
AcDbEntity
  8
0
100
AcDbVertex
100
AcDbPolygonMeshVertex
 10
0.6891999999999993
 20
-0.4394862069696881
 30
3.293
 70
    64
  0
VERTEX
  5
65B95
330
65B85
100
AcDbEntity
  8
0
100
AcDbVertex
100
AcDbPolygonMeshVertex
 10
0.5196999999999991
 20
-0.0864862069696884
 30
3.293
 70
    64
  0
VERTEX
  5
65B96
330
65B85
100
AcDbEntity
  8
0
100
AcDbVertex
100
AcDbPolygonMeshVertex
 10
0.5196999999999991
 20
-0.0864862069696884
 30
3.293
 70
    64
  0
VERTEX
  5
65B97
330
65B85
100
AcDbEntity
  8
0
100
AcDbVertex
100
AcDbPolygonMeshVertex
 10
0.5196999999999991
 20
-0.4394862069696881
 30
3.293
 70
    64
  0
SEQEND
  5
65B98
330
65B85
100
AcDbEntity
  8
0
  0
POLYLINE
  5
65B99
330
458D6
100
AcDbEntity
  8
0
100
AcDbPolygonMesh
 66
     1
 10
0.0
 20
0.0
 30
0.0
 70
    16
 71
     6
 72
     3
  0
VERTEX
  5
65B9A
330
65B99
100
AcDbEntity
  8
0
100
AcDbVertex
100
AcDbPolygonMeshVertex
 10
0.782699999999999
 20
-0.8944862069696878
 30
3.332000000000001
 70
    64
  0
VERTEX
  5
65B9B
330
65B99
100
AcDbEntity
  8
0
100
AcDbVertex
100
AcDbPolygonMeshVertex
 10
0.782699999999999
 20
-0.8944862069696878
 30
3.116
 70
    64
  0
VERTEX
  5
65B9C
330
65B99
100
AcDbEntity
  8
0
100
AcDbVertex
100
AcDbPolygonMeshVertex
 10
0.782699999999999
 20
-0.8944862069696878
 30
3.116
 70
    64
  0
VERTEX
  5
65B9D
330
65B99
100
AcDbEntity
  8
0
100
AcDbVertex
100
AcDbPolygonMeshVertex
 10
0.6476999999999992
 20
-0.8944862069696878
 30
3.332000000000001
 70
    64
  0
VERTEX
  5
65B9E
330
65B99
100
AcDbEntity
  8
0
100
AcDbVertex
100
AcDbPolygonMeshVertex
 10
0.6476999999999992
 20
-0.8944862069696878
 30
3.116
 70
    64
  0
VERTEX
  5
65B9F
330
65B99
100
AcDbEntity
  8
0
100
AcDbVertex
100
AcDbPolygonMeshVertex
 10
0.6476999999999992
 20
-0.8944862069696878
 30
3.116
 70
    64
  0
VERTEX
  5
65BA0
330
65B99
100
AcDbEntity
  8
0
100
AcDbVertex
100
AcDbPolygonMeshVertex
 10
0.6476999999999992
 20
-0.5494862069696876
 30
3.332000000000001
 70
    64
  0
VERTEX
  5
65BA1
330
65B99
100
AcDbEntity
  8
0
100
AcDbVertex
100
AcDbPolygonMeshVertex
 10
0.6476999999999992
 20
-0.5494862069696876
 30
3.116
 70
    64
  0
VERTEX
  5
65BA2
330
65B99
100
AcDbEntity
  8
0
100
AcDbVertex
100
AcDbPolygonMeshVertex
 10
0.6476999999999992
 20
-0.8944862069696878
 30
3.116
 70
    64
  0
VERTEX
  5
65BA3
330
65B99
100
AcDbEntity
  8
0
100
AcDbVertex
100
AcDbPolygonMeshVertex
 10
0.782699999999999
 20
-0.5494862069696876
 30
3.332000000000001
 70
    64
  0
VERTEX
  5
65BA4
330
65B99
100
AcDbEntity
  8
0
100
AcDbVertex
100
AcDbPolygonMeshVertex
 10
0.782699999999999
 20
-0.5494862069696876
 30
3.116
 70
    64
  0
VERTEX
  5
65BA5
330
65B99
100
AcDbEntity
  8
0
100
AcDbVertex
100
AcDbPolygonMeshVertex
 10
0.782699999999999
 20
-0.8944862069696878
 30
3.116
 70
    64
  0
VERTEX
  5
65BA6
330
65B99
100
AcDbEntity
  8
0
100
AcDbVertex
100
AcDbPolygonMeshVertex
 10
0.782699999999999
 20
-0.5494862069696876
 30
3.332000000000001
 70
    64
  0
VERTEX
  5
65BA7
330
65B99
100
AcDbEntity
  8
0
100
AcDbVertex
100
AcDbPolygonMeshVertex
 10
0.782699999999999
 20
-0.5494862069696876
 30
3.332000000000001
 70
    64
  0
VERTEX
  5
65BA8
330
65B99
100
AcDbEntity
  8
0
100
AcDbVertex
100
AcDbPolygonMeshVertex
 10
0.782699999999999
 20
-0.8944862069696878
 30
3.332000000000001
 70
    64
  0
VERTEX
  5
65BA9
330
65B99
100
AcDbEntity
  8
0
100
AcDbVertex
100
AcDbPolygonMeshVertex
 10
0.6476999999999992
 20
-0.5494862069696876
 30
3.332000000000001
 70
    64
  0
VERTEX
  5
65BAA
330
65B99
100
AcDbEntity
  8
0
100
AcDbVertex
100
AcDbPolygonMeshVertex
 10
0.6476999999999992
 20
-0.5494862069696876
 30
3.332000000000001
 70
    64
  0
VERTEX
  5
65BAB
330
65B99
100
AcDbEntity
  8
0
100
AcDbVertex
100
AcDbPolygonMeshVertex
 10
0.6476999999999992
 20
-0.8944862069696878
 30
3.332000000000001
 70
    64
  0
SEQEND
  5
65BAC
330
65B99
100
AcDbEntity
  8
0
  0
TEXT
  5
65BAD
330
458D6
100
AcDbEntity
  8
0
100
AcDbText
 10
0.7497214061352758
 20
-1.81957131621648
 30
3.082
 40
0.0834654981097751
  1
T2
100
AcDbText
  0
TEXT
  5
65BAE
330
458D6
100
AcDbEntity
  8
0
100
AcDbText
 10
0.9687721570885658
 20
-1.820413182322326
 30
3.082
 40
0.0834654981097751
  1
6
100
AcDbText
  0
POLYLINE
  5
65BAF
330
458D6
100
AcDbEntity
  8
0
100
AcDbPolygonMesh
 66
     1
 10
0.0
 20
0.0
 30
0.0
 70
    16
 71
     6
 72
     3
  0
VERTEX
  5
65BB0
330
65BAF
100
AcDbEntity
  8
0
100
AcDbVertex
100
AcDbPolygonMeshVertex
 10
1.122699999999998
 20
-0.8944862069696878
 30
3.116
 70
    64
  0
VERTEX
  5
65BB1
330
65BAF
100
AcDbEntity
  8
0
100
AcDbVertex
100
AcDbPolygonMeshVertex
 10
1.122699999999998
 20
-0.8944862069696878
 30
3.082
 70
    64
  0
VERTEX
  5
65BB2
330
65BAF
100
AcDbEntity
  8
0
100
AcDbVertex
100
AcDbPolygonMeshVertex
 10
1.122699999999998
 20
-0.8944862069696878
 30
3.082
 70
    64
  0
VERTEX
  5
65BB3
330
65BAF
100
AcDbEntity
  8
0
100
AcDbVertex
100
AcDbPolygonMeshVertex
 10
0.6476999999999992
 20
-0.8944862069696878
 30
3.116
 70
    64
  0
VERTEX
  5
65BB4
330
65BAF
100
AcDbEntity
  8
0
100
AcDbVertex
100
AcDbPolygonMeshVertex
 10
0.6476999999999992
 20
-0.8944862069696878
 30
3.082
 70
    64
  0
VERTEX
  5
65BB5
330
65BAF
100
AcDbEntity
  8
0
100
AcDbVertex
100
AcDbPolygonMeshVertex
 10
0.6476999999999992
 20
-0.8944862069696878
 30
3.082
 70
    64
  0
VERTEX
  5
65BB6
330
65BAF
100
AcDbEntity
  8
0
100
AcDbVertex
100
AcDbPolygonMeshVertex
 10
0.6476999999999992
 20
-0.5494862069696876
 30
3.116
 70
    64
  0
VERTEX
  5
65BB7
330
65BAF
100
AcDbEntity
  8
0
100
AcDbVertex
100
AcDbPolygonMeshVertex
 10
0.6476999999999992
 20
-0.5494862069696876
 30
3.082
 70
    64
  0
VERTEX
  5
65BB8
330
65BAF
100
AcDbEntity
  8
0
100
AcDbVertex
100
AcDbPolygonMeshVertex
 10
0.6476999999999992
 20
-0.8944862069696878
 30
3.082
 70
    64
  0
VERTEX
  5
65BB9
330
65BAF
100
AcDbEntity
  8
0
100
AcDbVertex
100
AcDbPolygonMeshVertex
 10
1.122699999999998
 20
-0.5494862069696876
 30
3.116
 70
    64
  0
VERTEX
  5
65BBA
330
65BAF
100
AcDbEntity
  8
0
100
AcDbVertex
100
AcDbPolygonMeshVertex
 10
1.122699999999998
 20
-0.5494862069696876
 30
3.082
 70
    64
  0
VERTEX
  5
65BBB
330
65BAF
100
AcDbEntity
  8
0
100
AcDbVertex
100
AcDbPolygonMeshVertex
 10
1.122699999999998
 20
-0.8944862069696878
 30
3.082
 70
    64
  0
VERTEX
  5
65BBC
330
65BAF
100
AcDbEntity
  8
0
100
AcDbVertex
100
AcDbPolygonMeshVertex
 10
1.122699999999998
 20
-0.5494862069696876
 30
3.116
 70
    64
  0
VERTEX
  5
65BBD
330
65BAF
100
AcDbEntity
  8
0
100
AcDbVertex
100
AcDbPolygonMeshVertex
 10
1.122699999999998
 20
-0.5494862069696876
 30
3.116
 70
    64
  0
VERTEX
  5
65BBE
330
65BAF
100
AcDbEntity
  8
0
100
AcDbVertex
100
AcDbPolygonMeshVertex
 10
1.122699999999998
 20
-0.8944862069696878
 30
3.116
 70
    64
  0
VERTEX
  5
65BBF
330
65BAF
100
AcDbEntity
  8
0
100
AcDbVertex
100
AcDbPolygonMeshVertex
 10
0.6476999999999992
 20
-0.5494862069696876
 30
3.116
 70
    64
  0
VERTEX
  5
65BC0
330
65BAF
100
AcDbEntity
  8
0
100
AcDbVertex
100
AcDbPolygonMeshVertex
 10
0.6476999999999992
 20
-0.5494862069696876
 30
3.116
 70
    64
  0
VERTEX
  5
65BC1
330
65BAF
100
AcDbEntity
  8
0
100
AcDbVertex
100
AcDbPolygonMeshVertex
 10
0.6476999999999992
 20
-0.8944862069696878
 30
3.116
 70
    64
  0
SEQEND
  5
65BC2
330
65BAF
100
AcDbEntity
  8
0
  0
TEXT
  5
65BC3
330
458D6
100
AcDbEntity
  8
0
100
AcDbText
 10
1.168744176302742
 20
-1.81900168328171
 30
3.082
 40
0.0834654981097751
  1
T3
100
AcDbText
  0
TEXT
  5
65BC4
330
458D6
100
AcDbEntity
  8
0
100
AcDbText
 10
0.3250117058396814
 20
-1.817524560975508
 30
3.082
 40
0.0834654981097751
  1
T1
100
AcDbText
  0
CIRCLE
  5
65BC5
330
458D6
100
AcDbEntity
  8
0
100
AcDbCircle
 10
0.2380749999999995
 20
-1.587879991879503
 30
3.082
 40
0.138
  0
TEXT
  5
65BC6
330
458D6
100
AcDbEntity
  8
0
100
AcDbText
 10
0.080558581031785
 20
-1.821552448191868
 30
3.082
 40
0.0834654981097751
  1
2
100
AcDbText
  0
TEXT
  5
65BC7
330
458D6
100
AcDbEntity
  8
0
100
AcDbText
 10
1.598494176302742
 20
-1.81900168328171
 30
3.082
 40
0.0834654981097751
  1
T4
100
AcDbText
  0
TEXT
  5
65BC8
330
458D6
100
AcDbEntity
  8
0
100
AcDbText
 10
1.398522157088566
 20
-1.820413182322326
 30
3.082
 40
0.0834654981097751
  1
8
100
AcDbText
  0
LWPOLYLINE
  5
65BC9
330
458D6
100
AcDbEntity
  8
0
100
AcDbPolyline
 90
        2
 70
     0
 43
0.0
 38
2.06
 10
0.0002000000000001
 20
-1.845500000000001
 10
0.0002000000000001
 20
0.3984999999999994
  0
POLYLINE
  5
65BCA
330
458D6
100
AcDbEntity
  8
0
100
AcDbPolygonMesh
 66
     1
 10
0.0
 20
0.0
 30
0.0
 70
    16
 71
     6
 72
     3
  0
VERTEX
  5
65BCB
330
65BCA
100
AcDbEntity
  8
0
100
AcDbVertex
100
AcDbPolygonMeshVertex
 10
1.765199999999999
 20
-1.845499999999999
 30
3.082
 70
    64
  0
VERTEX
  5
65BCC
330
65BCA
100
AcDbEntity
  8
0
100
AcDbVertex
100
AcDbPolygonMeshVertex
 10
1.765199999999999
 20
-1.845499999999999
 30
2.06
 70
    64
  0
VERTEX
  5
65BCD
330
65BCA
100
AcDbEntity
  8
0
100
AcDbVertex
100
AcDbPolygonMeshVertex
 10
1.765199999999999
 20
-1.845499999999999
 30
2.06
 70
    64
  0
VERTEX
  5
65BCE
330
65BCA
100
AcDbEntity
  8
0
100
AcDbVertex
100
AcDbPolygonMeshVertex
 10
0.0002000000000001
 20
-1.845499999999999
 30
3.082
 70
    64
  0
VERTEX
  5
65BCF
330
65BCA
100
AcDbEntity
  8
0
100
AcDbVertex
100
AcDbPolygonMeshVertex
 10
0.0002000000000001
 20
-1.845499999999999
 30
2.06
 70
    64
  0
VERTEX
  5
65BD0
330
65BCA
100
AcDbEntity
  8
0
100
AcDbVertex
100
AcDbPolygonMeshVertex
 10
0.0002000000000001
 20
-1.845499999999999
 30
2.06
 70
    64
  0
VERTEX
  5
65BD1
330
65BCA
100
AcDbEntity
  8
0
100
AcDbVertex
100
AcDbPolygonMeshVertex
 10
0.0002000000000001
 20
0.3989714299807865
 30
3.082
 70
    64
  0
VERTEX
  5
65BD2
330
65BCA
100
AcDbEntity
  8
0
100
AcDbVertex
100
AcDbPolygonMeshVertex
 10
0.0002000000000001
 20
0.3989714299807865
 30
2.06
 70
    64
  0
VERTEX
  5
65BD3
330
65BCA
100
AcDbEntity
  8
0
100
AcDbVertex
100
AcDbPolygonMeshVertex
 10
0.0002000000000001
 20
-1.845499999999999
 30
2.06
 70
    64
  0
VERTEX
  5
65BD4
330
65BCA
100
AcDbEntity
  8
0
100
AcDbVertex
100
AcDbPolygonMeshVertex
 10
1.765199999999999
 20
0.3989714299807865
 30
3.082
 70
    64
  0
VERTEX
  5
65BD5
330
65BCA
100
AcDbEntity
  8
0
100
AcDbVertex
100
AcDbPolygonMeshVertex
 10
1.765199999999999
 20
0.3989714299807865
 30
2.06
 70
    64
  0
VERTEX
  5
65BD6
330
65BCA
100
AcDbEntity
  8
0
100
AcDbVertex
100
AcDbPolygonMeshVertex
 10
1.765199999999999
 20
-1.845499999999999
 30
2.06
 70
    64
  0
VERTEX
  5
65BD7
330
65BCA
100
AcDbEntity
  8
0
100
AcDbVertex
100
AcDbPolygonMeshVertex
 10
1.765199999999999
 20
0.3989714299807865
 30
3.082
 70
    64
  0
VERTEX
  5
65BD8
330
65BCA
100
AcDbEntity
  8
0
100
AcDbVertex
100
AcDbPolygonMeshVertex
 10
1.765199999999999
 20
0.3989714299807865
 30
3.082
 70
    64
  0
VERTEX
  5
65BD9
330
65BCA
100
AcDbEntity
  8
0
100
AcDbVertex
100
AcDbPolygonMeshVertex
 10
1.765199999999999
 20
-1.845499999999999
 30
3.082
 70
    64
  0
VERTEX
  5
65BDA
330
65BCA
100
AcDbEntity
  8
0
100
AcDbVertex
100
AcDbPolygonMeshVertex
 10
0.0002000000000001
 20
0.3989714299807865
 30
3.082
 70
    64
  0
VERTEX
  5
65BDB
330
65BCA
100
AcDbEntity
  8
0
100
AcDbVertex
100
AcDbPolygonMeshVertex
 10
0.0002000000000001
 20
0.3989714299807865
 30
3.082
 70
    64
  0
VERTEX
  5
65BDC
330
65BCA
100
AcDbEntity
  8
0
100
AcDbVertex
100
AcDbPolygonMeshVertex
 10
0.0002000000000001
 20
-1.845499999999999
 30
3.082
 70
    64
  0
SEQEND
  5
65BDD
330
65BCA
100
AcDbEntity
  8
0
  0
POINT
  5
65BDE
330
458D6
100
AcDbEntity
  8
SNAP_POINTS
100
AcDbPoint
 10
-0.0000103494035411
 20
-0.7734999999999999
 30
2.0685
  0
POLYLINE
  5
65BDF
330
458D6
100
AcDbEntity
  8
0
100
AcDb3dPolyline
 66
     1
 10
0.0
 20
0.0
 30
0.0
 70
     8
  0
VERTEX
  5
65BE0
330
65BDF
100
AcDbEntity
  8
0
100
AcDbVertex
100
AcDb3dPolylineVertex
 10
1.765410349403541
 20
-0.6404999999999999
 30
1.592
 70
    32
  0
VERTEX
  5
65BE1
330
65BDF
100
AcDbEntity
  8
0
100
AcDbVertex
100
AcDb3dPolylineVertex
 10
1.765410349403541
 20
-0.6404999999999999
 30
2.165
 70
    32
  0
VERTEX
  5
65BE2
330
65BDF
100
AcDbEntity
  8
0
100
AcDbVertex
100
AcDb3dPolylineVertex
 10
1.765410349403541
 20
-0.8064999999999997
 30
2.165
 70
    32
  0
VERTEX
  5
65BE3
330
65BDF
100
AcDbEntity
  8
0
100
AcDbVertex
100
AcDb3dPolylineVertex
 10
1.765410349403541
 20
-0.8065000000000001
 30
1.592
 70
    32
  0
VERTEX
  5
65BE4
330
65BDF
100
AcDbEntity
  8
0
100
AcDbVertex
100
AcDb3dPolylineVertex
 10
1.765410349403541
 20
-0.6404999999999999
 30
1.592
 70
    32
  0
SEQEND
  5
65BE5
330
65BDF
100
AcDbEntity
  8
0
  0
LINE
  5
65BE6
330
458D6
100
AcDbEntity
  8
0
100
AcDbLine
 10
1.765410349403541
 20
-0.8065000000000001
 30
1.8785
 11
1.765410349403541
 21
-0.6404999999999999
 31
1.8785
  0
POINT
  5
65BE7
330
458D6
100
AcDbEntity
  8
SNAP_POINTS
100
AcDbPoint
 10
1.765410349403541
 20
-0.6734999999999998
 30
2.0685
  0
LINE
  5
65BE8
330
458D6
100
AcDbEntity
  8
0
100
AcDbLine
 10
1.765410349403541
 20
-0.8065000000000001
 30
2.0685
 11
1.765410349403541
 21
-0.6404999999999999
 31
2.0685
  0
POINT
  5
65BE9
330
458D6
100
AcDbEntity
  8
SNAP_POINTS
100
AcDbPoint
 10
0.8851999999999989
 20
-0.7219862069696877
 30
3.116
  0
LINE
  5
65BEA
330
458D6
100
AcDbEntity
  8
0
100
AcDbLine
 10
1.065699999999999
 20
-2.405500000000002
 30
1.839
 11
1.382699999999999
 21
-2.405500000000002
 31
1.839
  0
LINE
  5
65BEB
330
458D6
100
AcDbEntity
  8
0
100
AcDbLine
 10
1.382699999999999
 20
-2.405500000000002
 30
1.839
 11
1.382699999999999
 21
-2.405500000000002
 31
1.639
  0
LINE
  5
65BEC
330
458D6
100
AcDbEntity
  8
0
100
AcDbLine
 10
1.065699999999999
 20
-2.405500000000002
 30
1.639
 11
1.382699999999999
 21
-2.405500000000002
 31
1.639
  0
LINE
  5
65BED
330
458D6
100
AcDbEntity
  8
0
100
AcDbLine
 10
1.065699999999999
 20
-2.405500000000002
 30
1.839
 11
1.065699999999999
 21
-2.405500000000002
 31
1.639
  0
POINT
  5
65BEE
330
458D6
100
AcDbEntity
  8
SNAP_POINTS
100
AcDbPoint
 10
1.065699999999999
 20
-2.405500000000002
 30
1.639
  0
LINE
  5
65BEF
330
458D6
100
AcDbEntity
  8
0
100
AcDbLine
 10
0.7046999999999987
 20
-2.405500000000002
 30
1.839
 11
0.7046999999999987
 21
-2.405500000000002
 31
1.639
  0
LINE
  5
65BF0
330
458D6
100
AcDbEntity
  8
0
100
AcDbLine
 10
0.7046999999999987
 20
-2.405500000000002
 30
1.639
 11
0.3876999999999985
 21
-2.405500000000002
 31
1.639
  0
LINE
  5
65BF1
330
458D6
100
AcDbEntity
  8
0
100
AcDbLine
 10
0.7046999999999987
 20
-2.405500000000002
 30
1.839
 11
0.3876999999999985
 21
-2.405500000000002
 31
1.839
  0
LINE
  5
65BF2
330
458D6
100
AcDbEntity
  8
0
100
AcDbLine
 10
0.3876999999999985
 20
-2.405500000000002
 30
1.839
 11
0.3876999999999985
 21
-2.405500000000002
 31
1.639
  0
POINT
  5
65BF3
330
458D6
100
AcDbEntity
  8
DIMS-MTG-HOLES
100
AcDbPoint
 10
0.1911999999999991
 20
-1.934499999999999
 30
0.0
  0
POINT
  5
65BF4
330
458D6
100
AcDbEntity
  8
DIMS-MTG-HOLES
100
AcDbPoint
 10
1.571199999999999
 20
0.4255
 30
0.0
  0
LWPOLYLINE
  5
65BF5
330
458D6
100
AcDbEntity
  8
0
100
AcDbPolyline
 90
        6
 70
     0
 43
0.0
 38
3.082
 10
1.507324999999999
 20
0.2914506114497129
 10
1.507324999999999
 20
0.1749075779401259
 10
1.447325
 20
0.1749075779401261
 10
1.447325
 20
0.1349075779401259
 10
1.507324999999999
 20
0.1349075779401263
 10
1.507324999999999
 20
0.0183645444305394
  0
LWPOLYLINE
  5
65BF6
330
458D6
100
AcDbEntity
  8
0
100
AcDbPolyline
 90
        6
 70
     0
 43
0.0
 38
3.082
 10
1.547325
 20
0.2914506114497129
 10
1.547325
 20
0.1749075779401259
 10
1.607325
 20
0.1749075779401261
 10
1.607325
 20
0.1349075779401259
 10
1.547325
 20
0.1349075779401263
 10
1.547325
 20
0.0183645444305394
  0
LWPOLYLINE
  5
65BF7
330
458D6
100
AcDbEntity
  8
0
100
AcDbPolyline
 90
        6
 70
     0
 43
0.0
 38
3.082
 10
1.077574999999999
 20
0.2914506114497129
 10
1.077574999999999
 20
0.1749075779401259
 10
1.017574999999999
 20
0.1749075779401261
 10
1.017574999999999
 20
0.1349075779401259
 10
1.077574999999999
 20
0.1349075779401263
 10
1.077574999999999
 20
0.0183645444305394
  0
LWPOLYLINE
  5
65BF8
330
458D6
100
AcDbEntity
  8
0
100
AcDbPolyline
 90
        6
 70
     0
 43
0.0
 38
3.082
 10
1.117574999999999
 20
0.2914506114497129
 10
1.117574999999999
 20
0.1749075779401259
 10
1.177574999999999
 20
0.1749075779401261
 10
1.177574999999999
 20
0.1349075779401259
 10
1.117574999999999
 20
0.1349075779401263
 10
1.117574999999999
 20
0.0183645444305394
  0
LWPOLYLINE
  5
65BF9
330
458D6
100
AcDbEntity
  8
0
100
AcDbPolyline
 90
        6
 70
     0
 43
0.0
 38
3.082
 10
0.6878249999999998
 20
0.2914506114497129
 10
0.6878249999999998
 20
0.1749075779401259
 10
0.7478249999999999
 20
0.1749075779401261
 10
0.7478249999999999
 20
0.1349075779401259
 10
0.6878249999999998
 20
0.1349075779401263
 10
0.6878249999999998
 20
0.0183645444305394
  0
LWPOLYLINE
  5
65BFA
330
458D6
100
AcDbEntity
  8
0
100
AcDbPolyline
 90
        6
 70
     0
 43
0.0
 38
3.082
 10
0.6478249999999998
 20
0.2914506114497129
 10
0.6478249999999998
 20
0.1749075779401259
 10
0.587825
 20
0.1749075779401261
 10
0.587825
 20
0.1349075779401259
 10
0.6478249999999998
 20
0.1349075779401263
 10
0.6478249999999998
 20
0.0183645444305394
  0
LWPOLYLINE
  5
65BFB
330
458D6
100
AcDbEntity
  8
0
100
AcDbPolyline
 90
        6
 70
     0
 43
0.0
 38
3.082
 10
0.2580749999999995
 20
0.2914506114497129
 10
0.2580749999999995
 20
0.1749075779401259
 10
0.3180749999999995
 20
0.1749075779401261
 10
0.3180749999999995
 20
0.1349075779401259
 10
0.2580749999999995
 20
0.1349075779401263
 10
0.2580749999999995
 20
0.0183645444305394
  0
LWPOLYLINE
  5
65BFC
330
458D6
100
AcDbEntity
  8
0
100
AcDbPolyline
 90
        6
 70
     0
 43
0.0
 38
3.082
 10
0.2180749999999994
 20
0.2914506114497129
 10
0.2180749999999994
 20
0.1749075779401259
 10
0.1580749999999996
 20
0.1749075779401261
 10
0.1580749999999996
 20
0.1349075779401259
 10
0.2180749999999994
 20
0.1349075779401263
 10
0.2180749999999994
 20
0.0183645444305394
  0
CIRCLE
  5
65BFD
330
458D6
100
AcDbEntity
  8
0
100
AcDbCircle
 10
0.6678249999999998
 20
-1.587879991879503
 30
3.082
 40
0.138
  0
LWPOLYLINE
  5
65BFE
330
458D6
100
AcDbEntity
  8
0
100
AcDbPolyline
 90
        6
 70
     0
 43
0.0
 38
3.082
 10
0.6478249999999998
 20
-1.451336958369916
 10
0.6478249999999998
 20
-1.567879991879503
 10
0.587825
 20
-1.567879991879503
 10
0.587825
 20
-1.607879991879503
 10
0.6478249999999998
 20
-1.607879991879503
 10
0.6478249999999998
 20
-1.72442302538909
  0
LWPOLYLINE
  5
65BFF
330
458D6
100
AcDbEntity
  8
0
100
AcDbPolyline
 90
        6
 70
     0
 43
0.0
 38
3.082
 10
0.6878249999999998
 20
-1.451336958369916
 10
0.6878249999999998
 20
-1.567879991879503
 10
0.7478249999999999
 20
-1.567879991879503
 10
0.7478249999999999
 20
-1.607879991879503
 10
0.6878249999999998
 20
-1.607879991879503
 10
0.6878249999999998
 20
-1.72442302538909
  0
LWPOLYLINE
  5
65C00
330
458D6
100
AcDbEntity
  8
0
100
AcDbPolyline
 90
        6
 70
     0
 43
0.0
 38
3.082
 10
1.117574999999999
 20
-1.451336958369916
 10
1.117574999999999
 20
-1.567879991879503
 10
1.177574999999999
 20
-1.567879991879503
 10
1.177574999999999
 20
-1.607879991879503
 10
1.117574999999999
 20
-1.607879991879503
 10
1.117574999999999
 20
-1.72442302538909
  0
LWPOLYLINE
  5
65C01
330
458D6
100
AcDbEntity
  8
0
100
AcDbPolyline
 90
        6
 70
     0
 43
0.0
 38
3.082
 10
1.077574999999999
 20
-1.451336958369916
 10
1.077574999999999
 20
-1.567879991879503
 10
1.017574999999999
 20
-1.567879991879503
 10
1.017574999999999
 20
-1.607879991879503
 10
1.077574999999999
 20
-1.607879991879503
 10
1.077574999999999
 20
-1.72442302538909
  0
CIRCLE
  5
65C02
330
458D6
100
AcDbEntity
  8
0
100
AcDbCircle
 10
1.097574999999999
 20
-1.587879991879503
 30
3.082
 40
0.138
  0
LWPOLYLINE
  5
65C03
330
458D6
100
AcDbEntity
  8
0
100
AcDbPolyline
 90
        6
 70
     0
 43
0.0
 38
3.082
 10
1.547325
 20
-1.451336958369916
 10
1.547325
 20
-1.567879991879503
 10
1.607325
 20
-1.567879991879503
 10
1.607325
 20
-1.607879991879503
 10
1.547325
 20
-1.607879991879503
 10
1.547325
 20
-1.72442302538909
  0
LWPOLYLINE
  5
65C04
330
458D6
100
AcDbEntity
  8
0
100
AcDbPolyline
 90
        6
 70
     0
 43
0.0
 38
3.082
 10
1.507324999999999
 20
-1.451336958369916
 10
1.507324999999999
 20
-1.567879991879503
 10
1.447325
 20
-1.567879991879503
 10
1.447325
 20
-1.607879991879503
 10
1.507324999999999
 20
-1.607879991879503
 10
1.507324999999999
 20
-1.72442302538909
  0
CIRCLE
  5
65C05
330
458D6
100
AcDbEntity
  8
0
100
AcDbCircle
 10
1.527325
 20
-1.587879991879503
 30
3.082
 40
0.138
  0
LWPOLYLINE
  5
65C06
330
458D6
100
AcDbEntity
  8
0
100
AcDbPolyline
 90
        6
 70
     0
 43
0.0
 38
3.082
 10
0.2580749999999995
 20
-1.451336958369916
 10
0.2580749999999995
 20
-1.567879991879503
 10
0.3180749999999995
 20
-1.567879991879503
 10
0.3180749999999995
 20
-1.607879991879503
 10
0.2580749999999995
 20
-1.607879991879503
 10
0.2580749999999995
 20
-1.72442302538909
  0
LWPOLYLINE
  5
65C07
330
458D6
100
AcDbEntity
  8
0
100
AcDbPolyline
 90
        6
 70
     0
 43
0.0
 38
3.082
 10
0.2180749999999994
 20
-1.451336958369916
 10
0.2180749999999994
 20
-1.567879991879503
 10
0.1580749999999996
 20
-1.567879991879503
 10
0.1580749999999996
 20
-1.607879991879503
 10
0.2180749999999994
 20
-1.607879991879503
 10
0.2180749999999994
 20
-1.72442302538909
  0
LWPOLYLINE
  5
65C08
330
458D6
100
AcDbEntity
  8
0
100
AcDbPolyline
 90
        6
 70
     0
 43
0.0
 38
2.06
 10
0.5261999999999968
 20
-2.068678404338013
 10
0.5261999999999968
 20
-2.167000000000001
 10
0.466199999999997
 20
-2.167000000000001
 10
0.466199999999997
 20
-2.207000000000001
 10
0.5261999999999968
 20
-2.207
 10
0.5261999999999968
 20
-2.305321595661998
  0
LWPOLYLINE
  5
65C09
330
458D6
100
AcDbEntity
  8
0
100
AcDbPolyline
 90
        6
 70
     0
 43
0.0
 38
2.06
 10
0.5661999999999968
 20
-2.068678404338005
 10
0.5661999999999968
 20
-2.167000000000001
 10
0.6261999999999969
 20
-2.167000000000001
 10
0.6261999999999969
 20
-2.207000000000001
 10
0.5661999999999968
 20
-2.207
 10
0.5661999999999968
 20
-2.305321595661989
  0
LWPOLYLINE
  5
65C0A
330
458D6
100
AcDbEntity
  8
0
100
AcDbPolyline
 90
        6
 70
     0
 43
0.0
 38
2.06
 10
1.244200000000001
 20
-2.068678404338005
 10
1.244200000000001
 20
-2.167000000000001
 10
1.304200000000001
 20
-2.167000000000001
 10
1.304200000000001
 20
-2.207000000000001
 10
1.244200000000001
 20
-2.207
 10
1.244200000000001
 20
-2.305321595661989
  0
LWPOLYLINE
  5
65C0B
330
458D6
100
AcDbEntity
  8
0
100
AcDbPolyline
 90
        6
 70
     0
 43
0.0
 38
2.06
 10
1.204200000000001
 20
-2.068678404338013
 10
1.204200000000001
 20
-2.167000000000001
 10
1.144200000000001
 20
-2.167000000000001
 10
1.144200000000001
 20
-2.207000000000001
 10
1.204200000000001
 20
-2.207
 10
1.204200000000001
 20
-2.305321595661998
  0
DIMENSION
  5
65C0C
330
458D6
100
AcDbEntity
  8
AREA1
100
AcDbDimension
  2
*D1
 10
-0.6876378616811571
 20
-2.405500000000002
 30
0.0
 11
-0.6876378616811567
 21
-0.9003069331283555
 31
0.0
 70
   160
 71
     5
 42
-1.0
 73
     0
 74
     0
 75
     0
  3
ABECAD_3D
100
AcDbAlignedDimension
 13
0.6996999999999997
 23
0.7744999999999976
 33
1.386
 14
0.3326999999999987
 24
-2.405500000000002
 34
1.386
 50
90.0
100
AcDbRotatedDimension
  0
DIMENSION
  5
65C1A
330
458D6
100
AcDbEntity
  8
AREA1
100
AcDbDimension
  2
*D2
 10
1.765199999999999
 20
1.136314723257205
 30
0.0
 11
0.8870324168741493
 21
1.474142964507452
 31
0.0
 70
   160
 71
     5
 42
-1.0
 73
     0
 74
     0
 75
     0
  3
ABECAD_3D
100
AcDbAlignedDimension
 13
0.0002000000000001
 23
0.5384999999999996
 33
2.06
 14
1.765199999999999
 24
0.5384999999999996
 34
2.06
100
AcDbRotatedDimension
  0
LWPOLYLINE
  5
65C3F
330
458D6
100
AcDbEntity
  8
SCALE
100
AcDbPolyline
 90
        4
 70
     1
 43
0.0
 10
0.3170244064324703
 20
-2.566502515021908
 10
1.452653225974442
 20
-2.566502515021908
 10
1.452653225974442
 20
-3.408112081799923
 10
0.3170244064324703
 20
-3.408112081799923
  0
LINE
  5
65C40
330
458D6
100
AcDbEntity
  8
SCALE
100
AcDbLine
 10
0.3750230706592323
 20
-2.946580833726123
 30
0.0
 11
1.375023070659232
 21
-2.946580833726123
 31
0.0
  0
LINE
  5
65C41
330
458D6
100
AcDbEntity
  8
SCALE
100
AcDbLine
 10
0.3750230706592323
 20
-3.246580833726123
 30
0.0
 11
0.7687230706592323
 21
-3.246580833726123
 31
0.0
  0
LINE
  5
65C42
330
458D6
100
AcDbEntity
  8
SCALE
100
AcDbLine
 10
0.3750230706592323
 20
-3.046580833726124
 30
0.0
 11
0.3750230706592323
 21
-2.846580833726123
 31
0.0
  0
TEXT
  5
65C43
330
458D6
100
AcDbEntity
  8
SCALE
100
AcDbText
 10
0.4309990525897072
 20
-3.198895743963281
 30
0.0
 40
0.0625
  1
[10mm]
100
AcDbText
  0
LINE
  5
65C44
330
458D6
100
AcDbEntity
  8
SCALE
100
AcDbLine
 10
0.3750230706592323
 20
-3.346580833726123
 30
0.0
 11
0.3750230706592323
 21
-3.146580833726123
 31
0.0
  0
TEXT
  5
65C45
330
458D6
100
AcDbEntity
  8
SCALE
100
AcDbText
 10
0.3765533359057582
 20
-2.67170371245251
 30
0.0
 40
0.0625
  1
SCALE:
100
AcDbText
  0
LINE
  5
65C46
330
458D6
100
AcDbEntity
  8
SCALE
100
AcDbLine
 10
0.7687230706592323
 20
-3.346580833726123
 30
0.0
 11
0.7687230706592323
 21
-3.146580833726123
 31
0.0
  0
TEXT
  5
65C47
330
458D6
100
AcDbEntity
  8
SCALE
100
AcDbText
 10
0.7383060591431421
 20
-2.877532138352922
 30
0.0
 40
0.0625
  1
1 Inch
100
AcDbText
  0
LINE
  5
65C48
330
458D6
100
AcDbEntity
  8
SCALE
100
AcDbLine
 10
1.375023070659232
 20
-2.946580833726123
 30
0.0
 11
1.375023070659232
 21
-3.046580833726124
 31
0.0
  0
LINE
  5
65C49
330
458D6
100
AcDbEntity
  8
SCALE
100
AcDbLine
 10
1.375023070659232
 20
-3.046580833726124
 30
0.0
 11
1.375023070659232
 21
-2.846580833726123
 31
0.0
  0
VIEWPORT
  5
5677D
330
458D3
100
AcDbEntity
 67
     1
  8
0
100
AcDbViewport
 10
5.249999639556163
 20
3.999999883606677
 30
0.0
 40
16.38686186943767
 41
8.992999745766947
 68
     1
 69
     1
 12
5.249999639556163
 22
3.999999883606677
 13
0.0
 23
0.0
 14
0.5
 24
0.5
 15
0.5
 25
0.5
 16
0.0
 26
0.0
 36
1.0
 17
0.0
 27
0.0
 37
0.0
 42
50.0
 43
0.0
 44
0.0
 45
8.992999745766947
 50
0.0
 51
0.0
 72
 20000
 90
    32800
  1

281
     0
 71
     1
 74
     0
110
0.0
120
0.0
130
0.0
111
1.0
121
0.0
131
0.0
112
0.0
122
1.0
132
0.0
 79
     0
146
0.0
170
     0
 61
     5
348
65CF1
292
     1
282
     1
141
0.0
142
0.0
 63
   250
421
  3355443
  0
VIEWPORT
  5
5677F
330
458D3
100
AcDbEntity
 67
     1
  8
AREA1
100
AcDbViewport
 10
5.24999976158142
 20
3.99999976158142
 30
0.0
 40
8.399999618530271
 41
6.399999618530272
 68
     2
 69
     2
 12
-1.017175299537903
 22
0.747812767808223
 13
0.0
 23
0.0
 14
0.25
 24
0.25
 15
0.25
 25
0.25
 16
0.0
 26
0.0
 36
1.0
 17
0.5634438949382106
 27
-0.8801371703728531
 37
1.68649307151727
 42
50.0
 43
0.0
 44
0.0
 45
4.58291448918931
 50
0.0
 51
0.0
 72
 20000
 90
    32800
  1

281
     1
 71
     1
 74
     0
110
0.0
120
0.0
130
0.0
111
1.0
121
0.0
131
0.0
112
0.0
122
1.0
132
0.0
 79
     1
146
0.0
170
     0
 61
     5
348
65CF2
292
     1
282
     1
141
0.0
142
0.0
 63
   250
421
  3355443
  0
ENDSEC
  0
SECTION
  2
OBJECTS
  0
DICTIONARY
  5
458CB
330
0
100
AcDbDictionary
281
     1
  3
ACAD_BACKGROUND
350
65D01
  3
ACAD_COLOR
350
65CFC
  3
ACAD_GROUP
350
458CC
  3
ACAD_LAYOUT
350
458FB
  3
ACAD_MATERIAL
350
65CE7
  3
ACAD_MLINESTYLE
350
458D9
  3
ACAD_PLOTSETTINGS
350
458FC
  3
ACAD_PLOTSTYLENAME
350
458F9
  3
ACAD_TABLESTYLE
350
65CFD
  3
ACAD_VISUALSTYLE
350
65CEB
  3
ACADE_WIRETYPE
350
65D17
  3
ACDBVARIABLEDICTIONARY
350
458E1
  3
ASE_INDEX_DICTIONARY
350
65D09
  0
DICTIONARY
  5
65D22
330
458C7
100
AcDbDictionary
280
     1
281
     1
  0
DICTIONARY
  5
65D06
330
65D05
100
AcDbDictionary
280
     1
281
     1
  3
ACADE_WIRETYPE
360
65D07
  0
DICTIONARY
  5
4592C
330
458D6
100
AcDbDictionary
280
     1
281
     1
  3
ACAD_LAYOUTSELFREF
360
65CDB
  0
DICTIONARY
  5
4592A
330
458D3
100
AcDbDictionary
280
     1
281
     1
  3
ACAD_LAYOUTSELFREF
360
65CDA
  0
DICTIONARY
  5
65D01
102
{ACAD_REACTORS
330
458CB
102
}
330
458CB
100
AcDbDictionary
281
     1
  0
DICTIONARY
  5
65CFC
102
{ACAD_REACTORS
330
458CB
102
}
330
458CB
100
AcDbDictionary
281
     1
  0
DICTIONARY
  5
458CC
102
{ACAD_REACTORS
330
458CB
102
}
330
458CB
100
AcDbDictionary
281
     1
  0
DICTIONARY
  5
458FB
102
{ACAD_REACTORS
330
458CB
102
}
330
458CB
100
AcDbDictionary
281
     1
  3
Layout1
350
458FE
  3
Model
350
458FD
  0
DICTIONARY
  5
65CE7
102
{ACAD_REACTORS
330
458CB
102
}
330
458CB
100
AcDbDictionary
281
     1
  3
ByBlock
350
65CE9
  3
ByLayer
350
65CE8
  3
Global
350
65CEA
  0
DICTIONARY
  5
458D9
102
{ACAD_REACTORS
330
458CB
102
}
330
458CB
100
AcDbDictionary
281
     1
  3
STANDARD
350
458DA
  0
DICTIONARY
  5
458FC
102
{ACAD_REACTORS
330
458CB
102
}
330
458CB
100
AcDbDictionary
281
     1
  0
ACDBDICTIONARYWDFLT
  5
458F9
102
{ACAD_REACTORS
330
458CB
102
}
330
458CB
100
AcDbDictionary
281
     1
  3
Normal
350
458FA
100
AcDbDictionaryWithDefault
340
458FA
  0
DICTIONARY
  5
65CFD
102
{ACAD_REACTORS
330
458CB
102
}
330
458CB
100
AcDbDictionary
281
     1
  3
Standard
350
65CFE
  0
DICTIONARY
  5
65CEB
102
{ACAD_REACTORS
330
458CB
102
}
330
458CB
100
AcDbDictionary
281
     1
  3
2dWireframe
350
65CF1
  3
3D Hidden
350
65CF3
  3
3dWireframe
350
65CF2
  3
Basic
350
65CF0
  3
Brighten
350
65CF7
  3
ColorChange
350
65CFB
  3
Conceptual
350
65CF4
  3
Dim
350
65CF6
  3
Facepattern
350
65CFA
  3
Flat
350
65CEC
  3
FlatWithEdges
350
65CED
  3
Gouraud
350
65CEE
  3
GouraudWithEdges
350
65CEF
  3
Linepattern
350
65CF9
  3
Realistic
350
65CF5
  3
Thicken
350
65CF8
  0
DICTIONARY
  5
65D17
102
{ACAD_REACTORS
330
458CB
102
}
330
458CB
100
AcDbDictionary
281
     1
  3
CURRENT_WIRELAY
350
65D18
  0
DICTIONARY
  5
458E1
102
{ACAD_REACTORS
330
458CB
102
}
330
458CB
100
AcDbDictionary
281
     1
  3
CTABLESTYLE
350
65D0C
  3
DIMADEC
350
458E2
  0
DICTIONARY
  5
65D09
102
{ACAD_REACTORS
330
458CB
102
}
330
458CB
100
AcDbDictionary
281
     1
  3
ASEBlockHierarchyIndexRecord
350
65D0B
1001
DCO15
1040
1582951699.482
  0
XRECORD
  5
65D07
102
{ACAD_REACTORS
330
65D06
102
}
330
65D06
100
AcDbXrecord
280
     1
  1

  2

  3
WIRE
 90
        0
  0
XRECORD
  5
65CDB
102
{ACAD_REACTORS
330
4592C
102
}
330
4592C
100
AcDbXrecord
280
     1
340
458D6
  0
XRECORD
  5
65CDA
102
{ACAD_REACTORS
330
4592A
102
}
330
4592A
100
AcDbXrecord
280
     1
340
458D3
  0
LAYOUT
  5
458FE
102
{ACAD_REACTORS
330
458FB
102
}
330
458FB
100
AcDbPlotSettings
  1

  2
none_device
  4
Letter_(8.50_x_11.00_Inches)
  6

 40
6.349999904632568
 41
6.349999904632568
 42
6.350006103515625
 43
6.350006103515625
 44
215.8999938964844
 45
279.3999938964844
 46
0.0
 47
0.0
 48
0.0
 49
0.0
140
0.0
141
0.0
142
1.0
143
1.0
 70
   688
 72
     0
 73
     1
 74
     5
  7
Default R14 pen assignments.ctb
 75
    16
147
1.0
 76
     0
 77
     2
 78
   300
148
0.0
149
0.0
100
AcDbLayout
  1
Layout1
 70
     1
 71
     1
 10
-0.2500002402958907
 20
-0.2499999962453767
 11
10.74999951940821
 21
8.249999763458731
 12
0.0
 22
0.0
 32
0.0
 14
1.049999952316284
 24
0.7999999523162842
 34
0.0
 15
9.449999570846555
 25
7.199999570846556
 35
0.0
146
0.0
 13
0.0
 23
0.0
 33
0.0
 16
1.0
 26
0.0
 36
0.0
 17
0.0
 27
1.0
 37
0.0
 76
     0
330
458D3
331
5677D
  0
LAYOUT
  5
458FD
102
{ACAD_REACTORS
330
458FB
102
}
330
458FB
100
AcDbPlotSettings
  1

  2
HP LaserJet 5000 Series PCL 6
  4

  6

 40
0.0
 41
0.0
 42
0.0
 43
0.0
 44
0.0
 45
0.0
 46
0.0
 47
0.0
 48
0.0
 49
0.0
140
0.0
141
0.0
142
1.0
143
1.0
 70
  1712
 72
     0
 73
     0
 74
     0
  7
Default R14 pen assignments.ctb
 75
     0
147
1.0
 76
     0
 77
     2
 78
   300
148
0.0
149
0.0
100
AcDbLayout
  1
Model
 70
     1
 71
     0
 10
0.0
 20
0.0
 11
12.0
 21
9.0
 12
0.0
 22
0.0
 32
0.0
 14
0.0
 24
0.0
 34
0.0
 15
0.0
 25
0.0
 35
0.0
146
0.0
 13
0.0
 23
0.0
 33
0.0
 16
1.0
 26
0.0
 36
0.0
 17
0.0
 27
1.0
 37
0.0
 76
     0
330
458D6
331
65CB4
  0
MATERIAL
  5
65CE9
102
{ACAD_REACTORS
330
65CE7
102
}
330
65CE7
100
AcDbMaterial
  1
ByBlock
  0
MATERIAL
  5
65CE8
102
{ACAD_REACTORS
330
65CE7
102
}
330
65CE7
100
AcDbMaterial
  1
ByLayer
  0
MATERIAL
  5
65CEA
102
{ACAD_REACTORS
330
65CE7
102
}
330
65CE7
100
AcDbMaterial
  1
Global
  0
MLINESTYLE
  5
458DA
102
{ACAD_REACTORS
330
458D9
102
}
330
458D9
100
AcDbMlineStyle
  2
STANDARD
 70
     0
  3

 62
   256
 51
90.0
 52
90.0
 71
     2
 49
0.5
 62
   256
  6
BYLAYER
 49
-0.5
 62
   256
  6
BYLAYER
  0
ACDBPLACEHOLDER
  5
458FA
102
{ACAD_REACTORS
330
458F9
102
}
330
458F9
  0
TABLESTYLE
  5
65CFE
102
{ACAD_REACTORS
330
65CFD
102
}
330
65CFD
100
AcDbTableStyle
  3
Standard
 70
     0
 71
     0
 40
0.06
 41
0.06
280
     0
281
     0
  7
STANDARD
140
0.18
170
     2
 62
     0
 63
     7
283
     0
 90
      512
 91
        0
  1

274
    -2
284
     1
 64
     0
275
    -2
285
     1
 65
     0
276
    -2
286
     1
 66
     0
277
    -2
287
     1
 67
     0
278
    -2
288
     1
 68
     0
279
    -2
289
     1
 69
     0
  7
STANDARD
140
0.25
170
     5
 62
     0
 63
     7
283
     0
 90
      512
 91
        0
  1

274
    -2
284
     1
 64
     0
275
    -2
285
     1
 65
     0
276
    -2
286
     1
 66
     0
277
    -2
287
     1
 67
     0
278
    -2
288
     1
 68
     0
279
    -2
289
     1
 69
     0
  7
STANDARD
140
0.18
170
     5
 62
     0
 63
     7
283
     0
 90
      512
 91
        0
  1

274
    -2
284
     1
 64
     0
275
    -2
285
     1
 65
     0
276
    -2
286
     1
 66
     0
277
    -2
287
     1
 67
     0
278
    -2
288
     1
 68
     0
279
    -2
289
     1
 69
     0
  0
VISUALSTYLE
  5
65CF1
102
{ACAD_REACTORS
330
65CEB
102
}
330
65CEB
100
AcDbVisualStyle
  2
2dWireframe
 70
     4
 71
     0
 72
     2
 73
     0
 90
        0
 40
-0.6
 41
-30.0
 62
     5
 63
     7
421
 16777215
 74
     1
 91
        4
 64
     7
 65
   257
 75
     1
175
     1
 42
1.0
 92
        0
 66
   257
 43
1.0
 76
     1
 77
     6
 78
     2
 67
     7
 79
     5
170
     0
171
     0
290
     0
174
     0
 93
        1
 44
0.0
173
     0
291
     0
 45
0.0
  0
VISUALSTYLE
  5
65CF3
102
{ACAD_REACTORS
330
65CEB
102
}
330
65CEB
100
AcDbVisualStyle
  2
3D Hidden
 70
     6
 71
     1
 72
     2
 73
     2
 90
        0
 40
-0.6
 41
-30.0
 62
     5
 63
     7
421
 16777215
 74
     2
 91
        2
 64
     7
 65
   257
 75
     2
175
     1
 42
40.0
 92
        0
 66
   257
 43
1.0
 76
     1
 77
     6
 78
     2
 67
     7
 79
     3
170
     0
171
     0
290
     0
174
     0
 93
        1
 44
0.0
173
     0
291
     0
 45
0.0
  0
VISUALSTYLE
  5
65CF2
102
{ACAD_REACTORS
330
65CEB
102
}
330
65CEB
100
AcDbVisualStyle
  2
3dWireframe
 70
     5
 71
     0
 72
     2
 73
     0
 90
        0
 40
-0.6
 41
-30.0
 62
     5
 63
     7
421
 16777215
 74
     1
 91
        4
 64
     7
 65
   257
 75
     1
175
     1
 42
1.0
 92
        0
 66
   257
 43
1.0
 76
     1
 77
     6
 78
     2
 67
     7
 79
     5
170
     0
171
     0
290
     0
174
     0
 93
        1
 44
0.0
173
     0
291
     0
 45
0.0
  0
VISUALSTYLE
  5
65CF0
102
{ACAD_REACTORS
330
65CEB
102
}
330
65CEB
100
AcDbVisualStyle
  2
Basic
 70
     7
 71
     1
 72
     0
 73
     1
 90
        0
 40
-0.6
 41
-30.0
 62
     5
 63
     7
421
 16777215
 74
     0
 91
        4
 64
     7
 65
   257
 75
     1
175
     1
 42
1.0
 92
        8
 66
     7
 43
1.0
 76
     1
 77
     6
 78
     2
 67
     7
 79
     5
170
     0
171
     0
290
     0
174
     0
 93
        1
 44
0.0
173
     0
291
     1
 45
0.0
  0
VISUALSTYLE
  5
65CF7
102
{ACAD_REACTORS
330
65CEB
102
}
330
65CEB
100
AcDbVisualStyle
  2
Brighten
 70
    12
 71
     2
 72
     2
 73
     0
 90
        0
 40
-0.6
 41
-30.0
 62
     5
 63
     7
421
 16777215
 74
     1
 91
        4
 64
     7
 65
   257
 75
     1
175
     1
 42
1.0
 92
        8
 66
     7
 43
1.0
 76
     1
 77
     6
 78
     2
 67
     7
 79
     5
170
     0
171
     0
290
     0
174
     0
 93
        1
 44
50.0
173
     0
291
     1
 45
0.0
  0
VISUALSTYLE
  5
65CFB
102
{ACAD_REACTORS
330
65CEB
102
}
330
65CEB
100
AcDbVisualStyle
  2
ColorChange
 70
    16
 71
     2
 72
     2
 73
     3
 90
        0
 40
-0.6
 41
-30.0
 62
     5
 63
     8
421
  8421504
 74
     1
 91
        4
 64
     7
 65
   257
 75
     1
175
     1
 42
1.0
 92
        8
 66
     8
424
  8421504
 43
1.0
 76
     1
 77
     6
 78
     2
 67
     7
 79
     5
170
     0
171
     0
290
     0
174
     0
 93
        1
 44
0.0
173
     0
291
     1
 45
0.0
  0
VISUALSTYLE
  5
65CF4
102
{ACAD_REACTORS
330
65CEB
102
}
330
65CEB
100
AcDbVisualStyle
  2
Conceptual
 70
     9
 71
     3
 72
     2
 73
     0
 90
        0
 40
-0.6
 41
-30.0
 62
     5
 63
     7
421
 16777215
 74
     2
 91
        2
 64
     7
 65
   257
 75
     1
175
     1
 42
40.0
 92
        8
 66
     7
 43
1.0
 76
     1
 77
     6
 78
     2
 67
     7
 79
     3
170
     0
171
     0
290
     0
174
     0
 93
        1
 44
0.0
173
     0
291
     0
 45
0.0
  0
VISUALSTYLE
  5
65CF6
102
{ACAD_REACTORS
330
65CEB
102
}
330
65CEB
100
AcDbVisualStyle
  2
Dim
 70
    11
 71
     2
 72
     2
 73
     0
 90
        0
 40
-0.6
 41
-30.0
 62
     5
 63
     7
421
 16777215
 74
     1
 91
        4
 64
     7
 65
   257
 75
     1
175
     1
 42
1.0
 92
        8
 66
     7
 43
1.0
 76
     1
 77
     6
 78
     2
 67
     7
 79
     5
170
     0
171
     0
290
     0
174
     0
 93
        1
 44
-50.0
173
     0
291
     1
 45
0.0
  0
VISUALSTYLE
  5
65CFA
102
{ACAD_REACTORS
330
65CEB
102
}
330
65CEB
100
AcDbVisualStyle
  2
Facepattern
 70
    15
 71
     2
 72
     2
 73
     0
 90
        0
 40
-0.6
 41
-30.0
 62
     5
 63
     7
421
 16777215
 74
     1
 91
        4
 64
     7
 65
   257
 75
     1
175
     1
 42
1.0
 92
        8
 66
     7
 43
1.0
 76
     1
 77
     6
 78
     2
 67
     7
 79
     5
170
     0
171
     0
290
     0
174
     0
 93
        1
 44
0.0
173
     0
291
     1
 45
0.0
  0
VISUALSTYLE
  5
65CEC
102
{ACAD_REACTORS
330
65CEB
102
}
330
65CEB
100
AcDbVisualStyle
  2
Flat
 70
     0
 71
     2
 72
     1
 73
     1
 90
        2
 40
-0.6
 41
30.0
 62
     5
 63
     7
421
 16777215
 74
     0
 91
        4
 64
     7
 65
   257
 75
     1
175
     1
 42
1.0
 92
        8
 66
     7
 43
1.0
 76
     1
 77
     6
 78
     2
 67
     7
 79
     5
170
     0
171
     0
290
     0
174
     0
 93
       13
 44
0.0
173
     0
291
     1
 45
0.0
  0
VISUALSTYLE
  5
65CED
102
{ACAD_REACTORS
330
65CEB
102
}
330
65CEB
100
AcDbVisualStyle
  2
FlatWithEdges
 70
     1
 71
     2
 72
     1
 73
     1
 90
        2
 40
-0.6
 41
30.0
 62
     5
 63
     7
421
 16777215
 74
     1
 91
        4
 64
     7
 65
   257
 75
     1
175
     1
 42
1.0
 92
        0
 66
   257
 43
1.0
 76
     1
 77
     6
 78
     2
 67
     7
 79
     5
170
     0
171
     0
290
     0
174
     0
 93
       13
 44
0.0
173
     0
291
     1
 45
0.0
  0
VISUALSTYLE
  5
65CEE
102
{ACAD_REACTORS
330
65CEB
102
}
330
65CEB
100
AcDbVisualStyle
  2
Gouraud
 70
     2
 71
     2
 72
     2
 73
     1
 90
        2
 40
-0.6
 41
30.0
 62
     5
 63
     7
421
 16777215
 74
     0
 91
        4
 64
     7
 65
   257
 75
     1
175
     1
 42
1.0
 92
        0
 66
     7
 43
1.0
 76
     1
 77
     6
 78
     2
 67
     7
 79
     5
170
     0
171
     0
290
     0
174
     0
 93
       13
 44
0.0
173
     0
291
     1
 45
0.0
  0
VISUALSTYLE
  5
65CEF
102
{ACAD_REACTORS
330
65CEB
102
}
330
65CEB
100
AcDbVisualStyle
  2
GouraudWithEdges
 70
     3
 71
     2
 72
     2
 73
     1
 90
        2
 40
-0.6
 41
30.0
 62
     5
 63
     7
421
 16777215
 74
     1
 91
        4
 64
     7
 65
   257
 75
     1
175
     1
 42
1.0
 92
        0
 66
   257
 43
1.0
 76
     1
 77
     6
 78
     2
 67
     7
 79
     5
170
     0
171
     0
290
     0
174
     0
 93
       13
 44
0.0
173
     0
291
     1
 45
0.0
  0
VISUALSTYLE
  5
65CF9
102
{ACAD_REACTORS
330
65CEB
102
}
330
65CEB
100
AcDbVisualStyle
  2
Linepattern
 70
    14
 71
     2
 72
     2
 73
     0
 90
        0
 40
-0.6
 41
-30.0
 62
     5
 63
     7
421
 16777215
 74
     1
 91
        4
 64
     7
 65
   257
 75
     7
175
     7
 42
1.0
 92
        8
 66
     7
 43
1.0
 76
     1
 77
     6
 78
     2
 67
     7
 79
     5
170
     0
171
     0
290
     0
174
     0
 93
        1
 44
0.0
173
     0
291
     1
 45
0.0
  0
VISUALSTYLE
  5
65CF5
102
{ACAD_REACTORS
330
65CEB
102
}
330
65CEB
100
AcDbVisualStyle
  2
Realistic
 70
     8
 71
     2
 72
     2
 73
     0
 90
        0
 40
-0.6
 41
-30.0
 62
     5
 63
     7
421
 16777215
 74
     1
 91
        0
 64
     7
 65
   257
 75
     1
175
     1
 42
1.0
 92
        8
 66
     8
424
  7895160
 43
1.0
 76
     1
 77
     6
 78
     2
 67
     7
 79
     5
170
     0
171
     0
290
     0
174
     0
 93
       13
 44
0.0
173
     0
291
     0
 45
0.0
  0
VISUALSTYLE
  5
65CF8
102
{ACAD_REACTORS
330
65CEB
102
}
330
65CEB
100
AcDbVisualStyle
  2
Thicken
 70
    13
 71
     2
 72
     2
 73
     0
 90
        0
 40
-0.6
 41
-30.0
 62
     5
 63
     7
421
 16777215
 74
     1
 91
        4
 64
     7
 65
   257
 75
     1
175
     1
 42
1.0
 92
       12
 66
     7
 43
1.0
 76
     1
 77
     6
 78
     2
 67
     7
 79
     5
170
     0
171
     0
290
     0
174
     0
 93
        1
 44
0.0
173
     0
291
     1
 45
0.0
  0
XRECORD
  5
65D18
102
{ACAD_REACTORS
330
65D17
102
}
330
65D17
100
AcDbXrecord
280
     1
  1
WIRES
  1
WIRES
  1

290
     0
  0
DICTIONARYVAR
  5
65D0C
102
{ACAD_REACTORS
330
458E1
102
}
330
458E1
100
DictionaryVariables
280
     0
  1
STANDARD
  0
DICTIONARYVAR
  5
458E2
102
{ACAD_REACTORS
330
458E1
102
}
330
458E1
100
DictionaryVariables
280
     0
  1
0
  0
XRECORD
  5
65D0B
102
{ACAD_REACTORS
330
65D09
102
}
330
65D09
100
AcDbXrecord
280
     1
330
65931
330
65932
330
65933
  0
ENDSEC
  0
EOF
