  0
SECTION
  2
HEADER
  9
$ACADVER
  1
AC1021
  9
$ACADMAINTVER
 70
     1
  9
$DWGCODEPAGE
  3
ANSI_1252
  9
$LASTSAVEDBY
  1
gdseiver
  9
$INSBASE
 10
0.0
 20
0.0
 30
0.0
  9
$EXTMIN
 10
-0.0005839133862118
 20
-2.22170825586075
 30
-0.0001016768125144
  9
$EXTMAX
 10
1.76563732076681
 20
0.9591049596795535
 30
3.332101692328349
  9
$LIMMIN
 10
0.0
 20
0.0
  9
$LIMMAX
 10
12.0
 20
9.0
  9
$ORTHOMODE
 70
     0
  9
$REGENMODE
 70
     1
  9
$FILLMODE
 70
     1
  9
$QTEXTMODE
 70
     0
  9
$MIRRTEXT
 70
     1
  9
$LTSCALE
 40
1.0
  9
$ATTMODE
 70
     1
  9
$TEXTSIZE
 40
0.12
  9
$TRACEWID
 40
0.05
  9
$TEXTSTYLE
  7
STANDARD
  9
$CLAYER
  8
0
  9
$CELTYPE
  6
BYLAYER
  9
$CECOLOR
 62
   256
  9
$CELTSCALE
 40
1.0
  9
$DISPSILH
 70
     0
  9
$DIMSCALE
 40
1.0
  9
$DIMASZ
 40
0.18
  9
$DIMEXO
 40
0.0625
  9
$DIMDLI
 40
0.375
  9
$DIMRND
 40
0.0
  9
$DIMDLE
 40
0.0
  9
$DIMEXE
 40
0.18
  9
$DIMTP
 40
0.0
  9
$DIMTM
 40
0.0
  9
$DIMTXT
 40
0.14
  9
$DIMCEN
 40
0.09
  9
$DIMTSZ
 40
0.0
  9
$DIMTOL
 70
     0
  9
$DIMLIM
 70
     0
  9
$DIMTIH
 70
     0
  9
$DIMTOH
 70
     1
  9
$DIMSE1
 70
     0
  9
$DIMSE2
 70
     0
  9
$DIMTAD
 70
     0
  9
$DIMZIN
 70
     4
  9
$DIMBLK
  1

  9
$DIMASO
 70
     1
  9
$DIMSHO
 70
     1
  9
$DIMPOST
  1

  9
$DIMAPOST
  1

  9
$DIMALT
 70
     1
  9
$DIMALTD
 70
     2
  9
$DIMALTF
 40
25.4
  9
$DIMLFAC
 40
1.0
  9
$DIMTOFL
 70
     0
  9
$DIMTVP
 40
0.0
  9
$DIMTIX
 70
     0
  9
$DIMSOXD
 70
     0
  9
$DIMSAH
 70
     0
  9
$DIMBLK1
  1

  9
$DIMBLK2
  1

  9
$DIMSTYLE
  2
ABECAD_3D
  9
$DIMCLRD
 70
     0
  9
$DIMCLRE
 70
     0
  9
$DIMCLRT
 70
     0
  9
$DIMTFAC
 40
1.5
  9
$DIMGAP
 40
0.09
  9
$DIMJUST
 70
     0
  9
$DIMSD1
 70
     0
  9
$DIMSD2
 70
     0
  9
$DIMTOLJ
 70
     1
  9
$DIMTZIN
 70
     4
  9
$DIMALTZ
 70
     4
  9
$DIMALTTZ
 70
     4
  9
$DIMUPT
 70
     1
  9
$DIMDEC
 70
     6
  9
$DIMTDEC
 70
     6
  9
$DIMALTU
 70
     2
  9
$DIMALTTD
 70
     2
  9
$DIMTXSTY
  7
STANDARD
  9
$DIMAUNIT
 70
     0
  9
$DIMADEC
 70
     0
  9
$DIMALTRND
 40
0.0
  9
$DIMAZIN
 70
     0
  9
$DIMDSEP
 70
    46
  9
$DIMATFIT
 70
     2
  9
$DIMFRAC
 70
     2
  9
$DIMLDRBLK
  1

  9
$DIMLUNIT
 70
     5
  9
$DIMLWD
 70
    -2
  9
$DIMLWE
 70
    -2
  9
$DIMTMOVE
 70
     2
  9
$DIMFXL
 40
1.0
  9
$DIMFXLON
 70
     0
  9
$DIMJOGANG
 40
0.7853981633974483
  9
$DIMTFILL
 70
     0
  9
$DIMTFILLCLR
 70
     0
  9
$DIMARCSYM
 70
     0
  9
$DIMLTYPE
  6

  9
$DIMLTEX1
  6

  9
$DIMLTEX2
  6

  9
$LUNITS
 70
     2
  9
$LUPREC
 70
     4
  9
$SKETCHINC
 40
0.1
  9
$FILLETRAD
 40
0.0
  9
$AUNITS
 70
     0
  9
$AUPREC
 70
     0
  9
$MENU
  1
ACAD
  9
$ELEVATION
 40
0.0
  9
$PELEVATION
 40
0.0
  9
$THICKNESS
 40
0.0
  9
$LIMCHECK
 70
     0
  9
$CHAMFERA
 40
0.0
  9
$CHAMFERB
 40
0.0
  9
$CHAMFERC
 40
0.0
  9
$CHAMFERD
 40
0.0
  9
$SKPOLY
 70
     0
  9
$TDCREATE
 40
2451726.480055787
  9
$TDUCREATE
 40
2451726.688389120
  9
$TDUPDATE
 40
2454229.401127523
  9
$TDUUPDATE
 40
2454229.609460857
  9
$TDINDWG
 40
0.7497511574
  9
$TDUSRTIMER
 40
0.7497511574
  9
$USRTIMER
 70
     1
  9
$ANGBASE
 50
0.0
  9
$ANGDIR
 70
     0
  9
$PDMODE
 70
     3
  9
$PDSIZE
 40
0.09
  9
$PLINEWID
 40
0.0
  9
$SPLFRAME
 70
     1
  9
$SPLINETYPE
 70
     6
  9
$SPLINESEGS
 70
     8
  9
$HANDSEED
  5
6550B
  9
$SURFTAB1
 70
     6
  9
$SURFTAB2
 70
     6
  9
$SURFTYPE
 70
     6
  9
$SURFU
 70
     6
  9
$SURFV
 70
     6
  9
$UCSBASE
  2

  9
$UCSNAME
  2

  9
$UCSORG
 10
0.0
 20
0.0
 30
0.0
  9
$UCSXDIR
 10
1.0
 20
0.0
 30
0.0
  9
$UCSYDIR
 10
0.0
 20
1.0
 30
0.0
  9
$UCSORTHOREF
  2

  9
$UCSORTHOVIEW
 70
     1
  9
$UCSORGTOP
 10
0.0
 20
0.0
 30
0.0
  9
$UCSORGBOTTOM
 10
0.0
 20
0.0
 30
0.0
  9
$UCSORGLEFT
 10
0.0
 20
0.0
 30
0.0
  9
$UCSORGRIGHT
 10
0.0
 20
0.0
 30
0.0
  9
$UCSORGFRONT
 10
0.0
 20
0.0
 30
0.0
  9
$UCSORGBACK
 10
0.0
 20
0.0
 30
0.0
  9
$PUCSBASE
  2

  9
$PUCSNAME
  2

  9
$PUCSORG
 10
0.0
 20
0.0
 30
0.0
  9
$PUCSXDIR
 10
1.0
 20
0.0
 30
0.0
  9
$PUCSYDIR
 10
0.0
 20
1.0
 30
0.0
  9
$PUCSORTHOREF
  2

  9
$PUCSORTHOVIEW
 70
     0
  9
$PUCSORGTOP
 10
0.0
 20
0.0
 30
0.0
  9
$PUCSORGBOTTOM
 10
0.0
 20
0.0
 30
0.0
  9
$PUCSORGLEFT
 10
0.0
 20
0.0
 30
0.0
  9
$PUCSORGRIGHT
 10
0.0
 20
0.0
 30
0.0
  9
$PUCSORGFRONT
 10
0.0
 20
0.0
 30
0.0
  9
$PUCSORGBACK
 10
0.0
 20
0.0
 30
0.0
  9
$USERI1
 70
     0
  9
$USERI2
 70
     0
  9
$USERI3
 70
     0
  9
$USERI4
 70
     0
  9
$USERI5
 70
     0
  9
$USERR1
 40
0.0
  9
$USERR2
 40
0.0
  9
$USERR3
 40
0.0
  9
$USERR4
 40
0.0
  9
$USERR5
 40
0.0
  9
$WORLDVIEW
 70
     1
  9
$SHADEDGE
 70
     3
  9
$SHADEDIF
 70
    70
  9
$TILEMODE
 70
     1
  9
$MAXACTVP
 70
    16
  9
$PINSBASE
 10
0.0
 20
0.0
 30
0.0
  9
$PLIMCHECK
 70
     0
  9
$PEXTMIN
 10
1.049999952316284
 20
0.7999999523162842
 30
0.0
  9
$PEXTMAX
 10
9.449999570846555
 20
7.199999570846556
 30
0.0
  9
$PLIMMIN
 10
-0.2500002402958907
 20
-0.2499999962453767
  9
$PLIMMAX
 10
10.74999951940821
 20
8.249999763458731
  9
$UNITMODE
 70
     0
  9
$VISRETAIN
 70
     0
  9
$PLINEGEN
 70
     0
  9
$PSLTSCALE
 70
     1
  9
$TREEDEPTH
 70
  3020
  9
$CMLSTYLE
  2
STANDARD
  9
$CMLJUST
 70
     0
  9
$CMLSCALE
 40
1.0
  9
$PROXYGRAPHICS
 70
     1
  9
$MEASUREMENT
 70
     0
  9
$CELWEIGHT
370
    -1
  9
$ENDCAPS
280
     0
  9
$JOINSTYLE
280
     0
  9
$LWDISPLAY
290
     0
  9
$INSUNITS
 70
     0
  9
$HYPERLINKBASE
  1

  9
$STYLESHEET
  1

  9
$XEDIT
290
     1
  9
$CEPSNTYPE
380
     0
  9
$PSTYLEMODE
290
     1
  9
$FINGERPRINTGUID
  2
{6E0CF4B8-225E-11D4-A150-00A0CC3303EC}
  9
$VERSIONGUID
  2
{B85DDDA2-AE41-4659-99F3-9300349505EC}
  9
$EXTNAMES
290
     1
  9
$PSVPSCALE
 40
0.0
  9
$OLESTARTUP
290
     0
  9
$SORTENTS
280
   127
  9
$INDEXCTL
280
     0
  9
$HIDETEXT
280
     0
  9
$XCLIPFRAME
290
     0
  9
$HALOGAP
280
     0
  9
$OBSCOLOR
 70
   257
  9
$OBSLTYPE
280
     0
  9
$INTERSECTIONDISPLAY
280
     0
  9
$INTERSECTIONCOLOR
 70
   257
  9
$DIMASSOC
280
     1
  9
$PROJECTNAME
  1

  9
$CAMERADISPLAY
290
     0
  9
$LENSLENGTH
 40
50.0
  9
$CAMERAHEIGHT
 40
0.0
  9
$STEPSPERSEC
 40
2.0
  9
$STEPSIZE
 40
6.0
  9
$3DDWFPREC
 40
2.0
  9
$PSOLWIDTH
 40
0.25
  9
$PSOLHEIGHT
 40
4.0
  9
$LOFTANG1
 40
1.570796326794896
  9
$LOFTANG2
 40
1.570796326794896
  9
$LOFTMAG1
 40
0.0
  9
$LOFTMAG2
 40
0.0
  9
$LOFTPARAM
 70
     7
  9
$LOFTNORMALS
280
     1
  9
$LATITUDE
 40
37.795
  9
$LONGITUDE
 40
-122.394
  9
$NORTHDIRECTION
 40
0.0
  9
$TIMEZONE
 70
 -8000
  9
$LIGHTGLYPHDISPLAY
280
     1
  9
$TILEMODELIGHTSYNCH
280
     1
  9
$CMATERIAL
347
654B4
  9
$SOLIDHIST
280
     1
  9
$SHOWHIST
280
     1
  9
$DWFFRAME
280
     2
  9
$DGNFRAME
280
     0
  9
$REALWORLDSCALE
290
     1
  9
$INTERFERECOLOR
 62
     1
  9
$INTERFEREOBJVS
345
654C1
  9
$INTERFEREVPVS
346
654BE
  9
$CSHADOW
280
     0
  9
$SHADOWPLANELOCATION
 40
0.0
  0
ENDSEC
  0
SECTION
  2
CLASSES
  0
CLASS
  1
DICTIONARYVAR
  2
AcDbDictionaryVar
  3
ObjectDBX Classes
 90
        0
 91
        2
280
     0
281
     0
  0
CLASS
  1
ACDBDICTIONARYWDFLT
  2
AcDbDictionaryWithDefault
  3
ObjectDBX Classes
 90
        0
 91
        1
280
     0
281
     0
  0
CLASS
  1
MATERIAL
  2
AcDbMaterial
  3
ObjectDBX Classes
 90
     1024
 91
        3
280
     0
281
     0
  0
CLASS
  1
VISUALSTYLE
  2
AcDbVisualStyle
  3
ObjectDBX Classes
 90
     4095
 91
       16
280
     0
281
     0
  0
CLASS
  1
TABLESTYLE
  2
AcDbTableStyle
  3
ObjectDBX Classes
 90
     4095
 91
        1
280
     0
281
     0
  0
CLASS
  1
SOLID_BACKGROUND
  2
AcDbSolidBackground
  3
SCENEOE
 90
     4095
 91
        1
280
     0
281
     0
  0
CLASS
  1
NPOCOLLECTION
  2
AcDbImpNonPersistentObjectsCollection
  3
ObjectDBX Classes
 90
     1153
 91
        1
280
     0
281
     0
  0
CLASS
  1
EXACXREFPANELOBJECT
  2
ExAcXREFPanelObject
  3
EXAC_ESW
 90
     1025
 91
        0
280
     0
281
     0
  0
ENDSEC
  0
SECTION
  2
TABLES
  0
TABLE
  2
VPORT
  5
458C7
330
0
100
AcDbSymbolTable
 70
     1
  0
VPORT
  5
65480
330
458C7
100
AcDbSymbolTableRecord
100
AcDbViewportTableRecord
  2
*Active
 70
     0
 10
0.0
 20
0.0
 11
1.0
 21
1.0
 12
0.3190828087520887
 22
0.2488355222822545
 13
0.0
 23
0.0
 14
0.25
 24
0.25
 15
0.25
 25
0.25
 16
0.0
 26
0.0
 36
1.0
 17
0.5634438949382106
 27
-0.8801371703728531
 37
1.68649307151727
 40
3.203918396282727
 41
1.421818181818181
 42
50.0
 43
0.0
 44
0.0
 50
0.0
 51
0.0
 71
     0
 72
 20000
 73
     1
 74
     1
 75
     0
 76
     0
 77
     0
 78
     0
281
     1
 65
     1
110
0.0
120
0.0
130
0.0
111
1.0
121
0.0
131
0.0
112
0.0
122
1.0
132
0.0
 79
     0
146
0.0
348
654BE
 60
     3
 61
     5
292
     1
282
     1
141
0.0
142
0.0
 63
   250
421
  3355443
  0
ENDTAB
  0
TABLE
  2
LTYPE
  5
458C4
330
0
100
AcDbSymbolTable
 70
     1
  0
LTYPE
  5
458D0
330
458C4
100
AcDbSymbolTableRecord
100
AcDbLinetypeTableRecord
  2
BYBLOCK
 70
     0
  3

 72
    65
 73
     0
 40
0.0
  0
LTYPE
  5
458D1
330
458C4
100
AcDbSymbolTableRecord
100
AcDbLinetypeTableRecord
  2
BYLAYER
 70
     0
  3

 72
    65
 73
     0
 40
0.0
  0
LTYPE
  5
458D2
330
458C4
100
AcDbSymbolTableRecord
100
AcDbLinetypeTableRecord
  2
CONTINUOUS
 70
     0
  3
Solid line
 72
    65
 73
     0
 40
0.0
  0
ENDTAB
  0
TABLE
  2
LAYER
  5
458C1
330
0
100
AcDbSymbolTable
 70
     8
  0
LAYER
  5
458CD
330
458C1
100
AcDbSymbolTableRecord
100
AcDbLayerTableRecord
  2
0
 70
     0
 62
     7
  6
CONTINUOUS
370
    -3
390
458FA
347
654B6
  0
LAYER
  5
458EA
330
458C1
100
AcDbSymbolTableRecord
100
AcDbLayerTableRecord
  2
DIMS-MTG-HOLES
 70
     0
 62
     1
  6
CONTINUOUS
370
    -3
390
458FA
347
654B6
  0
LAYER
  5
458EB
330
458C1
100
AcDbSymbolTableRecord
100
AcDbLayerTableRecord
  2
ATTRIBUTES
 70
     0
 62
     7
  6
CONTINUOUS
370
    -3
390
458FA
347
654B6
  0
LAYER
  5
4593B
330
458C1
100
AcDbSymbolTableRecord
100
AcDbLayerTableRecord
  2
AREA1
 70
     1
 62
     7
  6
CONTINUOUS
290
     0
370
    -3
390
458FA
347
654B6
  0
LAYER
  5
45940
330
458C1
100
AcDbSymbolTableRecord
100
AcDbLayerTableRecord
  2
Defpoints
 70
     1
 62
     7
  6
CONTINUOUS
290
     0
370
    -3
390
458FA
347
654B6
  0
LAYER
  5
45954
330
458C1
100
AcDbSymbolTableRecord
100
AcDbLayerTableRecord
  2
SCALE
 70
     1
 62
     7
  6
CONTINUOUS
370
    -3
390
458FA
347
654B6
  0
LAYER
  5
4D59A
330
458C1
100
AcDbSymbolTableRecord
100
AcDbLayerTableRecord
  2
SNAP_POINTS
 70
     1
 62
     1
  6
CONTINUOUS
370
    -3
390
458FA
347
654B6
  0
LAYER
  5
654D1
102
{ACAD_XDICTIONARY
360
654D2
102
}
330
458C1
100
AcDbSymbolTableRecord
100
AcDbLayerTableRecord
  2
WIRES
 70
     0
 62
     7
  6
CONTINUOUS
370
    -3
390
458FA
347
654B6
  0
ENDTAB
  0
TABLE
  2
STYLE
  5
458C2
330
0
100
AcDbSymbolTable
 70
     1
  0
STYLE
  5
458CE
330
458C2
100
AcDbSymbolTableRecord
100
AcDbTextStyleTableRecord
  2
STANDARD
 70
     0
 40
0.0
 41
1.0
 50
0.0
 71
     0
 42
0.12
  3
txt
  4

  0
ENDTAB
  0
TABLE
  2
VIEW
  5
458C5
330
0
100
AcDbSymbolTable
 70
     0
  0
ENDTAB
  0
TABLE
  2
UCS
  5
458C6
330
0
100
AcDbSymbolTable
 70
     0
  0
ENDTAB
  0
TABLE
  2
APPID
  5
458C8
330
0
100
AcDbSymbolTable
 70
     3
  0
APPID
  5
458CF
330
458C8
100
AcDbSymbolTableRecord
100
AcDbRegAppTableRecord
  2
ACAD
 70
     0
  0
APPID
  5
5FD5B
330
458C8
100
AcDbSymbolTableRecord
100
AcDbRegAppTableRecord
  2
AVE_RENDER
 70
     0
  0
APPID
  5
654D6
330
458C8
100
AcDbSymbolTableRecord
100
AcDbRegAppTableRecord
  2
DCO15
 70
     0
  0
ENDTAB
  0
TABLE
  2
DIMSTYLE
  5
458C9
330
0
100
AcDbSymbolTable
 70
     1
100
AcDbDimStyleTable
 71
     0
  0
DIMSTYLE
105
458F6
102
{ACAD_REACTORS
330
653D8
330
653E6
102
}
330
458C9
100
AcDbSymbolTableRecord
100
AcDbDimStyleTableRecord
  2
ABECAD_3D
 70
     0
 43
0.375
 73
     0
 78
     4
140
0.14
146
1.5
170
     1
271
     6
272
     6
276
     2
277
     5
279
     2
284
     4
285
     4
286
     4
288
     1
289
     2
340
458CE
  0
ENDTAB
  0
TABLE
  2
BLOCK_RECORD
  5
458C0
330
0
100
AcDbSymbolTable
 70
     3
  0
BLOCK_RECORD
  5
458D6
102
{ACAD_XDICTIONARY
360
4592C
102
}
330
458C0
100
AcDbSymbolTableRecord
100
AcDbBlockTableRecord
  2
*MODEL_SPACE
340
458FD
 70
     0
280
     1
281
     0
  0
BLOCK_RECORD
  5
458D3
102
{ACAD_XDICTIONARY
360
4592A
102
}
330
458C0
100
AcDbSymbolTableRecord
100
AcDbBlockTableRecord
  2
*PAPER_SPACE
340
458FE
 70
     0
280
     1
281
     0
  0
BLOCK_RECORD
  5
63BAF
330
458C0
100
AcDbSymbolTableRecord
100
AcDbBlockTableRecord
  2
AVE_RENDER
340
0
102
{BLKREFS
331
650FD
331
650FE
331
650FF
102
}
 70
     0
280
     1
281
     0
  0
BLOCK_RECORD
  5
653D9
330
458C0
100
AcDbSymbolTableRecord
100
AcDbBlockTableRecord
  2
*D1
340
0
 70
     0
280
     1
281
     0
  0
BLOCK_RECORD
  5
653E7
330
458C0
100
AcDbSymbolTableRecord
100
AcDbBlockTableRecord
  2
*D2
340
0
 70
     0
280
     1
281
     0
  0
ENDTAB
  0
ENDSEC
  0
SECTION
  2
BLOCKS
  0
BLOCK
  5
458DF
330
458D6
100
AcDbEntity
  8
0
100
AcDbBlockBegin
  2
*MODEL_SPACE
 70
     0
 10
0.0
 20
0.0
 30
0.0
  3
*MODEL_SPACE
  1

  0
ENDBLK
  5
458E0
330
458D6
100
AcDbEntity
  8
0
100
AcDbBlockEnd
  0
BLOCK
  5
458DD
330
458D3
100
AcDbEntity
 67
     1
  8
0
100
AcDbBlockBegin
  2
*PAPER_SPACE
 70
     0
 10
0.0
 20
0.0
 30
0.0
  3
*PAPER_SPACE
  1

  0
ENDBLK
  5
458DE
330
458D3
100
AcDbEntity
 67
     1
  8
0
100
AcDbBlockEnd
  0
BLOCK
  5
63BB0
330
63BAF
100
AcDbEntity
  8
0
100
AcDbBlockBegin
  2
AVE_RENDER
 70
     0
 10
0.0
 20
0.0
 30
0.0
  3
AVE_RENDER
  1
AVE_RENDER
  0
ENDBLK
  5
63BB1
330
63BAF
100
AcDbEntity
  8
0
100
AcDbBlockEnd
  0
BLOCK
  5
653E4
330
653D9
100
AcDbEntity
  8
0
100
AcDbBlockBegin
  2
*D1
 70
     1
 10
0.0
 20
0.0
 30
0.0
  3
*D1
  1

  0
LINE
  5
653DA
330
653D9
100
AcDbEntity
  8
AREA1
 62
     0
370
    -2
100
AcDbLine
 10
0.2702103499999988
 20
0.9585000000000004
 30
0.0
 11
-0.7408999052013272
 21
0.9585000000000006
 31
0.0
  0
LINE
  5
653DB
330
653D9
100
AcDbEntity
  8
AREA1
 62
     0
370
    -2
100
AcDbLine
 10
0.6372103499999997
 20
-2.221499999999999
 30
0.0
 11
-0.7408999052013281
 21
-2.221499999999999
 31
0.0
  0
LINE
  5
653DC
330
653D9
100
AcDbEntity
  8
AREA1
 62
     0
370
    -2
100
AcDbLine
 10
-0.5608999052013274
 20
0.7785000000000006
 30
0.0
 11
-0.5608999052013275
 21
0.3063438466919988
 31
0.0
  0
LINE
  5
653DD
330
653D9
100
AcDbEntity
  8
AREA1
 62
     0
370
    -2
100
AcDbLine
 10
-0.5608999052013281
 20
-2.041499999999999
 30
0.0
 11
-0.560899905201328
 21
-1.530322819974667
 31
0.0
  0
MTEXT
  5
653DE
330
653D9
100
AcDbEntity
  8
AREA1
 62
     0
100
AcDbMText
 10
-0.5608999052013277
 20
-0.6119894866413347
 30
0.0
 40
0.14
 41
0.0
 46
0.0
 71
     5
 72
     1
  1
\A1;3 3/16 [80.77]
 11
0.0000000000000001
 21
1.0
 31
0.0
 73
     1
 44
1.0
  0
SOLID
  5
653DF
330
653D9
100
AcDbEntity
  8
AREA1
 62
     0
100
AcDbTrace
 10
-0.5908999052013275
 20
0.7785000000000006
 30
0.0
 11
-0.5308999052013274
 21
0.7785000000000006
 31
0.0
 12
-0.5608999052013274
 22
0.9585000000000006
 32
0.0
 13
-0.5608999052013274
 23
0.9585000000000006
 33
0.0
  0
SOLID
  5
653E0
330
653D9
100
AcDbEntity
  8
AREA1
 62
     0
100
AcDbTrace
 10
-0.5908999052013281
 20
-2.041499999999999
 30
0.0
 11
-0.530899905201328
 21
-2.041499999999999
 31
0.0
 12
-0.5608999052013281
 22
-2.221499999999999
 32
0.0
 13
-0.5608999052013281
 23
-2.221499999999999
 33
0.0
  0
POINT
  5
653E1
330
653D9
100
AcDbEntity
  8
Defpoints
 62
     0
100
AcDbPoint
 10
0.3327103499999988
 20
0.9585000000000004
 30
1.386
  0
POINT
  5
653E2
330
653D9
100
AcDbEntity
  8
Defpoints
 62
     0
100
AcDbPoint
 10
0.6997103499999997
 20
-2.221499999999999
 30
1.386
  0
POINT
  5
653E3
330
653D9
100
AcDbEntity
  8
Defpoints
 62
     0
100
AcDbPoint
 10
-0.5608999052013281
 20
-2.221499999999999
 30
0.0
  0
ENDBLK
  5
653E5
330
653D9
100
AcDbEntity
  8
0
100
AcDbBlockEnd
  0
BLOCK
  5
653F1
330
653E7
100
AcDbEntity
  8
0
100
AcDbBlockBegin
  2
*D2
 70
     1
 10
0.0
 20
0.0
 30
0.0
  3
*D2
  1

  0
LINE
  5
653F3
330
653E7
100
AcDbEntity
  8
AREA1
 62
     0
370
    -2
100
AcDbLine
 10
0.00521035
 20
0.7810000000000002
 30
0.0
 11
0.0052103500000001
 21
1.559404170511129
 31
0.0
  0
LINE
  5
653F4
330
653E7
100
AcDbEntity
  8
AREA1
 62
     0
370
    -2
100
AcDbLine
 10
1.765210349999999
 20
0.637
 30
0.0
 11
1.765210349999999
 21
1.559404170511129
 31
0.0
  0
LINE
  5
653F5
330
653E7
100
AcDbEntity
  8
AREA1
 62
     0
370
    -2
100
AcDbLine
 10
0.18521035
 20
1.379404170511129
 30
0.0
 11
1.585210349999999
 21
1.379404170511129
 31
0.0
  0
MTEXT
  5
653F6
330
653E7
100
AcDbEntity
  8
AREA1
 62
     0
100
AcDbMText
 10
0.8833865329246894
 20
1.747125126208956
 30
0.0
 40
0.14
 41
0.0
 46
0.0
 71
     5
 72
     1
  1
\A1;1 49/64 [44.70]
 73
     1
 44
1.0
  0
SOLID
  5
653F7
330
653E7
100
AcDbEntity
  8
AREA1
 62
     0
100
AcDbTrace
 10
0.18521035
 20
1.409404170511129
 30
0.0
 11
0.18521035
 21
1.349404170511129
 31
0.0
 12
0.00521035
 22
1.379404170511129
 32
0.0
 13
0.00521035
 23
1.379404170511129
 33
0.0
  0
SOLID
  5
653F8
330
653E7
100
AcDbEntity
  8
AREA1
 62
     0
100
AcDbTrace
 10
1.585210349999999
 20
1.409404170511129
 30
0.0
 11
1.585210349999999
 21
1.349404170511129
 31
0.0
 12
1.765210349999999
 22
1.379404170511129
 32
0.0
 13
1.765210349999999
 23
1.379404170511129
 33
0.0
  0
POINT
  5
653F9
330
653E7
100
AcDbEntity
  8
Defpoints
 62
     0
100
AcDbPoint
 10
0.00521035
 20
0.7185000000000002
 30
0.0
  0
POINT
  5
653FA
330
653E7
100
AcDbEntity
  8
Defpoints
 62
     0
100
AcDbPoint
 10
1.765210349999999
 20
0.5745
 30
0.0
  0
POINT
  5
653FB
330
653E7
100
AcDbEntity
  8
Defpoints
 62
     0
100
AcDbPoint
 10
1.765210349999999
 20
1.379404170511129
 30
0.0
  0
ENDBLK
  5
653F2
330
653E7
100
AcDbEntity
  8
0
100
AcDbBlockEnd
  0
ENDSEC
  0
SECTION
  2
ENTITIES
  0
ATTDEF
  5
65000
330
458D6
100
AcDbEntity
  8
ATTRIBUTES
100
AcDbText
 10
0.1001048036306815
 20
-0.1342429569443211
 30
0.0
 40
0.0805203758744914
  1
SPRECHER+SCHUH
100
AcDbAttributeDefinition
  3
MANUFACTURER NAME?
  2
AC_VND_LABEL
 70
     1
280
     0
  0
ATTDEF
  5
65001
330
458D6
100
AcDbEntity
  8
ATTRIBUTES
100
AcDbText
 10
0.1001048036306815
 20
-0.3019937400161781
 30
0.0
 40
0.0805203758744914
  1
CA7-09, -12, -16, -23*00
100
AcDbAttributeDefinition
  3
CATALOG NUMBER?
  2
AC_PART_NO
 70
     1
280
     0
  0
ATTDEF
  5
65002
330
458D6
100
AcDbEntity
  8
ATTRIBUTES
100
AcDbText
 10
0.1001048036306815
 20
-0.4697445230880351
 30
0.0
 40
0.0805203758744914
  1
IEC AC CONTACTOR; 9A-23A; 4 Pole
100
AcDbAttributeDefinition
  3
PART DESCRIPTION?
  2
AC_DESCRIPTION
 70
     1
280
     0
  0
ATTDEF
  5
65003
330
458D6
100
AcDbEntity
  8
ATTRIBUTES
100
AcDbText
 10
0.1001048036306815
 20
-0.6374953061598921
 30
0.0
 40
0.0805203758744914
  1

100
AcDbAttributeDefinition
  3
DEVICE ID?
  2
DEVICE_ID
 70
     1
280
     0
  0
ATTDEF
  5
65004
330
458D6
100
AcDbEntity
  8
ATTRIBUTES
100
AcDbText
 10
0.1001048036306815
 20
-0.805246089231749
 30
0.0
 40
0.0805203758744914
  1

100
AcDbAttributeDefinition
  3
CUSTOMER PART NUMBER?
  2
AC_CPART_NO
 70
     1
280
     0
  0
ATTDEF
  5
65005
330
458D6
100
AcDbEntity
  8
ATTRIBUTES
100
AcDbText
 10
0.1001048036306815
 20
-0.9729968723036069
 30
0.0
 40
0.0805203758744914
  1

100
AcDbAttributeDefinition
  3
CUSTOMER NOTE?
  2
AC_NOTE
 70
     1
280
     0
  0
ATTDEF
  5
65006
330
458D6
100
AcDbEntity
  8
ATTRIBUTES
100
AcDbText
 10
0.1001048036306815
 20
-1.140747655375463
 30
0.0
 40
0.0805203758744914
  1

100
AcDbAttributeDefinition
  3
FASTENER DATA?
  2
FASTENER
 70
     1
280
     0
  0
ATTDEF
  5
65007
330
458D6
100
AcDbEntity
  8
ATTRIBUTES
100
AcDbText
 10
0.1001048036306815
 20
-1.30849843844732
 30
0.0
 40
0.0805203758744914
  1
INCH
100
AcDbAttributeDefinition
  3
UNIT OF SCALE?
  2
AC_SCALE_UNIT
 70
     1
280
     0
  0
ATTDEF
  5
65008
330
458D6
100
AcDbEntity
  8
ATTRIBUTES
100
AcDbText
 10
0.1001048036306815
 20
-1.476249221519177
 30
0.0
 40
0.0805203758744914
  1
0
100
AcDbAttributeDefinition
  3
VIEW CODE?
  2
AC_VIEW_CODE
 70
     1
280
     0
  0
POLYLINE
  5
65009
330
458D6
100
AcDbEntity
  8
0
100
AcDbPolygonMesh
 66
     1
 10
0.0
 20
0.0
 30
0.0
 70
    16
 71
     6
 72
     3
  0
VERTEX
  5
6500A
330
65009
100
AcDbEntity
  8
0
100
AcDbVertex
100
AcDbPolygonMeshVertex
 10
1.765210349999999
 20
0.2384999999999997
 30
0.316
 70
    64
  0
VERTEX
  5
6500B
330
65009
100
AcDbEntity
  8
0
100
AcDbVertex
100
AcDbPolygonMeshVertex
 10
1.765210349999999
 20
0.2384999999999997
 30
0.0
 70
    64
  0
VERTEX
  5
6500C
330
65009
100
AcDbEntity
  8
0
100
AcDbVertex
100
AcDbPolygonMeshVertex
 10
1.765210349999999
 20
0.2384999999999997
 30
0.0
 70
    64
  0
VERTEX
  5
6500D
330
65009
100
AcDbEntity
  8
0
100
AcDbVertex
100
AcDbPolygonMeshVertex
 10
1.374210349999999
 20
0.2384999999999997
 30
0.316
 70
    64
  0
VERTEX
  5
6500E
330
65009
100
AcDbEntity
  8
0
100
AcDbVertex
100
AcDbPolygonMeshVertex
 10
1.374210349999999
 20
0.2384999999999997
 30
0.0
 70
    64
  0
VERTEX
  5
6500F
330
65009
100
AcDbEntity
  8
0
100
AcDbVertex
100
AcDbPolygonMeshVertex
 10
1.374210349999999
 20
0.2384999999999997
 30
0.0
 70
    64
  0
VERTEX
  5
65010
330
65009
100
AcDbEntity
  8
0
100
AcDbVertex
100
AcDbPolygonMeshVertex
 10
1.374210349999999
 20
0.5745
 30
0.316
 70
    64
  0
VERTEX
  5
65011
330
65009
100
AcDbEntity
  8
0
100
AcDbVertex
100
AcDbPolygonMeshVertex
 10
1.374210349999999
 20
0.5745
 30
0.0
 70
    64
  0
VERTEX
  5
65012
330
65009
100
AcDbEntity
  8
0
100
AcDbVertex
100
AcDbPolygonMeshVertex
 10
1.374210349999999
 20
0.2384999999999997
 30
0.0
 70
    64
  0
VERTEX
  5
65013
330
65009
100
AcDbEntity
  8
0
100
AcDbVertex
100
AcDbPolygonMeshVertex
 10
1.765210349999999
 20
0.5745
 30
0.316
 70
    64
  0
VERTEX
  5
65014
330
65009
100
AcDbEntity
  8
0
100
AcDbVertex
100
AcDbPolygonMeshVertex
 10
1.765210349999999
 20
0.5745
 30
0.0
 70
    64
  0
VERTEX
  5
65015
330
65009
100
AcDbEntity
  8
0
100
AcDbVertex
100
AcDbPolygonMeshVertex
 10
1.765210349999999
 20
0.2384999999999997
 30
0.0
 70
    64
  0
VERTEX
  5
65016
330
65009
100
AcDbEntity
  8
0
100
AcDbVertex
100
AcDbPolygonMeshVertex
 10
1.765210349999999
 20
0.5745
 30
0.316
 70
    64
  0
VERTEX
  5
65017
330
65009
100
AcDbEntity
  8
0
100
AcDbVertex
100
AcDbPolygonMeshVertex
 10
1.765210349999999
 20
0.5745
 30
0.316
 70
    64
  0
VERTEX
  5
65018
330
65009
100
AcDbEntity
  8
0
100
AcDbVertex
100
AcDbPolygonMeshVertex
 10
1.765210349999999
 20
0.2384999999999997
 30
0.316
 70
    64
  0
VERTEX
  5
65019
330
65009
100
AcDbEntity
  8
0
100
AcDbVertex
100
AcDbPolygonMeshVertex
 10
1.374210349999999
 20
0.5745
 30
0.316
 70
    64
  0
VERTEX
  5
6501A
330
65009
100
AcDbEntity
  8
0
100
AcDbVertex
100
AcDbPolygonMeshVertex
 10
1.374210349999999
 20
0.5745
 30
0.316
 70
    64
  0
VERTEX
  5
6501B
330
65009
100
AcDbEntity
  8
0
100
AcDbVertex
100
AcDbPolygonMeshVertex
 10
1.374210349999999
 20
0.2384999999999997
 30
0.316
 70
    64
  0
SEQEND
  5
6501C
330
65009
100
AcDbEntity
  8
0
  0
POLYLINE
  5
6501D
330
458D6
100
AcDbEntity
  8
0
100
AcDbPolygonMesh
 66
     1
 10
0.0
 20
0.0
 30
0.0
 70
    16
 71
     6
 72
     3
  0
VERTEX
  5
6501E
330
6501D
100
AcDbEntity
  8
0
100
AcDbVertex
100
AcDbPolygonMeshVertex
 10
0.39621035
 20
-1.685499999999999
 30
1.318
 70
    64
  0
VERTEX
  5
6501F
330
6501D
100
AcDbEntity
  8
0
100
AcDbVertex
100
AcDbPolygonMeshVertex
 10
0.39621035
 20
-1.685499999999999
 30
0.187
 70
    64
  0
VERTEX
  5
65020
330
6501D
100
AcDbEntity
  8
0
100
AcDbVertex
100
AcDbPolygonMeshVertex
 10
0.39621035
 20
-1.685499999999999
 30
0.187
 70
    64
  0
VERTEX
  5
65021
330
6501D
100
AcDbEntity
  8
0
100
AcDbVertex
100
AcDbPolygonMeshVertex
 10
0.00521035
 20
-1.685499999999999
 30
1.318
 70
    64
  0
VERTEX
  5
65022
330
6501D
100
AcDbEntity
  8
0
100
AcDbVertex
100
AcDbPolygonMeshVertex
 10
0.00521035
 20
-1.685499999999999
 30
0.187
 70
    64
  0
VERTEX
  5
65023
330
6501D
100
AcDbEntity
  8
0
100
AcDbVertex
100
AcDbPolygonMeshVertex
 10
0.00521035
 20
-1.685499999999999
 30
0.187
 70
    64
  0
VERTEX
  5
65024
330
6501D
100
AcDbEntity
  8
0
100
AcDbVertex
100
AcDbPolygonMeshVertex
 10
0.00521035
 20
0.5215000000000001
 30
1.318
 70
    64
  0
VERTEX
  5
65025
330
6501D
100
AcDbEntity
  8
0
100
AcDbVertex
100
AcDbPolygonMeshVertex
 10
0.00521035
 20
0.5215000000000001
 30
0.187
 70
    64
  0
VERTEX
  5
65026
330
6501D
100
AcDbEntity
  8
0
100
AcDbVertex
100
AcDbPolygonMeshVertex
 10
0.00521035
 20
-1.685499999999999
 30
0.187
 70
    64
  0
VERTEX
  5
65027
330
6501D
100
AcDbEntity
  8
0
100
AcDbVertex
100
AcDbPolygonMeshVertex
 10
0.39621035
 20
0.5215000000000001
 30
1.318
 70
    64
  0
VERTEX
  5
65028
330
6501D
100
AcDbEntity
  8
0
100
AcDbVertex
100
AcDbPolygonMeshVertex
 10
0.39621035
 20
0.5215000000000001
 30
0.187
 70
    64
  0
VERTEX
  5
65029
330
6501D
100
AcDbEntity
  8
0
100
AcDbVertex
100
AcDbPolygonMeshVertex
 10
0.39621035
 20
-1.685499999999999
 30
0.187
 70
    64
  0
VERTEX
  5
6502A
330
6501D
100
AcDbEntity
  8
0
100
AcDbVertex
100
AcDbPolygonMeshVertex
 10
0.39621035
 20
0.5215000000000001
 30
1.318
 70
    64
  0
VERTEX
  5
6502B
330
6501D
100
AcDbEntity
  8
0
100
AcDbVertex
100
AcDbPolygonMeshVertex
 10
0.39621035
 20
0.5215000000000001
 30
1.318
 70
    64
  0
VERTEX
  5
6502C
330
6501D
100
AcDbEntity
  8
0
100
AcDbVertex
100
AcDbPolygonMeshVertex
 10
0.39621035
 20
-1.685499999999999
 30
1.318
 70
    64
  0
VERTEX
  5
6502D
330
6501D
100
AcDbEntity
  8
0
100
AcDbVertex
100
AcDbPolygonMeshVertex
 10
0.00521035
 20
0.5215000000000001
 30
1.318
 70
    64
  0
VERTEX
  5
6502E
330
6501D
100
AcDbEntity
  8
0
100
AcDbVertex
100
AcDbPolygonMeshVertex
 10
0.00521035
 20
0.5215000000000001
 30
1.318
 70
    64
  0
VERTEX
  5
6502F
330
6501D
100
AcDbEntity
  8
0
100
AcDbVertex
100
AcDbPolygonMeshVertex
 10
0.00521035
 20
-1.685499999999999
 30
1.318
 70
    64
  0
SEQEND
  5
65030
330
6501D
100
AcDbEntity
  8
0
  0
POLYLINE
  5
65031
330
458D6
100
AcDbEntity
  8
0
100
AcDbPolygonMesh
 66
     1
 10
0.0
 20
0.0
 30
0.0
 70
    16
 71
     6
 72
     3
  0
VERTEX
  5
65032
330
65031
100
AcDbEntity
  8
0
100
AcDbVertex
100
AcDbPolygonMeshVertex
 10
1.765210349999999
 20
-1.9685
 30
1.318
 70
    64
  0
VERTEX
  5
65033
330
65031
100
AcDbEntity
  8
0
100
AcDbVertex
100
AcDbPolygonMeshVertex
 10
1.765210349999999
 20
-1.9685
 30
0.187
 70
    64
  0
VERTEX
  5
65034
330
65031
100
AcDbEntity
  8
0
100
AcDbVertex
100
AcDbPolygonMeshVertex
 10
1.765210349999999
 20
-1.9685
 30
0.187
 70
    64
  0
VERTEX
  5
65035
330
65031
100
AcDbEntity
  8
0
100
AcDbVertex
100
AcDbPolygonMeshVertex
 10
1.374210349999999
 20
-1.9685
 30
1.318
 70
    64
  0
VERTEX
  5
65036
330
65031
100
AcDbEntity
  8
0
100
AcDbVertex
100
AcDbPolygonMeshVertex
 10
1.374210349999999
 20
-1.9685
 30
0.187
 70
    64
  0
VERTEX
  5
65037
330
65031
100
AcDbEntity
  8
0
100
AcDbVertex
100
AcDbPolygonMeshVertex
 10
1.374210349999999
 20
-1.9685
 30
0.187
 70
    64
  0
VERTEX
  5
65038
330
65031
100
AcDbEntity
  8
0
100
AcDbVertex
100
AcDbPolygonMeshVertex
 10
1.374210349999999
 20
0.2384999999999997
 30
1.318
 70
    64
  0
VERTEX
  5
65039
330
65031
100
AcDbEntity
  8
0
100
AcDbVertex
100
AcDbPolygonMeshVertex
 10
1.374210349999999
 20
0.2384999999999997
 30
0.187
 70
    64
  0
VERTEX
  5
6503A
330
65031
100
AcDbEntity
  8
0
100
AcDbVertex
100
AcDbPolygonMeshVertex
 10
1.374210349999999
 20
-1.9685
 30
0.187
 70
    64
  0
VERTEX
  5
6503B
330
65031
100
AcDbEntity
  8
0
100
AcDbVertex
100
AcDbPolygonMeshVertex
 10
1.765210349999999
 20
0.2384999999999997
 30
1.318
 70
    64
  0
VERTEX
  5
6503C
330
65031
100
AcDbEntity
  8
0
100
AcDbVertex
100
AcDbPolygonMeshVertex
 10
1.765210349999999
 20
0.2384999999999997
 30
0.187
 70
    64
  0
VERTEX
  5
6503D
330
65031
100
AcDbEntity
  8
0
100
AcDbVertex
100
AcDbPolygonMeshVertex
 10
1.765210349999999
 20
-1.9685
 30
0.187
 70
    64
  0
VERTEX
  5
6503E
330
65031
100
AcDbEntity
  8
0
100
AcDbVertex
100
AcDbPolygonMeshVertex
 10
1.765210349999999
 20
0.2384999999999997
 30
1.318
 70
    64
  0
VERTEX
  5
6503F
330
65031
100
AcDbEntity
  8
0
100
AcDbVertex
100
AcDbPolygonMeshVertex
 10
1.765210349999999
 20
0.2384999999999997
 30
1.318
 70
    64
  0
VERTEX
  5
65040
330
65031
100
AcDbEntity
  8
0
100
AcDbVertex
100
AcDbPolygonMeshVertex
 10
1.765210349999999
 20
-1.9685
 30
1.318
 70
    64
  0
VERTEX
  5
65041
330
65031
100
AcDbEntity
  8
0
100
AcDbVertex
100
AcDbPolygonMeshVertex
 10
1.374210349999999
 20
0.2384999999999997
 30
1.318
 70
    64
  0
VERTEX
  5
65042
330
65031
100
AcDbEntity
  8
0
100
AcDbVertex
100
AcDbPolygonMeshVertex
 10
1.374210349999999
 20
0.2384999999999997
 30
1.318
 70
    64
  0
VERTEX
  5
65043
330
65031
100
AcDbEntity
  8
0
100
AcDbVertex
100
AcDbPolygonMeshVertex
 10
1.374210349999999
 20
-1.9685
 30
1.318
 70
    64
  0
SEQEND
  5
65044
330
65031
100
AcDbEntity
  8
0
  0
POLYLINE
  5
65045
330
458D6
100
AcDbEntity
  8
0
100
AcDbPolygonMesh
 66
     1
 10
0.0
 20
0.0
 30
0.0
 70
    16
 71
     6
 72
     3
  0
VERTEX
  5
65046
330
65045
100
AcDbEntity
  8
0
100
AcDbVertex
100
AcDbPolygonMeshVertex
 10
1.374210349999999
 20
-1.9685
 30
1.318
 70
    64
  0
VERTEX
  5
65047
330
65045
100
AcDbEntity
  8
0
100
AcDbVertex
100
AcDbPolygonMeshVertex
 10
1.374210349999999
 20
-1.9685
 30
0.187
 70
    64
  0
VERTEX
  5
65048
330
65045
100
AcDbEntity
  8
0
100
AcDbVertex
100
AcDbPolygonMeshVertex
 10
1.374210349999999
 20
-1.9685
 30
0.187
 70
    64
  0
VERTEX
  5
65049
330
65045
100
AcDbEntity
  8
0
100
AcDbVertex
100
AcDbPolygonMeshVertex
 10
0.39621035
 20
-1.9685
 30
1.318
 70
    64
  0
VERTEX
  5
6504A
330
65045
100
AcDbEntity
  8
0
100
AcDbVertex
100
AcDbPolygonMeshVertex
 10
0.39621035
 20
-1.9685
 30
0.187
 70
    64
  0
VERTEX
  5
6504B
330
65045
100
AcDbEntity
  8
0
100
AcDbVertex
100
AcDbPolygonMeshVertex
 10
0.39621035
 20
-1.9685
 30
0.187
 70
    64
  0
VERTEX
  5
6504C
330
65045
100
AcDbEntity
  8
0
100
AcDbVertex
100
AcDbPolygonMeshVertex
 10
0.39621035
 20
0.5215000000000001
 30
1.318
 70
    64
  0
VERTEX
  5
6504D
330
65045
100
AcDbEntity
  8
0
100
AcDbVertex
100
AcDbPolygonMeshVertex
 10
0.39621035
 20
0.5215000000000001
 30
0.187
 70
    64
  0
VERTEX
  5
6504E
330
65045
100
AcDbEntity
  8
0
100
AcDbVertex
100
AcDbPolygonMeshVertex
 10
0.39621035
 20
-1.9685
 30
0.187
 70
    64
  0
VERTEX
  5
6504F
330
65045
100
AcDbEntity
  8
0
100
AcDbVertex
100
AcDbPolygonMeshVertex
 10
1.374210349999999
 20
0.5215000000000001
 30
1.318
 70
    64
  0
VERTEX
  5
65050
330
65045
100
AcDbEntity
  8
0
100
AcDbVertex
100
AcDbPolygonMeshVertex
 10
1.374210349999999
 20
0.5215000000000001
 30
0.187
 70
    64
  0
VERTEX
  5
65051
330
65045
100
AcDbEntity
  8
0
100
AcDbVertex
100
AcDbPolygonMeshVertex
 10
1.374210349999999
 20
-1.9685
 30
0.187
 70
    64
  0
VERTEX
  5
65052
330
65045
100
AcDbEntity
  8
0
100
AcDbVertex
100
AcDbPolygonMeshVertex
 10
1.374210349999999
 20
0.5215000000000001
 30
1.318
 70
    64
  0
VERTEX
  5
65053
330
65045
100
AcDbEntity
  8
0
100
AcDbVertex
100
AcDbPolygonMeshVertex
 10
1.374210349999999
 20
0.5215000000000001
 30
1.318
 70
    64
  0
VERTEX
  5
65054
330
65045
100
AcDbEntity
  8
0
100
AcDbVertex
100
AcDbPolygonMeshVertex
 10
1.374210349999999
 20
-1.9685
 30
1.318
 70
    64
  0
VERTEX
  5
65055
330
65045
100
AcDbEntity
  8
0
100
AcDbVertex
100
AcDbPolygonMeshVertex
 10
0.39621035
 20
0.5215000000000001
 30
1.318
 70
    64
  0
VERTEX
  5
65056
330
65045
100
AcDbEntity
  8
0
100
AcDbVertex
100
AcDbPolygonMeshVertex
 10
0.39621035
 20
0.5215000000000001
 30
1.318
 70
    64
  0
VERTEX
  5
65057
330
65045
100
AcDbEntity
  8
0
100
AcDbVertex
100
AcDbPolygonMeshVertex
 10
0.39621035
 20
-1.9685
 30
1.318
 70
    64
  0
SEQEND
  5
65058
330
65045
100
AcDbEntity
  8
0
  0
POLYLINE
  5
65059
330
458D6
100
AcDbEntity
  8
0
100
AcDbPolygonMesh
 66
     1
 10
0.0
 20
0.0
 30
0.0
 70
    16
 71
     6
 72
     3
  0
VERTEX
  5
6505A
330
65059
100
AcDbEntity
  8
0
100
AcDbVertex
100
AcDbPolygonMeshVertex
 10
1.070710349999999
 20
-2.221499999999999
 30
2.06
 70
    64
  0
VERTEX
  5
6505B
330
65059
100
AcDbEntity
  8
0
100
AcDbVertex
100
AcDbPolygonMeshVertex
 10
1.070710349999999
 20
-2.221499999999999
 30
1.386
 70
    64
  0
VERTEX
  5
6505C
330
65059
100
AcDbEntity
  8
0
100
AcDbVertex
100
AcDbPolygonMeshVertex
 10
1.070710349999999
 20
-2.221499999999999
 30
1.386
 70
    64
  0
VERTEX
  5
6505D
330
65059
100
AcDbEntity
  8
0
100
AcDbVertex
100
AcDbPolygonMeshVertex
 10
0.6997103499999997
 20
-2.221499999999999
 30
2.06
 70
    64
  0
VERTEX
  5
6505E
330
65059
100
AcDbEntity
  8
0
100
AcDbVertex
100
AcDbPolygonMeshVertex
 10
0.6997103499999997
 20
-2.221499999999999
 30
1.386
 70
    64
  0
VERTEX
  5
6505F
330
65059
100
AcDbEntity
  8
0
100
AcDbVertex
100
AcDbPolygonMeshVertex
 10
0.6997103499999997
 20
-2.221499999999999
 30
1.386
 70
    64
  0
VERTEX
  5
65060
330
65059
100
AcDbEntity
  8
0
100
AcDbVertex
100
AcDbPolygonMeshVertex
 10
0.6997103499999997
 20
-1.968499999999999
 30
2.06
 70
    64
  0
VERTEX
  5
65061
330
65059
100
AcDbEntity
  8
0
100
AcDbVertex
100
AcDbPolygonMeshVertex
 10
0.6997103499999997
 20
-1.968499999999999
 30
1.386
 70
    64
  0
VERTEX
  5
65062
330
65059
100
AcDbEntity
  8
0
100
AcDbVertex
100
AcDbPolygonMeshVertex
 10
0.6997103499999997
 20
-2.221499999999999
 30
1.386
 70
    64
  0
VERTEX
  5
65063
330
65059
100
AcDbEntity
  8
0
100
AcDbVertex
100
AcDbPolygonMeshVertex
 10
1.070710349999999
 20
-1.968499999999999
 30
2.06
 70
    64
  0
VERTEX
  5
65064
330
65059
100
AcDbEntity
  8
0
100
AcDbVertex
100
AcDbPolygonMeshVertex
 10
1.070710349999999
 20
-1.968499999999999
 30
1.386
 70
    64
  0
VERTEX
  5
65065
330
65059
100
AcDbEntity
  8
0
100
AcDbVertex
100
AcDbPolygonMeshVertex
 10
1.070710349999999
 20
-2.221499999999999
 30
1.386
 70
    64
  0
VERTEX
  5
65066
330
65059
100
AcDbEntity
  8
0
100
AcDbVertex
100
AcDbPolygonMeshVertex
 10
1.070710349999999
 20
-1.968499999999999
 30
2.06
 70
    64
  0
VERTEX
  5
65067
330
65059
100
AcDbEntity
  8
0
100
AcDbVertex
100
AcDbPolygonMeshVertex
 10
1.070710349999999
 20
-1.968499999999999
 30
2.06
 70
    64
  0
VERTEX
  5
65068
330
65059
100
AcDbEntity
  8
0
100
AcDbVertex
100
AcDbPolygonMeshVertex
 10
1.070710349999999
 20
-2.221499999999999
 30
2.06
 70
    64
  0
VERTEX
  5
65069
330
65059
100
AcDbEntity
  8
0
100
AcDbVertex
100
AcDbPolygonMeshVertex
 10
0.6997103499999997
 20
-1.968499999999999
 30
2.06
 70
    64
  0
VERTEX
  5
6506A
330
65059
100
AcDbEntity
  8
0
100
AcDbVertex
100
AcDbPolygonMeshVertex
 10
0.6997103499999997
 20
-1.968499999999999
 30
2.06
 70
    64
  0
VERTEX
  5
6506B
330
65059
100
AcDbEntity
  8
0
100
AcDbVertex
100
AcDbPolygonMeshVertex
 10
0.6997103499999997
 20
-2.221499999999999
 30
2.06
 70
    64
  0
SEQEND
  5
6506C
330
65059
100
AcDbEntity
  8
0
  0
LWPOLYLINE
  5
6506D
330
458D6
100
AcDbEntity
  8
0
100
AcDbPolyline
 90
        4
 70
     1
 43
0.0
 38
2.062
 10
0.7517103500000002
 20
-2.020499999999999
 10
1.01871035
 20
-2.020499999999999
 10
1.01871035
 20
-2.169499999999999
 10
0.7517103500000002
 20
-2.169499999999999
  0
LWPOLYLINE
  5
6506E
330
458D6
100
AcDbEntity
  8
0
100
AcDbPolyline
 90
        4
 70
     1
 43
0.0
 38
1.388
 10
0.7517103500000002
 20
-2.020499999999999
 10
1.01871035
 20
-2.020499999999999
 10
1.01871035
 20
-2.169499999999999
 10
0.7517103500000002
 20
-2.169499999999999
  0
POLYLINE
  5
6506F
330
458D6
100
AcDbEntity
  8
0
100
AcDbPolygonMesh
 66
     1
 10
0.0
 20
0.0
 30
0.0
 70
    16
 71
     6
 72
     3
  0
VERTEX
  5
65070
330
6506F
100
AcDbEntity
  8
0
100
AcDbVertex
100
AcDbPolygonMeshVertex
 10
0.3327103499999988
 20
0.9585000000000004
 30
2.06
 70
    64
  0
VERTEX
  5
65071
330
6506F
100
AcDbEntity
  8
0
100
AcDbVertex
100
AcDbPolygonMeshVertex
 10
0.3327103499999988
 20
0.9585000000000004
 30
1.386
 70
    64
  0
VERTEX
  5
65072
330
6506F
100
AcDbEntity
  8
0
100
AcDbVertex
100
AcDbPolygonMeshVertex
 10
0.3327103499999988
 20
0.9585000000000004
 30
1.386
 70
    64
  0
VERTEX
  5
65073
330
6506F
100
AcDbEntity
  8
0
100
AcDbVertex
100
AcDbPolygonMeshVertex
 10
1.437710349999999
 20
0.9585000000000004
 30
2.06
 70
    64
  0
VERTEX
  5
65074
330
6506F
100
AcDbEntity
  8
0
100
AcDbVertex
100
AcDbPolygonMeshVertex
 10
1.437710349999999
 20
0.9585000000000004
 30
1.386
 70
    64
  0
VERTEX
  5
65075
330
6506F
100
AcDbEntity
  8
0
100
AcDbVertex
100
AcDbPolygonMeshVertex
 10
1.437710349999999
 20
0.9585000000000004
 30
1.386
 70
    64
  0
VERTEX
  5
65076
330
6506F
100
AcDbEntity
  8
0
100
AcDbVertex
100
AcDbPolygonMeshVertex
 10
1.437710349999999
 20
0.5215000000000001
 30
2.06
 70
    64
  0
VERTEX
  5
65077
330
6506F
100
AcDbEntity
  8
0
100
AcDbVertex
100
AcDbPolygonMeshVertex
 10
1.437710349999999
 20
0.5215000000000001
 30
1.386
 70
    64
  0
VERTEX
  5
65078
330
6506F
100
AcDbEntity
  8
0
100
AcDbVertex
100
AcDbPolygonMeshVertex
 10
1.437710349999999
 20
0.9585000000000004
 30
1.386
 70
    64
  0
VERTEX
  5
65079
330
6506F
100
AcDbEntity
  8
0
100
AcDbVertex
100
AcDbPolygonMeshVertex
 10
0.3327103499999988
 20
0.5215000000000001
 30
2.06
 70
    64
  0
VERTEX
  5
6507A
330
6506F
100
AcDbEntity
  8
0
100
AcDbVertex
100
AcDbPolygonMeshVertex
 10
0.3327103499999988
 20
0.5215000000000001
 30
1.386
 70
    64
  0
VERTEX
  5
6507B
330
6506F
100
AcDbEntity
  8
0
100
AcDbVertex
100
AcDbPolygonMeshVertex
 10
0.3327103499999988
 20
0.9585000000000004
 30
1.386
 70
    64
  0
VERTEX
  5
6507C
330
6506F
100
AcDbEntity
  8
0
100
AcDbVertex
100
AcDbPolygonMeshVertex
 10
0.3327103499999988
 20
0.5215000000000001
 30
2.06
 70
    64
  0
VERTEX
  5
6507D
330
6506F
100
AcDbEntity
  8
0
100
AcDbVertex
100
AcDbPolygonMeshVertex
 10
0.3327103499999988
 20
0.5215000000000001
 30
2.06
 70
    64
  0
VERTEX
  5
6507E
330
6506F
100
AcDbEntity
  8
0
100
AcDbVertex
100
AcDbPolygonMeshVertex
 10
0.3327103499999988
 20
0.9585000000000004
 30
2.06
 70
    64
  0
VERTEX
  5
6507F
330
6506F
100
AcDbEntity
  8
0
100
AcDbVertex
100
AcDbPolygonMeshVertex
 10
1.437710349999999
 20
0.5215000000000001
 30
2.06
 70
    64
  0
VERTEX
  5
65080
330
6506F
100
AcDbEntity
  8
0
100
AcDbVertex
100
AcDbPolygonMeshVertex
 10
1.437710349999999
 20
0.5215000000000001
 30
2.06
 70
    64
  0
VERTEX
  5
65081
330
6506F
100
AcDbEntity
  8
0
100
AcDbVertex
100
AcDbPolygonMeshVertex
 10
1.437710349999999
 20
0.9585000000000004
 30
2.06
 70
    64
  0
SEQEND
  5
65082
330
6506F
100
AcDbEntity
  8
0
  0
LINE
  5
65083
330
458D6
100
AcDbEntity
  8
0
100
AcDbLine
 10
0.7452103499999994
 20
0.5215000000000001
 30
2.06
 11
0.7452103499999994
 21
0.7565
 31
2.06
  0
LINE
  5
65084
330
458D6
100
AcDbEntity
  8
0
100
AcDbLine
 10
1.025210349999998
 20
0.5215000000000001
 30
2.06
 11
1.025210349999998
 21
0.7565
 31
2.06
  0
LINE
  5
65085
330
458D6
100
AcDbEntity
  8
0
100
AcDbLine
 10
1.025210349999998
 20
0.7565
 30
2.06
 11
0.7452103499999994
 21
0.7565
 31
2.06
  0
CIRCLE
  5
65086
330
458D6
100
AcDbEntity
  8
0
100
AcDbCircle
 10
0.5462103499999969
 20
0.7399999999999998
 30
2.06
 40
0.12
  0
CIRCLE
  5
65087
330
458D6
100
AcDbEntity
  8
0
100
AcDbCircle
 10
1.224210350000001
 20
0.7399999999999998
 30
2.06
 40
0.12
  0
POLYLINE
  5
65088
330
458D6
100
AcDbEntity
  8
0
100
AcDb3dPolyline
 66
     1
 10
0.0
 20
0.0
 30
0.0
 70
     8
  0
VERTEX
  5
65089
330
65088
100
AcDbEntity
  8
0
100
AcDbVertex
100
AcDb3dPolylineVertex
 10
1.765210349999999
 20
-1.352499999999999
 30
0.187
 70
    32
  0
VERTEX
  5
6508A
330
65088
100
AcDbEntity
  8
0
100
AcDbVertex
100
AcDb3dPolylineVertex
 10
1.765210349999999
 20
-1.352499999999999
 30
1.056999999999999
 70
    32
  0
VERTEX
  5
6508B
330
65088
100
AcDbEntity
  8
0
100
AcDbVertex
100
AcDb3dPolylineVertex
 10
1.765210349999999
 20
-1.507499999999999
 30
1.056999999999999
 70
    32
  0
VERTEX
  5
6508C
330
65088
100
AcDbEntity
  8
0
100
AcDbVertex
100
AcDb3dPolylineVertex
 10
1.765210349999999
 20
-1.507499999999999
 30
0.187
 70
    32
  0
SEQEND
  5
6508D
330
65088
100
AcDbEntity
  8
0
  0
POLYLINE
  5
6508E
330
458D6
100
AcDbEntity
  8
0
100
AcDb3dPolyline
 66
     1
 10
0.0
 20
0.0
 30
0.0
 70
     8
  0
VERTEX
  5
6508F
330
6508E
100
AcDbEntity
  8
0
100
AcDbVertex
100
AcDb3dPolylineVertex
 10
1.765210349999999
 20
0.0265
 30
0.187
 70
    32
  0
VERTEX
  5
65090
330
6508E
100
AcDbEntity
  8
0
100
AcDbVertex
100
AcDb3dPolylineVertex
 10
1.765210349999999
 20
0.0265
 30
1.056999999999999
 70
    32
  0
VERTEX
  5
65091
330
6508E
100
AcDbEntity
  8
0
100
AcDbVertex
100
AcDb3dPolylineVertex
 10
1.765210349999999
 20
-0.1285000000000003
 30
1.056999999999999
 70
    32
  0
VERTEX
  5
65092
330
6508E
100
AcDbEntity
  8
0
100
AcDbVertex
100
AcDb3dPolylineVertex
 10
1.765210349999999
 20
-0.1285000000000003
 30
0.187
 70
    32
  0
SEQEND
  5
65093
330
6508E
100
AcDbEntity
  8
0
  0
LINE
  5
65094
330
458D6
100
AcDbEntity
  8
0
100
AcDbLine
 10
1.765210349999999
 20
-0.6294999999999998
 30
0.5170000000000002
 11
1.765210349999999
 21
-0.8515
 31
0.5170000000000002
  0
LINE
  5
65095
330
458D6
100
AcDbEntity
  8
0
100
AcDbLine
 10
1.765210349999999
 20
-0.8515
 30
0.5170000000000002
 11
1.765210349999999
 21
-0.8515
 31
0.187
  0
LINE
  5
65096
330
458D6
100
AcDbEntity
  8
0
100
AcDbLine
 10
1.765210349999999
 20
-0.6294999999999998
 30
0.5170000000000002
 11
1.765210349999999
 21
-0.6294999999999998
 31
0.187
  0
POLYLINE
  5
65097
330
458D6
100
AcDbEntity
  8
0
100
AcDb3dPolyline
 66
     1
 10
0.0
 20
0.0
 30
0.0
 70
     8
  0
VERTEX
  5
65098
330
65097
100
AcDbEntity
  8
0
100
AcDbVertex
100
AcDb3dPolylineVertex
 10
0.00521035
 20
0.0265
 30
0.187
 70
    32
  0
VERTEX
  5
65099
330
65097
100
AcDbEntity
  8
0
100
AcDbVertex
100
AcDb3dPolylineVertex
 10
0.00521035
 20
0.0265
 30
1.056999999999999
 70
    32
  0
VERTEX
  5
6509A
330
65097
100
AcDbEntity
  8
0
100
AcDbVertex
100
AcDb3dPolylineVertex
 10
0.00521035
 20
-0.1285000000000003
 30
1.056999999999999
 70
    32
  0
VERTEX
  5
6509B
330
65097
100
AcDbEntity
  8
0
100
AcDbVertex
100
AcDb3dPolylineVertex
 10
0.00521035
 20
-0.1285000000000003
 30
0.187
 70
    32
  0
SEQEND
  5
6509C
330
65097
100
AcDbEntity
  8
0
  0
POLYLINE
  5
6509D
330
458D6
100
AcDbEntity
  8
0
100
AcDb3dPolyline
 66
     1
 10
0.0
 20
0.0
 30
0.0
 70
     8
  0
VERTEX
  5
6509E
330
6509D
100
AcDbEntity
  8
0
100
AcDbVertex
100
AcDb3dPolylineVertex
 10
0.00521035
 20
-1.352499999999999
 30
0.187
 70
    32
  0
VERTEX
  5
6509F
330
6509D
100
AcDbEntity
  8
0
100
AcDbVertex
100
AcDb3dPolylineVertex
 10
0.00521035
 20
-1.352499999999999
 30
1.056999999999999
 70
    32
  0
VERTEX
  5
650A0
330
6509D
100
AcDbEntity
  8
0
100
AcDbVertex
100
AcDb3dPolylineVertex
 10
0.00521035
 20
-1.507499999999999
 30
1.056999999999999
 70
    32
  0
VERTEX
  5
650A1
330
6509D
100
AcDbEntity
  8
0
100
AcDbVertex
100
AcDb3dPolylineVertex
 10
0.00521035
 20
-1.507499999999999
 30
0.187
 70
    32
  0
SEQEND
  5
650A2
330
6509D
100
AcDbEntity
  8
0
  0
LINE
  5
650A3
330
458D6
100
AcDbEntity
  8
0
100
AcDbLine
 10
1.765210349999999
 20
-1.5675
 30
0.187
 11
1.765210349999999
 21
-1.5675
 31
0.0
  0
LINE
  5
650A4
330
458D6
100
AcDbEntity
  8
0
100
AcDbLine
 10
1.765210349999999
 20
-1.5675
 30
0.0
 11
0.8852103499999998
 21
-1.5675
 31
0.0
  0
POLYLINE
  5
650A5
330
458D6
100
AcDbEntity
  8
0
100
AcDbPolygonMesh
 66
     1
 10
0.0
 20
0.0
 30
0.0
 70
    16
 71
     6
 72
     3
  0
VERTEX
  5
650A6
330
650A5
100
AcDbEntity
  8
0
100
AcDbVertex
100
AcDbPolygonMeshVertex
 10
0.8852103500000009
 20
-1.5675
 30
0.187
 70
    64
  0
VERTEX
  5
650A7
330
650A5
100
AcDbEntity
  8
0
100
AcDbVertex
100
AcDbPolygonMeshVertex
 10
0.8852103500000009
 20
-1.5675
 30
0.0
 70
    64
  0
VERTEX
  5
650A8
330
650A5
100
AcDbEntity
  8
0
100
AcDbVertex
100
AcDbPolygonMeshVertex
 10
0.8852103500000009
 20
-1.5675
 30
0.0
 70
    64
  0
VERTEX
  5
650A9
330
650A5
100
AcDbEntity
  8
0
100
AcDbVertex
100
AcDbPolygonMeshVertex
 10
1.765210349999999
 20
-1.5675
 30
0.187
 70
    64
  0
VERTEX
  5
650AA
330
650A5
100
AcDbEntity
  8
0
100
AcDbVertex
100
AcDbPolygonMeshVertex
 10
1.765210349999999
 20
-1.5675
 30
0.0
 70
    64
  0
VERTEX
  5
650AB
330
650A5
100
AcDbEntity
  8
0
100
AcDbVertex
100
AcDbPolygonMeshVertex
 10
1.765210349999999
 20
-1.5675
 30
0.0
 70
    64
  0
VERTEX
  5
650AC
330
650A5
100
AcDbEntity
  8
0
100
AcDbVertex
100
AcDbPolygonMeshVertex
 10
1.765210349999999
 20
-2.165499999999999
 30
0.187
 70
    64
  0
VERTEX
  5
650AD
330
650A5
100
AcDbEntity
  8
0
100
AcDbVertex
100
AcDbPolygonMeshVertex
 10
1.765210349999999
 20
-2.165499999999999
 30
0.0
 70
    64
  0
VERTEX
  5
650AE
330
650A5
100
AcDbEntity
  8
0
100
AcDbVertex
100
AcDbPolygonMeshVertex
 10
1.765210349999999
 20
-1.5675
 30
0.0
 70
    64
  0
VERTEX
  5
650AF
330
650A5
100
AcDbEntity
  8
0
100
AcDbVertex
100
AcDbPolygonMeshVertex
 10
0.8852103500000009
 20
-2.165499999999999
 30
0.187
 70
    64
  0
VERTEX
  5
650B0
330
650A5
100
AcDbEntity
  8
0
100
AcDbVertex
100
AcDbPolygonMeshVertex
 10
0.8852103500000009
 20
-2.165499999999999
 30
0.0
 70
    64
  0
VERTEX
  5
650B1
330
650A5
100
AcDbEntity
  8
0
100
AcDbVertex
100
AcDbPolygonMeshVertex
 10
0.8852103500000009
 20
-1.5675
 30
0.0
 70
    64
  0
VERTEX
  5
650B2
330
650A5
100
AcDbEntity
  8
0
100
AcDbVertex
100
AcDbPolygonMeshVertex
 10
0.8852103500000009
 20
-2.165499999999999
 30
0.187
 70
    64
  0
VERTEX
  5
650B3
330
650A5
100
AcDbEntity
  8
0
100
AcDbVertex
100
AcDbPolygonMeshVertex
 10
0.8852103500000009
 20
-2.165499999999999
 30
0.187
 70
    64
  0
VERTEX
  5
650B4
330
650A5
100
AcDbEntity
  8
0
100
AcDbVertex
100
AcDbPolygonMeshVertex
 10
0.8852103500000009
 20
-1.5675
 30
0.187
 70
    64
  0
VERTEX
  5
650B5
330
650A5
100
AcDbEntity
  8
0
100
AcDbVertex
100
AcDbPolygonMeshVertex
 10
1.765210349999999
 20
-2.165499999999999
 30
0.187
 70
    64
  0
VERTEX
  5
650B6
330
650A5
100
AcDbEntity
  8
0
100
AcDbVertex
100
AcDbPolygonMeshVertex
 10
1.765210349999999
 20
-2.165499999999999
 30
0.187
 70
    64
  0
VERTEX
  5
650B7
330
650A5
100
AcDbEntity
  8
0
100
AcDbVertex
100
AcDbPolygonMeshVertex
 10
1.765210349999999
 20
-1.5675
 30
0.187
 70
    64
  0
SEQEND
  5
650B8
330
650A5
100
AcDbEntity
  8
0
  0
POLYLINE
  5
650B9
330
458D6
100
AcDbEntity
  8
0
100
AcDbPolygonMesh
 66
     1
 10
0.0
 20
0.0
 30
0.0
 70
    16
 71
     6
 72
     3
  0
VERTEX
  5
650BA
330
650B9
100
AcDbEntity
  8
0
100
AcDbVertex
100
AcDbPolygonMeshVertex
 10
0.00521035
 20
0.7185000000000002
 30
0.187
 70
    64
  0
VERTEX
  5
650BB
330
650B9
100
AcDbEntity
  8
0
100
AcDbVertex
100
AcDbPolygonMeshVertex
 10
0.00521035
 20
0.7185000000000002
 30
0.0
 70
    64
  0
VERTEX
  5
650BC
330
650B9
100
AcDbEntity
  8
0
100
AcDbVertex
100
AcDbPolygonMeshVertex
 10
0.00521035
 20
0.7185000000000002
 30
0.0
 70
    64
  0
VERTEX
  5
650BD
330
650B9
100
AcDbEntity
  8
0
100
AcDbVertex
100
AcDbPolygonMeshVertex
 10
0.8852103499999991
 20
0.7185000000000002
 30
0.187
 70
    64
  0
VERTEX
  5
650BE
330
650B9
100
AcDbEntity
  8
0
100
AcDbVertex
100
AcDbPolygonMeshVertex
 10
0.8852103499999991
 20
0.7185000000000002
 30
0.0
 70
    64
  0
VERTEX
  5
650BF
330
650B9
100
AcDbEntity
  8
0
100
AcDbVertex
100
AcDbPolygonMeshVertex
 10
0.8852103499999991
 20
0.7185000000000002
 30
0.0
 70
    64
  0
VERTEX
  5
650C0
330
650B9
100
AcDbEntity
  8
0
100
AcDbVertex
100
AcDbPolygonMeshVertex
 10
0.8852103499999991
 20
0.1205000000000003
 30
0.187
 70
    64
  0
VERTEX
  5
650C1
330
650B9
100
AcDbEntity
  8
0
100
AcDbVertex
100
AcDbPolygonMeshVertex
 10
0.8852103499999991
 20
0.1205000000000003
 30
0.0
 70
    64
  0
VERTEX
  5
650C2
330
650B9
100
AcDbEntity
  8
0
100
AcDbVertex
100
AcDbPolygonMeshVertex
 10
0.8852103499999991
 20
0.7185000000000002
 30
0.0
 70
    64
  0
VERTEX
  5
650C3
330
650B9
100
AcDbEntity
  8
0
100
AcDbVertex
100
AcDbPolygonMeshVertex
 10
0.00521035
 20
0.1205000000000003
 30
0.187
 70
    64
  0
VERTEX
  5
650C4
330
650B9
100
AcDbEntity
  8
0
100
AcDbVertex
100
AcDbPolygonMeshVertex
 10
0.00521035
 20
0.1205000000000003
 30
0.0
 70
    64
  0
VERTEX
  5
650C5
330
650B9
100
AcDbEntity
  8
0
100
AcDbVertex
100
AcDbPolygonMeshVertex
 10
0.00521035
 20
0.7185000000000002
 30
0.0
 70
    64
  0
VERTEX
  5
650C6
330
650B9
100
AcDbEntity
  8
0
100
AcDbVertex
100
AcDbPolygonMeshVertex
 10
0.00521035
 20
0.1205000000000003
 30
0.187
 70
    64
  0
VERTEX
  5
650C7
330
650B9
100
AcDbEntity
  8
0
100
AcDbVertex
100
AcDbPolygonMeshVertex
 10
0.00521035
 20
0.1205000000000003
 30
0.187
 70
    64
  0
VERTEX
  5
650C8
330
650B9
100
AcDbEntity
  8
0
100
AcDbVertex
100
AcDbPolygonMeshVertex
 10
0.00521035
 20
0.7185000000000002
 30
0.187
 70
    64
  0
VERTEX
  5
650C9
330
650B9
100
AcDbEntity
  8
0
100
AcDbVertex
100
AcDbPolygonMeshVertex
 10
0.8852103499999991
 20
0.1205000000000003
 30
0.187
 70
    64
  0
VERTEX
  5
650CA
330
650B9
100
AcDbEntity
  8
0
100
AcDbVertex
100
AcDbPolygonMeshVertex
 10
0.8852103499999991
 20
0.1205000000000003
 30
0.187
 70
    64
  0
VERTEX
  5
650CB
330
650B9
100
AcDbEntity
  8
0
100
AcDbVertex
100
AcDbPolygonMeshVertex
 10
0.8852103499999991
 20
0.7185000000000002
 30
0.187
 70
    64
  0
SEQEND
  5
650CC
330
650B9
100
AcDbEntity
  8
0
  0
LINE
  5
650CD
330
458D6
100
AcDbEntity
  8
0
100
AcDbLine
 10
1.765210349999996
 20
-0.8065000000000001
 30
1.8785
 11
1.765210349999996
 21
-0.6404999999999999
 31
1.8785
  0
POLYLINE
  5
650CE
330
458D6
100
AcDbEntity
  8
0
100
AcDb3dPolyline
 66
     1
 10
0.0
 20
0.0
 30
0.0
 70
     8
  0
VERTEX
  5
650CF
330
650CE
100
AcDbEntity
  8
0
100
AcDbVertex
100
AcDb3dPolylineVertex
 10
0.0000000005964589
 20
-0.6404999999999999
 30
1.592
 70
    32
  0
VERTEX
  5
650D0
330
650CE
100
AcDbEntity
  8
0
100
AcDbVertex
100
AcDb3dPolylineVertex
 10
0.0000000005964589
 20
-0.6404999999999999
 30
2.165
 70
    32
  0
VERTEX
  5
650D1
330
650CE
100
AcDbEntity
  8
0
100
AcDbVertex
100
AcDb3dPolylineVertex
 10
0.0000000005964589
 20
-0.8064999999999997
 30
2.165
 70
    32
  0
VERTEX
  5
650D2
330
650CE
100
AcDbEntity
  8
0
100
AcDbVertex
100
AcDb3dPolylineVertex
 10
0.0000000005964589
 20
-0.8065000000000001
 30
1.592
 70
    32
  0
VERTEX
  5
650D3
330
650CE
100
AcDbEntity
  8
0
100
AcDbVertex
100
AcDb3dPolylineVertex
 10
0.0000000005964589
 20
-0.6404999999999999
 30
1.592
 70
    32
  0
SEQEND
  5
650D4
330
650CE
100
AcDbEntity
  8
0
  0
LINE
  5
650D5
330
458D6
100
AcDbEntity
  8
0
100
AcDbLine
 10
0.0000000005964589
 20
-0.8065000000000001
 30
1.8785
 11
0.0000000005964589
 21
-0.6404999999999999
 31
1.8785
  0
LINE
  5
650D6
330
458D6
100
AcDbEntity
  8
0
100
AcDbLine
 10
0.0000000005964589
 20
-0.8065000000000001
 30
2.0685
 11
0.0000000005964589
 21
-0.6404999999999999
 31
2.0685
  0
CIRCLE
  5
650D7
330
458D6
100
AcDbEntity
  8
0
100
AcDbCircle
 10
1.571210349999998
 20
0.4255
 30
0.316
 40
0.086
  0
POLYLINE
  5
650D8
330
458D6
100
AcDbEntity
  8
0
100
AcDb3dPolyline
 66
     1
 10
0.0
 20
0.0
 30
0.0
 70
     8
  0
VERTEX
  5
650D9
330
650D8
100
AcDbEntity
  8
0
100
AcDbVertex
100
AcDb3dPolylineVertex
 10
0.550543683333332
 20
0.5215000000000001
 30
0.187
 70
    32
  0
VERTEX
  5
650DA
330
650D8
100
AcDbEntity
  8
0
100
AcDbVertex
100
AcDb3dPolylineVertex
 10
0.550543683333332
 20
0.6564999999999999
 30
0.187
 70
    32
  0
VERTEX
  5
650DB
330
650D8
100
AcDbEntity
  8
0
100
AcDbVertex
100
AcDb3dPolylineVertex
 10
0.3398770166666662
 20
0.6564999999999999
 30
0.187
 70
    32
  0
VERTEX
  5
650DC
330
650D8
100
AcDbEntity
  8
0
100
AcDbVertex
100
AcDb3dPolylineVertex
 10
0.3398770166666662
 20
0.5215000000000001
 30
0.187
 70
    32
  0
SEQEND
  5
650DD
330
650D8
100
AcDbEntity
  8
0
  0
POLYLINE
  5
650DE
330
458D6
100
AcDbEntity
  8
0
100
AcDb3dPolyline
 66
     1
 10
0.0
 20
0.0
 30
0.0
 70
     8
  0
VERTEX
  5
650DF
330
650DE
100
AcDbEntity
  8
0
100
AcDbVertex
100
AcDb3dPolylineVertex
 10
0.2778770166666659
 20
0.5215000000000001
 30
0.187
 70
    32
  0
VERTEX
  5
650E0
330
650DE
100
AcDbEntity
  8
0
100
AcDbVertex
100
AcDb3dPolylineVertex
 10
0.2778770166666659
 20
0.6564999999999999
 30
0.187
 70
    32
  0
VERTEX
  5
650E1
330
650DE
100
AcDbEntity
  8
0
100
AcDbVertex
100
AcDb3dPolylineVertex
 10
0.0672103500000003
 20
0.6564999999999999
 30
0.187
 70
    32
  0
VERTEX
  5
650E2
330
650DE
100
AcDbEntity
  8
0
100
AcDbVertex
100
AcDb3dPolylineVertex
 10
0.0672103500000003
 20
0.5215000000000001
 30
0.187
 70
    32
  0
SEQEND
  5
650E3
330
650DE
100
AcDbEntity
  8
0
  0
POLYLINE
  5
650E4
330
458D6
100
AcDbEntity
  8
0
100
AcDb3dPolyline
 66
     1
 10
0.0
 20
0.0
 30
0.0
 70
     8
  0
VERTEX
  5
650E5
330
650E4
100
AcDbEntity
  8
0
100
AcDbVertex
100
AcDb3dPolylineVertex
 10
0.8232103499999979
 20
0.5215000000000001
 30
0.187
 70
    32
  0
VERTEX
  5
650E6
330
650E4
100
AcDbEntity
  8
0
100
AcDbVertex
100
AcDb3dPolylineVertex
 10
0.8232103499999979
 20
0.6564999999999999
 30
0.187
 70
    32
  0
VERTEX
  5
650E7
330
650E4
100
AcDbEntity
  8
0
100
AcDbVertex
100
AcDb3dPolylineVertex
 10
0.6125436833333322
 20
0.6564999999999999
 30
0.187
 70
    32
  0
VERTEX
  5
650E8
330
650E4
100
AcDbEntity
  8
0
100
AcDbVertex
100
AcDb3dPolylineVertex
 10
0.6125436833333322
 20
0.5215000000000001
 30
0.187
 70
    32
  0
SEQEND
  5
650E9
330
650E4
100
AcDbEntity
  8
0
  0
POLYLINE
  5
650EA
330
458D6
100
AcDbEntity
  8
0
100
AcDb3dPolyline
 66
     1
 10
0.0
 20
0.0
 30
0.0
 70
     8
  0
VERTEX
  5
650EB
330
650EA
100
AcDbEntity
  8
0
100
AcDbVertex
100
AcDb3dPolylineVertex
 10
1.492543683333333
 20
-1.9685
 30
0.187
 70
    32
  0
VERTEX
  5
650EC
330
650EA
100
AcDbEntity
  8
0
100
AcDbVertex
100
AcDb3dPolylineVertex
 10
1.492543683333333
 20
-2.103499999999999
 30
0.187
 70
    32
  0
VERTEX
  5
650ED
330
650EA
100
AcDbEntity
  8
0
100
AcDbVertex
100
AcDb3dPolylineVertex
 10
1.703210349999998
 20
-2.103499999999999
 30
0.187
 70
    32
  0
VERTEX
  5
650EE
330
650EA
100
AcDbEntity
  8
0
100
AcDbVertex
100
AcDb3dPolylineVertex
 10
1.703210349999998
 20
-1.9685
 30
0.187
 70
    32
  0
SEQEND
  5
650EF
330
650EA
100
AcDbEntity
  8
0
  0
POLYLINE
  5
650F0
330
458D6
100
AcDbEntity
  8
0
100
AcDb3dPolyline
 66
     1
 10
0.0
 20
0.0
 30
0.0
 70
     8
  0
VERTEX
  5
650F1
330
650F0
100
AcDbEntity
  8
0
100
AcDbVertex
100
AcDb3dPolylineVertex
 10
1.219877016666667
 20
-1.9685
 30
0.187
 70
    32
  0
VERTEX
  5
650F2
330
650F0
100
AcDbEntity
  8
0
100
AcDbVertex
100
AcDb3dPolylineVertex
 10
1.219877016666667
 20
-2.103499999999999
 30
0.187
 70
    32
  0
VERTEX
  5
650F3
330
650F0
100
AcDbEntity
  8
0
100
AcDbVertex
100
AcDb3dPolylineVertex
 10
1.430543683333332
 20
-2.103499999999999
 30
0.187
 70
    32
  0
VERTEX
  5
650F4
330
650F0
100
AcDbEntity
  8
0
100
AcDbVertex
100
AcDb3dPolylineVertex
 10
1.430543683333332
 20
-1.9685
 30
0.187
 70
    32
  0
SEQEND
  5
650F5
330
650F0
100
AcDbEntity
  8
0
  0
POLYLINE
  5
650F6
330
458D6
100
AcDbEntity
  8
0
100
AcDb3dPolyline
 66
     1
 10
0.0
 20
0.0
 30
0.0
 70
     8
  0
VERTEX
  5
650F7
330
650F6
100
AcDbEntity
  8
0
100
AcDbVertex
100
AcDb3dPolylineVertex
 10
0.947210350000002
 20
-1.9685
 30
0.187
 70
    32
  0
VERTEX
  5
650F8
330
650F6
100
AcDbEntity
  8
0
100
AcDbVertex
100
AcDb3dPolylineVertex
 10
0.947210350000002
 20
-2.103499999999999
 30
0.187
 70
    32
  0
VERTEX
  5
650F9
330
650F6
100
AcDbEntity
  8
0
100
AcDbVertex
100
AcDb3dPolylineVertex
 10
1.157877016666666
 20
-2.103499999999999
 30
0.187
 70
    32
  0
VERTEX
  5
650FA
330
650F6
100
AcDbEntity
  8
0
100
AcDbVertex
100
AcDb3dPolylineVertex
 10
1.157877016666666
 20
-1.9685
 30
0.187
 70
    32
  0
SEQEND
  5
650FB
330
650F6
100
AcDbEntity
  8
0
  0
CIRCLE
  5
650FC
330
458D6
100
AcDbEntity
  8
0
100
AcDbCircle
 10
0.1912103500000008
 20
-1.934499999999999
 30
0.316
 40
0.086
  0
INSERT
  5
650FD
330
458D6
100
AcDbEntity
  8
0
 62
     1
100
AcDbBlockReference
  2
AVE_RENDER
 10
-6.627499309116598
 20
-2.735105295632668
 30
0.0
1001
AVE_RENDER
1002
{
1070
     2
1000
Pref
1070
    30
1070
    20
1070
     0
1070
     0
1000

1070
    10
1070
     0
1070
    30
1040
1.0
1070
     1
1040
0.3
1040
0.4
1040
0.76
1040
1.538461538461538
1010
-1.0
1020
-1.0
1030
-1.0
1040
0.3
1070
    49
1002
}
  0
INSERT
  5
650FE
330
458D6
100
AcDbEntity
  8
0
 62
     3
100
AcDbBlockReference
  2
AVE_RENDER
 10
-6.627499309116598
 20
-2.735105295632668
 30
0.0
1001
AVE_RENDER
1002
{
1070
     0
1000
Full Opt
1070
     0
1070
     1
1070
     1
1070
     1
1070
     0
1070
     0
1070
     0
1070
     1
1070
     1
1040
0.0001
1040
0.0001
1002
}
  0
INSERT
  5
650FF
330
458D6
100
AcDbEntity
  8
0
 62
     4
100
AcDbBlockReference
  2
AVE_RENDER
 10
-6.627499309116598
 20
-2.735105295632668
 30
0.0
1001
AVE_RENDER
1002
{
1070
     0
1000
Quick Opt
1070
     0
1070
     1
1070
     1
1070
     1
1070
     0
1070
     0
1070
     1
1002
}
  0
CIRCLE
  5
65100
330
458D6
100
AcDbEntity
  8
0
100
AcDbCircle
 10
0.1912103499999999
 20
-1.934499999999999
 30
0.0
 40
0.086
  0
CIRCLE
  5
65101
330
458D6
100
AcDbEntity
  8
0
100
AcDbCircle
 10
1.571210349999998
 20
0.4255
 30
0.0
 40
0.086
  0
POLYLINE
  5
65102
330
458D6
100
AcDbEntity
  8
0
100
AcDb3dPolyline
 66
     1
 10
0.0
 20
0.0
 30
0.0
 70
     8
  0
VERTEX
  5
65103
330
65102
100
AcDbEntity
  8
0
100
AcDbVertex
100
AcDb3dPolylineVertex
 10
0.947210350000002
 20
-1.9685
 30
-0.0000000000000001
 70
    32
  0
VERTEX
  5
65104
330
65102
100
AcDbEntity
  8
0
100
AcDbVertex
100
AcDb3dPolylineVertex
 10
0.947210350000002
 20
-2.103499999999999
 30
0.0
 70
    32
  0
VERTEX
  5
65105
330
65102
100
AcDbEntity
  8
0
100
AcDbVertex
100
AcDb3dPolylineVertex
 10
1.157877016666666
 20
-2.103499999999999
 30
0.0
 70
    32
  0
VERTEX
  5
65106
330
65102
100
AcDbEntity
  8
0
100
AcDbVertex
100
AcDb3dPolylineVertex
 10
1.157877016666666
 20
-1.9685
 30
-0.0000000000000001
 70
    32
  0
SEQEND
  5
65107
330
65102
100
AcDbEntity
  8
0
  0
POLYLINE
  5
65108
330
458D6
100
AcDbEntity
  8
0
100
AcDb3dPolyline
 66
     1
 10
0.0
 20
0.0
 30
0.0
 70
     8
  0
VERTEX
  5
65109
330
65108
100
AcDbEntity
  8
0
100
AcDbVertex
100
AcDb3dPolylineVertex
 10
1.219877016666667
 20
-1.9685
 30
-0.0000000000000001
 70
    32
  0
VERTEX
  5
6510A
330
65108
100
AcDbEntity
  8
0
100
AcDbVertex
100
AcDb3dPolylineVertex
 10
1.219877016666667
 20
-2.103499999999999
 30
0.0
 70
    32
  0
VERTEX
  5
6510B
330
65108
100
AcDbEntity
  8
0
100
AcDbVertex
100
AcDb3dPolylineVertex
 10
1.430543683333332
 20
-2.103499999999999
 30
0.0
 70
    32
  0
VERTEX
  5
6510C
330
65108
100
AcDbEntity
  8
0
100
AcDbVertex
100
AcDb3dPolylineVertex
 10
1.430543683333332
 20
-1.9685
 30
-0.0000000000000001
 70
    32
  0
SEQEND
  5
6510D
330
65108
100
AcDbEntity
  8
0
  0
POLYLINE
  5
6510E
330
458D6
100
AcDbEntity
  8
0
100
AcDb3dPolyline
 66
     1
 10
0.0
 20
0.0
 30
0.0
 70
     8
  0
VERTEX
  5
6510F
330
6510E
100
AcDbEntity
  8
0
100
AcDbVertex
100
AcDb3dPolylineVertex
 10
1.492543683333333
 20
-1.9685
 30
-0.0000000000000001
 70
    32
  0
VERTEX
  5
65110
330
6510E
100
AcDbEntity
  8
0
100
AcDbVertex
100
AcDb3dPolylineVertex
 10
1.492543683333333
 20
-2.103499999999999
 30
0.0
 70
    32
  0
VERTEX
  5
65111
330
6510E
100
AcDbEntity
  8
0
100
AcDbVertex
100
AcDb3dPolylineVertex
 10
1.703210349999998
 20
-2.103499999999999
 30
0.0
 70
    32
  0
VERTEX
  5
65112
330
6510E
100
AcDbEntity
  8
0
100
AcDbVertex
100
AcDb3dPolylineVertex
 10
1.703210349999998
 20
-1.9685
 30
-0.0000000000000001
 70
    32
  0
SEQEND
  5
65113
330
6510E
100
AcDbEntity
  8
0
  0
POLYLINE
  5
65114
330
458D6
100
AcDbEntity
  8
0
100
AcDb3dPolyline
 66
     1
 10
0.0
 20
0.0
 30
0.0
 70
     8
  0
VERTEX
  5
65115
330
65114
100
AcDbEntity
  8
0
100
AcDbVertex
100
AcDb3dPolylineVertex
 10
0.8232103499999979
 20
0.5215000000000001
 30
-0.0000000000000001
 70
    32
  0
VERTEX
  5
65116
330
65114
100
AcDbEntity
  8
0
100
AcDbVertex
100
AcDb3dPolylineVertex
 10
0.8232103499999979
 20
0.6564999999999999
 30
0.0
 70
    32
  0
VERTEX
  5
65117
330
65114
100
AcDbEntity
  8
0
100
AcDbVertex
100
AcDb3dPolylineVertex
 10
0.6125436833333322
 20
0.6564999999999999
 30
0.0
 70
    32
  0
VERTEX
  5
65118
330
65114
100
AcDbEntity
  8
0
100
AcDbVertex
100
AcDb3dPolylineVertex
 10
0.6125436833333322
 20
0.5215000000000001
 30
-0.0000000000000001
 70
    32
  0
SEQEND
  5
65119
330
65114
100
AcDbEntity
  8
0
  0
POLYLINE
  5
6511A
330
458D6
100
AcDbEntity
  8
0
100
AcDb3dPolyline
 66
     1
 10
0.0
 20
0.0
 30
0.0
 70
     8
  0
VERTEX
  5
6511B
330
6511A
100
AcDbEntity
  8
0
100
AcDbVertex
100
AcDb3dPolylineVertex
 10
0.550543683333332
 20
0.5215000000000001
 30
-0.0000000000000001
 70
    32
  0
VERTEX
  5
6511C
330
6511A
100
AcDbEntity
  8
0
100
AcDbVertex
100
AcDb3dPolylineVertex
 10
0.550543683333332
 20
0.6564999999999999
 30
0.0
 70
    32
  0
VERTEX
  5
6511D
330
6511A
100
AcDbEntity
  8
0
100
AcDbVertex
100
AcDb3dPolylineVertex
 10
0.3398770166666662
 20
0.6564999999999999
 30
0.0
 70
    32
  0
VERTEX
  5
6511E
330
6511A
100
AcDbEntity
  8
0
100
AcDbVertex
100
AcDb3dPolylineVertex
 10
0.3398770166666662
 20
0.5215000000000001
 30
-0.0000000000000001
 70
    32
  0
SEQEND
  5
6511F
330
6511A
100
AcDbEntity
  8
0
  0
POLYLINE
  5
65120
330
458D6
100
AcDbEntity
  8
0
100
AcDb3dPolyline
 66
     1
 10
0.0
 20
0.0
 30
0.0
 70
     8
  0
VERTEX
  5
65121
330
65120
100
AcDbEntity
  8
0
100
AcDbVertex
100
AcDb3dPolylineVertex
 10
0.2778770166666659
 20
0.5215000000000001
 30
-0.0000000000000001
 70
    32
  0
VERTEX
  5
65122
330
65120
100
AcDbEntity
  8
0
100
AcDbVertex
100
AcDb3dPolylineVertex
 10
0.2778770166666659
 20
0.6564999999999999
 30
0.0
 70
    32
  0
VERTEX
  5
65123
330
65120
100
AcDbEntity
  8
0
100
AcDbVertex
100
AcDb3dPolylineVertex
 10
0.0672103500000003
 20
0.6564999999999999
 30
0.0
 70
    32
  0
VERTEX
  5
65124
330
65120
100
AcDbEntity
  8
0
100
AcDbVertex
100
AcDb3dPolylineVertex
 10
0.0672103500000003
 20
0.5215000000000001
 30
-0.0000000000000001
 70
    32
  0
SEQEND
  5
65125
330
65120
100
AcDbEntity
  8
0
  0
LINE
  5
65126
330
458D6
100
AcDbEntity
  8
0
100
AcDbLine
 10
1.703210349999998
 20
-1.9685
 30
-0.0000000000000001
 11
1.492543683333333
 21
-1.9685
 31
-0.0000000000000001
  0
LINE
  5
65127
330
458D6
100
AcDbEntity
  8
0
100
AcDbLine
 10
1.430543683333332
 20
-1.9685
 30
-0.0000000000000001
 11
1.219877016666667
 21
-1.9685
 31
-0.0000000000000001
  0
LINE
  5
65128
330
458D6
100
AcDbEntity
  8
0
100
AcDbLine
 10
1.157877016666666
 20
-1.9685
 30
-0.0000000000000001
 11
0.947210350000002
 21
-1.9685
 31
-0.0000000000000001
  0
LINE
  5
65129
330
458D6
100
AcDbEntity
  8
0
100
AcDbLine
 10
0.8232103499999979
 20
0.5215000000000001
 30
-0.0000000000000001
 11
0.6125436833333322
 21
0.5215000000000001
 31
-0.0000000000000001
  0
LINE
  5
6512A
330
458D6
100
AcDbEntity
  8
0
100
AcDbLine
 10
0.550543683333332
 20
0.5215000000000001
 30
-0.0000000000000001
 11
0.3398770166666662
 21
0.5215000000000001
 31
-0.0000000000000001
  0
LINE
  5
6512B
330
458D6
100
AcDbEntity
  8
0
100
AcDbLine
 10
0.2778770166666659
 20
0.5215000000000001
 30
-0.0000000000000001
 11
0.0672103500000003
 21
0.5215000000000001
 31
-0.0000000000000001
  0
POLYLINE
  5
6512C
330
458D6
100
AcDbEntity
  8
0
100
AcDbPolygonMesh
 66
     1
 10
0.0
 20
0.0
 30
0.0
 70
    16
 71
     6
 72
     3
  0
VERTEX
  5
6512D
330
6512C
100
AcDbEntity
  8
0
100
AcDbVertex
100
AcDbPolygonMeshVertex
 10
0.90571035
 20
-1.985499999999999
 30
2.929
 70
    64
  0
VERTEX
  5
6512E
330
6512C
100
AcDbEntity
  8
0
100
AcDbVertex
100
AcDbPolygonMeshVertex
 10
0.90571035
 20
-1.985499999999999
 30
2.319
 70
    64
  0
VERTEX
  5
6512F
330
6512C
100
AcDbEntity
  8
0
100
AcDbVertex
100
AcDbPolygonMeshVertex
 10
0.90571035
 20
-1.985499999999999
 30
2.319
 70
    64
  0
VERTEX
  5
65130
330
6512C
100
AcDbEntity
  8
0
100
AcDbVertex
100
AcDbPolygonMeshVertex
 10
0.8597103499999999
 20
-1.985499999999999
 30
2.929
 70
    64
  0
VERTEX
  5
65131
330
6512C
100
AcDbEntity
  8
0
100
AcDbVertex
100
AcDbPolygonMeshVertex
 10
0.8597103499999999
 20
-1.985499999999999
 30
2.319
 70
    64
  0
VERTEX
  5
65132
330
6512C
100
AcDbEntity
  8
0
100
AcDbVertex
100
AcDbPolygonMeshVertex
 10
0.8597103499999999
 20
-1.985499999999999
 30
2.319
 70
    64
  0
VERTEX
  5
65133
330
6512C
100
AcDbEntity
  8
0
100
AcDbVertex
100
AcDbPolygonMeshVertex
 10
0.8597103499999999
 20
-1.845499999999999
 30
2.929
 70
    64
  0
VERTEX
  5
65134
330
6512C
100
AcDbEntity
  8
0
100
AcDbVertex
100
AcDbPolygonMeshVertex
 10
0.8597103499999999
 20
-1.845499999999999
 30
2.319
 70
    64
  0
VERTEX
  5
65135
330
6512C
100
AcDbEntity
  8
0
100
AcDbVertex
100
AcDbPolygonMeshVertex
 10
0.8597103499999999
 20
-1.985499999999999
 30
2.319
 70
    64
  0
VERTEX
  5
65136
330
6512C
100
AcDbEntity
  8
0
100
AcDbVertex
100
AcDbPolygonMeshVertex
 10
0.90571035
 20
-1.845499999999999
 30
2.929
 70
    64
  0
VERTEX
  5
65137
330
6512C
100
AcDbEntity
  8
0
100
AcDbVertex
100
AcDbPolygonMeshVertex
 10
0.90571035
 20
-1.845499999999999
 30
2.319
 70
    64
  0
VERTEX
  5
65138
330
6512C
100
AcDbEntity
  8
0
100
AcDbVertex
100
AcDbPolygonMeshVertex
 10
0.90571035
 20
-1.985499999999999
 30
2.319
 70
    64
  0
VERTEX
  5
65139
330
6512C
100
AcDbEntity
  8
0
100
AcDbVertex
100
AcDbPolygonMeshVertex
 10
0.90571035
 20
-1.845499999999999
 30
2.929
 70
    64
  0
VERTEX
  5
6513A
330
6512C
100
AcDbEntity
  8
0
100
AcDbVertex
100
AcDbPolygonMeshVertex
 10
0.90571035
 20
-1.845499999999999
 30
2.929
 70
    64
  0
VERTEX
  5
6513B
330
6512C
100
AcDbEntity
  8
0
100
AcDbVertex
100
AcDbPolygonMeshVertex
 10
0.90571035
 20
-1.985499999999999
 30
2.929
 70
    64
  0
VERTEX
  5
6513C
330
6512C
100
AcDbEntity
  8
0
100
AcDbVertex
100
AcDbPolygonMeshVertex
 10
0.8597103499999999
 20
-1.845499999999999
 30
2.929
 70
    64
  0
VERTEX
  5
6513D
330
6512C
100
AcDbEntity
  8
0
100
AcDbVertex
100
AcDbPolygonMeshVertex
 10
0.8597103499999999
 20
-1.845499999999999
 30
2.929
 70
    64
  0
VERTEX
  5
6513E
330
6512C
100
AcDbEntity
  8
0
100
AcDbVertex
100
AcDbPolygonMeshVertex
 10
0.8597103499999999
 20
-1.985499999999999
 30
2.929
 70
    64
  0
SEQEND
  5
6513F
330
6512C
100
AcDbEntity
  8
0
  0
POLYLINE
  5
65140
330
458D6
100
AcDbEntity
  8
0
100
AcDbPolygonMesh
 66
     1
 10
0.0
 20
0.0
 30
0.0
 70
    16
 71
     6
 72
     3
  0
VERTEX
  5
65141
330
65140
100
AcDbEntity
  8
0
100
AcDbVertex
100
AcDbPolygonMeshVertex
 10
1.335460349999999
 20
-1.985499999999999
 30
2.929
 70
    64
  0
VERTEX
  5
65142
330
65140
100
AcDbEntity
  8
0
100
AcDbVertex
100
AcDbPolygonMeshVertex
 10
1.335460349999999
 20
-1.985499999999999
 30
2.319
 70
    64
  0
VERTEX
  5
65143
330
65140
100
AcDbEntity
  8
0
100
AcDbVertex
100
AcDbPolygonMeshVertex
 10
1.335460349999999
 20
-1.985499999999999
 30
2.319
 70
    64
  0
VERTEX
  5
65144
330
65140
100
AcDbEntity
  8
0
100
AcDbVertex
100
AcDbPolygonMeshVertex
 10
1.28946035
 20
-1.985499999999999
 30
2.929
 70
    64
  0
VERTEX
  5
65145
330
65140
100
AcDbEntity
  8
0
100
AcDbVertex
100
AcDbPolygonMeshVertex
 10
1.28946035
 20
-1.985499999999999
 30
2.319
 70
    64
  0
VERTEX
  5
65146
330
65140
100
AcDbEntity
  8
0
100
AcDbVertex
100
AcDbPolygonMeshVertex
 10
1.28946035
 20
-1.985499999999999
 30
2.319
 70
    64
  0
VERTEX
  5
65147
330
65140
100
AcDbEntity
  8
0
100
AcDbVertex
100
AcDbPolygonMeshVertex
 10
1.28946035
 20
-1.845499999999999
 30
2.929
 70
    64
  0
VERTEX
  5
65148
330
65140
100
AcDbEntity
  8
0
100
AcDbVertex
100
AcDbPolygonMeshVertex
 10
1.28946035
 20
-1.845499999999999
 30
2.319
 70
    64
  0
VERTEX
  5
65149
330
65140
100
AcDbEntity
  8
0
100
AcDbVertex
100
AcDbPolygonMeshVertex
 10
1.28946035
 20
-1.985499999999999
 30
2.319
 70
    64
  0
VERTEX
  5
6514A
330
65140
100
AcDbEntity
  8
0
100
AcDbVertex
100
AcDbPolygonMeshVertex
 10
1.335460349999999
 20
-1.845499999999999
 30
2.929
 70
    64
  0
VERTEX
  5
6514B
330
65140
100
AcDbEntity
  8
0
100
AcDbVertex
100
AcDbPolygonMeshVertex
 10
1.335460349999999
 20
-1.845499999999999
 30
2.319
 70
    64
  0
VERTEX
  5
6514C
330
65140
100
AcDbEntity
  8
0
100
AcDbVertex
100
AcDbPolygonMeshVertex
 10
1.335460349999999
 20
-1.985499999999999
 30
2.319
 70
    64
  0
VERTEX
  5
6514D
330
65140
100
AcDbEntity
  8
0
100
AcDbVertex
100
AcDbPolygonMeshVertex
 10
1.335460349999999
 20
-1.845499999999999
 30
2.929
 70
    64
  0
VERTEX
  5
6514E
330
65140
100
AcDbEntity
  8
0
100
AcDbVertex
100
AcDbPolygonMeshVertex
 10
1.335460349999999
 20
-1.845499999999999
 30
2.929
 70
    64
  0
VERTEX
  5
6514F
330
65140
100
AcDbEntity
  8
0
100
AcDbVertex
100
AcDbPolygonMeshVertex
 10
1.335460349999999
 20
-1.985499999999999
 30
2.929
 70
    64
  0
VERTEX
  5
65150
330
65140
100
AcDbEntity
  8
0
100
AcDbVertex
100
AcDbPolygonMeshVertex
 10
1.28946035
 20
-1.845499999999999
 30
2.929
 70
    64
  0
VERTEX
  5
65151
330
65140
100
AcDbEntity
  8
0
100
AcDbVertex
100
AcDbPolygonMeshVertex
 10
1.28946035
 20
-1.845499999999999
 30
2.929
 70
    64
  0
VERTEX
  5
65152
330
65140
100
AcDbEntity
  8
0
100
AcDbVertex
100
AcDbPolygonMeshVertex
 10
1.28946035
 20
-1.985499999999999
 30
2.929
 70
    64
  0
SEQEND
  5
65153
330
65140
100
AcDbEntity
  8
0
  0
POLYLINE
  5
65154
330
458D6
100
AcDbEntity
  8
0
100
AcDbPolygonMesh
 66
     1
 10
0.0
 20
0.0
 30
0.0
 70
    16
 71
     6
 72
     3
  0
VERTEX
  5
65155
330
65154
100
AcDbEntity
  8
0
100
AcDbVertex
100
AcDbPolygonMeshVertex
 10
1.719210349999999
 20
-2.057499999999999
 30
2.319
 70
    64
  0
VERTEX
  5
65156
330
65154
100
AcDbEntity
  8
0
100
AcDbVertex
100
AcDbPolygonMeshVertex
 10
1.719210349999999
 20
-2.057499999999999
 30
2.06
 70
    64
  0
VERTEX
  5
65157
330
65154
100
AcDbEntity
  8
0
100
AcDbVertex
100
AcDbPolygonMeshVertex
 10
1.719210349999999
 20
-2.057499999999999
 30
2.06
 70
    64
  0
VERTEX
  5
65158
330
65154
100
AcDbEntity
  8
0
100
AcDbVertex
100
AcDbPolygonMeshVertex
 10
0.0462103499999999
 20
-2.057499999999999
 30
2.319
 70
    64
  0
VERTEX
  5
65159
330
65154
100
AcDbEntity
  8
0
100
AcDbVertex
100
AcDbPolygonMeshVertex
 10
0.0462103499999999
 20
-2.057499999999999
 30
2.06
 70
    64
  0
VERTEX
  5
6515A
330
65154
100
AcDbEntity
  8
0
100
AcDbVertex
100
AcDbPolygonMeshVertex
 10
0.0462103499999999
 20
-2.057499999999999
 30
2.06
 70
    64
  0
VERTEX
  5
6515B
330
65154
100
AcDbEntity
  8
0
100
AcDbVertex
100
AcDbPolygonMeshVertex
 10
0.0462103499999999
 20
-1.845499999999999
 30
2.319
 70
    64
  0
VERTEX
  5
6515C
330
65154
100
AcDbEntity
  8
0
100
AcDbVertex
100
AcDbPolygonMeshVertex
 10
0.0462103499999999
 20
-1.845499999999999
 30
2.06
 70
    64
  0
VERTEX
  5
6515D
330
65154
100
AcDbEntity
  8
0
100
AcDbVertex
100
AcDbPolygonMeshVertex
 10
0.0462103499999999
 20
-2.057499999999999
 30
2.06
 70
    64
  0
VERTEX
  5
6515E
330
65154
100
AcDbEntity
  8
0
100
AcDbVertex
100
AcDbPolygonMeshVertex
 10
1.719210349999999
 20
-1.845499999999999
 30
2.319
 70
    64
  0
VERTEX
  5
6515F
330
65154
100
AcDbEntity
  8
0
100
AcDbVertex
100
AcDbPolygonMeshVertex
 10
1.719210349999999
 20
-1.845499999999999
 30
2.06
 70
    64
  0
VERTEX
  5
65160
330
65154
100
AcDbEntity
  8
0
100
AcDbVertex
100
AcDbPolygonMeshVertex
 10
1.719210349999999
 20
-2.057499999999999
 30
2.06
 70
    64
  0
VERTEX
  5
65161
330
65154
100
AcDbEntity
  8
0
100
AcDbVertex
100
AcDbPolygonMeshVertex
 10
1.719210349999999
 20
-1.845499999999999
 30
2.319
 70
    64
  0
VERTEX
  5
65162
330
65154
100
AcDbEntity
  8
0
100
AcDbVertex
100
AcDbPolygonMeshVertex
 10
1.719210349999999
 20
-1.845499999999999
 30
2.319
 70
    64
  0
VERTEX
  5
65163
330
65154
100
AcDbEntity
  8
0
100
AcDbVertex
100
AcDbPolygonMeshVertex
 10
1.719210349999999
 20
-2.057499999999999
 30
2.319
 70
    64
  0
VERTEX
  5
65164
330
65154
100
AcDbEntity
  8
0
100
AcDbVertex
100
AcDbPolygonMeshVertex
 10
0.0462103499999999
 20
-1.845499999999999
 30
2.319
 70
    64
  0
VERTEX
  5
65165
330
65154
100
AcDbEntity
  8
0
100
AcDbVertex
100
AcDbPolygonMeshVertex
 10
0.0462103499999999
 20
-1.845499999999999
 30
2.319
 70
    64
  0
VERTEX
  5
65166
330
65154
100
AcDbEntity
  8
0
100
AcDbVertex
100
AcDbPolygonMeshVertex
 10
0.0462103499999999
 20
-2.057499999999999
 30
2.319
 70
    64
  0
SEQEND
  5
65167
330
65154
100
AcDbEntity
  8
0
  0
POLYLINE
  5
65168
330
458D6
100
AcDbEntity
  8
0
100
AcDbPolygonMesh
 66
     1
 10
0.0
 20
0.0
 30
0.0
 70
    16
 71
     6
 72
     3
  0
VERTEX
  5
65169
330
65168
100
AcDbEntity
  8
0
100
AcDbVertex
100
AcDbPolygonMeshVertex
 10
1.765210349999999
 20
-1.9685
 30
2.06
 70
    64
  0
VERTEX
  5
6516A
330
65168
100
AcDbEntity
  8
0
100
AcDbVertex
100
AcDbPolygonMeshVertex
 10
1.765210349999999
 20
-1.9685
 30
1.318
 70
    64
  0
VERTEX
  5
6516B
330
65168
100
AcDbEntity
  8
0
100
AcDbVertex
100
AcDbPolygonMeshVertex
 10
1.765210349999999
 20
-1.9685
 30
1.318
 70
    64
  0
VERTEX
  5
6516C
330
65168
100
AcDbEntity
  8
0
100
AcDbVertex
100
AcDbPolygonMeshVertex
 10
0.0002103500000001
 20
-1.9685
 30
2.06
 70
    64
  0
VERTEX
  5
6516D
330
65168
100
AcDbEntity
  8
0
100
AcDbVertex
100
AcDbPolygonMeshVertex
 10
0.0002103500000001
 20
-1.9685
 30
1.318
 70
    64
  0
VERTEX
  5
6516E
330
65168
100
AcDbEntity
  8
0
100
AcDbVertex
100
AcDbPolygonMeshVertex
 10
0.0002103500000001
 20
-1.9685
 30
1.318
 70
    64
  0
VERTEX
  5
6516F
330
65168
100
AcDbEntity
  8
0
100
AcDbVertex
100
AcDbPolygonMeshVertex
 10
0.0002103500000001
 20
0.5215000000000001
 30
2.06
 70
    64
  0
VERTEX
  5
65170
330
65168
100
AcDbEntity
  8
0
100
AcDbVertex
100
AcDbPolygonMeshVertex
 10
0.0002103500000001
 20
0.5215000000000001
 30
1.318
 70
    64
  0
VERTEX
  5
65171
330
65168
100
AcDbEntity
  8
0
100
AcDbVertex
100
AcDbPolygonMeshVertex
 10
0.0002103500000001
 20
-1.9685
 30
1.318
 70
    64
  0
VERTEX
  5
65172
330
65168
100
AcDbEntity
  8
0
100
AcDbVertex
100
AcDbPolygonMeshVertex
 10
1.765210349999999
 20
0.5215000000000001
 30
2.06
 70
    64
  0
VERTEX
  5
65173
330
65168
100
AcDbEntity
  8
0
100
AcDbVertex
100
AcDbPolygonMeshVertex
 10
1.765210349999999
 20
0.5215000000000001
 30
1.318
 70
    64
  0
VERTEX
  5
65174
330
65168
100
AcDbEntity
  8
0
100
AcDbVertex
100
AcDbPolygonMeshVertex
 10
1.765210349999999
 20
-1.9685
 30
1.318
 70
    64
  0
VERTEX
  5
65175
330
65168
100
AcDbEntity
  8
0
100
AcDbVertex
100
AcDbPolygonMeshVertex
 10
1.765210349999999
 20
0.5215000000000001
 30
2.06
 70
    64
  0
VERTEX
  5
65176
330
65168
100
AcDbEntity
  8
0
100
AcDbVertex
100
AcDbPolygonMeshVertex
 10
1.765210349999999
 20
0.5215000000000001
 30
2.06
 70
    64
  0
VERTEX
  5
65177
330
65168
100
AcDbEntity
  8
0
100
AcDbVertex
100
AcDbPolygonMeshVertex
 10
1.765210349999999
 20
-1.9685
 30
2.06
 70
    64
  0
VERTEX
  5
65178
330
65168
100
AcDbEntity
  8
0
100
AcDbVertex
100
AcDbPolygonMeshVertex
 10
0.0002103500000001
 20
0.5215000000000001
 30
2.06
 70
    64
  0
VERTEX
  5
65179
330
65168
100
AcDbEntity
  8
0
100
AcDbVertex
100
AcDbPolygonMeshVertex
 10
0.0002103500000001
 20
0.5215000000000001
 30
2.06
 70
    64
  0
VERTEX
  5
6517A
330
65168
100
AcDbEntity
  8
0
100
AcDbVertex
100
AcDbPolygonMeshVertex
 10
0.0002103500000001
 20
-1.9685
 30
2.06
 70
    64
  0
SEQEND
  5
6517B
330
65168
100
AcDbEntity
  8
0
  0
POLYLINE
  5
6517C
330
458D6
100
AcDbEntity
  8
0
100
AcDbPolygonMesh
 66
     1
 10
0.0
 20
0.0
 30
0.0
 70
    16
 71
     6
 72
     3
  0
VERTEX
  5
6517D
330
6517C
100
AcDbEntity
  8
0
100
AcDbVertex
100
AcDbPolygonMeshVertex
 10
0.4299603499999999
 20
-1.985499999999999
 30
2.929
 70
    64
  0
VERTEX
  5
6517E
330
6517C
100
AcDbEntity
  8
0
100
AcDbVertex
100
AcDbPolygonMeshVertex
 10
0.4299603499999999
 20
-1.985499999999999
 30
2.319
 70
    64
  0
VERTEX
  5
6517F
330
6517C
100
AcDbEntity
  8
0
100
AcDbVertex
100
AcDbPolygonMeshVertex
 10
0.4299603499999999
 20
-1.985499999999999
 30
2.319
 70
    64
  0
VERTEX
  5
65180
330
6517C
100
AcDbEntity
  8
0
100
AcDbVertex
100
AcDbPolygonMeshVertex
 10
0.4759603499999998
 20
-1.985499999999999
 30
2.929
 70
    64
  0
VERTEX
  5
65181
330
6517C
100
AcDbEntity
  8
0
100
AcDbVertex
100
AcDbPolygonMeshVertex
 10
0.4759603499999998
 20
-1.985499999999999
 30
2.319
 70
    64
  0
VERTEX
  5
65182
330
6517C
100
AcDbEntity
  8
0
100
AcDbVertex
100
AcDbPolygonMeshVertex
 10
0.4759603499999998
 20
-1.985499999999999
 30
2.319
 70
    64
  0
VERTEX
  5
65183
330
6517C
100
AcDbEntity
  8
0
100
AcDbVertex
100
AcDbPolygonMeshVertex
 10
0.4759603499999998
 20
-1.845499999999999
 30
2.929
 70
    64
  0
VERTEX
  5
65184
330
6517C
100
AcDbEntity
  8
0
100
AcDbVertex
100
AcDbPolygonMeshVertex
 10
0.4759603499999998
 20
-1.845499999999999
 30
2.319
 70
    64
  0
VERTEX
  5
65185
330
6517C
100
AcDbEntity
  8
0
100
AcDbVertex
100
AcDbPolygonMeshVertex
 10
0.4759603499999998
 20
-1.985499999999999
 30
2.319
 70
    64
  0
VERTEX
  5
65186
330
6517C
100
AcDbEntity
  8
0
100
AcDbVertex
100
AcDbPolygonMeshVertex
 10
0.4299603499999999
 20
-1.845499999999999
 30
2.929
 70
    64
  0
VERTEX
  5
65187
330
6517C
100
AcDbEntity
  8
0
100
AcDbVertex
100
AcDbPolygonMeshVertex
 10
0.4299603499999999
 20
-1.845499999999999
 30
2.319
 70
    64
  0
VERTEX
  5
65188
330
6517C
100
AcDbEntity
  8
0
100
AcDbVertex
100
AcDbPolygonMeshVertex
 10
0.4299603499999999
 20
-1.985499999999999
 30
2.319
 70
    64
  0
VERTEX
  5
65189
330
6517C
100
AcDbEntity
  8
0
100
AcDbVertex
100
AcDbPolygonMeshVertex
 10
0.4299603499999999
 20
-1.845499999999999
 30
2.929
 70
    64
  0
VERTEX
  5
6518A
330
6517C
100
AcDbEntity
  8
0
100
AcDbVertex
100
AcDbPolygonMeshVertex
 10
0.4299603499999999
 20
-1.845499999999999
 30
2.929
 70
    64
  0
VERTEX
  5
6518B
330
6517C
100
AcDbEntity
  8
0
100
AcDbVertex
100
AcDbPolygonMeshVertex
 10
0.4299603499999999
 20
-1.985499999999999
 30
2.929
 70
    64
  0
VERTEX
  5
6518C
330
6517C
100
AcDbEntity
  8
0
100
AcDbVertex
100
AcDbPolygonMeshVertex
 10
0.4759603499999998
 20
-1.845499999999999
 30
2.929
 70
    64
  0
VERTEX
  5
6518D
330
6517C
100
AcDbEntity
  8
0
100
AcDbVertex
100
AcDbPolygonMeshVertex
 10
0.4759603499999998
 20
-1.845499999999999
 30
2.929
 70
    64
  0
VERTEX
  5
6518E
330
6517C
100
AcDbEntity
  8
0
100
AcDbVertex
100
AcDbPolygonMeshVertex
 10
0.4759603499999998
 20
-1.985499999999999
 30
2.929
 70
    64
  0
SEQEND
  5
6518F
330
6517C
100
AcDbEntity
  8
0
  0
LINE
  5
65190
330
458D6
100
AcDbEntity
  8
0
100
AcDbLine
 10
0.90571035
 20
-1.845499999999999
 30
2.646
 11
1.28946035
 21
-1.845499999999999
 31
2.646
  0
LINE
  5
65191
330
458D6
100
AcDbEntity
  8
0
100
AcDbLine
 10
1.335460349999999
 20
-1.845499999999999
 30
2.646
 11
1.719210349999999
 21
-1.845499999999999
 31
2.646
  0
LINE
  5
65192
330
458D6
100
AcDbEntity
  8
0
100
AcDbLine
 10
0.4759603499999998
 20
-1.845499999999999
 30
2.646
 11
0.8597103499999999
 21
-1.845499999999999
 31
2.646
  0
LINE
  5
65193
330
458D6
100
AcDbEntity
  8
0
100
AcDbLine
 10
0.0462103500000004
 20
-1.845499999999999
 30
2.646
 11
0.4299603499999999
 21
-1.845499999999999
 31
2.646
  0
POLYLINE
  5
65194
330
458D6
100
AcDbEntity
  8
0
100
AcDbPolygonMesh
 66
     1
 10
0.0
 20
0.0
 30
0.0
 70
    16
 71
     6
 72
     3
  0
VERTEX
  5
65195
330
65194
100
AcDbEntity
  8
0
100
AcDbVertex
100
AcDbPolygonMeshVertex
 10
0.0462103499999999
 20
-1.985499999999999
 30
2.929
 70
    64
  0
VERTEX
  5
65196
330
65194
100
AcDbEntity
  8
0
100
AcDbVertex
100
AcDbPolygonMeshVertex
 10
0.0462103499999999
 20
-1.985499999999999
 30
2.06
 70
    64
  0
VERTEX
  5
65197
330
65194
100
AcDbEntity
  8
0
100
AcDbVertex
100
AcDbPolygonMeshVertex
 10
0.0462103499999999
 20
-1.985499999999999
 30
2.06
 70
    64
  0
VERTEX
  5
65198
330
65194
100
AcDbEntity
  8
0
100
AcDbVertex
100
AcDbPolygonMeshVertex
 10
0.0002103500000001
 20
-1.985499999999999
 30
2.929
 70
    64
  0
VERTEX
  5
65199
330
65194
100
AcDbEntity
  8
0
100
AcDbVertex
100
AcDbPolygonMeshVertex
 10
0.0002103500000001
 20
-1.985499999999999
 30
2.06
 70
    64
  0
VERTEX
  5
6519A
330
65194
100
AcDbEntity
  8
0
100
AcDbVertex
100
AcDbPolygonMeshVertex
 10
0.0002103500000001
 20
-1.985499999999999
 30
2.06
 70
    64
  0
VERTEX
  5
6519B
330
65194
100
AcDbEntity
  8
0
100
AcDbVertex
100
AcDbPolygonMeshVertex
 10
0.0002103500000001
 20
-1.845499999999999
 30
2.929
 70
    64
  0
VERTEX
  5
6519C
330
65194
100
AcDbEntity
  8
0
100
AcDbVertex
100
AcDbPolygonMeshVertex
 10
0.0002103500000001
 20
-1.845499999999999
 30
2.06
 70
    64
  0
VERTEX
  5
6519D
330
65194
100
AcDbEntity
  8
0
100
AcDbVertex
100
AcDbPolygonMeshVertex
 10
0.0002103500000001
 20
-1.985499999999999
 30
2.06
 70
    64
  0
VERTEX
  5
6519E
330
65194
100
AcDbEntity
  8
0
100
AcDbVertex
100
AcDbPolygonMeshVertex
 10
0.0462103499999999
 20
-1.845499999999999
 30
2.929
 70
    64
  0
VERTEX
  5
6519F
330
65194
100
AcDbEntity
  8
0
100
AcDbVertex
100
AcDbPolygonMeshVertex
 10
0.0462103499999999
 20
-1.845499999999999
 30
2.06
 70
    64
  0
VERTEX
  5
651A0
330
65194
100
AcDbEntity
  8
0
100
AcDbVertex
100
AcDbPolygonMeshVertex
 10
0.0462103499999999
 20
-1.985499999999999
 30
2.06
 70
    64
  0
VERTEX
  5
651A1
330
65194
100
AcDbEntity
  8
0
100
AcDbVertex
100
AcDbPolygonMeshVertex
 10
0.0462103499999999
 20
-1.845499999999999
 30
2.929
 70
    64
  0
VERTEX
  5
651A2
330
65194
100
AcDbEntity
  8
0
100
AcDbVertex
100
AcDbPolygonMeshVertex
 10
0.0462103499999999
 20
-1.845499999999999
 30
2.929
 70
    64
  0
VERTEX
  5
651A3
330
65194
100
AcDbEntity
  8
0
100
AcDbVertex
100
AcDbPolygonMeshVertex
 10
0.0462103499999999
 20
-1.985499999999999
 30
2.929
 70
    64
  0
VERTEX
  5
651A4
330
65194
100
AcDbEntity
  8
0
100
AcDbVertex
100
AcDbPolygonMeshVertex
 10
0.0002103500000001
 20
-1.845499999999999
 30
2.929
 70
    64
  0
VERTEX
  5
651A5
330
65194
100
AcDbEntity
  8
0
100
AcDbVertex
100
AcDbPolygonMeshVertex
 10
0.0002103500000001
 20
-1.845499999999999
 30
2.929
 70
    64
  0
VERTEX
  5
651A6
330
65194
100
AcDbEntity
  8
0
100
AcDbVertex
100
AcDbPolygonMeshVertex
 10
0.0002103500000001
 20
-1.985499999999999
 30
2.929
 70
    64
  0
SEQEND
  5
651A7
330
65194
100
AcDbEntity
  8
0
  0
POLYLINE
  5
651A8
330
458D6
100
AcDbEntity
  8
0
100
AcDbPolygonMesh
 66
     1
 10
0.0
 20
0.0
 30
0.0
 70
    16
 71
     6
 72
     3
  0
VERTEX
  5
651A9
330
651A8
100
AcDbEntity
  8
0
100
AcDbVertex
100
AcDbPolygonMeshVertex
 10
1.765210349999999
 20
-1.985499999999999
 30
2.929
 70
    64
  0
VERTEX
  5
651AA
330
651A8
100
AcDbEntity
  8
0
100
AcDbVertex
100
AcDbPolygonMeshVertex
 10
1.765210349999999
 20
-1.985499999999999
 30
2.06
 70
    64
  0
VERTEX
  5
651AB
330
651A8
100
AcDbEntity
  8
0
100
AcDbVertex
100
AcDbPolygonMeshVertex
 10
1.765210349999999
 20
-1.985499999999999
 30
2.06
 70
    64
  0
VERTEX
  5
651AC
330
651A8
100
AcDbEntity
  8
0
100
AcDbVertex
100
AcDbPolygonMeshVertex
 10
1.719210349999999
 20
-1.985499999999999
 30
2.929
 70
    64
  0
VERTEX
  5
651AD
330
651A8
100
AcDbEntity
  8
0
100
AcDbVertex
100
AcDbPolygonMeshVertex
 10
1.719210349999999
 20
-1.985499999999999
 30
2.06
 70
    64
  0
VERTEX
  5
651AE
330
651A8
100
AcDbEntity
  8
0
100
AcDbVertex
100
AcDbPolygonMeshVertex
 10
1.719210349999999
 20
-1.985499999999999
 30
2.06
 70
    64
  0
VERTEX
  5
651AF
330
651A8
100
AcDbEntity
  8
0
100
AcDbVertex
100
AcDbPolygonMeshVertex
 10
1.719210349999999
 20
-1.845499999999999
 30
2.929
 70
    64
  0
VERTEX
  5
651B0
330
651A8
100
AcDbEntity
  8
0
100
AcDbVertex
100
AcDbPolygonMeshVertex
 10
1.719210349999999
 20
-1.845499999999999
 30
2.06
 70
    64
  0
VERTEX
  5
651B1
330
651A8
100
AcDbEntity
  8
0
100
AcDbVertex
100
AcDbPolygonMeshVertex
 10
1.719210349999999
 20
-1.985499999999999
 30
2.06
 70
    64
  0
VERTEX
  5
651B2
330
651A8
100
AcDbEntity
  8
0
100
AcDbVertex
100
AcDbPolygonMeshVertex
 10
1.765210349999999
 20
-1.845499999999999
 30
2.929
 70
    64
  0
VERTEX
  5
651B3
330
651A8
100
AcDbEntity
  8
0
100
AcDbVertex
100
AcDbPolygonMeshVertex
 10
1.765210349999999
 20
-1.845499999999999
 30
2.06
 70
    64
  0
VERTEX
  5
651B4
330
651A8
100
AcDbEntity
  8
0
100
AcDbVertex
100
AcDbPolygonMeshVertex
 10
1.765210349999999
 20
-1.985499999999999
 30
2.06
 70
    64
  0
VERTEX
  5
651B5
330
651A8
100
AcDbEntity
  8
0
100
AcDbVertex
100
AcDbPolygonMeshVertex
 10
1.765210349999999
 20
-1.845499999999999
 30
2.929
 70
    64
  0
VERTEX
  5
651B6
330
651A8
100
AcDbEntity
  8
0
100
AcDbVertex
100
AcDbPolygonMeshVertex
 10
1.765210349999999
 20
-1.845499999999999
 30
2.929
 70
    64
  0
VERTEX
  5
651B7
330
651A8
100
AcDbEntity
  8
0
100
AcDbVertex
100
AcDbPolygonMeshVertex
 10
1.765210349999999
 20
-1.985499999999999
 30
2.929
 70
    64
  0
VERTEX
  5
651B8
330
651A8
100
AcDbEntity
  8
0
100
AcDbVertex
100
AcDbPolygonMeshVertex
 10
1.719210349999999
 20
-1.845499999999999
 30
2.929
 70
    64
  0
VERTEX
  5
651B9
330
651A8
100
AcDbEntity
  8
0
100
AcDbVertex
100
AcDbPolygonMeshVertex
 10
1.719210349999999
 20
-1.845499999999999
 30
2.929
 70
    64
  0
VERTEX
  5
651BA
330
651A8
100
AcDbEntity
  8
0
100
AcDbVertex
100
AcDbPolygonMeshVertex
 10
1.719210349999999
 20
-1.985499999999999
 30
2.929
 70
    64
  0
SEQEND
  5
651BB
330
651A8
100
AcDbEntity
  8
0
  0
POLYLINE
  5
651BC
330
458D6
100
AcDbEntity
  8
0
100
AcDbPolygonMesh
 66
     1
 10
0.0
 20
0.0
 30
0.0
 70
    16
 71
     6
 72
     3
  0
VERTEX
  5
651BD
330
651BC
100
AcDbEntity
  8
0
100
AcDbVertex
100
AcDbPolygonMeshVertex
 10
1.765210349999999
 20
0.5384999999999996
 30
2.929
 70
    64
  0
VERTEX
  5
651BE
330
651BC
100
AcDbEntity
  8
0
100
AcDbVertex
100
AcDbPolygonMeshVertex
 10
1.765210349999999
 20
0.5384999999999996
 30
2.06
 70
    64
  0
VERTEX
  5
651BF
330
651BC
100
AcDbEntity
  8
0
100
AcDbVertex
100
AcDbPolygonMeshVertex
 10
1.765210349999999
 20
0.5384999999999996
 30
2.06
 70
    64
  0
VERTEX
  5
651C0
330
651BC
100
AcDbEntity
  8
0
100
AcDbVertex
100
AcDbPolygonMeshVertex
 10
1.719210349999999
 20
0.5384999999999996
 30
2.929
 70
    64
  0
VERTEX
  5
651C1
330
651BC
100
AcDbEntity
  8
0
100
AcDbVertex
100
AcDbPolygonMeshVertex
 10
1.719210349999999
 20
0.5384999999999996
 30
2.06
 70
    64
  0
VERTEX
  5
651C2
330
651BC
100
AcDbEntity
  8
0
100
AcDbVertex
100
AcDbPolygonMeshVertex
 10
1.719210349999999
 20
0.5384999999999996
 30
2.06
 70
    64
  0
VERTEX
  5
651C3
330
651BC
100
AcDbEntity
  8
0
100
AcDbVertex
100
AcDbPolygonMeshVertex
 10
1.719210349999999
 20
0.3984999999999994
 30
2.929
 70
    64
  0
VERTEX
  5
651C4
330
651BC
100
AcDbEntity
  8
0
100
AcDbVertex
100
AcDbPolygonMeshVertex
 10
1.719210349999999
 20
0.3984999999999994
 30
2.06
 70
    64
  0
VERTEX
  5
651C5
330
651BC
100
AcDbEntity
  8
0
100
AcDbVertex
100
AcDbPolygonMeshVertex
 10
1.719210349999999
 20
0.5384999999999996
 30
2.06
 70
    64
  0
VERTEX
  5
651C6
330
651BC
100
AcDbEntity
  8
0
100
AcDbVertex
100
AcDbPolygonMeshVertex
 10
1.765210349999999
 20
0.3984999999999994
 30
2.929
 70
    64
  0
VERTEX
  5
651C7
330
651BC
100
AcDbEntity
  8
0
100
AcDbVertex
100
AcDbPolygonMeshVertex
 10
1.765210349999999
 20
0.3984999999999994
 30
2.06
 70
    64
  0
VERTEX
  5
651C8
330
651BC
100
AcDbEntity
  8
0
100
AcDbVertex
100
AcDbPolygonMeshVertex
 10
1.765210349999999
 20
0.5384999999999996
 30
2.06
 70
    64
  0
VERTEX
  5
651C9
330
651BC
100
AcDbEntity
  8
0
100
AcDbVertex
100
AcDbPolygonMeshVertex
 10
1.765210349999999
 20
0.3984999999999994
 30
2.929
 70
    64
  0
VERTEX
  5
651CA
330
651BC
100
AcDbEntity
  8
0
100
AcDbVertex
100
AcDbPolygonMeshVertex
 10
1.765210349999999
 20
0.3984999999999994
 30
2.929
 70
    64
  0
VERTEX
  5
651CB
330
651BC
100
AcDbEntity
  8
0
100
AcDbVertex
100
AcDbPolygonMeshVertex
 10
1.765210349999999
 20
0.5384999999999996
 30
2.929
 70
    64
  0
VERTEX
  5
651CC
330
651BC
100
AcDbEntity
  8
0
100
AcDbVertex
100
AcDbPolygonMeshVertex
 10
1.719210349999999
 20
0.3984999999999994
 30
2.929
 70
    64
  0
VERTEX
  5
651CD
330
651BC
100
AcDbEntity
  8
0
100
AcDbVertex
100
AcDbPolygonMeshVertex
 10
1.719210349999999
 20
0.3984999999999994
 30
2.929
 70
    64
  0
VERTEX
  5
651CE
330
651BC
100
AcDbEntity
  8
0
100
AcDbVertex
100
AcDbPolygonMeshVertex
 10
1.719210349999999
 20
0.5384999999999996
 30
2.929
 70
    64
  0
SEQEND
  5
651CF
330
651BC
100
AcDbEntity
  8
0
  0
LINE
  5
651D0
330
458D6
100
AcDbEntity
  8
0
100
AcDbLine
 10
1.335460349999999
 20
0.3984999999999994
 30
2.646
 11
1.719210349999999
 21
0.3984999999999994
 31
2.646
  0
POLYLINE
  5
651D1
330
458D6
100
AcDbEntity
  8
0
100
AcDbPolygonMesh
 66
     1
 10
0.0
 20
0.0
 30
0.0
 70
    16
 71
     6
 72
     3
  0
VERTEX
  5
651D2
330
651D1
100
AcDbEntity
  8
0
100
AcDbVertex
100
AcDbPolygonMeshVertex
 10
1.335460349999999
 20
0.5384999999999996
 30
2.929
 70
    64
  0
VERTEX
  5
651D3
330
651D1
100
AcDbEntity
  8
0
100
AcDbVertex
100
AcDbPolygonMeshVertex
 10
1.335460349999999
 20
0.5384999999999996
 30
2.319
 70
    64
  0
VERTEX
  5
651D4
330
651D1
100
AcDbEntity
  8
0
100
AcDbVertex
100
AcDbPolygonMeshVertex
 10
1.335460349999999
 20
0.5384999999999996
 30
2.319
 70
    64
  0
VERTEX
  5
651D5
330
651D1
100
AcDbEntity
  8
0
100
AcDbVertex
100
AcDbPolygonMeshVertex
 10
1.28946035
 20
0.5384999999999996
 30
2.929
 70
    64
  0
VERTEX
  5
651D6
330
651D1
100
AcDbEntity
  8
0
100
AcDbVertex
100
AcDbPolygonMeshVertex
 10
1.28946035
 20
0.5384999999999996
 30
2.319
 70
    64
  0
VERTEX
  5
651D7
330
651D1
100
AcDbEntity
  8
0
100
AcDbVertex
100
AcDbPolygonMeshVertex
 10
1.28946035
 20
0.5384999999999996
 30
2.319
 70
    64
  0
VERTEX
  5
651D8
330
651D1
100
AcDbEntity
  8
0
100
AcDbVertex
100
AcDbPolygonMeshVertex
 10
1.28946035
 20
0.3984999999999994
 30
2.929
 70
    64
  0
VERTEX
  5
651D9
330
651D1
100
AcDbEntity
  8
0
100
AcDbVertex
100
AcDbPolygonMeshVertex
 10
1.28946035
 20
0.3984999999999994
 30
2.319
 70
    64
  0
VERTEX
  5
651DA
330
651D1
100
AcDbEntity
  8
0
100
AcDbVertex
100
AcDbPolygonMeshVertex
 10
1.28946035
 20
0.5384999999999996
 30
2.319
 70
    64
  0
VERTEX
  5
651DB
330
651D1
100
AcDbEntity
  8
0
100
AcDbVertex
100
AcDbPolygonMeshVertex
 10
1.335460349999999
 20
0.3984999999999994
 30
2.929
 70
    64
  0
VERTEX
  5
651DC
330
651D1
100
AcDbEntity
  8
0
100
AcDbVertex
100
AcDbPolygonMeshVertex
 10
1.335460349999999
 20
0.3984999999999994
 30
2.319
 70
    64
  0
VERTEX
  5
651DD
330
651D1
100
AcDbEntity
  8
0
100
AcDbVertex
100
AcDbPolygonMeshVertex
 10
1.335460349999999
 20
0.5384999999999996
 30
2.319
 70
    64
  0
VERTEX
  5
651DE
330
651D1
100
AcDbEntity
  8
0
100
AcDbVertex
100
AcDbPolygonMeshVertex
 10
1.335460349999999
 20
0.3984999999999994
 30
2.929
 70
    64
  0
VERTEX
  5
651DF
330
651D1
100
AcDbEntity
  8
0
100
AcDbVertex
100
AcDbPolygonMeshVertex
 10
1.335460349999999
 20
0.3984999999999994
 30
2.929
 70
    64
  0
VERTEX
  5
651E0
330
651D1
100
AcDbEntity
  8
0
100
AcDbVertex
100
AcDbPolygonMeshVertex
 10
1.335460349999999
 20
0.5384999999999996
 30
2.929
 70
    64
  0
VERTEX
  5
651E1
330
651D1
100
AcDbEntity
  8
0
100
AcDbVertex
100
AcDbPolygonMeshVertex
 10
1.28946035
 20
0.3984999999999994
 30
2.929
 70
    64
  0
VERTEX
  5
651E2
330
651D1
100
AcDbEntity
  8
0
100
AcDbVertex
100
AcDbPolygonMeshVertex
 10
1.28946035
 20
0.3984999999999994
 30
2.929
 70
    64
  0
VERTEX
  5
651E3
330
651D1
100
AcDbEntity
  8
0
100
AcDbVertex
100
AcDbPolygonMeshVertex
 10
1.28946035
 20
0.5384999999999996
 30
2.929
 70
    64
  0
SEQEND
  5
651E4
330
651D1
100
AcDbEntity
  8
0
  0
LINE
  5
651E5
330
458D6
100
AcDbEntity
  8
0
100
AcDbLine
 10
0.90571035
 20
0.3984999999999994
 30
2.646
 11
1.28946035
 21
0.3984999999999994
 31
2.646
  0
POLYLINE
  5
651E6
330
458D6
100
AcDbEntity
  8
0
100
AcDbPolygonMesh
 66
     1
 10
0.0
 20
0.0
 30
0.0
 70
    16
 71
     6
 72
     3
  0
VERTEX
  5
651E7
330
651E6
100
AcDbEntity
  8
0
100
AcDbVertex
100
AcDbPolygonMeshVertex
 10
0.90571035
 20
0.5384999999999996
 30
2.929
 70
    64
  0
VERTEX
  5
651E8
330
651E6
100
AcDbEntity
  8
0
100
AcDbVertex
100
AcDbPolygonMeshVertex
 10
0.90571035
 20
0.5384999999999996
 30
2.319
 70
    64
  0
VERTEX
  5
651E9
330
651E6
100
AcDbEntity
  8
0
100
AcDbVertex
100
AcDbPolygonMeshVertex
 10
0.90571035
 20
0.5384999999999996
 30
2.319
 70
    64
  0
VERTEX
  5
651EA
330
651E6
100
AcDbEntity
  8
0
100
AcDbVertex
100
AcDbPolygonMeshVertex
 10
0.8597103499999999
 20
0.5384999999999996
 30
2.929
 70
    64
  0
VERTEX
  5
651EB
330
651E6
100
AcDbEntity
  8
0
100
AcDbVertex
100
AcDbPolygonMeshVertex
 10
0.8597103499999999
 20
0.5384999999999996
 30
2.319
 70
    64
  0
VERTEX
  5
651EC
330
651E6
100
AcDbEntity
  8
0
100
AcDbVertex
100
AcDbPolygonMeshVertex
 10
0.8597103499999999
 20
0.5384999999999996
 30
2.319
 70
    64
  0
VERTEX
  5
651ED
330
651E6
100
AcDbEntity
  8
0
100
AcDbVertex
100
AcDbPolygonMeshVertex
 10
0.8597103499999999
 20
0.3984999999999994
 30
2.929
 70
    64
  0
VERTEX
  5
651EE
330
651E6
100
AcDbEntity
  8
0
100
AcDbVertex
100
AcDbPolygonMeshVertex
 10
0.8597103499999999
 20
0.3984999999999994
 30
2.319
 70
    64
  0
VERTEX
  5
651EF
330
651E6
100
AcDbEntity
  8
0
100
AcDbVertex
100
AcDbPolygonMeshVertex
 10
0.8597103499999999
 20
0.5384999999999996
 30
2.319
 70
    64
  0
VERTEX
  5
651F0
330
651E6
100
AcDbEntity
  8
0
100
AcDbVertex
100
AcDbPolygonMeshVertex
 10
0.90571035
 20
0.3984999999999994
 30
2.929
 70
    64
  0
VERTEX
  5
651F1
330
651E6
100
AcDbEntity
  8
0
100
AcDbVertex
100
AcDbPolygonMeshVertex
 10
0.90571035
 20
0.3984999999999994
 30
2.319
 70
    64
  0
VERTEX
  5
651F2
330
651E6
100
AcDbEntity
  8
0
100
AcDbVertex
100
AcDbPolygonMeshVertex
 10
0.90571035
 20
0.5384999999999996
 30
2.319
 70
    64
  0
VERTEX
  5
651F3
330
651E6
100
AcDbEntity
  8
0
100
AcDbVertex
100
AcDbPolygonMeshVertex
 10
0.90571035
 20
0.3984999999999994
 30
2.929
 70
    64
  0
VERTEX
  5
651F4
330
651E6
100
AcDbEntity
  8
0
100
AcDbVertex
100
AcDbPolygonMeshVertex
 10
0.90571035
 20
0.3984999999999994
 30
2.929
 70
    64
  0
VERTEX
  5
651F5
330
651E6
100
AcDbEntity
  8
0
100
AcDbVertex
100
AcDbPolygonMeshVertex
 10
0.90571035
 20
0.5384999999999996
 30
2.929
 70
    64
  0
VERTEX
  5
651F6
330
651E6
100
AcDbEntity
  8
0
100
AcDbVertex
100
AcDbPolygonMeshVertex
 10
0.8597103499999999
 20
0.3984999999999994
 30
2.929
 70
    64
  0
VERTEX
  5
651F7
330
651E6
100
AcDbEntity
  8
0
100
AcDbVertex
100
AcDbPolygonMeshVertex
 10
0.8597103499999999
 20
0.3984999999999994
 30
2.929
 70
    64
  0
VERTEX
  5
651F8
330
651E6
100
AcDbEntity
  8
0
100
AcDbVertex
100
AcDbPolygonMeshVertex
 10
0.8597103499999999
 20
0.5384999999999996
 30
2.929
 70
    64
  0
SEQEND
  5
651F9
330
651E6
100
AcDbEntity
  8
0
  0
POLYLINE
  5
651FA
330
458D6
100
AcDbEntity
  8
0
100
AcDbPolygonMesh
 66
     1
 10
0.0
 20
0.0
 30
0.0
 70
    16
 71
     6
 72
     3
  0
VERTEX
  5
651FB
330
651FA
100
AcDbEntity
  8
0
100
AcDbVertex
100
AcDbPolygonMeshVertex
 10
0.4299603499999999
 20
0.5384999999999996
 30
2.929
 70
    64
  0
VERTEX
  5
651FC
330
651FA
100
AcDbEntity
  8
0
100
AcDbVertex
100
AcDbPolygonMeshVertex
 10
0.4299603499999999
 20
0.5384999999999996
 30
2.319
 70
    64
  0
VERTEX
  5
651FD
330
651FA
100
AcDbEntity
  8
0
100
AcDbVertex
100
AcDbPolygonMeshVertex
 10
0.4299603499999999
 20
0.5384999999999996
 30
2.319
 70
    64
  0
VERTEX
  5
651FE
330
651FA
100
AcDbEntity
  8
0
100
AcDbVertex
100
AcDbPolygonMeshVertex
 10
0.4759603499999998
 20
0.5384999999999996
 30
2.929
 70
    64
  0
VERTEX
  5
651FF
330
651FA
100
AcDbEntity
  8
0
100
AcDbVertex
100
AcDbPolygonMeshVertex
 10
0.4759603499999998
 20
0.5384999999999996
 30
2.319
 70
    64
  0
VERTEX
  5
65200
330
651FA
100
AcDbEntity
  8
0
100
AcDbVertex
100
AcDbPolygonMeshVertex
 10
0.4759603499999998
 20
0.5384999999999996
 30
2.319
 70
    64
  0
VERTEX
  5
65201
330
651FA
100
AcDbEntity
  8
0
100
AcDbVertex
100
AcDbPolygonMeshVertex
 10
0.4759603499999998
 20
0.3984999999999994
 30
2.929
 70
    64
  0
VERTEX
  5
65202
330
651FA
100
AcDbEntity
  8
0
100
AcDbVertex
100
AcDbPolygonMeshVertex
 10
0.4759603499999998
 20
0.3984999999999994
 30
2.319
 70
    64
  0
VERTEX
  5
65203
330
651FA
100
AcDbEntity
  8
0
100
AcDbVertex
100
AcDbPolygonMeshVertex
 10
0.4759603499999998
 20
0.5384999999999996
 30
2.319
 70
    64
  0
VERTEX
  5
65204
330
651FA
100
AcDbEntity
  8
0
100
AcDbVertex
100
AcDbPolygonMeshVertex
 10
0.4299603499999999
 20
0.3984999999999994
 30
2.929
 70
    64
  0
VERTEX
  5
65205
330
651FA
100
AcDbEntity
  8
0
100
AcDbVertex
100
AcDbPolygonMeshVertex
 10
0.4299603499999999
 20
0.3984999999999994
 30
2.319
 70
    64
  0
VERTEX
  5
65206
330
651FA
100
AcDbEntity
  8
0
100
AcDbVertex
100
AcDbPolygonMeshVertex
 10
0.4299603499999999
 20
0.5384999999999996
 30
2.319
 70
    64
  0
VERTEX
  5
65207
330
651FA
100
AcDbEntity
  8
0
100
AcDbVertex
100
AcDbPolygonMeshVertex
 10
0.4299603499999999
 20
0.3984999999999994
 30
2.929
 70
    64
  0
VERTEX
  5
65208
330
651FA
100
AcDbEntity
  8
0
100
AcDbVertex
100
AcDbPolygonMeshVertex
 10
0.4299603499999999
 20
0.3984999999999994
 30
2.929
 70
    64
  0
VERTEX
  5
65209
330
651FA
100
AcDbEntity
  8
0
100
AcDbVertex
100
AcDbPolygonMeshVertex
 10
0.4299603499999999
 20
0.5384999999999996
 30
2.929
 70
    64
  0
VERTEX
  5
6520A
330
651FA
100
AcDbEntity
  8
0
100
AcDbVertex
100
AcDbPolygonMeshVertex
 10
0.4759603499999998
 20
0.3984999999999994
 30
2.929
 70
    64
  0
VERTEX
  5
6520B
330
651FA
100
AcDbEntity
  8
0
100
AcDbVertex
100
AcDbPolygonMeshVertex
 10
0.4759603499999998
 20
0.3984999999999994
 30
2.929
 70
    64
  0
VERTEX
  5
6520C
330
651FA
100
AcDbEntity
  8
0
100
AcDbVertex
100
AcDbPolygonMeshVertex
 10
0.4759603499999998
 20
0.5384999999999996
 30
2.929
 70
    64
  0
SEQEND
  5
6520D
330
651FA
100
AcDbEntity
  8
0
  0
LINE
  5
6520E
330
458D6
100
AcDbEntity
  8
0
100
AcDbLine
 10
0.0462103500000004
 20
0.3984999999999994
 30
2.646
 11
0.4299603499999999
 21
0.3984999999999994
 31
2.646
  0
LINE
  5
6520F
330
458D6
100
AcDbEntity
  8
0
100
AcDbLine
 10
0.4759603499999998
 20
0.3984999999999994
 30
2.646
 11
0.8597103499999999
 21
0.3984999999999994
 31
2.646
  0
POLYLINE
  5
65210
330
458D6
100
AcDbEntity
  8
0
100
AcDbPolygonMesh
 66
     1
 10
0.0
 20
0.0
 30
0.0
 70
    16
 71
     6
 72
     3
  0
VERTEX
  5
65211
330
65210
100
AcDbEntity
  8
0
100
AcDbVertex
100
AcDbPolygonMeshVertex
 10
0.0462103499999999
 20
0.5384999999999996
 30
2.929
 70
    64
  0
VERTEX
  5
65212
330
65210
100
AcDbEntity
  8
0
100
AcDbVertex
100
AcDbPolygonMeshVertex
 10
0.0462103499999999
 20
0.5384999999999996
 30
2.06
 70
    64
  0
VERTEX
  5
65213
330
65210
100
AcDbEntity
  8
0
100
AcDbVertex
100
AcDbPolygonMeshVertex
 10
0.0462103499999999
 20
0.5384999999999996
 30
2.06
 70
    64
  0
VERTEX
  5
65214
330
65210
100
AcDbEntity
  8
0
100
AcDbVertex
100
AcDbPolygonMeshVertex
 10
0.0002103500000001
 20
0.5384999999999996
 30
2.929
 70
    64
  0
VERTEX
  5
65215
330
65210
100
AcDbEntity
  8
0
100
AcDbVertex
100
AcDbPolygonMeshVertex
 10
0.0002103500000001
 20
0.5384999999999996
 30
2.06
 70
    64
  0
VERTEX
  5
65216
330
65210
100
AcDbEntity
  8
0
100
AcDbVertex
100
AcDbPolygonMeshVertex
 10
0.0002103500000001
 20
0.5384999999999996
 30
2.06
 70
    64
  0
VERTEX
  5
65217
330
65210
100
AcDbEntity
  8
0
100
AcDbVertex
100
AcDbPolygonMeshVertex
 10
0.0002103500000001
 20
0.3984999999999994
 30
2.929
 70
    64
  0
VERTEX
  5
65218
330
65210
100
AcDbEntity
  8
0
100
AcDbVertex
100
AcDbPolygonMeshVertex
 10
0.0002103500000001
 20
0.3984999999999994
 30
2.06
 70
    64
  0
VERTEX
  5
65219
330
65210
100
AcDbEntity
  8
0
100
AcDbVertex
100
AcDbPolygonMeshVertex
 10
0.0002103500000001
 20
0.5384999999999996
 30
2.06
 70
    64
  0
VERTEX
  5
6521A
330
65210
100
AcDbEntity
  8
0
100
AcDbVertex
100
AcDbPolygonMeshVertex
 10
0.0462103499999999
 20
0.3984999999999994
 30
2.929
 70
    64
  0
VERTEX
  5
6521B
330
65210
100
AcDbEntity
  8
0
100
AcDbVertex
100
AcDbPolygonMeshVertex
 10
0.0462103499999999
 20
0.3984999999999994
 30
2.06
 70
    64
  0
VERTEX
  5
6521C
330
65210
100
AcDbEntity
  8
0
100
AcDbVertex
100
AcDbPolygonMeshVertex
 10
0.0462103499999999
 20
0.5384999999999996
 30
2.06
 70
    64
  0
VERTEX
  5
6521D
330
65210
100
AcDbEntity
  8
0
100
AcDbVertex
100
AcDbPolygonMeshVertex
 10
0.0462103499999999
 20
0.3984999999999994
 30
2.929
 70
    64
  0
VERTEX
  5
6521E
330
65210
100
AcDbEntity
  8
0
100
AcDbVertex
100
AcDbPolygonMeshVertex
 10
0.0462103499999999
 20
0.3984999999999994
 30
2.929
 70
    64
  0
VERTEX
  5
6521F
330
65210
100
AcDbEntity
  8
0
100
AcDbVertex
100
AcDbPolygonMeshVertex
 10
0.0462103499999999
 20
0.5384999999999996
 30
2.929
 70
    64
  0
VERTEX
  5
65220
330
65210
100
AcDbEntity
  8
0
100
AcDbVertex
100
AcDbPolygonMeshVertex
 10
0.0002103500000001
 20
0.3984999999999994
 30
2.929
 70
    64
  0
VERTEX
  5
65221
330
65210
100
AcDbEntity
  8
0
100
AcDbVertex
100
AcDbPolygonMeshVertex
 10
0.0002103500000001
 20
0.3984999999999994
 30
2.929
 70
    64
  0
VERTEX
  5
65222
330
65210
100
AcDbEntity
  8
0
100
AcDbVertex
100
AcDbPolygonMeshVertex
 10
0.0002103500000001
 20
0.5384999999999996
 30
2.929
 70
    64
  0
SEQEND
  5
65223
330
65210
100
AcDbEntity
  8
0
  0
POLYLINE
  5
65224
330
458D6
100
AcDbEntity
  8
0
100
AcDbPolygonMesh
 66
     1
 10
0.0
 20
0.0
 30
0.0
 70
    16
 71
     6
 72
     3
  0
VERTEX
  5
65225
330
65224
100
AcDbEntity
  8
0
100
AcDbVertex
100
AcDbPolygonMeshVertex
 10
1.719210349999999
 20
0.6104999999999992
 30
2.319
 70
    64
  0
VERTEX
  5
65226
330
65224
100
AcDbEntity
  8
0
100
AcDbVertex
100
AcDbPolygonMeshVertex
 10
1.719210349999999
 20
0.6104999999999992
 30
2.06
 70
    64
  0
VERTEX
  5
65227
330
65224
100
AcDbEntity
  8
0
100
AcDbVertex
100
AcDbPolygonMeshVertex
 10
1.719210349999999
 20
0.6104999999999992
 30
2.06
 70
    64
  0
VERTEX
  5
65228
330
65224
100
AcDbEntity
  8
0
100
AcDbVertex
100
AcDbPolygonMeshVertex
 10
0.0462103499999999
 20
0.6104999999999992
 30
2.319
 70
    64
  0
VERTEX
  5
65229
330
65224
100
AcDbEntity
  8
0
100
AcDbVertex
100
AcDbPolygonMeshVertex
 10
0.0462103499999999
 20
0.6104999999999992
 30
2.06
 70
    64
  0
VERTEX
  5
6522A
330
65224
100
AcDbEntity
  8
0
100
AcDbVertex
100
AcDbPolygonMeshVertex
 10
0.0462103499999999
 20
0.6104999999999992
 30
2.06
 70
    64
  0
VERTEX
  5
6522B
330
65224
100
AcDbEntity
  8
0
100
AcDbVertex
100
AcDbPolygonMeshVertex
 10
0.0462103499999999
 20
0.3984999999999994
 30
2.319
 70
    64
  0
VERTEX
  5
6522C
330
65224
100
AcDbEntity
  8
0
100
AcDbVertex
100
AcDbPolygonMeshVertex
 10
0.0462103499999999
 20
0.3984999999999994
 30
2.06
 70
    64
  0
VERTEX
  5
6522D
330
65224
100
AcDbEntity
  8
0
100
AcDbVertex
100
AcDbPolygonMeshVertex
 10
0.0462103499999999
 20
0.6104999999999992
 30
2.06
 70
    64
  0
VERTEX
  5
6522E
330
65224
100
AcDbEntity
  8
0
100
AcDbVertex
100
AcDbPolygonMeshVertex
 10
1.719210349999999
 20
0.3984999999999994
 30
2.319
 70
    64
  0
VERTEX
  5
6522F
330
65224
100
AcDbEntity
  8
0
100
AcDbVertex
100
AcDbPolygonMeshVertex
 10
1.719210349999999
 20
0.3984999999999994
 30
2.06
 70
    64
  0
VERTEX
  5
65230
330
65224
100
AcDbEntity
  8
0
100
AcDbVertex
100
AcDbPolygonMeshVertex
 10
1.719210349999999
 20
0.6104999999999992
 30
2.06
 70
    64
  0
VERTEX
  5
65231
330
65224
100
AcDbEntity
  8
0
100
AcDbVertex
100
AcDbPolygonMeshVertex
 10
1.719210349999999
 20
0.3984999999999994
 30
2.319
 70
    64
  0
VERTEX
  5
65232
330
65224
100
AcDbEntity
  8
0
100
AcDbVertex
100
AcDbPolygonMeshVertex
 10
1.719210349999999
 20
0.3984999999999994
 30
2.319
 70
    64
  0
VERTEX
  5
65233
330
65224
100
AcDbEntity
  8
0
100
AcDbVertex
100
AcDbPolygonMeshVertex
 10
1.719210349999999
 20
0.6104999999999992
 30
2.319
 70
    64
  0
VERTEX
  5
65234
330
65224
100
AcDbEntity
  8
0
100
AcDbVertex
100
AcDbPolygonMeshVertex
 10
0.0462103499999999
 20
0.3984999999999994
 30
2.319
 70
    64
  0
VERTEX
  5
65235
330
65224
100
AcDbEntity
  8
0
100
AcDbVertex
100
AcDbPolygonMeshVertex
 10
0.0462103499999999
 20
0.3984999999999994
 30
2.319
 70
    64
  0
VERTEX
  5
65236
330
65224
100
AcDbEntity
  8
0
100
AcDbVertex
100
AcDbPolygonMeshVertex
 10
0.0462103499999999
 20
0.6104999999999992
 30
2.319
 70
    64
  0
SEQEND
  5
65237
330
65224
100
AcDbEntity
  8
0
  0
TEXT
  5
65238
330
458D6
100
AcDbEntity
  8
0
100
AcDbText
 39
0.0000001
 10
0.3648474264473056
 20
0.8545823768176784
 30
2.06
 40
0.0834654981097751
  1
A1
100
AcDbText
  0
TEXT
  5
65239
330
458D6
100
AcDbEntity
  8
0
100
AcDbText
 39
0.0000001
 10
1.285827712457554
 20
0.8537405107118321
 30
2.06
 40
0.0834654981097751
  1
A2
100
AcDbText
  0
LINE
  5
6523A
330
458D6
100
AcDbEntity
  8
0
100
AcDbLine
 10
0.652933741696637
 20
-1.9685
 30
-0.0000000000000003
 11
0.8636004083633036
 21
-1.9685
 31
-0.0000000000000003
  0
POLYLINE
  5
6523B
330
458D6
100
AcDbEntity
  8
0
100
AcDb3dPolyline
 66
     1
 10
0.0
 20
0.0
 30
0.0
 70
     8
  0
VERTEX
  5
6523C
330
6523B
100
AcDbEntity
  8
0
100
AcDbVertex
100
AcDb3dPolylineVertex
 10
0.652933741696637
 20
-1.9685
 30
-0.0000000000000003
 70
    32
  0
VERTEX
  5
6523D
330
6523B
100
AcDbEntity
  8
0
100
AcDbVertex
100
AcDb3dPolylineVertex
 10
0.652933741696637
 20
-2.103499999999999
 30
-0.0000000000000002
 70
    32
  0
VERTEX
  5
6523E
330
6523B
100
AcDbEntity
  8
0
100
AcDbVertex
100
AcDb3dPolylineVertex
 10
0.8636004083633036
 20
-2.103499999999999
 30
-0.0000000000000002
 70
    32
  0
VERTEX
  5
6523F
330
6523B
100
AcDbEntity
  8
0
100
AcDbVertex
100
AcDb3dPolylineVertex
 10
0.8636004083633036
 20
-1.9685
 30
-0.0000000000000003
 70
    32
  0
SEQEND
  5
65240
330
6523B
100
AcDbEntity
  8
0
  0
POLYLINE
  5
65241
330
458D6
100
AcDbEntity
  8
0
100
AcDb3dPolyline
 66
     1
 10
0.0
 20
0.0
 30
0.0
 70
     8
  0
VERTEX
  5
65242
330
65241
100
AcDbEntity
  8
0
100
AcDbVertex
100
AcDb3dPolylineVertex
 10
0.5811430580663411
 20
-1.9685
 30
0.1869999999999998
 70
    32
  0
VERTEX
  5
65243
330
65241
100
AcDbEntity
  8
0
100
AcDbVertex
100
AcDb3dPolylineVertex
 10
0.5811430580663411
 20
-2.103499999999999
 30
0.1869999999999998
 70
    32
  0
VERTEX
  5
65244
330
65241
100
AcDbEntity
  8
0
100
AcDbVertex
100
AcDb3dPolylineVertex
 10
0.7918097247330076
 20
-2.103499999999999
 30
0.1869999999999998
 70
    32
  0
VERTEX
  5
65245
330
65241
100
AcDbEntity
  8
0
100
AcDbVertex
100
AcDb3dPolylineVertex
 10
0.7918097247330076
 20
-1.9685
 30
0.1869999999999998
 70
    32
  0
SEQEND
  5
65246
330
65241
100
AcDbEntity
  8
0
  0
POLYLINE
  5
65247
330
458D6
100
AcDbEntity
  8
0
100
AcDbPolygonMesh
 66
     1
 10
0.0
 20
0.0
 30
0.0
 70
    16
 71
     6
 72
     3
  0
VERTEX
  5
65248
330
65247
100
AcDbEntity
  8
0
100
AcDbVertex
100
AcDbPolygonMeshVertex
 10
0.8538097247330069
 20
-2.1655
 30
0.1869999999999998
 70
    64
  0
VERTEX
  5
65249
330
65247
100
AcDbEntity
  8
0
100
AcDbVertex
100
AcDbPolygonMeshVertex
 10
0.8538097247330069
 20
-2.1655
 30
0.0
 70
    64
  0
VERTEX
  5
6524A
330
65247
100
AcDbEntity
  8
0
100
AcDbVertex
100
AcDbPolygonMeshVertex
 10
0.8538097247330069
 20
-2.1655
 30
0.0
 70
    64
  0
VERTEX
  5
6524B
330
65247
100
AcDbEntity
  8
0
100
AcDbVertex
100
AcDbPolygonMeshVertex
 10
0.2464763913996739
 20
-2.1655
 30
0.1869999999999998
 70
    64
  0
VERTEX
  5
6524C
330
65247
100
AcDbEntity
  8
0
100
AcDbVertex
100
AcDbPolygonMeshVertex
 10
0.2464763913996739
 20
-2.1655
 30
0.0
 70
    64
  0
VERTEX
  5
6524D
330
65247
100
AcDbEntity
  8
0
100
AcDbVertex
100
AcDbPolygonMeshVertex
 10
0.2464763913996739
 20
-2.1655
 30
0.0
 70
    64
  0
VERTEX
  5
6524E
330
65247
100
AcDbEntity
  8
0
100
AcDbVertex
100
AcDbPolygonMeshVertex
 10
0.2464763913996739
 20
-2.103499999999999
 30
0.1869999999999998
 70
    64
  0
VERTEX
  5
6524F
330
65247
100
AcDbEntity
  8
0
100
AcDbVertex
100
AcDbPolygonMeshVertex
 10
0.2464763913996739
 20
-2.103499999999999
 30
0.0
 70
    64
  0
VERTEX
  5
65250
330
65247
100
AcDbEntity
  8
0
100
AcDbVertex
100
AcDbPolygonMeshVertex
 10
0.2464763913996739
 20
-2.1655
 30
0.0
 70
    64
  0
VERTEX
  5
65251
330
65247
100
AcDbEntity
  8
0
100
AcDbVertex
100
AcDbPolygonMeshVertex
 10
0.8538097247330069
 20
-2.103499999999999
 30
0.1869999999999998
 70
    64
  0
VERTEX
  5
65252
330
65247
100
AcDbEntity
  8
0
100
AcDbVertex
100
AcDbPolygonMeshVertex
 10
0.8538097247330069
 20
-2.103499999999999
 30
0.0
 70
    64
  0
VERTEX
  5
65253
330
65247
100
AcDbEntity
  8
0
100
AcDbVertex
100
AcDbPolygonMeshVertex
 10
0.8538097247330069
 20
-2.1655
 30
0.0
 70
    64
  0
VERTEX
  5
65254
330
65247
100
AcDbEntity
  8
0
100
AcDbVertex
100
AcDbPolygonMeshVertex
 10
0.8538097247330069
 20
-2.103499999999999
 30
0.1869999999999998
 70
    64
  0
VERTEX
  5
65255
330
65247
100
AcDbEntity
  8
0
100
AcDbVertex
100
AcDbPolygonMeshVertex
 10
0.8538097247330069
 20
-2.103499999999999
 30
0.1869999999999998
 70
    64
  0
VERTEX
  5
65256
330
65247
100
AcDbEntity
  8
0
100
AcDbVertex
100
AcDbPolygonMeshVertex
 10
0.8538097247330069
 20
-2.1655
 30
0.1869999999999998
 70
    64
  0
VERTEX
  5
65257
330
65247
100
AcDbEntity
  8
0
100
AcDbVertex
100
AcDbPolygonMeshVertex
 10
0.2464763913996739
 20
-2.103499999999999
 30
0.1869999999999998
 70
    64
  0
VERTEX
  5
65258
330
65247
100
AcDbEntity
  8
0
100
AcDbVertex
100
AcDbPolygonMeshVertex
 10
0.2464763913996739
 20
-2.103499999999999
 30
0.1869999999999998
 70
    64
  0
VERTEX
  5
65259
330
65247
100
AcDbEntity
  8
0
100
AcDbVertex
100
AcDbPolygonMeshVertex
 10
0.2464763913996739
 20
-2.1655
 30
0.1869999999999998
 70
    64
  0
SEQEND
  5
6525A
330
65247
100
AcDbEntity
  8
0
  0
POLYLINE
  5
6525B
330
458D6
100
AcDbEntity
  8
0
100
AcDbPolygonMesh
 66
     1
 10
0.0
 20
0.0
 30
0.0
 70
    16
 71
     6
 72
     3
  0
VERTEX
  5
6525C
330
6525B
100
AcDbEntity
  8
0
100
AcDbVertex
100
AcDbPolygonMeshVertex
 10
0.8538097247330069
 20
-2.103499999999999
 30
0.1869999999999998
 70
    64
  0
VERTEX
  5
6525D
330
6525B
100
AcDbEntity
  8
0
100
AcDbVertex
100
AcDbPolygonMeshVertex
 10
0.8538097247330069
 20
-2.103499999999999
 30
0.0
 70
    64
  0
VERTEX
  5
6525E
330
6525B
100
AcDbEntity
  8
0
100
AcDbVertex
100
AcDbPolygonMeshVertex
 10
0.8538097247330069
 20
-2.103499999999999
 30
0.0
 70
    64
  0
VERTEX
  5
6525F
330
6525B
100
AcDbEntity
  8
0
100
AcDbVertex
100
AcDbPolygonMeshVertex
 10
0.5191430580663417
 20
-2.103499999999999
 30
0.1869999999999998
 70
    64
  0
VERTEX
  5
65260
330
6525B
100
AcDbEntity
  8
0
100
AcDbVertex
100
AcDbPolygonMeshVertex
 10
0.5191430580663417
 20
-2.103499999999999
 30
0.0
 70
    64
  0
VERTEX
  5
65261
330
6525B
100
AcDbEntity
  8
0
100
AcDbVertex
100
AcDbPolygonMeshVertex
 10
0.5191430580663417
 20
-2.103499999999999
 30
0.0
 70
    64
  0
VERTEX
  5
65262
330
6525B
100
AcDbEntity
  8
0
100
AcDbVertex
100
AcDbPolygonMeshVertex
 10
0.5191430580663417
 20
-1.9065
 30
0.1869999999999998
 70
    64
  0
VERTEX
  5
65263
330
6525B
100
AcDbEntity
  8
0
100
AcDbVertex
100
AcDbPolygonMeshVertex
 10
0.5191430580663417
 20
-1.9065
 30
0.0
 70
    64
  0
VERTEX
  5
65264
330
6525B
100
AcDbEntity
  8
0
100
AcDbVertex
100
AcDbPolygonMeshVertex
 10
0.5191430580663417
 20
-2.103499999999999
 30
0.0
 70
    64
  0
VERTEX
  5
65265
330
6525B
100
AcDbEntity
  8
0
100
AcDbVertex
100
AcDbPolygonMeshVertex
 10
0.8538097247330069
 20
-1.9065
 30
0.1869999999999998
 70
    64
  0
VERTEX
  5
65266
330
6525B
100
AcDbEntity
  8
0
100
AcDbVertex
100
AcDbPolygonMeshVertex
 10
0.8538097247330069
 20
-1.9065
 30
0.0
 70
    64
  0
VERTEX
  5
65267
330
6525B
100
AcDbEntity
  8
0
100
AcDbVertex
100
AcDbPolygonMeshVertex
 10
0.8538097247330069
 20
-2.103499999999999
 30
0.0
 70
    64
  0
VERTEX
  5
65268
330
6525B
100
AcDbEntity
  8
0
100
AcDbVertex
100
AcDbPolygonMeshVertex
 10
0.8538097247330069
 20
-1.9065
 30
0.1869999999999998
 70
    64
  0
VERTEX
  5
65269
330
6525B
100
AcDbEntity
  8
0
100
AcDbVertex
100
AcDbPolygonMeshVertex
 10
0.8538097247330069
 20
-1.9065
 30
0.1869999999999998
 70
    64
  0
VERTEX
  5
6526A
330
6525B
100
AcDbEntity
  8
0
100
AcDbVertex
100
AcDbPolygonMeshVertex
 10
0.8538097247330069
 20
-2.103499999999999
 30
0.1869999999999998
 70
    64
  0
VERTEX
  5
6526B
330
6525B
100
AcDbEntity
  8
0
100
AcDbVertex
100
AcDbPolygonMeshVertex
 10
0.5191430580663417
 20
-1.9065
 30
0.1869999999999998
 70
    64
  0
VERTEX
  5
6526C
330
6525B
100
AcDbEntity
  8
0
100
AcDbVertex
100
AcDbPolygonMeshVertex
 10
0.5191430580663417
 20
-1.9065
 30
0.1869999999999998
 70
    64
  0
VERTEX
  5
6526D
330
6525B
100
AcDbEntity
  8
0
100
AcDbVertex
100
AcDbPolygonMeshVertex
 10
0.5191430580663417
 20
-2.103499999999999
 30
0.1869999999999998
 70
    64
  0
SEQEND
  5
6526E
330
6525B
100
AcDbEntity
  8
0
  0
LINE
  5
6526F
330
458D6
100
AcDbEntity
  8
0
100
AcDbLine
 10
0.652933741696637
 20
-1.9685
 30
0.1869999999999998
 11
0.8636004083633036
 21
-1.9685
 31
0.1869999999999998
  0
POLYLINE
  5
65270
330
458D6
100
AcDbEntity
  8
0
100
AcDbPolygonMesh
 66
     1
 10
0.0
 20
0.0
 30
0.0
 70
    16
 71
     6
 72
     3
  0
VERTEX
  5
65271
330
65270
100
AcDbEntity
  8
0
100
AcDbVertex
100
AcDbPolygonMeshVertex
 10
1.765210349999999
 20
-1.685499999999999
 30
0.187
 70
    64
  0
VERTEX
  5
65272
330
65270
100
AcDbEntity
  8
0
100
AcDbVertex
100
AcDbPolygonMeshVertex
 10
1.765210349999999
 20
-1.685499999999999
 30
0.0
 70
    64
  0
VERTEX
  5
65273
330
65270
100
AcDbEntity
  8
0
100
AcDbVertex
100
AcDbPolygonMeshVertex
 10
1.765210349999999
 20
-1.685499999999999
 30
0.0
 70
    64
  0
VERTEX
  5
65274
330
65270
100
AcDbEntity
  8
0
100
AcDbVertex
100
AcDbPolygonMeshVertex
 10
0.00521035
 20
-1.685499999999999
 30
0.187
 70
    64
  0
VERTEX
  5
65275
330
65270
100
AcDbEntity
  8
0
100
AcDbVertex
100
AcDbPolygonMeshVertex
 10
0.00521035
 20
-1.685499999999999
 30
0.0
 70
    64
  0
VERTEX
  5
65276
330
65270
100
AcDbEntity
  8
0
100
AcDbVertex
100
AcDbPolygonMeshVertex
 10
0.00521035
 20
-1.685499999999999
 30
0.0
 70
    64
  0
VERTEX
  5
65277
330
65270
100
AcDbEntity
  8
0
100
AcDbVertex
100
AcDbPolygonMeshVertex
 10
0.00521035
 20
-1.480999999999999
 30
0.187
 70
    64
  0
VERTEX
  5
65278
330
65270
100
AcDbEntity
  8
0
100
AcDbVertex
100
AcDbPolygonMeshVertex
 10
0.00521035
 20
-1.480999999999999
 30
0.0
 70
    64
  0
VERTEX
  5
65279
330
65270
100
AcDbEntity
  8
0
100
AcDbVertex
100
AcDbPolygonMeshVertex
 10
0.00521035
 20
-1.685499999999999
 30
0.0
 70
    64
  0
VERTEX
  5
6527A
330
65270
100
AcDbEntity
  8
0
100
AcDbVertex
100
AcDbPolygonMeshVertex
 10
1.765210349999999
 20
-1.480999999999999
 30
0.187
 70
    64
  0
VERTEX
  5
6527B
330
65270
100
AcDbEntity
  8
0
100
AcDbVertex
100
AcDbPolygonMeshVertex
 10
1.765210349999999
 20
-1.480999999999999
 30
0.0
 70
    64
  0
VERTEX
  5
6527C
330
65270
100
AcDbEntity
  8
0
100
AcDbVertex
100
AcDbPolygonMeshVertex
 10
1.765210349999999
 20
-1.685499999999999
 30
0.0
 70
    64
  0
VERTEX
  5
6527D
330
65270
100
AcDbEntity
  8
0
100
AcDbVertex
100
AcDbPolygonMeshVertex
 10
1.765210349999999
 20
-1.480999999999999
 30
0.187
 70
    64
  0
VERTEX
  5
6527E
330
65270
100
AcDbEntity
  8
0
100
AcDbVertex
100
AcDbPolygonMeshVertex
 10
1.765210349999999
 20
-1.480999999999999
 30
0.187
 70
    64
  0
VERTEX
  5
6527F
330
65270
100
AcDbEntity
  8
0
100
AcDbVertex
100
AcDbPolygonMeshVertex
 10
1.765210349999999
 20
-1.685499999999999
 30
0.187
 70
    64
  0
VERTEX
  5
65280
330
65270
100
AcDbEntity
  8
0
100
AcDbVertex
100
AcDbPolygonMeshVertex
 10
0.00521035
 20
-1.480999999999999
 30
0.187
 70
    64
  0
VERTEX
  5
65281
330
65270
100
AcDbEntity
  8
0
100
AcDbVertex
100
AcDbPolygonMeshVertex
 10
0.00521035
 20
-1.480999999999999
 30
0.187
 70
    64
  0
VERTEX
  5
65282
330
65270
100
AcDbEntity
  8
0
100
AcDbVertex
100
AcDbPolygonMeshVertex
 10
0.00521035
 20
-1.685499999999999
 30
0.187
 70
    64
  0
SEQEND
  5
65283
330
65270
100
AcDbEntity
  8
0
  0
POLYLINE
  5
65284
330
458D6
100
AcDbEntity
  8
0
100
AcDbPolygonMesh
 66
     1
 10
0.0
 20
0.0
 30
0.0
 70
    16
 71
     6
 72
     3
  0
VERTEX
  5
65285
330
65284
100
AcDbEntity
  8
0
100
AcDbVertex
100
AcDbPolygonMeshVertex
 10
1.765210349999999
 20
0.2044999999999999
 30
0.187
 70
    64
  0
VERTEX
  5
65286
330
65284
100
AcDbEntity
  8
0
100
AcDbVertex
100
AcDbPolygonMeshVertex
 10
1.765210349999999
 20
0.2044999999999999
 30
0.0
 70
    64
  0
VERTEX
  5
65287
330
65284
100
AcDbEntity
  8
0
100
AcDbVertex
100
AcDbPolygonMeshVertex
 10
1.765210349999999
 20
0.2044999999999999
 30
0.0
 70
    64
  0
VERTEX
  5
65288
330
65284
100
AcDbEntity
  8
0
100
AcDbVertex
100
AcDbPolygonMeshVertex
 10
0.00521035
 20
0.2044999999999999
 30
0.187
 70
    64
  0
VERTEX
  5
65289
330
65284
100
AcDbEntity
  8
0
100
AcDbVertex
100
AcDbPolygonMeshVertex
 10
0.00521035
 20
0.2044999999999999
 30
0.0
 70
    64
  0
VERTEX
  5
6528A
330
65284
100
AcDbEntity
  8
0
100
AcDbVertex
100
AcDbPolygonMeshVertex
 10
0.00521035
 20
0.2044999999999999
 30
0.0
 70
    64
  0
VERTEX
  5
6528B
330
65284
100
AcDbEntity
  8
0
100
AcDbVertex
100
AcDbPolygonMeshVertex
 10
0.00521035
 20
0.0
 30
0.187
 70
    64
  0
VERTEX
  5
6528C
330
65284
100
AcDbEntity
  8
0
100
AcDbVertex
100
AcDbPolygonMeshVertex
 10
0.00521035
 20
0.0
 30
0.0
 70
    64
  0
VERTEX
  5
6528D
330
65284
100
AcDbEntity
  8
0
100
AcDbVertex
100
AcDbPolygonMeshVertex
 10
0.00521035
 20
0.2044999999999999
 30
0.0
 70
    64
  0
VERTEX
  5
6528E
330
65284
100
AcDbEntity
  8
0
100
AcDbVertex
100
AcDbPolygonMeshVertex
 10
1.765210349999999
 20
0.0
 30
0.187
 70
    64
  0
VERTEX
  5
6528F
330
65284
100
AcDbEntity
  8
0
100
AcDbVertex
100
AcDbPolygonMeshVertex
 10
1.765210349999999
 20
0.0
 30
0.0
 70
    64
  0
VERTEX
  5
65290
330
65284
100
AcDbEntity
  8
0
100
AcDbVertex
100
AcDbPolygonMeshVertex
 10
1.765210349999999
 20
0.2044999999999999
 30
0.0
 70
    64
  0
VERTEX
  5
65291
330
65284
100
AcDbEntity
  8
0
100
AcDbVertex
100
AcDbPolygonMeshVertex
 10
1.765210349999999
 20
0.0
 30
0.187
 70
    64
  0
VERTEX
  5
65292
330
65284
100
AcDbEntity
  8
0
100
AcDbVertex
100
AcDbPolygonMeshVertex
 10
1.765210349999999
 20
0.0
 30
0.187
 70
    64
  0
VERTEX
  5
65293
330
65284
100
AcDbEntity
  8
0
100
AcDbVertex
100
AcDbPolygonMeshVertex
 10
1.765210349999999
 20
0.2044999999999999
 30
0.187
 70
    64
  0
VERTEX
  5
65294
330
65284
100
AcDbEntity
  8
0
100
AcDbVertex
100
AcDbPolygonMeshVertex
 10
0.00521035
 20
0.0
 30
0.187
 70
    64
  0
VERTEX
  5
65295
330
65284
100
AcDbEntity
  8
0
100
AcDbVertex
100
AcDbPolygonMeshVertex
 10
0.00521035
 20
0.0
 30
0.187
 70
    64
  0
VERTEX
  5
65296
330
65284
100
AcDbEntity
  8
0
100
AcDbVertex
100
AcDbPolygonMeshVertex
 10
0.00521035
 20
0.2044999999999999
 30
0.187
 70
    64
  0
SEQEND
  5
65297
330
65284
100
AcDbEntity
  8
0
  0
POLYLINE
  5
65298
330
458D6
100
AcDbEntity
  8
0
100
AcDbPolygonMesh
 66
     1
 10
0.0
 20
0.0
 30
0.0
 70
    16
 71
     6
 72
     3
  0
VERTEX
  5
65299
330
65298
100
AcDbEntity
  8
0
100
AcDbVertex
100
AcDbPolygonMeshVertex
 10
0.39621035
 20
-2.081499999999999
 30
0.316
 70
    64
  0
VERTEX
  5
6529A
330
65298
100
AcDbEntity
  8
0
100
AcDbVertex
100
AcDbPolygonMeshVertex
 10
0.39621035
 20
-2.081499999999999
 30
0.0
 70
    64
  0
VERTEX
  5
6529B
330
65298
100
AcDbEntity
  8
0
100
AcDbVertex
100
AcDbPolygonMeshVertex
 10
0.39621035
 20
-2.081499999999999
 30
0.0
 70
    64
  0
VERTEX
  5
6529C
330
65298
100
AcDbEntity
  8
0
100
AcDbVertex
100
AcDbPolygonMeshVertex
 10
0.00521035
 20
-2.081499999999999
 30
0.316
 70
    64
  0
VERTEX
  5
6529D
330
65298
100
AcDbEntity
  8
0
100
AcDbVertex
100
AcDbPolygonMeshVertex
 10
0.00521035
 20
-2.081499999999999
 30
0.0
 70
    64
  0
VERTEX
  5
6529E
330
65298
100
AcDbEntity
  8
0
100
AcDbVertex
100
AcDbPolygonMeshVertex
 10
0.00521035
 20
-2.081499999999999
 30
0.0
 70
    64
  0
VERTEX
  5
6529F
330
65298
100
AcDbEntity
  8
0
100
AcDbVertex
100
AcDbPolygonMeshVertex
 10
0.00521035
 20
-1.685499999999999
 30
0.316
 70
    64
  0
VERTEX
  5
652A0
330
65298
100
AcDbEntity
  8
0
100
AcDbVertex
100
AcDbPolygonMeshVertex
 10
0.00521035
 20
-1.685499999999999
 30
0.0
 70
    64
  0
VERTEX
  5
652A1
330
65298
100
AcDbEntity
  8
0
100
AcDbVertex
100
AcDbPolygonMeshVertex
 10
0.00521035
 20
-2.081499999999999
 30
0.0
 70
    64
  0
VERTEX
  5
652A2
330
65298
100
AcDbEntity
  8
0
100
AcDbVertex
100
AcDbPolygonMeshVertex
 10
0.39621035
 20
-1.685499999999999
 30
0.316
 70
    64
  0
VERTEX
  5
652A3
330
65298
100
AcDbEntity
  8
0
100
AcDbVertex
100
AcDbPolygonMeshVertex
 10
0.39621035
 20
-1.685499999999999
 30
0.0
 70
    64
  0
VERTEX
  5
652A4
330
65298
100
AcDbEntity
  8
0
100
AcDbVertex
100
AcDbPolygonMeshVertex
 10
0.39621035
 20
-2.081499999999999
 30
0.0
 70
    64
  0
VERTEX
  5
652A5
330
65298
100
AcDbEntity
  8
0
100
AcDbVertex
100
AcDbPolygonMeshVertex
 10
0.39621035
 20
-1.685499999999999
 30
0.316
 70
    64
  0
VERTEX
  5
652A6
330
65298
100
AcDbEntity
  8
0
100
AcDbVertex
100
AcDbPolygonMeshVertex
 10
0.39621035
 20
-1.685499999999999
 30
0.316
 70
    64
  0
VERTEX
  5
652A7
330
65298
100
AcDbEntity
  8
0
100
AcDbVertex
100
AcDbPolygonMeshVertex
 10
0.39621035
 20
-2.081499999999999
 30
0.316
 70
    64
  0
VERTEX
  5
652A8
330
65298
100
AcDbEntity
  8
0
100
AcDbVertex
100
AcDbPolygonMeshVertex
 10
0.00521035
 20
-1.685499999999999
 30
0.316
 70
    64
  0
VERTEX
  5
652A9
330
65298
100
AcDbEntity
  8
0
100
AcDbVertex
100
AcDbPolygonMeshVertex
 10
0.00521035
 20
-1.685499999999999
 30
0.316
 70
    64
  0
VERTEX
  5
652AA
330
65298
100
AcDbEntity
  8
0
100
AcDbVertex
100
AcDbPolygonMeshVertex
 10
0.00521035
 20
-2.081499999999999
 30
0.316
 70
    64
  0
SEQEND
  5
652AB
330
65298
100
AcDbEntity
  8
0
  0
POINT
  5
652AC
330
458D6
100
AcDbEntity
  8
SNAP_POINTS
100
AcDbPoint
 10
0.0
 20
0.0
 30
0.0
  0
3DFACE
  5
652AD
330
458D6
100
AcDbEntity
  8
0
100
AcDbFace
 10
1.765210349999999
 20
-1.845499999999999
 30
2.06
 11
1.765210349999999
 21
-1.845499999999999
 31
2.06
 12
0.0002103500000001
 22
-1.845499999999999
 32
2.06
 13
0.0002103500000001
 23
-1.845499999999999
 33
2.06
  0
3DFACE
  5
652AE
330
458D6
100
AcDbEntity
  8
0
100
AcDbFace
 10
0.0002103500000001
 20
-1.845499999999999
 30
2.06
 11
0.0002103500000001
 21
-1.845499999999999
 31
2.06
 12
0.0002103500000001
 22
-1.845499999999999
 32
2.06
 13
0.0002103500000001
 23
0.3984999999999994
 33
2.06
  0
3DFACE
  5
652AF
330
458D6
100
AcDbEntity
  8
0
100
AcDbFace
 10
0.0002103500000001
 20
0.3984999999999994
 30
2.06
 11
0.0002103500000001
 21
-1.845499999999999
 31
2.06
 12
1.765210349999999
 22
-1.845499999999999
 32
2.06
 13
1.765210349999999
 23
0.3984999999999994
 33
2.06
  0
POLYLINE
  5
652B0
330
458D6
100
AcDbEntity
  8
0
  6
Continuous
100
AcDb3dPolyline
 66
     1
 10
0.0
 20
0.0
 30
0.0
 70
     8
  0
VERTEX
  5
652B1
330
652B0
100
AcDbEntity
  8
0
  6
Continuous
100
AcDbVertex
100
AcDb3dPolylineVertex
 10
1.765210349999999
 20
0.3984999999999994
 30
2.06
 70
    32
1001
ACAD
1000
R13OBJECT
1002
{
1005
652B0
1002
}
  0
VERTEX
  5
652B2
330
652B0
100
AcDbEntity
  8
0
  6
Continuous
100
AcDbVertex
100
AcDb3dPolylineVertex
 10
1.765210349999999
 20
-1.845500000000001
 30
2.06
 70
    32
1001
ACAD
1000
R13OBJECT
1002
{
1005
652B0
1002
}
  0
SEQEND
  5
652B3
330
652B0
100
AcDbEntity
  8
0
  6
Continuous
  0
POLYLINE
  5
652B4
330
458D6
100
AcDbEntity
  8
0
  6
Continuous
100
AcDb3dPolyline
 66
     1
 10
0.0
 20
0.0
 30
0.0
 70
     8
1001
ACAD
1000
R13OBJECT
1002
{
1005
652B0
1002
}
  0
VERTEX
  5
652B5
330
652B4
100
AcDbEntity
  8
0
  6
Continuous
100
AcDbVertex
100
AcDb3dPolylineVertex
 10
1.765210349999999
 20
-1.845500000000001
 30
2.06
 70
    32
1001
ACAD
1000
R13OBJECT
1002
{
1005
652B0
1002
}
  0
VERTEX
  5
652B6
330
652B4
100
AcDbEntity
  8
0
  6
Continuous
100
AcDbVertex
100
AcDb3dPolylineVertex
 10
0.0002103500000001
 20
-1.845500000000001
 30
2.06
 70
    32
1001
ACAD
1000
R13OBJECT
1002
{
1005
652B0
1002
}
  0
SEQEND
  5
652B7
330
652B4
100
AcDbEntity
  8
0
  6
Continuous
  0
POLYLINE
  5
652B8
330
458D6
100
AcDbEntity
  8
0
  6
Continuous
100
AcDb3dPolyline
 66
     1
 10
0.0
 20
0.0
 30
0.0
 70
     8
1001
ACAD
1000
R13OBJECT
1002
{
1005
652B0
1002
}
  0
VERTEX
  5
652B9
330
652B8
100
AcDbEntity
  8
0
  6
Continuous
100
AcDbVertex
100
AcDb3dPolylineVertex
 10
0.0002103500000001
 20
-1.845500000000001
 30
2.06
 70
    32
1001
ACAD
1000
R13OBJECT
1002
{
1005
652B0
1002
}
  0
VERTEX
  5
652BA
330
652B8
100
AcDbEntity
  8
0
  6
Continuous
100
AcDbVertex
100
AcDb3dPolylineVertex
 10
0.0002103500000001
 20
0.3984999999999994
 30
2.06
 70
    32
1001
ACAD
1000
R13OBJECT
1002
{
1005
652B0
1002
}
  0
SEQEND
  5
652BB
330
652B8
100
AcDbEntity
  8
0
  6
Continuous
  0
POLYLINE
  5
652BC
330
458D6
100
AcDbEntity
  8
0
  6
Continuous
100
AcDb3dPolyline
 66
     1
 10
0.0
 20
0.0
 30
0.0
 70
     8
1001
ACAD
1000
R13OBJECT
1002
{
1005
652B0
1002
}
  0
VERTEX
  5
652BD
330
652BC
100
AcDbEntity
  8
0
  6
Continuous
100
AcDbVertex
100
AcDb3dPolylineVertex
 10
0.0002103500000001
 20
0.3984999999999994
 30
2.06
 70
    32
1001
ACAD
1000
R13OBJECT
1002
{
1005
652B0
1002
}
  0
VERTEX
  5
652BE
330
652BC
100
AcDbEntity
  8
0
  6
Continuous
100
AcDbVertex
100
AcDb3dPolylineVertex
 10
1.765210349999999
 20
0.3984999999999994
 30
2.06
 70
    32
1001
ACAD
1000
R13OBJECT
1002
{
1005
652B0
1002
}
  0
SEQEND
  5
652BF
330
652BC
100
AcDbEntity
  8
0
  6
Continuous
  0
POLYLINE
  5
652C0
330
458D6
100
AcDbEntity
  8
0
  6
Continuous
100
AcDb3dPolyline
 66
     1
 10
0.0
 20
0.0
 30
0.0
 70
     8
  0
VERTEX
  5
652C1
330
652C0
100
AcDbEntity
  8
0
  6
Continuous
100
AcDbVertex
100
AcDb3dPolylineVertex
 10
0.0002103500000001
 20
-1.845500000000001
 30
3.082
 70
    32
1001
ACAD
1000
R13OBJECT
1002
{
1005
652C0
1002
}
  0
VERTEX
  5
652C2
330
652C0
100
AcDbEntity
  8
0
  6
Continuous
100
AcDbVertex
100
AcDb3dPolylineVertex
 10
0.0002103500000001
 20
-1.845500000000001
 30
2.06
 70
    32
1001
ACAD
1000
R13OBJECT
1002
{
1005
652C0
1002
}
  0
SEQEND
  5
652C3
330
652C0
100
AcDbEntity
  8
0
  6
Continuous
  0
POLYLINE
  5
652C4
330
458D6
100
AcDbEntity
  8
0
  6
Continuous
100
AcDb3dPolyline
 66
     1
 10
0.0
 20
0.0
 30
0.0
 70
     8
1001
ACAD
1000
R13OBJECT
1002
{
1005
652C0
1002
}
  0
VERTEX
  5
652C5
330
652C4
100
AcDbEntity
  8
0
  6
Continuous
100
AcDbVertex
100
AcDb3dPolylineVertex
 10
1.765210349999999
 20
-1.845500000000001
 30
2.06
 70
    32
1001
ACAD
1000
R13OBJECT
1002
{
1005
652C0
1002
}
  0
VERTEX
  5
652C6
330
652C4
100
AcDbEntity
  8
0
  6
Continuous
100
AcDbVertex
100
AcDb3dPolylineVertex
 10
0.0002103500000001
 20
-1.845500000000001
 30
2.06
 70
    32
1001
ACAD
1000
R13OBJECT
1002
{
1005
652C0
1002
}
  0
SEQEND
  5
652C7
330
652C4
100
AcDbEntity
  8
0
  6
Continuous
  0
POLYLINE
  5
652C8
330
458D6
100
AcDbEntity
  8
0
  6
Continuous
100
AcDb3dPolyline
 66
     1
 10
0.0
 20
0.0
 30
0.0
 70
     8
1001
ACAD
1000
R13OBJECT
1002
{
1005
652C0
1002
}
  0
VERTEX
  5
652C9
330
652C8
100
AcDbEntity
  8
0
  6
Continuous
100
AcDbVertex
100
AcDb3dPolylineVertex
 10
1.765210349999999
 20
-1.845500000000001
 30
3.082
 70
    32
1001
ACAD
1000
R13OBJECT
1002
{
1005
652C0
1002
}
  0
VERTEX
  5
652CA
330
652C8
100
AcDbEntity
  8
0
  6
Continuous
100
AcDbVertex
100
AcDb3dPolylineVertex
 10
1.765210349999999
 20
-1.845500000000001
 30
2.06
 70
    32
1001
ACAD
1000
R13OBJECT
1002
{
1005
652C0
1002
}
  0
SEQEND
  5
652CB
330
652C8
100
AcDbEntity
  8
0
  6
Continuous
  0
POLYLINE
  5
652CC
330
458D6
100
AcDbEntity
  8
0
  6
Continuous
100
AcDb3dPolyline
 66
     1
 10
0.0
 20
0.0
 30
0.0
 70
     8
1001
ACAD
1000
R13OBJECT
1002
{
1005
652C0
1002
}
  0
VERTEX
  5
652CD
330
652CC
100
AcDbEntity
  8
0
  6
Continuous
100
AcDbVertex
100
AcDb3dPolylineVertex
 10
0.0002103500000001
 20
-1.845500000000001
 30
3.082
 70
    32
1001
ACAD
1000
R13OBJECT
1002
{
1005
652C0
1002
}
  0
VERTEX
  5
652CE
330
652CC
100
AcDbEntity
  8
0
  6
Continuous
100
AcDbVertex
100
AcDb3dPolylineVertex
 10
1.765210349999999
 20
-1.845500000000001
 30
3.082
 70
    32
1001
ACAD
1000
R13OBJECT
1002
{
1005
652C0
1002
}
  0
SEQEND
  5
652CF
330
652CC
100
AcDbEntity
  8
0
  6
Continuous
  0
POLYLINE
  5
652D0
330
458D6
100
AcDbEntity
  8
0
  6
Continuous
100
AcDb3dPolyline
 66
     1
 10
0.0
 20
0.0
 30
0.0
 70
     8
  0
VERTEX
  5
652D1
330
652D0
100
AcDbEntity
  8
0
  6
Continuous
100
AcDbVertex
100
AcDb3dPolylineVertex
 10
1.765210349999999
 20
0.3984999999999994
 30
3.082
 70
    32
1001
ACAD
1000
R13OBJECT
1002
{
1005
652D0
1002
}
  0
VERTEX
  5
652D2
330
652D0
100
AcDbEntity
  8
0
  6
Continuous
100
AcDbVertex
100
AcDb3dPolylineVertex
 10
1.765210349999999
 20
0.3984999999999994
 30
2.06
 70
    32
1001
ACAD
1000
R13OBJECT
1002
{
1005
652D0
1002
}
  0
SEQEND
  5
652D3
330
652D0
100
AcDbEntity
  8
0
  6
Continuous
  0
POLYLINE
  5
652D4
330
458D6
100
AcDbEntity
  8
0
  6
Continuous
100
AcDb3dPolyline
 66
     1
 10
0.0
 20
0.0
 30
0.0
 70
     8
1001
ACAD
1000
R13OBJECT
1002
{
1005
652D0
1002
}
  0
VERTEX
  5
652D5
330
652D4
100
AcDbEntity
  8
0
  6
Continuous
100
AcDbVertex
100
AcDb3dPolylineVertex
 10
0.0002103500000001
 20
0.3984999999999994
 30
2.06
 70
    32
1001
ACAD
1000
R13OBJECT
1002
{
1005
652D0
1002
}
  0
VERTEX
  5
652D6
330
652D4
100
AcDbEntity
  8
0
  6
Continuous
100
AcDbVertex
100
AcDb3dPolylineVertex
 10
1.765210349999999
 20
0.3984999999999994
 30
2.06
 70
    32
1001
ACAD
1000
R13OBJECT
1002
{
1005
652D0
1002
}
  0
SEQEND
  5
652D7
330
652D4
100
AcDbEntity
  8
0
  6
Continuous
  0
POLYLINE
  5
652D8
330
458D6
100
AcDbEntity
  8
0
  6
Continuous
100
AcDb3dPolyline
 66
     1
 10
0.0
 20
0.0
 30
0.0
 70
     8
1001
ACAD
1000
R13OBJECT
1002
{
1005
652D0
1002
}
  0
VERTEX
  5
652D9
330
652D8
100
AcDbEntity
  8
0
  6
Continuous
100
AcDbVertex
100
AcDb3dPolylineVertex
 10
0.0002103500000001
 20
0.3984999999999994
 30
3.082
 70
    32
1001
ACAD
1000
R13OBJECT
1002
{
1005
652D0
1002
}
  0
VERTEX
  5
652DA
330
652D8
100
AcDbEntity
  8
0
  6
Continuous
100
AcDbVertex
100
AcDb3dPolylineVertex
 10
0.0002103500000001
 20
0.3984999999999994
 30
2.06
 70
    32
1001
ACAD
1000
R13OBJECT
1002
{
1005
652D0
1002
}
  0
SEQEND
  5
652DB
330
652D8
100
AcDbEntity
  8
0
  6
Continuous
  0
POLYLINE
  5
652DC
330
458D6
100
AcDbEntity
  8
0
  6
Continuous
100
AcDb3dPolyline
 66
     1
 10
0.0
 20
0.0
 30
0.0
 70
     8
1001
ACAD
1000
R13OBJECT
1002
{
1005
652D0
1002
}
  0
VERTEX
  5
652DD
330
652DC
100
AcDbEntity
  8
0
  6
Continuous
100
AcDbVertex
100
AcDb3dPolylineVertex
 10
1.765210349999999
 20
0.3984999999999994
 30
3.082
 70
    32
1001
ACAD
1000
R13OBJECT
1002
{
1005
652D0
1002
}
  0
VERTEX
  5
652DE
330
652DC
100
AcDbEntity
  8
0
  6
Continuous
100
AcDbVertex
100
AcDb3dPolylineVertex
 10
0.0002103500000001
 20
0.3984999999999994
 30
3.082
 70
    32
1001
ACAD
1000
R13OBJECT
1002
{
1005
652D0
1002
}
  0
SEQEND
  5
652DF
330
652DC
100
AcDbEntity
  8
0
  6
Continuous
  0
POLYLINE
  5
652E0
330
458D6
100
AcDbEntity
  8
0
  6
Continuous
100
AcDb3dPolyline
 66
     1
 10
0.0
 20
0.0
 30
0.0
 70
     8
  0
VERTEX
  5
652E1
330
652E0
100
AcDbEntity
  8
0
  6
Continuous
100
AcDbVertex
100
AcDb3dPolylineVertex
 10
1.765210349999999
 20
-1.845500000000001
 30
3.082
 70
    32
1001
ACAD
1000
R13OBJECT
1002
{
1005
652E0
1002
}
  0
VERTEX
  5
652E2
330
652E0
100
AcDbEntity
  8
0
  6
Continuous
100
AcDbVertex
100
AcDb3dPolylineVertex
 10
1.765210349999999
 20
-1.845500000000001
 30
2.06
 70
    32
1001
ACAD
1000
R13OBJECT
1002
{
1005
652E0
1002
}
  0
SEQEND
  5
652E3
330
652E0
100
AcDbEntity
  8
0
  6
Continuous
  0
POLYLINE
  5
652E4
330
458D6
100
AcDbEntity
  8
0
  6
Continuous
100
AcDb3dPolyline
 66
     1
 10
0.0
 20
0.0
 30
0.0
 70
     8
1001
ACAD
1000
R13OBJECT
1002
{
1005
652E0
1002
}
  0
VERTEX
  5
652E5
330
652E4
100
AcDbEntity
  8
0
  6
Continuous
100
AcDbVertex
100
AcDb3dPolylineVertex
 10
1.765210349999999
 20
0.3984999999999994
 30
2.06
 70
    32
1001
ACAD
1000
R13OBJECT
1002
{
1005
652E0
1002
}
  0
VERTEX
  5
652E6
330
652E4
100
AcDbEntity
  8
0
  6
Continuous
100
AcDbVertex
100
AcDb3dPolylineVertex
 10
1.765210349999999
 20
-1.845500000000001
 30
2.06
 70
    32
1001
ACAD
1000
R13OBJECT
1002
{
1005
652E0
1002
}
  0
SEQEND
  5
652E7
330
652E4
100
AcDbEntity
  8
0
  6
Continuous
  0
POLYLINE
  5
652E8
330
458D6
100
AcDbEntity
  8
0
  6
Continuous
100
AcDb3dPolyline
 66
     1
 10
0.0
 20
0.0
 30
0.0
 70
     8
1001
ACAD
1000
R13OBJECT
1002
{
1005
652E0
1002
}
  0
VERTEX
  5
652E9
330
652E8
100
AcDbEntity
  8
0
  6
Continuous
100
AcDbVertex
100
AcDb3dPolylineVertex
 10
1.765210349999999
 20
0.3984999999999994
 30
3.082
 70
    32
1001
ACAD
1000
R13OBJECT
1002
{
1005
652E0
1002
}
  0
VERTEX
  5
652EA
330
652E8
100
AcDbEntity
  8
0
  6
Continuous
100
AcDbVertex
100
AcDb3dPolylineVertex
 10
1.765210349999999
 20
0.3984999999999994
 30
2.06
 70
    32
1001
ACAD
1000
R13OBJECT
1002
{
1005
652E0
1002
}
  0
SEQEND
  5
652EB
330
652E8
100
AcDbEntity
  8
0
  6
Continuous
  0
POLYLINE
  5
652EC
330
458D6
100
AcDbEntity
  8
0
  6
Continuous
100
AcDb3dPolyline
 66
     1
 10
0.0
 20
0.0
 30
0.0
 70
     8
1001
ACAD
1000
R13OBJECT
1002
{
1005
652E0
1002
}
  0
VERTEX
  5
652ED
330
652EC
100
AcDbEntity
  8
0
  6
Continuous
100
AcDbVertex
100
AcDb3dPolylineVertex
 10
1.765210349999999
 20
-1.845500000000001
 30
3.082
 70
    32
1001
ACAD
1000
R13OBJECT
1002
{
1005
652E0
1002
}
  0
VERTEX
  5
652EE
330
652EC
100
AcDbEntity
  8
0
  6
Continuous
100
AcDbVertex
100
AcDb3dPolylineVertex
 10
1.765210349999999
 20
0.3984999999999994
 30
3.082
 70
    32
1001
ACAD
1000
R13OBJECT
1002
{
1005
652E0
1002
}
  0
SEQEND
  5
652EF
330
652EC
100
AcDbEntity
  8
0
  6
Continuous
  0
LINE
  5
652F0
330
458D6
100
AcDbEntity
  8
0
100
AcDbLine
 10
0.0002103500000001
 20
0.3984999999999994
 30
3.082
 11
0.0002103500000001
 21
0.3984999999999994
 31
2.06
210
-1.0
220
0.0
230
0.0
  0
LINE
  5
652F1
330
458D6
100
AcDbEntity
  8
0
100
AcDbLine
 10
0.0002103500000001
 20
0.3984999999999994
 30
3.082
 11
0.0002103500000001
 21
-1.845500000000001
 31
3.082
210
-1.0
220
0.0
230
0.0
  0
LINE
  5
652F2
330
458D6
100
AcDbEntity
  8
0
100
AcDbLine
 10
0.0002103500000001
 20
-1.845500000000001
 30
3.082
 11
0.0002103500000001
 21
-1.845500000000001
 31
2.06
210
-1.0
220
0.0
230
0.0
  0
3DFACE
  5
652F3
330
458D6
100
AcDbEntity
  8
0
100
AcDbFace
 10
1.765210349999999
 20
0.3984999999999981
 30
3.082
 11
1.765210349999999
 21
-1.845500000000001
 31
3.082
 12
0.0002103500000001
 22
-1.845500000000001
 32
3.082
 13
0.0002103500000001
 23
0.3984999999999981
 33
3.082
  0
POLYLINE
  5
652F4
330
458D6
100
AcDbEntity
  8
0
100
AcDbPolygonMesh
 66
     1
 10
0.0
 20
0.0
 30
0.0
 70
    16
 71
     6
 72
     3
  0
VERTEX
  5
652F5
330
652F4
100
AcDbEntity
  8
0
100
AcDbVertex
100
AcDbPolygonMeshVertex
 10
1.250710349999998
 20
-0.4394862069696881
 30
3.293
 70
    64
  0
VERTEX
  5
652F6
330
652F4
100
AcDbEntity
  8
0
100
AcDbVertex
100
AcDbPolygonMeshVertex
 10
1.250710349999998
 20
-0.4394862069696881
 30
3.116
 70
    64
  0
VERTEX
  5
652F7
330
652F4
100
AcDbEntity
  8
0
100
AcDbVertex
100
AcDbPolygonMeshVertex
 10
1.250710349999998
 20
-0.4394862069696881
 30
3.116
 70
    64
  0
VERTEX
  5
652F8
330
652F4
100
AcDbEntity
  8
0
100
AcDbVertex
100
AcDbPolygonMeshVertex
 10
1.081210349999998
 20
-0.4394862069696881
 30
3.293
 70
    64
  0
VERTEX
  5
652F9
330
652F4
100
AcDbEntity
  8
0
100
AcDbVertex
100
AcDbPolygonMeshVertex
 10
1.081210349999998
 20
-0.4394862069696881
 30
3.116
 70
    64
  0
VERTEX
  5
652FA
330
652F4
100
AcDbEntity
  8
0
100
AcDbVertex
100
AcDbPolygonMeshVertex
 10
1.081210349999998
 20
-0.4394862069696881
 30
3.116
 70
    64
  0
VERTEX
  5
652FB
330
652F4
100
AcDbEntity
  8
0
100
AcDbVertex
100
AcDbPolygonMeshVertex
 10
1.081210349999998
 20
-0.0864862069696884
 30
3.293
 70
    64
  0
VERTEX
  5
652FC
330
652F4
100
AcDbEntity
  8
0
100
AcDbVertex
100
AcDbPolygonMeshVertex
 10
1.081210349999998
 20
-0.0864862069696884
 30
3.116
 70
    64
  0
VERTEX
  5
652FD
330
652F4
100
AcDbEntity
  8
0
100
AcDbVertex
100
AcDbPolygonMeshVertex
 10
1.081210349999998
 20
-0.4394862069696881
 30
3.116
 70
    64
  0
VERTEX
  5
652FE
330
652F4
100
AcDbEntity
  8
0
100
AcDbVertex
100
AcDbPolygonMeshVertex
 10
1.250710349999998
 20
-0.0864862069696884
 30
3.293
 70
    64
  0
VERTEX
  5
652FF
330
652F4
100
AcDbEntity
  8
0
100
AcDbVertex
100
AcDbPolygonMeshVertex
 10
1.250710349999998
 20
-0.0864862069696884
 30
3.116
 70
    64
  0
VERTEX
  5
65300
330
652F4
100
AcDbEntity
  8
0
100
AcDbVertex
100
AcDbPolygonMeshVertex
 10
1.250710349999998
 20
-0.4394862069696881
 30
3.116
 70
    64
  0
VERTEX
  5
65301
330
652F4
100
AcDbEntity
  8
0
100
AcDbVertex
100
AcDbPolygonMeshVertex
 10
1.250710349999998
 20
-0.0864862069696884
 30
3.293
 70
    64
  0
VERTEX
  5
65302
330
652F4
100
AcDbEntity
  8
0
100
AcDbVertex
100
AcDbPolygonMeshVertex
 10
1.250710349999998
 20
-0.0864862069696884
 30
3.293
 70
    64
  0
VERTEX
  5
65303
330
652F4
100
AcDbEntity
  8
0
100
AcDbVertex
100
AcDbPolygonMeshVertex
 10
1.250710349999998
 20
-0.4394862069696881
 30
3.293
 70
    64
  0
VERTEX
  5
65304
330
652F4
100
AcDbEntity
  8
0
100
AcDbVertex
100
AcDbPolygonMeshVertex
 10
1.081210349999998
 20
-0.0864862069696884
 30
3.293
 70
    64
  0
VERTEX
  5
65305
330
652F4
100
AcDbEntity
  8
0
100
AcDbVertex
100
AcDbPolygonMeshVertex
 10
1.081210349999998
 20
-0.0864862069696884
 30
3.293
 70
    64
  0
VERTEX
  5
65306
330
652F4
100
AcDbEntity
  8
0
100
AcDbVertex
100
AcDbPolygonMeshVertex
 10
1.081210349999998
 20
-0.4394862069696881
 30
3.293
 70
    64
  0
SEQEND
  5
65307
330
652F4
100
AcDbEntity
  8
0
  0
POLYLINE
  5
65308
330
458D6
100
AcDbEntity
  8
0
100
AcDbPolygonMesh
 66
     1
 10
0.0
 20
0.0
 30
0.0
 70
    16
 71
     6
 72
     3
  0
VERTEX
  5
65309
330
65308
100
AcDbEntity
  8
0
100
AcDbVertex
100
AcDbPolygonMeshVertex
 10
1.122710349999998
 20
-0.8944862069696878
 30
3.332000000000001
 70
    64
  0
VERTEX
  5
6530A
330
65308
100
AcDbEntity
  8
0
100
AcDbVertex
100
AcDbPolygonMeshVertex
 10
1.122710349999998
 20
-0.8944862069696878
 30
3.116
 70
    64
  0
VERTEX
  5
6530B
330
65308
100
AcDbEntity
  8
0
100
AcDbVertex
100
AcDbPolygonMeshVertex
 10
1.122710349999998
 20
-0.8944862069696878
 30
3.116
 70
    64
  0
VERTEX
  5
6530C
330
65308
100
AcDbEntity
  8
0
100
AcDbVertex
100
AcDbPolygonMeshVertex
 10
0.9877103499999989
 20
-0.8944862069696878
 30
3.332000000000001
 70
    64
  0
VERTEX
  5
6530D
330
65308
100
AcDbEntity
  8
0
100
AcDbVertex
100
AcDbPolygonMeshVertex
 10
0.9877103499999989
 20
-0.8944862069696878
 30
3.116
 70
    64
  0
VERTEX
  5
6530E
330
65308
100
AcDbEntity
  8
0
100
AcDbVertex
100
AcDbPolygonMeshVertex
 10
0.9877103499999989
 20
-0.8944862069696878
 30
3.116
 70
    64
  0
VERTEX
  5
6530F
330
65308
100
AcDbEntity
  8
0
100
AcDbVertex
100
AcDbPolygonMeshVertex
 10
0.9877103499999989
 20
-0.5494862069696876
 30
3.332000000000001
 70
    64
  0
VERTEX
  5
65310
330
65308
100
AcDbEntity
  8
0
100
AcDbVertex
100
AcDbPolygonMeshVertex
 10
0.9877103499999989
 20
-0.5494862069696876
 30
3.116
 70
    64
  0
VERTEX
  5
65311
330
65308
100
AcDbEntity
  8
0
100
AcDbVertex
100
AcDbPolygonMeshVertex
 10
0.9877103499999989
 20
-0.8944862069696878
 30
3.116
 70
    64
  0
VERTEX
  5
65312
330
65308
100
AcDbEntity
  8
0
100
AcDbVertex
100
AcDbPolygonMeshVertex
 10
1.122710349999998
 20
-0.5494862069696876
 30
3.332000000000001
 70
    64
  0
VERTEX
  5
65313
330
65308
100
AcDbEntity
  8
0
100
AcDbVertex
100
AcDbPolygonMeshVertex
 10
1.122710349999998
 20
-0.5494862069696876
 30
3.116
 70
    64
  0
VERTEX
  5
65314
330
65308
100
AcDbEntity
  8
0
100
AcDbVertex
100
AcDbPolygonMeshVertex
 10
1.122710349999998
 20
-0.8944862069696878
 30
3.116
 70
    64
  0
VERTEX
  5
65315
330
65308
100
AcDbEntity
  8
0
100
AcDbVertex
100
AcDbPolygonMeshVertex
 10
1.122710349999998
 20
-0.5494862069696876
 30
3.332000000000001
 70
    64
  0
VERTEX
  5
65316
330
65308
100
AcDbEntity
  8
0
100
AcDbVertex
100
AcDbPolygonMeshVertex
 10
1.122710349999998
 20
-0.5494862069696876
 30
3.332000000000001
 70
    64
  0
VERTEX
  5
65317
330
65308
100
AcDbEntity
  8
0
100
AcDbVertex
100
AcDbPolygonMeshVertex
 10
1.122710349999998
 20
-0.8944862069696878
 30
3.332000000000001
 70
    64
  0
VERTEX
  5
65318
330
65308
100
AcDbEntity
  8
0
100
AcDbVertex
100
AcDbPolygonMeshVertex
 10
0.9877103499999989
 20
-0.5494862069696876
 30
3.332000000000001
 70
    64
  0
VERTEX
  5
65319
330
65308
100
AcDbEntity
  8
0
100
AcDbVertex
100
AcDbPolygonMeshVertex
 10
0.9877103499999989
 20
-0.5494862069696876
 30
3.332000000000001
 70
    64
  0
VERTEX
  5
6531A
330
65308
100
AcDbEntity
  8
0
100
AcDbVertex
100
AcDbPolygonMeshVertex
 10
0.9877103499999989
 20
-0.8944862069696878
 30
3.332000000000001
 70
    64
  0
SEQEND
  5
6531B
330
65308
100
AcDbEntity
  8
0
  0
3DFACE
  5
6531C
330
458D6
100
AcDbEntity
  8
0
100
AcDbFace
 10
1.765210349999999
 20
0.3984999999999981
 30
3.082
 11
1.765210349999999
 21
0.3984999999999981
 31
3.082
 12
0.0002103500000001
 22
0.3984999999999981
 32
3.082
 13
0.0002103500000001
 23
0.3984999999999981
 33
3.082
  0
TEXT
  5
6531D
330
458D6
100
AcDbEntity
  8
0
100
AcDbText
 10
0.0726275393171534
 20
0.301596169847989
 30
3.082
 40
0.0834654981097751
  1
1
100
AcDbText
  0
TEXT
  5
6531E
330
458D6
100
AcDbEntity
  8
0
100
AcDbText
 10
1.169576520998377
 20
0.304735651778393
 30
3.082
 40
0.0834654981097751
  1
L3
100
AcDbText
  0
TEXT
  5
6531F
330
458D6
100
AcDbEntity
  8
0
100
AcDbText
 10
0.7630294693613373
 20
0.3013239366769129
 30
3.082
 40
0.0834654981097751
  1
L2
100
AcDbText
  0
TEXT
  5
65320
330
458D6
100
AcDbEntity
  8
0
100
AcDbText
 10
0.3364056597455404
 20
0.3007543037421425
 30
3.082
 40
0.0834654981097751
  1
L1
100
AcDbText
  0
TEXT
  5
65321
330
458D6
100
AcDbEntity
  8
0
100
AcDbText
 10
0.5233787887662298
 20
0.299912437636296
 30
3.082
 40
0.0834654981097751
  1
3
100
AcDbText
  0
TEXT
  5
65322
330
458D6
100
AcDbEntity
  8
0
100
AcDbText
 10
0.9649127043462657
 20
0.3027354357175302
 30
3.082
 40
0.0834654981097751
  1
5
100
AcDbText
  0
TEXT
  5
65323
330
458D6
100
AcDbEntity
  8
0
100
AcDbText
 10
1.599326520998376
 20
0.304735651778393
 30
3.082
 40
0.0834654981097751
  1
L4
100
AcDbText
  0
TEXT
  5
65324
330
458D6
100
AcDbEntity
  8
0
100
AcDbText
 10
1.370118397435937
 20
0.3027354357175302
 30
3.082
 40
0.0834654981097751
  1
7
100
AcDbText
  0
POLYLINE
  5
65325
330
458D6
100
AcDbEntity
  8
0
100
AcDbPolygonMesh
 66
     1
 10
0.0
 20
0.0
 30
0.0
 70
    16
 71
     6
 72
     3
  0
VERTEX
  5
65326
330
65325
100
AcDbEntity
  8
0
100
AcDbVertex
100
AcDbPolygonMeshVertex
 10
1.27071035
 20
-1.376486206969687
 30
3.282
 70
    64
  0
VERTEX
  5
65327
330
65325
100
AcDbEntity
  8
0
100
AcDbVertex
100
AcDbPolygonMeshVertex
 10
1.27071035
 20
-1.376486206969687
 30
3.082
 70
    64
  0
VERTEX
  5
65328
330
65325
100
AcDbEntity
  8
0
100
AcDbVertex
100
AcDbPolygonMeshVertex
 10
1.27071035
 20
-1.376486206969687
 30
3.082
 70
    64
  0
VERTEX
  5
65329
330
65325
100
AcDbEntity
  8
0
100
AcDbVertex
100
AcDbPolygonMeshVertex
 10
0.4997103499999995
 20
-1.376486206969687
 30
3.282
 70
    64
  0
VERTEX
  5
6532A
330
65325
100
AcDbEntity
  8
0
100
AcDbVertex
100
AcDbPolygonMeshVertex
 10
0.4997103499999995
 20
-1.376486206969687
 30
3.082
 70
    64
  0
VERTEX
  5
6532B
330
65325
100
AcDbEntity
  8
0
100
AcDbVertex
100
AcDbPolygonMeshVertex
 10
0.4997103499999995
 20
-1.376486206969687
 30
3.082
 70
    64
  0
VERTEX
  5
6532C
330
65325
100
AcDbEntity
  8
0
100
AcDbVertex
100
AcDbPolygonMeshVertex
 10
0.4997103499999995
 20
-1.094486206969687
 30
3.282
 70
    64
  0
VERTEX
  5
6532D
330
65325
100
AcDbEntity
  8
0
100
AcDbVertex
100
AcDbPolygonMeshVertex
 10
0.4997103499999995
 20
-1.094486206969687
 30
3.082
 70
    64
  0
VERTEX
  5
6532E
330
65325
100
AcDbEntity
  8
0
100
AcDbVertex
100
AcDbPolygonMeshVertex
 10
0.4997103499999995
 20
-1.376486206969687
 30
3.082
 70
    64
  0
VERTEX
  5
6532F
330
65325
100
AcDbEntity
  8
0
100
AcDbVertex
100
AcDbPolygonMeshVertex
 10
1.27071035
 20
-1.094486206969687
 30
3.282
 70
    64
  0
VERTEX
  5
65330
330
65325
100
AcDbEntity
  8
0
100
AcDbVertex
100
AcDbPolygonMeshVertex
 10
1.27071035
 20
-1.094486206969687
 30
3.082
 70
    64
  0
VERTEX
  5
65331
330
65325
100
AcDbEntity
  8
0
100
AcDbVertex
100
AcDbPolygonMeshVertex
 10
1.27071035
 20
-1.376486206969687
 30
3.082
 70
    64
  0
VERTEX
  5
65332
330
65325
100
AcDbEntity
  8
0
100
AcDbVertex
100
AcDbPolygonMeshVertex
 10
1.27071035
 20
-1.094486206969687
 30
3.282
 70
    64
  0
VERTEX
  5
65333
330
65325
100
AcDbEntity
  8
0
100
AcDbVertex
100
AcDbPolygonMeshVertex
 10
1.27071035
 20
-1.094486206969687
 30
3.282
 70
    64
  0
VERTEX
  5
65334
330
65325
100
AcDbEntity
  8
0
100
AcDbVertex
100
AcDbPolygonMeshVertex
 10
1.27071035
 20
-1.376486206969687
 30
3.282
 70
    64
  0
VERTEX
  5
65335
330
65325
100
AcDbEntity
  8
0
100
AcDbVertex
100
AcDbPolygonMeshVertex
 10
0.4997103499999995
 20
-1.094486206969687
 30
3.282
 70
    64
  0
VERTEX
  5
65336
330
65325
100
AcDbEntity
  8
0
100
AcDbVertex
100
AcDbPolygonMeshVertex
 10
0.4997103499999995
 20
-1.094486206969687
 30
3.282
 70
    64
  0
VERTEX
  5
65337
330
65325
100
AcDbEntity
  8
0
100
AcDbVertex
100
AcDbPolygonMeshVertex
 10
0.4997103499999995
 20
-1.376486206969687
 30
3.282
 70
    64
  0
SEQEND
  5
65338
330
65325
100
AcDbEntity
  8
0
  0
POLYLINE
  5
65339
330
458D6
100
AcDbEntity
  8
0
100
AcDbPolygonMesh
 66
     1
 10
0.0
 20
0.0
 30
0.0
 70
    16
 71
     6
 72
     3
  0
VERTEX
  5
6533A
330
65339
100
AcDbEntity
  8
0
100
AcDbVertex
100
AcDbPolygonMeshVertex
 10
1.250710349999998
 20
-0.4394862069696881
 30
3.116
 70
    64
  0
VERTEX
  5
6533B
330
65339
100
AcDbEntity
  8
0
100
AcDbVertex
100
AcDbPolygonMeshVertex
 10
1.250710349999998
 20
-0.4394862069696881
 30
3.082
 70
    64
  0
VERTEX
  5
6533C
330
65339
100
AcDbEntity
  8
0
100
AcDbVertex
100
AcDbPolygonMeshVertex
 10
1.250710349999998
 20
-0.4394862069696881
 30
3.082
 70
    64
  0
VERTEX
  5
6533D
330
65339
100
AcDbEntity
  8
0
100
AcDbVertex
100
AcDbPolygonMeshVertex
 10
0.5197103499999991
 20
-0.4394862069696881
 30
3.116
 70
    64
  0
VERTEX
  5
6533E
330
65339
100
AcDbEntity
  8
0
100
AcDbVertex
100
AcDbPolygonMeshVertex
 10
0.5197103499999991
 20
-0.4394862069696881
 30
3.082
 70
    64
  0
VERTEX
  5
6533F
330
65339
100
AcDbEntity
  8
0
100
AcDbVertex
100
AcDbPolygonMeshVertex
 10
0.5197103499999991
 20
-0.4394862069696881
 30
3.082
 70
    64
  0
VERTEX
  5
65340
330
65339
100
AcDbEntity
  8
0
100
AcDbVertex
100
AcDbPolygonMeshVertex
 10
0.5197103499999991
 20
-0.0864862069696884
 30
3.116
 70
    64
  0
VERTEX
  5
65341
330
65339
100
AcDbEntity
  8
0
100
AcDbVertex
100
AcDbPolygonMeshVertex
 10
0.5197103499999991
 20
-0.0864862069696884
 30
3.082
 70
    64
  0
VERTEX
  5
65342
330
65339
100
AcDbEntity
  8
0
100
AcDbVertex
100
AcDbPolygonMeshVertex
 10
0.5197103499999991
 20
-0.4394862069696881
 30
3.082
 70
    64
  0
VERTEX
  5
65343
330
65339
100
AcDbEntity
  8
0
100
AcDbVertex
100
AcDbPolygonMeshVertex
 10
1.250710349999998
 20
-0.0864862069696884
 30
3.116
 70
    64
  0
VERTEX
  5
65344
330
65339
100
AcDbEntity
  8
0
100
AcDbVertex
100
AcDbPolygonMeshVertex
 10
1.250710349999998
 20
-0.0864862069696884
 30
3.082
 70
    64
  0
VERTEX
  5
65345
330
65339
100
AcDbEntity
  8
0
100
AcDbVertex
100
AcDbPolygonMeshVertex
 10
1.250710349999998
 20
-0.4394862069696881
 30
3.082
 70
    64
  0
VERTEX
  5
65346
330
65339
100
AcDbEntity
  8
0
100
AcDbVertex
100
AcDbPolygonMeshVertex
 10
1.250710349999998
 20
-0.0864862069696884
 30
3.116
 70
    64
  0
VERTEX
  5
65347
330
65339
100
AcDbEntity
  8
0
100
AcDbVertex
100
AcDbPolygonMeshVertex
 10
1.250710349999998
 20
-0.0864862069696884
 30
3.116
 70
    64
  0
VERTEX
  5
65348
330
65339
100
AcDbEntity
  8
0
100
AcDbVertex
100
AcDbPolygonMeshVertex
 10
1.250710349999998
 20
-0.4394862069696881
 30
3.116
 70
    64
  0
VERTEX
  5
65349
330
65339
100
AcDbEntity
  8
0
100
AcDbVertex
100
AcDbPolygonMeshVertex
 10
0.5197103499999991
 20
-0.0864862069696884
 30
3.116
 70
    64
  0
VERTEX
  5
6534A
330
65339
100
AcDbEntity
  8
0
100
AcDbVertex
100
AcDbPolygonMeshVertex
 10
0.5197103499999991
 20
-0.0864862069696884
 30
3.116
 70
    64
  0
VERTEX
  5
6534B
330
65339
100
AcDbEntity
  8
0
100
AcDbVertex
100
AcDbPolygonMeshVertex
 10
0.5197103499999991
 20
-0.4394862069696881
 30
3.116
 70
    64
  0
SEQEND
  5
6534C
330
65339
100
AcDbEntity
  8
0
  0
POLYLINE
  5
6534D
330
458D6
100
AcDbEntity
  8
0
100
AcDbPolygonMesh
 66
     1
 10
0.0
 20
0.0
 30
0.0
 70
    16
 71
     6
 72
     3
  0
VERTEX
  5
6534E
330
6534D
100
AcDbEntity
  8
0
100
AcDbVertex
100
AcDbPolygonMeshVertex
 10
0.6892103499999993
 20
-0.4394862069696881
 30
3.293
 70
    64
  0
VERTEX
  5
6534F
330
6534D
100
AcDbEntity
  8
0
100
AcDbVertex
100
AcDbPolygonMeshVertex
 10
0.6892103499999993
 20
-0.4394862069696881
 30
3.116
 70
    64
  0
VERTEX
  5
65350
330
6534D
100
AcDbEntity
  8
0
100
AcDbVertex
100
AcDbPolygonMeshVertex
 10
0.6892103499999993
 20
-0.4394862069696881
 30
3.116
 70
    64
  0
VERTEX
  5
65351
330
6534D
100
AcDbEntity
  8
0
100
AcDbVertex
100
AcDbPolygonMeshVertex
 10
0.5197103499999991
 20
-0.4394862069696881
 30
3.293
 70
    64
  0
VERTEX
  5
65352
330
6534D
100
AcDbEntity
  8
0
100
AcDbVertex
100
AcDbPolygonMeshVertex
 10
0.5197103499999991
 20
-0.4394862069696881
 30
3.116
 70
    64
  0
VERTEX
  5
65353
330
6534D
100
AcDbEntity
  8
0
100
AcDbVertex
100
AcDbPolygonMeshVertex
 10
0.5197103499999991
 20
-0.4394862069696881
 30
3.116
 70
    64
  0
VERTEX
  5
65354
330
6534D
100
AcDbEntity
  8
0
100
AcDbVertex
100
AcDbPolygonMeshVertex
 10
0.5197103499999991
 20
-0.0864862069696884
 30
3.293
 70
    64
  0
VERTEX
  5
65355
330
6534D
100
AcDbEntity
  8
0
100
AcDbVertex
100
AcDbPolygonMeshVertex
 10
0.5197103499999991
 20
-0.0864862069696884
 30
3.116
 70
    64
  0
VERTEX
  5
65356
330
6534D
100
AcDbEntity
  8
0
100
AcDbVertex
100
AcDbPolygonMeshVertex
 10
0.5197103499999991
 20
-0.4394862069696881
 30
3.116
 70
    64
  0
VERTEX
  5
65357
330
6534D
100
AcDbEntity
  8
0
100
AcDbVertex
100
AcDbPolygonMeshVertex
 10
0.6892103499999993
 20
-0.0864862069696884
 30
3.293
 70
    64
  0
VERTEX
  5
65358
330
6534D
100
AcDbEntity
  8
0
100
AcDbVertex
100
AcDbPolygonMeshVertex
 10
0.6892103499999993
 20
-0.0864862069696884
 30
3.116
 70
    64
  0
VERTEX
  5
65359
330
6534D
100
AcDbEntity
  8
0
100
AcDbVertex
100
AcDbPolygonMeshVertex
 10
0.6892103499999993
 20
-0.4394862069696881
 30
3.116
 70
    64
  0
VERTEX
  5
6535A
330
6534D
100
AcDbEntity
  8
0
100
AcDbVertex
100
AcDbPolygonMeshVertex
 10
0.6892103499999993
 20
-0.0864862069696884
 30
3.293
 70
    64
  0
VERTEX
  5
6535B
330
6534D
100
AcDbEntity
  8
0
100
AcDbVertex
100
AcDbPolygonMeshVertex
 10
0.6892103499999993
 20
-0.0864862069696884
 30
3.293
 70
    64
  0
VERTEX
  5
6535C
330
6534D
100
AcDbEntity
  8
0
100
AcDbVertex
100
AcDbPolygonMeshVertex
 10
0.6892103499999993
 20
-0.4394862069696881
 30
3.293
 70
    64
  0
VERTEX
  5
6535D
330
6534D
100
AcDbEntity
  8
0
100
AcDbVertex
100
AcDbPolygonMeshVertex
 10
0.5197103499999991
 20
-0.0864862069696884
 30
3.293
 70
    64
  0
VERTEX
  5
6535E
330
6534D
100
AcDbEntity
  8
0
100
AcDbVertex
100
AcDbPolygonMeshVertex
 10
0.5197103499999991
 20
-0.0864862069696884
 30
3.293
 70
    64
  0
VERTEX
  5
6535F
330
6534D
100
AcDbEntity
  8
0
100
AcDbVertex
100
AcDbPolygonMeshVertex
 10
0.5197103499999991
 20
-0.4394862069696881
 30
3.293
 70
    64
  0
SEQEND
  5
65360
330
6534D
100
AcDbEntity
  8
0
  0
POLYLINE
  5
65361
330
458D6
100
AcDbEntity
  8
0
100
AcDbPolygonMesh
 66
     1
 10
0.0
 20
0.0
 30
0.0
 70
    16
 71
     6
 72
     3
  0
VERTEX
  5
65362
330
65361
100
AcDbEntity
  8
0
100
AcDbVertex
100
AcDbPolygonMeshVertex
 10
0.782710349999999
 20
-0.8944862069696878
 30
3.332000000000001
 70
    64
  0
VERTEX
  5
65363
330
65361
100
AcDbEntity
  8
0
100
AcDbVertex
100
AcDbPolygonMeshVertex
 10
0.782710349999999
 20
-0.8944862069696878
 30
3.116
 70
    64
  0
VERTEX
  5
65364
330
65361
100
AcDbEntity
  8
0
100
AcDbVertex
100
AcDbPolygonMeshVertex
 10
0.782710349999999
 20
-0.8944862069696878
 30
3.116
 70
    64
  0
VERTEX
  5
65365
330
65361
100
AcDbEntity
  8
0
100
AcDbVertex
100
AcDbPolygonMeshVertex
 10
0.6477103499999993
 20
-0.8944862069696878
 30
3.332000000000001
 70
    64
  0
VERTEX
  5
65366
330
65361
100
AcDbEntity
  8
0
100
AcDbVertex
100
AcDbPolygonMeshVertex
 10
0.6477103499999993
 20
-0.8944862069696878
 30
3.116
 70
    64
  0
VERTEX
  5
65367
330
65361
100
AcDbEntity
  8
0
100
AcDbVertex
100
AcDbPolygonMeshVertex
 10
0.6477103499999993
 20
-0.8944862069696878
 30
3.116
 70
    64
  0
VERTEX
  5
65368
330
65361
100
AcDbEntity
  8
0
100
AcDbVertex
100
AcDbPolygonMeshVertex
 10
0.6477103499999993
 20
-0.5494862069696876
 30
3.332000000000001
 70
    64
  0
VERTEX
  5
65369
330
65361
100
AcDbEntity
  8
0
100
AcDbVertex
100
AcDbPolygonMeshVertex
 10
0.6477103499999993
 20
-0.5494862069696876
 30
3.116
 70
    64
  0
VERTEX
  5
6536A
330
65361
100
AcDbEntity
  8
0
100
AcDbVertex
100
AcDbPolygonMeshVertex
 10
0.6477103499999993
 20
-0.8944862069696878
 30
3.116
 70
    64
  0
VERTEX
  5
6536B
330
65361
100
AcDbEntity
  8
0
100
AcDbVertex
100
AcDbPolygonMeshVertex
 10
0.782710349999999
 20
-0.5494862069696876
 30
3.332000000000001
 70
    64
  0
VERTEX
  5
6536C
330
65361
100
AcDbEntity
  8
0
100
AcDbVertex
100
AcDbPolygonMeshVertex
 10
0.782710349999999
 20
-0.5494862069696876
 30
3.116
 70
    64
  0
VERTEX
  5
6536D
330
65361
100
AcDbEntity
  8
0
100
AcDbVertex
100
AcDbPolygonMeshVertex
 10
0.782710349999999
 20
-0.8944862069696878
 30
3.116
 70
    64
  0
VERTEX
  5
6536E
330
65361
100
AcDbEntity
  8
0
100
AcDbVertex
100
AcDbPolygonMeshVertex
 10
0.782710349999999
 20
-0.5494862069696876
 30
3.332000000000001
 70
    64
  0
VERTEX
  5
6536F
330
65361
100
AcDbEntity
  8
0
100
AcDbVertex
100
AcDbPolygonMeshVertex
 10
0.782710349999999
 20
-0.5494862069696876
 30
3.332000000000001
 70
    64
  0
VERTEX
  5
65370
330
65361
100
AcDbEntity
  8
0
100
AcDbVertex
100
AcDbPolygonMeshVertex
 10
0.782710349999999
 20
-0.8944862069696878
 30
3.332000000000001
 70
    64
  0
VERTEX
  5
65371
330
65361
100
AcDbEntity
  8
0
100
AcDbVertex
100
AcDbPolygonMeshVertex
 10
0.6477103499999993
 20
-0.5494862069696876
 30
3.332000000000001
 70
    64
  0
VERTEX
  5
65372
330
65361
100
AcDbEntity
  8
0
100
AcDbVertex
100
AcDbPolygonMeshVertex
 10
0.6477103499999993
 20
-0.5494862069696876
 30
3.332000000000001
 70
    64
  0
VERTEX
  5
65373
330
65361
100
AcDbEntity
  8
0
100
AcDbVertex
100
AcDbPolygonMeshVertex
 10
0.6477103499999993
 20
-0.8944862069696878
 30
3.332000000000001
 70
    64
  0
SEQEND
  5
65374
330
65361
100
AcDbEntity
  8
0
  0
CIRCLE
  5
65375
330
458D6
100
AcDbEntity
  8
0
100
AcDbCircle
 10
0.6678353499999999
 20
-1.587879991879503
 30
3.082
 40
0.138
  0
TEXT
  5
65376
330
458D6
100
AcDbEntity
  8
0
100
AcDbText
 10
0.7497317561352759
 20
-1.81957131621648
 30
3.082
 40
0.0834654981097751
  1
T2
100
AcDbText
  0
TEXT
  5
65377
330
458D6
100
AcDbEntity
  8
0
100
AcDbText
 10
0.9687825070885658
 20
-1.820413182322326
 30
3.082
 40
0.0834654981097751
  1
6
100
AcDbText
  0
CIRCLE
  5
65378
330
458D6
100
AcDbEntity
  8
0
100
AcDbCircle
 10
1.097585349999999
 20
-1.587879991879503
 30
3.082
 40
0.138
  0
POLYLINE
  5
65379
330
458D6
100
AcDbEntity
  8
0
100
AcDbPolygonMesh
 66
     1
 10
0.0
 20
0.0
 30
0.0
 70
    16
 71
     6
 72
     3
  0
VERTEX
  5
6537A
330
65379
100
AcDbEntity
  8
0
100
AcDbVertex
100
AcDbPolygonMeshVertex
 10
1.122710349999998
 20
-0.8944862069696878
 30
3.116
 70
    64
  0
VERTEX
  5
6537B
330
65379
100
AcDbEntity
  8
0
100
AcDbVertex
100
AcDbPolygonMeshVertex
 10
1.122710349999998
 20
-0.8944862069696878
 30
3.082
 70
    64
  0
VERTEX
  5
6537C
330
65379
100
AcDbEntity
  8
0
100
AcDbVertex
100
AcDbPolygonMeshVertex
 10
1.122710349999998
 20
-0.8944862069696878
 30
3.082
 70
    64
  0
VERTEX
  5
6537D
330
65379
100
AcDbEntity
  8
0
100
AcDbVertex
100
AcDbPolygonMeshVertex
 10
0.6477103499999993
 20
-0.8944862069696878
 30
3.116
 70
    64
  0
VERTEX
  5
6537E
330
65379
100
AcDbEntity
  8
0
100
AcDbVertex
100
AcDbPolygonMeshVertex
 10
0.6477103499999993
 20
-0.8944862069696878
 30
3.082
 70
    64
  0
VERTEX
  5
6537F
330
65379
100
AcDbEntity
  8
0
100
AcDbVertex
100
AcDbPolygonMeshVertex
 10
0.6477103499999993
 20
-0.8944862069696878
 30
3.082
 70
    64
  0
VERTEX
  5
65380
330
65379
100
AcDbEntity
  8
0
100
AcDbVertex
100
AcDbPolygonMeshVertex
 10
0.6477103499999993
 20
-0.5494862069696876
 30
3.116
 70
    64
  0
VERTEX
  5
65381
330
65379
100
AcDbEntity
  8
0
100
AcDbVertex
100
AcDbPolygonMeshVertex
 10
0.6477103499999993
 20
-0.5494862069696876
 30
3.082
 70
    64
  0
VERTEX
  5
65382
330
65379
100
AcDbEntity
  8
0
100
AcDbVertex
100
AcDbPolygonMeshVertex
 10
0.6477103499999993
 20
-0.8944862069696878
 30
3.082
 70
    64
  0
VERTEX
  5
65383
330
65379
100
AcDbEntity
  8
0
100
AcDbVertex
100
AcDbPolygonMeshVertex
 10
1.122710349999998
 20
-0.5494862069696876
 30
3.116
 70
    64
  0
VERTEX
  5
65384
330
65379
100
AcDbEntity
  8
0
100
AcDbVertex
100
AcDbPolygonMeshVertex
 10
1.122710349999998
 20
-0.5494862069696876
 30
3.082
 70
    64
  0
VERTEX
  5
65385
330
65379
100
AcDbEntity
  8
0
100
AcDbVertex
100
AcDbPolygonMeshVertex
 10
1.122710349999998
 20
-0.8944862069696878
 30
3.082
 70
    64
  0
VERTEX
  5
65386
330
65379
100
AcDbEntity
  8
0
100
AcDbVertex
100
AcDbPolygonMeshVertex
 10
1.122710349999998
 20
-0.5494862069696876
 30
3.116
 70
    64
  0
VERTEX
  5
65387
330
65379
100
AcDbEntity
  8
0
100
AcDbVertex
100
AcDbPolygonMeshVertex
 10
1.122710349999998
 20
-0.5494862069696876
 30
3.116
 70
    64
  0
VERTEX
  5
65388
330
65379
100
AcDbEntity
  8
0
100
AcDbVertex
100
AcDbPolygonMeshVertex
 10
1.122710349999998
 20
-0.8944862069696878
 30
3.116
 70
    64
  0
VERTEX
  5
65389
330
65379
100
AcDbEntity
  8
0
100
AcDbVertex
100
AcDbPolygonMeshVertex
 10
0.6477103499999993
 20
-0.5494862069696876
 30
3.116
 70
    64
  0
VERTEX
  5
6538A
330
65379
100
AcDbEntity
  8
0
100
AcDbVertex
100
AcDbPolygonMeshVertex
 10
0.6477103499999993
 20
-0.5494862069696876
 30
3.116
 70
    64
  0
VERTEX
  5
6538B
330
65379
100
AcDbEntity
  8
0
100
AcDbVertex
100
AcDbPolygonMeshVertex
 10
0.6477103499999993
 20
-0.8944862069696878
 30
3.116
 70
    64
  0
SEQEND
  5
6538C
330
65379
100
AcDbEntity
  8
0
  0
TEXT
  5
6538D
330
458D6
100
AcDbEntity
  8
0
100
AcDbText
 10
1.168754526302742
 20
-1.81900168328171
 30
3.082
 40
0.0834654981097751
  1
T3
100
AcDbText
  0
TEXT
  5
6538E
330
458D6
100
AcDbEntity
  8
0
100
AcDbText
 10
0.3250220558396814
 20
-1.817524560975508
 30
3.082
 40
0.0834654981097751
  1
T1
100
AcDbText
  0
CIRCLE
  5
6538F
330
458D6
100
AcDbEntity
  8
0
100
AcDbCircle
 10
0.2380853499999995
 20
-1.587879991879503
 30
3.082
 40
0.138
  0
TEXT
  5
65390
330
458D6
100
AcDbEntity
  8
0
100
AcDbText
 10
0.080568931031785
 20
-1.821552448191868
 30
3.082
 40
0.0834654981097751
  1
2
100
AcDbText
  0
TEXT
  5
65391
330
458D6
100
AcDbEntity
  8
0
100
AcDbText
 10
1.598504526302742
 20
-1.81900168328171
 30
3.082
 40
0.0834654981097751
  1
T4
100
AcDbText
  0
TEXT
  5
65392
330
458D6
100
AcDbEntity
  8
0
100
AcDbText
 10
1.398532507088566
 20
-1.820413182322326
 30
3.082
 40
0.0834654981097751
  1
8
100
AcDbText
  0
CIRCLE
  5
65393
330
458D6
100
AcDbEntity
  8
0
100
AcDbCircle
 10
1.527335349999999
 20
-1.587879991879503
 30
3.082
 40
0.138
  0
LWPOLYLINE
  5
65394
330
458D6
100
AcDbEntity
  8
0
100
AcDbPolyline
 90
        2
 70
     0
 43
0.0
 38
2.06
 10
0.0002103500000001
 20
-1.845500000000001
 10
0.0002103500000001
 20
0.3984999999999994
  0
POLYLINE
  5
65395
330
458D6
100
AcDbEntity
  8
0
100
AcDbPolygonMesh
 66
     1
 10
0.0
 20
0.0
 30
0.0
 70
    16
 71
     6
 72
     3
  0
VERTEX
  5
65396
330
65395
100
AcDbEntity
  8
0
100
AcDbVertex
100
AcDbPolygonMeshVertex
 10
1.765210349999999
 20
-1.845499999999999
 30
3.082
 70
    64
  0
VERTEX
  5
65397
330
65395
100
AcDbEntity
  8
0
100
AcDbVertex
100
AcDbPolygonMeshVertex
 10
1.765210349999999
 20
-1.845499999999999
 30
2.06
 70
    64
  0
VERTEX
  5
65398
330
65395
100
AcDbEntity
  8
0
100
AcDbVertex
100
AcDbPolygonMeshVertex
 10
1.765210349999999
 20
-1.845499999999999
 30
2.06
 70
    64
  0
VERTEX
  5
65399
330
65395
100
AcDbEntity
  8
0
100
AcDbVertex
100
AcDbPolygonMeshVertex
 10
0.0002103500000001
 20
-1.845500000000001
 30
3.082
 70
    64
  0
VERTEX
  5
6539A
330
65395
100
AcDbEntity
  8
0
100
AcDbVertex
100
AcDbPolygonMeshVertex
 10
0.0002103500000001
 20
-1.845500000000001
 30
2.06
 70
    64
  0
VERTEX
  5
6539B
330
65395
100
AcDbEntity
  8
0
100
AcDbVertex
100
AcDbPolygonMeshVertex
 10
0.0002103500000001
 20
-1.845500000000001
 30
2.06
 70
    64
  0
VERTEX
  5
6539C
330
65395
100
AcDbEntity
  8
0
100
AcDbVertex
100
AcDbPolygonMeshVertex
 10
0.0002103499999984
 20
0.3984999999999994
 30
3.082
 70
    64
  0
VERTEX
  5
6539D
330
65395
100
AcDbEntity
  8
0
100
AcDbVertex
100
AcDbPolygonMeshVertex
 10
0.0002103499999984
 20
0.3984999999999994
 30
2.06
 70
    64
  0
VERTEX
  5
6539E
330
65395
100
AcDbEntity
  8
0
100
AcDbVertex
100
AcDbPolygonMeshVertex
 10
0.0002103500000001
 20
-1.845500000000001
 30
2.06
 70
    64
  0
VERTEX
  5
6539F
330
65395
100
AcDbEntity
  8
0
100
AcDbVertex
100
AcDbPolygonMeshVertex
 10
1.765210349999998
 20
0.3985000000000007
 30
3.082
 70
    64
  0
VERTEX
  5
653A0
330
65395
100
AcDbEntity
  8
0
100
AcDbVertex
100
AcDbPolygonMeshVertex
 10
1.765210349999998
 20
0.3985000000000007
 30
2.06
 70
    64
  0
VERTEX
  5
653A1
330
65395
100
AcDbEntity
  8
0
100
AcDbVertex
100
AcDbPolygonMeshVertex
 10
1.765210349999999
 20
-1.845499999999999
 30
2.06
 70
    64
  0
VERTEX
  5
653A2
330
65395
100
AcDbEntity
  8
0
100
AcDbVertex
100
AcDbPolygonMeshVertex
 10
1.765210349999998
 20
0.3985000000000007
 30
3.082
 70
    64
  0
VERTEX
  5
653A3
330
65395
100
AcDbEntity
  8
0
100
AcDbVertex
100
AcDbPolygonMeshVertex
 10
1.765210349999998
 20
0.3985000000000007
 30
3.082
 70
    64
  0
VERTEX
  5
653A4
330
65395
100
AcDbEntity
  8
0
100
AcDbVertex
100
AcDbPolygonMeshVertex
 10
1.765210349999999
 20
-1.845499999999999
 30
3.082
 70
    64
  0
VERTEX
  5
653A5
330
65395
100
AcDbEntity
  8
0
100
AcDbVertex
100
AcDbPolygonMeshVertex
 10
0.0002103499999984
 20
0.3984999999999994
 30
3.082
 70
    64
  0
VERTEX
  5
653A6
330
65395
100
AcDbEntity
  8
0
100
AcDbVertex
100
AcDbPolygonMeshVertex
 10
0.0002103499999984
 20
0.3984999999999994
 30
3.082
 70
    64
  0
VERTEX
  5
653A7
330
65395
100
AcDbEntity
  8
0
100
AcDbVertex
100
AcDbPolygonMeshVertex
 10
0.0002103500000001
 20
-1.845500000000001
 30
3.082
 70
    64
  0
SEQEND
  5
653A8
330
65395
100
AcDbEntity
  8
0
  0
POLYLINE
  5
653A9
330
458D6
100
AcDbEntity
  8
0
100
AcDb3dPolyline
 66
     1
 10
0.0
 20
0.0
 30
0.0
 70
     8
  0
VERTEX
  5
653AA
330
653A9
100
AcDbEntity
  8
0
100
AcDbVertex
100
AcDb3dPolylineVertex
 10
1.765420699403541
 20
-0.6404999999999999
 30
1.592
 70
    32
  0
VERTEX
  5
653AB
330
653A9
100
AcDbEntity
  8
0
100
AcDbVertex
100
AcDb3dPolylineVertex
 10
1.765420699403541
 20
-0.6404999999999999
 30
2.165
 70
    32
  0
VERTEX
  5
653AC
330
653A9
100
AcDbEntity
  8
0
100
AcDbVertex
100
AcDb3dPolylineVertex
 10
1.765420699403541
 20
-0.8064999999999997
 30
2.165
 70
    32
  0
VERTEX
  5
653AD
330
653A9
100
AcDbEntity
  8
0
100
AcDbVertex
100
AcDb3dPolylineVertex
 10
1.765420699403541
 20
-0.8065000000000001
 30
1.592
 70
    32
  0
VERTEX
  5
653AE
330
653A9
100
AcDbEntity
  8
0
100
AcDbVertex
100
AcDb3dPolylineVertex
 10
1.765420699403541
 20
-0.6404999999999999
 30
1.592
 70
    32
  0
SEQEND
  5
653AF
330
653A9
100
AcDbEntity
  8
0
  0
LINE
  5
653B0
330
458D6
100
AcDbEntity
  8
0
100
AcDbLine
 10
1.765420699403541
 20
-0.8065000000000001
 30
1.8785
 11
1.765420699403541
 21
-0.6404999999999999
 31
1.8785
  0
LINE
  5
653B1
330
458D6
100
AcDbEntity
  8
0
100
AcDbLine
 10
1.765420699403541
 20
-0.8065000000000001
 30
2.0685
 11
1.765420699403541
 21
-0.6404999999999999
 31
2.0685
  0
POINT
  5
653B2
330
458D6
100
AcDbEntity
  8
SNAP_POINTS
100
AcDbPoint
 10
0.8852103499999991
 20
-0.7219862069696877
 30
3.116
  0
POINT
  5
653B3
330
458D6
100
AcDbEntity
  8
SNAP_POINTS
100
AcDbPoint
 10
0.0000000005964589
 20
-0.7735000000000002
 30
2.0685
  0
POINT
  5
653B4
330
458D6
100
AcDbEntity
  8
SNAP_POINTS
100
AcDbPoint
 10
1.765420699403541
 20
-0.6734999999999996
 30
2.0685
  0
LINE
  5
653B5
330
458D6
100
AcDbEntity
  8
0
100
AcDbLine
 10
0.3877103499999985
 20
0.9585000000000004
 30
1.839
 11
0.3877103499999985
 21
0.9585000000000004
 31
1.639
  0
LINE
  5
653B6
330
458D6
100
AcDbEntity
  8
0
100
AcDbLine
 10
0.7047103499999987
 20
0.9585000000000004
 30
1.639
 11
0.3877103499999985
 21
0.9585000000000004
 31
1.639
  0
POINT
  5
653B7
330
458D6
100
AcDbEntity
  8
SNAP_POINTS
100
AcDbPoint
 10
0.7047103499999987
 20
0.9585000000000004
 30
1.639
  0
LINE
  5
653B8
330
458D6
100
AcDbEntity
  8
0
100
AcDbLine
 10
0.7047103499999987
 20
0.9585000000000004
 30
1.839
 11
0.7047103499999987
 21
0.9585000000000004
 31
1.639
  0
LINE
  5
653B9
330
458D6
100
AcDbEntity
  8
0
100
AcDbLine
 10
1.065710349999999
 20
0.9585000000000004
 30
1.639
 11
1.382710349999999
 21
0.9585000000000004
 31
1.639
  0
LINE
  5
653BA
330
458D6
100
AcDbEntity
  8
0
100
AcDbLine
 10
1.382710349999999
 20
0.9585000000000004
 30
1.839
 11
1.382710349999999
 21
0.9585000000000004
 31
1.639
  0
LINE
  5
653BB
330
458D6
100
AcDbEntity
  8
0
100
AcDbLine
 10
1.065710349999999
 20
0.9585000000000004
 30
1.839
 11
1.382710349999999
 21
0.9585000000000004
 31
1.839
  0
LINE
  5
653BC
330
458D6
100
AcDbEntity
  8
0
100
AcDbLine
 10
1.065710349999999
 20
0.9585000000000004
 30
1.839
 11
1.065710349999999
 21
0.9585000000000004
 31
1.639
  0
LINE
  5
653BD
330
458D6
100
AcDbEntity
  8
0
100
AcDbLine
 10
0.7047103499999987
 20
0.9585000000000004
 30
1.839
 11
0.3877103499999985
 21
0.9585000000000004
 31
1.839
  0
POINT
  5
653BE
330
458D6
100
AcDbEntity
  8
DIMS-MTG-HOLES
100
AcDbPoint
 10
0.1912103499999991
 20
-1.934499999999999
 30
0.0
  0
POINT
  5
653BF
330
458D6
100
AcDbEntity
  8
DIMS-MTG-HOLES
100
AcDbPoint
 10
1.571210349999998
 20
0.4255
 30
0.0
  0
LWPOLYLINE
  5
653C0
330
458D6
100
AcDbEntity
  8
0
100
AcDbPolyline
 90
        6
 70
     0
 43
0.0
 38
3.082
 10
0.2580853499999995
 20
-1.451336958369916
 10
0.2580853499999995
 20
-1.567879991879503
 10
0.3180853499999995
 20
-1.567879991879504
 10
0.3180853499999994
 20
-1.607879991879503
 10
0.2580853499999995
 20
-1.607879991879503
 10
0.2580853499999995
 20
-1.724423025389089
  0
LWPOLYLINE
  5
653C1
330
458D6
100
AcDbEntity
  8
0
100
AcDbPolyline
 90
        6
 70
     0
 43
0.0
 38
3.082
 10
0.2180853499999995
 20
-1.451336958369916
 10
0.2180853499999995
 20
-1.567879991879503
 10
0.1580853499999995
 20
-1.567879991879504
 10
0.1580853499999996
 20
-1.607879991879503
 10
0.2180853499999995
 20
-1.607879991879503
 10
0.2180853499999995
 20
-1.724423025389089
  0
LWPOLYLINE
  5
653C2
330
458D6
100
AcDbEntity
  8
0
100
AcDbPolyline
 90
        6
 70
     0
 43
0.0
 38
3.082
 10
0.6878353499999999
 20
-1.451336958369916
 10
0.6878353499999999
 20
-1.567879991879503
 10
0.7478353499999998
 20
-1.567879991879504
 10
0.7478353499999998
 20
-1.607879991879503
 10
0.6878353499999999
 20
-1.607879991879503
 10
0.6878353499999999
 20
-1.724423025389089
  0
LWPOLYLINE
  5
653C3
330
458D6
100
AcDbEntity
  8
0
100
AcDbPolyline
 90
        6
 70
     0
 43
0.0
 38
3.082
 10
0.6478353499999998
 20
-1.451336958369916
 10
0.6478353499999998
 20
-1.567879991879503
 10
0.5878353499999998
 20
-1.567879991879504
 10
0.5878353499999999
 20
-1.607879991879503
 10
0.6478353499999998
 20
-1.607879991879503
 10
0.6478353499999998
 20
-1.724423025389089
  0
LWPOLYLINE
  5
653C4
330
458D6
100
AcDbEntity
  8
0
100
AcDbPolyline
 90
        6
 70
     0
 43
0.0
 38
3.082
 10
1.117585349999999
 20
-1.451336958369916
 10
1.117585349999999
 20
-1.567879991879503
 10
1.177585349999999
 20
-1.567879991879504
 10
1.177585349999999
 20
-1.607879991879503
 10
1.117585349999999
 20
-1.607879991879503
 10
1.117585349999999
 20
-1.724423025389089
  0
LWPOLYLINE
  5
653C5
330
458D6
100
AcDbEntity
  8
0
100
AcDbPolyline
 90
        6
 70
     0
 43
0.0
 38
3.082
 10
1.077585349999999
 20
-1.451336958369916
 10
1.077585349999999
 20
-1.567879991879503
 10
1.017585349999999
 20
-1.567879991879504
 10
1.017585349999999
 20
-1.607879991879503
 10
1.077585349999999
 20
-1.607879991879503
 10
1.077585349999999
 20
-1.724423025389089
  0
LWPOLYLINE
  5
653C6
330
458D6
100
AcDbEntity
  8
0
100
AcDbPolyline
 90
        6
 70
     0
 43
0.0
 38
3.082
 10
1.547335349999999
 20
-1.451336958369916
 10
1.547335349999999
 20
-1.567879991879503
 10
1.60733535
 20
-1.567879991879504
 10
1.607335349999999
 20
-1.607879991879503
 10
1.547335349999999
 20
-1.607879991879503
 10
1.547335349999999
 20
-1.724423025389089
  0
LWPOLYLINE
  5
653C7
330
458D6
100
AcDbEntity
  8
0
100
AcDbPolyline
 90
        6
 70
     0
 43
0.0
 38
3.082
 10
1.507335349999999
 20
-1.451336958369916
 10
1.507335349999999
 20
-1.567879991879503
 10
1.447335349999999
 20
-1.567879991879504
 10
1.447335349999999
 20
-1.607879991879503
 10
1.507335349999999
 20
-1.607879991879503
 10
1.507335349999999
 20
-1.724423025389089
  0
CIRCLE
  5
653C8
330
458D6
100
AcDbEntity
  8
0
100
AcDbCircle
 10
1.527335349999999
 20
0.1549075779401257
 30
3.082
 40
0.138
  0
CIRCLE
  5
653C9
330
458D6
100
AcDbEntity
  8
0
100
AcDbCircle
 10
0.6678353499999999
 20
0.1549075779401257
 30
3.082
 40
0.138
  0
LWPOLYLINE
  5
653CA
330
458D6
100
AcDbEntity
  8
0
100
AcDbPolyline
 90
        6
 70
     0
 43
0.0
 38
3.082
 10
0.6478353499999998
 20
0.2914506114497133
 10
0.6478353499999998
 20
0.1749075779401257
 10
0.5878353499999998
 20
0.1749075779401255
 10
0.5878353499999999
 20
0.1349075779401259
 10
0.6478353499999998
 20
0.1349075779401259
 10
0.6478353499999998
 20
0.0183645444305398
  0
LWPOLYLINE
  5
653CB
330
458D6
100
AcDbEntity
  8
0
100
AcDbPolyline
 90
        6
 70
     0
 43
0.0
 38
3.082
 10
0.6878353499999999
 20
0.2914506114497133
 10
0.6878353499999999
 20
0.1749075779401257
 10
0.7478353499999998
 20
0.1749075779401255
 10
0.7478353499999998
 20
0.1349075779401259
 10
0.6878353499999999
 20
0.1349075779401259
 10
0.6878353499999999
 20
0.0183645444305398
  0
LWPOLYLINE
  5
653CC
330
458D6
100
AcDbEntity
  8
0
100
AcDbPolyline
 90
        6
 70
     0
 43
0.0
 38
3.082
 10
1.077585349999999
 20
0.2914506114497133
 10
1.077585349999999
 20
0.1749075779401257
 10
1.017585349999999
 20
0.1749075779401255
 10
1.017585349999999
 20
0.1349075779401259
 10
1.077585349999999
 20
0.1349075779401259
 10
1.077585349999999
 20
0.0183645444305398
  0
CIRCLE
  5
653CD
330
458D6
100
AcDbEntity
  8
0
100
AcDbCircle
 10
1.097585349999999
 20
0.1549075779401257
 30
3.082
 40
0.138
  0
LWPOLYLINE
  5
653CE
330
458D6
100
AcDbEntity
  8
0
100
AcDbPolyline
 90
        6
 70
     0
 43
0.0
 38
3.082
 10
1.117585349999999
 20
0.2914506114497133
 10
1.117585349999999
 20
0.1749075779401257
 10
1.177585349999999
 20
0.1749075779401255
 10
1.177585349999999
 20
0.1349075779401259
 10
1.117585349999999
 20
0.1349075779401259
 10
1.117585349999999
 20
0.0183645444305398
  0
LWPOLYLINE
  5
653CF
330
458D6
100
AcDbEntity
  8
0
100
AcDbPolyline
 90
        6
 70
     0
 43
0.0
 38
3.082
 10
1.507335349999999
 20
0.2914506114497133
 10
1.507335349999999
 20
0.1749075779401257
 10
1.447335349999999
 20
0.1749075779401255
 10
1.447335349999999
 20
0.1349075779401259
 10
1.507335349999999
 20
0.1349075779401259
 10
1.507335349999999
 20
0.0183645444305398
  0
LWPOLYLINE
  5
653D0
330
458D6
100
AcDbEntity
  8
0
100
AcDbPolyline
 90
        6
 70
     0
 43
0.0
 38
3.082
 10
1.547335349999999
 20
0.2914506114497133
 10
1.547335349999999
 20
0.1749075779401257
 10
1.60733535
 20
0.1749075779401255
 10
1.607335349999999
 20
0.1349075779401259
 10
1.547335349999999
 20
0.1349075779401259
 10
1.547335349999999
 20
0.0183645444305398
  0
LWPOLYLINE
  5
653D1
330
458D6
100
AcDbEntity
  8
0
100
AcDbPolyline
 90
        6
 70
     0
 43
0.0
 38
3.082
 10
0.2580853499999995
 20
0.2914506114497133
 10
0.2580853499999995
 20
0.1749075779401257
 10
0.3180853499999995
 20
0.1749075779401255
 10
0.3180853499999994
 20
0.1349075779401259
 10
0.2580853499999995
 20
0.1349075779401259
 10
0.2580853499999995
 20
0.0183645444305398
  0
CIRCLE
  5
653D2
330
458D6
100
AcDbEntity
  8
0
100
AcDbCircle
 10
0.2380853499999995
 20
0.1549075779401257
 30
3.082
 40
0.138
  0
LWPOLYLINE
  5
653D3
330
458D6
100
AcDbEntity
  8
0
100
AcDbPolyline
 90
        6
 70
     0
 43
0.0
 38
3.082
 10
0.2180853499999995
 20
0.2914506114497133
 10
0.2180853499999995
 20
0.1749075779401257
 10
0.1580853499999995
 20
0.1749075779401255
 10
0.1580853499999996
 20
0.1349075779401259
 10
0.2180853499999995
 20
0.1349075779401259
 10
0.2180853499999995
 20
0.0183645444305398
  0
LWPOLYLINE
  5
653D4
330
458D6
100
AcDbEntity
  8
0
100
AcDbPolyline
 90
        6
 70
     0
 43
0.0
 38
2.06
 10
0.5662103499999969
 20
0.8583215956619961
 10
0.5662103499999969
 20
0.7599999999999998
 10
0.6262103499999969
 20
0.7599999999999996
 10
0.6262103499999967
 20
0.72
 10
0.5662103499999969
 20
0.72
 10
0.5662103499999969
 20
0.6216784043380116
  0
LWPOLYLINE
  5
653D5
330
458D6
100
AcDbEntity
  8
0
100
AcDbPolyline
 90
        6
 70
     0
 43
0.0
 38
2.06
 10
0.5262103499999969
 20
0.8583215956619879
 10
0.5262103499999969
 20
0.7599999999999998
 10
0.4662103499999968
 20
0.7599999999999996
 10
0.4662103499999969
 20
0.72
 10
0.5262103499999969
 20
0.72
 10
0.5262103499999969
 20
0.6216784043380034
  0
LWPOLYLINE
  5
653D6
330
458D6
100
AcDbEntity
  8
0
100
AcDbPolyline
 90
        6
 70
     0
 43
0.0
 38
2.06
 10
1.204210350000001
 20
0.8583215956619879
 10
1.204210350000001
 20
0.7599999999999998
 10
1.144210350000001
 20
0.7599999999999996
 10
1.144210350000001
 20
0.72
 10
1.204210350000001
 20
0.72
 10
1.204210350000001
 20
0.6216784043380034
  0
LWPOLYLINE
  5
653D7
330
458D6
100
AcDbEntity
  8
0
100
AcDbPolyline
 90
        6
 70
     0
 43
0.0
 38
2.06
 10
1.244210350000001
 20
0.8583215956619961
 10
1.244210350000001
 20
0.7599999999999998
 10
1.304210350000001
 20
0.7599999999999996
 10
1.304210350000001
 20
0.72
 10
1.244210350000001
 20
0.72
 10
1.244210350000001
 20
0.6216784043380116
  0
DIMENSION
  5
653D8
330
458D6
100
AcDbEntity
  8
AREA1
100
AcDbDimension
  2
*D1
 10
-0.5608999052013281
 20
-2.221499999999999
 30
0.0
 11
-0.5608999052013277
 21
-0.6119894866413347
 31
0.0
 70
   160
 71
     5
 42
-1.0
 73
     0
 74
     0
 75
     0
  3
ABECAD_3D
100
AcDbAlignedDimension
 13
0.3327103499999988
 23
0.9585000000000004
 33
1.386
 14
0.6997103499999997
 24
-2.221499999999999
 34
1.386
 50
90.0
100
AcDbRotatedDimension
  0
DIMENSION
  5
653E6
330
458D6
100
AcDbEntity
  8
AREA1
100
AcDbDimension
  2
*D2
 10
1.765210349999999
 20
1.379404170511129
 30
0.0
 11
0.8833865329246894
 21
1.747125126208956
 31
0.0
 70
   160
 71
     5
 42
-1.0
 73
     0
 74
     0
 75
     0
  3
ABECAD_3D
100
AcDbAlignedDimension
 13
0.00521035
 23
0.7185000000000002
 33
0.0
 14
1.765210349999999
 24
0.5745
 34
0.0
100
AcDbRotatedDimension
  0
LWPOLYLINE
  5
6540B
330
458D6
100
AcDbEntity
  8
SCALE
100
AcDbPolyline
 90
        4
 70
     1
 43
0.0
 10
0.3323827055341906
 20
-2.341778836523643
 10
1.468011525076163
 20
-2.341778836523643
 10
1.468011525076163
 20
-3.183388403301658
 10
0.3323827055341906
 20
-3.183388403301658
  0
LINE
  5
6540C
330
458D6
100
AcDbEntity
  8
SCALE
100
AcDbLine
 10
0.3903813697609526
 20
-2.721857155227858
 30
0.0
 11
1.390381369760952
 21
-2.721857155227858
 31
0.0
  0
LINE
  5
6540D
330
458D6
100
AcDbEntity
  8
SCALE
100
AcDbLine
 10
0.3903813697609526
 20
-3.021857155227858
 30
0.0
 11
0.7840813697609526
 21
-3.021857155227858
 31
0.0
  0
LINE
  5
6540E
330
458D6
100
AcDbEntity
  8
SCALE
100
AcDbLine
 10
0.3903813697609526
 20
-2.821857155227859
 30
0.0
 11
0.3903813697609526
 21
-2.621857155227858
 31
0.0
  0
TEXT
  5
6540F
330
458D6
100
AcDbEntity
  8
SCALE
100
AcDbText
 10
0.4463573516914275
 20
-2.974172065465016
 30
0.0
 40
0.0625
  1
[10mm]
100
AcDbText
  0
LINE
  5
65410
330
458D6
100
AcDbEntity
  8
SCALE
100
AcDbLine
 10
0.3903813697609526
 20
-3.121857155227858
 30
0.0
 11
0.3903813697609526
 21
-2.921857155227859
 31
0.0
  0
TEXT
  5
65411
330
458D6
100
AcDbEntity
  8
SCALE
100
AcDbText
 10
0.3919116350074785
 20
-2.446980033954245
 30
0.0
 40
0.0625
  1
SCALE:
100
AcDbText
  0
LINE
  5
65412
330
458D6
100
AcDbEntity
  8
SCALE
100
AcDbLine
 10
0.7840813697609526
 20
-3.121857155227858
 30
0.0
 11
0.7840813697609526
 21
-2.921857155227859
 31
0.0
  0
TEXT
  5
65413
330
458D6
100
AcDbEntity
  8
SCALE
100
AcDbText
 10
0.7536643582448624
 20
-2.652808459854657
 30
0.0
 40
0.0625
  1
1 Inch
100
AcDbText
  0
LINE
  5
65414
330
458D6
100
AcDbEntity
  8
SCALE
100
AcDbLine
 10
1.390381369760952
 20
-2.721857155227858
 30
0.0
 11
1.390381369760952
 21
-2.821857155227859
 31
0.0
  0
LINE
  5
65415
330
458D6
100
AcDbEntity
  8
SCALE
100
AcDbLine
 10
1.390381369760952
 20
-2.821857155227859
 30
0.0
 11
1.390381369760952
 21
-2.621857155227858
 31
0.0
  0
VIEWPORT
  5
5677D
330
458D3
100
AcDbEntity
 67
     1
  8
0
100
AcDbViewport
 10
5.249999639556163
 20
3.999999883606677
 30
0.0
 40
16.38686186943767
 41
8.992999745766947
 68
     1
 69
     1
 12
5.249999639556163
 22
3.999999883606677
 13
0.0
 23
0.0
 14
0.5
 24
0.5
 15
0.5
 25
0.5
 16
0.0
 26
0.0
 36
1.0
 17
0.0
 27
0.0
 37
0.0
 42
50.0
 43
0.0
 44
0.0
 45
8.992999745766947
 50
0.0
 51
0.0
 72
 20000
 90
    32800
  1

281
     0
 71
     1
 74
     0
110
0.0
120
0.0
130
0.0
111
1.0
121
0.0
131
0.0
112
0.0
122
1.0
132
0.0
 79
     0
146
0.0
170
     0
 61
     5
348
654BD
292
     1
282
     1
141
0.0
142
0.0
 63
   250
421
  3355443
  0
VIEWPORT
  5
5677F
330
458D3
100
AcDbEntity
 67
     1
  8
AREA1
100
AcDbViewport
 10
5.24999976158142
 20
3.99999976158142
 30
0.0
 40
8.399999618530271
 41
6.399999618530272
 68
     2
 69
     2
 12
-1.017175299537903
 22
0.747812767808223
 13
0.0
 23
0.0
 14
0.25
 24
0.25
 15
0.25
 25
0.25
 16
0.0
 26
0.0
 36
1.0
 17
0.5634438949382106
 27
-0.8801371703728531
 37
1.68649307151727
 42
50.0
 43
0.0
 44
0.0
 45
4.58291448918931
 50
0.0
 51
0.0
 72
 20000
 90
    32800
  1

281
     1
 71
     1
 74
     0
110
0.0
120
0.0
130
0.0
111
1.0
121
0.0
131
0.0
112
0.0
122
1.0
132
0.0
 79
     1
146
0.0
170
     0
 61
     5
348
654BE
292
     1
282
     1
141
0.0
142
0.0
 63
   250
421
  3355443
  0
ENDSEC
  0
SECTION
  2
OBJECTS
  0
DICTIONARY
  5
458CB
330
0
100
AcDbDictionary
281
     1
  3
ACAD_BACKGROUND
350
654CD
  3
ACAD_COLOR
350
654C8
  3
ACAD_GROUP
350
458CC
  3
ACAD_LAYOUT
350
458FB
  3
ACAD_MATERIAL
350
654B3
  3
ACAD_MLINESTYLE
350
458D9
  3
ACAD_PLOTSETTINGS
350
458FC
  3
ACAD_PLOTSTYLENAME
350
458F9
  3
ACAD_TABLESTYLE
350
654C9
  3
ACAD_VISUALSTYLE
350
654B7
  3
ACADE_WIRETYPE
350
654E3
  3
ACDBVARIABLEDICTIONARY
350
458E1
  3
ASE_INDEX_DICTIONARY
350
654D5
  0
DICTIONARY
  5
654D2
330
654D1
100
AcDbDictionary
280
     1
281
     1
  3
ACADE_WIRETYPE
360
654D3
  0
DICTIONARY
  5
4592C
330
458D6
100
AcDbDictionary
280
     1
281
     1
  3
ACAD_LAYOUTSELFREF
360
654A7
  0
DICTIONARY
  5
4592A
330
458D3
100
AcDbDictionary
280
     1
281
     1
  3
ACAD_LAYOUTSELFREF
360
654A6
  0
DICTIONARY
  5
654CD
102
{ACAD_REACTORS
330
458CB
102
}
330
458CB
100
AcDbDictionary
281
     1
  0
DICTIONARY
  5
654C8
102
{ACAD_REACTORS
330
458CB
102
}
330
458CB
100
AcDbDictionary
281
     1
  0
DICTIONARY
  5
458CC
102
{ACAD_REACTORS
330
458CB
102
}
330
458CB
100
AcDbDictionary
281
     1
  0
DICTIONARY
  5
458FB
102
{ACAD_REACTORS
330
458CB
102
}
330
458CB
100
AcDbDictionary
281
     1
  3
Layout1
350
458FE
  3
Model
350
458FD
  0
DICTIONARY
  5
654B3
102
{ACAD_REACTORS
330
458CB
102
}
330
458CB
100
AcDbDictionary
281
     1
  3
ByBlock
350
654B5
  3
ByLayer
350
654B4
  3
Global
350
654B6
  0
DICTIONARY
  5
458D9
102
{ACAD_REACTORS
330
458CB
102
}
330
458CB
100
AcDbDictionary
281
     1
  3
STANDARD
350
458DA
  0
DICTIONARY
  5
458FC
102
{ACAD_REACTORS
330
458CB
102
}
330
458CB
100
AcDbDictionary
281
     1
  0
ACDBDICTIONARYWDFLT
  5
458F9
102
{ACAD_REACTORS
330
458CB
102
}
330
458CB
100
AcDbDictionary
281
     1
  3
Normal
350
458FA
100
AcDbDictionaryWithDefault
340
458FA
  0
DICTIONARY
  5
654C9
102
{ACAD_REACTORS
330
458CB
102
}
330
458CB
100
AcDbDictionary
281
     1
  3
Standard
350
654CA
  0
DICTIONARY
  5
654B7
102
{ACAD_REACTORS
330
458CB
102
}
330
458CB
100
AcDbDictionary
281
     1
  3
2dWireframe
350
654BD
  3
3D Hidden
350
654BF
  3
3dWireframe
350
654BE
  3
Basic
350
654BC
  3
Brighten
350
654C3
  3
ColorChange
350
654C7
  3
Conceptual
350
654C0
  3
Dim
350
654C2
  3
Facepattern
350
654C6
  3
Flat
350
654B8
  3
FlatWithEdges
350
654B9
  3
Gouraud
350
654BA
  3
GouraudWithEdges
350
654BB
  3
Linepattern
350
654C5
  3
Realistic
350
654C1
  3
Thicken
350
654C4
  0
DICTIONARY
  5
654E3
102
{ACAD_REACTORS
330
458CB
102
}
330
458CB
100
AcDbDictionary
281
     1
  3
CURRENT_WIRELAY
350
654E4
  0
DICTIONARY
  5
458E1
102
{ACAD_REACTORS
330
458CB
102
}
330
458CB
100
AcDbDictionary
281
     1
  3
CTABLESTYLE
350
654D8
  3
DIMADEC
350
458E2
  0
DICTIONARY
  5
654D5
102
{ACAD_REACTORS
330
458CB
102
}
330
458CB
100
AcDbDictionary
281
     1
  3
ASEBlockHierarchyIndexRecord
350
654D7
1001
DCO15
1040
1582951746.88
  0
XRECORD
  5
654D3
102
{ACAD_REACTORS
330
654D2
102
}
330
654D2
100
AcDbXrecord
280
     1
  1

  2

  3
WIRE
 90
        0
  0
XRECORD
  5
654A7
102
{ACAD_REACTORS
330
4592C
102
}
330
4592C
100
AcDbXrecord
280
     1
340
458D6
  0
XRECORD
  5
654A6
102
{ACAD_REACTORS
330
4592A
102
}
330
4592A
100
AcDbXrecord
280
     1
340
458D3
  0
LAYOUT
  5
458FE
102
{ACAD_REACTORS
330
458FB
102
}
330
458FB
100
AcDbPlotSettings
  1

  2
none_device
  4
Letter_(8.50_x_11.00_Inches)
  6

 40
6.349999904632568
 41
6.349999904632568
 42
6.350006103515625
 43
6.350006103515625
 44
215.8999938964844
 45
279.3999938964844
 46
0.0
 47
0.0
 48
0.0
 49
0.0
140
0.0
141
0.0
142
1.0
143
1.0
 70
   688
 72
     0
 73
     1
 74
     5
  7
Default R14 pen assignments.ctb
 75
    16
147
1.0
 76
     0
 77
     2
 78
   300
148
0.0
149
0.0
100
AcDbLayout
  1
Layout1
 70
     1
 71
     1
 10
-0.2500002402958907
 20
-0.2499999962453767
 11
10.74999951940821
 21
8.249999763458731
 12
0.0
 22
0.0
 32
0.0
 14
1.049999952316284
 24
0.7999999523162842
 34
0.0
 15
9.449999570846555
 25
7.199999570846556
 35
0.0
146
0.0
 13
0.0
 23
0.0
 33
0.0
 16
1.0
 26
0.0
 36
0.0
 17
0.0
 27
1.0
 37
0.0
 76
     0
330
458D3
331
5677D
  0
LAYOUT
  5
458FD
102
{ACAD_REACTORS
330
458FB
102
}
330
458FB
100
AcDbPlotSettings
  1

  2
HP LaserJet 5000 Series PCL 6
  4

  6

 40
0.0
 41
0.0
 42
0.0
 43
0.0
 44
0.0
 45
0.0
 46
0.0
 47
0.0
 48
0.0
 49
0.0
140
0.0
141
0.0
142
1.0
143
1.0
 70
  1712
 72
     0
 73
     0
 74
     0
  7
Default R14 pen assignments.ctb
 75
     0
147
1.0
 76
     0
 77
     2
 78
   300
148
0.0
149
0.0
100
AcDbLayout
  1
Model
 70
     1
 71
     0
 10
0.0
 20
0.0
 11
12.0
 21
9.0
 12
0.0
 22
0.0
 32
0.0
 14
0.0
 24
0.0
 34
0.0
 15
0.0
 25
0.0
 35
0.0
146
0.0
 13
0.0
 23
0.0
 33
0.0
 16
1.0
 26
0.0
 36
0.0
 17
0.0
 27
1.0
 37
0.0
 76
     0
330
458D6
331
65480
  0
MATERIAL
  5
654B5
102
{ACAD_REACTORS
330
654B3
102
}
330
654B3
100
AcDbMaterial
  1
ByBlock
  0
MATERIAL
  5
654B4
102
{ACAD_REACTORS
330
654B3
102
}
330
654B3
100
AcDbMaterial
  1
ByLayer
  0
MATERIAL
  5
654B6
102
{ACAD_REACTORS
330
654B3
102
}
330
654B3
100
AcDbMaterial
  1
Global
  0
MLINESTYLE
  5
458DA
102
{ACAD_REACTORS
330
458D9
102
}
330
458D9
100
AcDbMlineStyle
  2
STANDARD
 70
     0
  3

 62
   256
 51
90.0
 52
90.0
 71
     2
 49
0.5
 62
   256
  6
BYLAYER
 49
-0.5
 62
   256
  6
BYLAYER
  0
ACDBPLACEHOLDER
  5
458FA
102
{ACAD_REACTORS
330
458F9
102
}
330
458F9
  0
TABLESTYLE
  5
654CA
102
{ACAD_REACTORS
330
654C9
102
}
330
654C9
100
AcDbTableStyle
  3
Standard
 70
     0
 71
     0
 40
0.06
 41
0.06
280
     0
281
     0
  7
STANDARD
140
0.18
170
     2
 62
     0
 63
     7
283
     0
 90
      512
 91
        0
  1

274
    -2
284
     1
 64
     0
275
    -2
285
     1
 65
     0
276
    -2
286
     1
 66
     0
277
    -2
287
     1
 67
     0
278
    -2
288
     1
 68
     0
279
    -2
289
     1
 69
     0
  7
STANDARD
140
0.25
170
     5
 62
     0
 63
     7
283
     0
 90
      512
 91
        0
  1

274
    -2
284
     1
 64
     0
275
    -2
285
     1
 65
     0
276
    -2
286
     1
 66
     0
277
    -2
287
     1
 67
     0
278
    -2
288
     1
 68
     0
279
    -2
289
     1
 69
     0
  7
STANDARD
140
0.18
170
     5
 62
     0
 63
     7
283
     0
 90
      512
 91
        0
  1

274
    -2
284
     1
 64
     0
275
    -2
285
     1
 65
     0
276
    -2
286
     1
 66
     0
277
    -2
287
     1
 67
     0
278
    -2
288
     1
 68
     0
279
    -2
289
     1
 69
     0
  0
VISUALSTYLE
  5
654BD
102
{ACAD_REACTORS
330
654B7
102
}
330
654B7
100
AcDbVisualStyle
  2
2dWireframe
 70
     4
 71
     0
 72
     2
 73
     0
 90
        0
 40
-0.6
 41
-30.0
 62
     5
 63
     7
421
 16777215
 74
     1
 91
        4
 64
     7
 65
   257
 75
     1
175
     1
 42
1.0
 92
        0
 66
   257
 43
1.0
 76
     1
 77
     6
 78
     2
 67
     7
 79
     5
170
     0
171
     0
290
     0
174
     0
 93
        1
 44
0.0
173
     0
291
     0
 45
0.0
  0
VISUALSTYLE
  5
654BF
102
{ACAD_REACTORS
330
654B7
102
}
330
654B7
100
AcDbVisualStyle
  2
3D Hidden
 70
     6
 71
     1
 72
     2
 73
     2
 90
        0
 40
-0.6
 41
-30.0
 62
     5
 63
     7
421
 16777215
 74
     2
 91
        2
 64
     7
 65
   257
 75
     2
175
     1
 42
40.0
 92
        0
 66
   257
 43
1.0
 76
     1
 77
     6
 78
     2
 67
     7
 79
     3
170
     0
171
     0
290
     0
174
     0
 93
        1
 44
0.0
173
     0
291
     0
 45
0.0
  0
VISUALSTYLE
  5
654BE
102
{ACAD_REACTORS
330
654B7
102
}
330
654B7
100
AcDbVisualStyle
  2
3dWireframe
 70
     5
 71
     0
 72
     2
 73
     0
 90
        0
 40
-0.6
 41
-30.0
 62
     5
 63
     7
421
 16777215
 74
     1
 91
        4
 64
     7
 65
   257
 75
     1
175
     1
 42
1.0
 92
        0
 66
   257
 43
1.0
 76
     1
 77
     6
 78
     2
 67
     7
 79
     5
170
     0
171
     0
290
     0
174
     0
 93
        1
 44
0.0
173
     0
291
     0
 45
0.0
  0
VISUALSTYLE
  5
654BC
102
{ACAD_REACTORS
330
654B7
102
}
330
654B7
100
AcDbVisualStyle
  2
Basic
 70
     7
 71
     1
 72
     0
 73
     1
 90
        0
 40
-0.6
 41
-30.0
 62
     5
 63
     7
421
 16777215
 74
     0
 91
        4
 64
     7
 65
   257
 75
     1
175
     1
 42
1.0
 92
        8
 66
     7
 43
1.0
 76
     1
 77
     6
 78
     2
 67
     7
 79
     5
170
     0
171
     0
290
     0
174
     0
 93
        1
 44
0.0
173
     0
291
     1
 45
0.0
  0
VISUALSTYLE
  5
654C3
102
{ACAD_REACTORS
330
654B7
102
}
330
654B7
100
AcDbVisualStyle
  2
Brighten
 70
    12
 71
     2
 72
     2
 73
     0
 90
        0
 40
-0.6
 41
-30.0
 62
     5
 63
     7
421
 16777215
 74
     1
 91
        4
 64
     7
 65
   257
 75
     1
175
     1
 42
1.0
 92
        8
 66
     7
 43
1.0
 76
     1
 77
     6
 78
     2
 67
     7
 79
     5
170
     0
171
     0
290
     0
174
     0
 93
        1
 44
50.0
173
     0
291
     1
 45
0.0
  0
VISUALSTYLE
  5
654C7
102
{ACAD_REACTORS
330
654B7
102
}
330
654B7
100
AcDbVisualStyle
  2
ColorChange
 70
    16
 71
     2
 72
     2
 73
     3
 90
        0
 40
-0.6
 41
-30.0
 62
     5
 63
     8
421
  8421504
 74
     1
 91
        4
 64
     7
 65
   257
 75
     1
175
     1
 42
1.0
 92
        8
 66
     8
424
  8421504
 43
1.0
 76
     1
 77
     6
 78
     2
 67
     7
 79
     5
170
     0
171
     0
290
     0
174
     0
 93
        1
 44
0.0
173
     0
291
     1
 45
0.0
  0
VISUALSTYLE
  5
654C0
102
{ACAD_REACTORS
330
654B7
102
}
330
654B7
100
AcDbVisualStyle
  2
Conceptual
 70
     9
 71
     3
 72
     2
 73
     0
 90
        0
 40
-0.6
 41
-30.0
 62
     5
 63
     7
421
 16777215
 74
     2
 91
        2
 64
     7
 65
   257
 75
     1
175
     1
 42
40.0
 92
        8
 66
     7
 43
1.0
 76
     1
 77
     6
 78
     2
 67
     7
 79
     3
170
     0
171
     0
290
     0
174
     0
 93
        1
 44
0.0
173
     0
291
     0
 45
0.0
  0
VISUALSTYLE
  5
654C2
102
{ACAD_REACTORS
330
654B7
102
}
330
654B7
100
AcDbVisualStyle
  2
Dim
 70
    11
 71
     2
 72
     2
 73
     0
 90
        0
 40
-0.6
 41
-30.0
 62
     5
 63
     7
421
 16777215
 74
     1
 91
        4
 64
     7
 65
   257
 75
     1
175
     1
 42
1.0
 92
        8
 66
     7
 43
1.0
 76
     1
 77
     6
 78
     2
 67
     7
 79
     5
170
     0
171
     0
290
     0
174
     0
 93
        1
 44
-50.0
173
     0
291
     1
 45
0.0
  0
VISUALSTYLE
  5
654C6
102
{ACAD_REACTORS
330
654B7
102
}
330
654B7
100
AcDbVisualStyle
  2
Facepattern
 70
    15
 71
     2
 72
     2
 73
     0
 90
        0
 40
-0.6
 41
-30.0
 62
     5
 63
     7
421
 16777215
 74
     1
 91
        4
 64
     7
 65
   257
 75
     1
175
     1
 42
1.0
 92
        8
 66
     7
 43
1.0
 76
     1
 77
     6
 78
     2
 67
     7
 79
     5
170
     0
171
     0
290
     0
174
     0
 93
        1
 44
0.0
173
     0
291
     1
 45
0.0
  0
VISUALSTYLE
  5
654B8
102
{ACAD_REACTORS
330
654B7
102
}
330
654B7
100
AcDbVisualStyle
  2
Flat
 70
     0
 71
     2
 72
     1
 73
     1
 90
        2
 40
-0.6
 41
30.0
 62
     5
 63
     7
421
 16777215
 74
     0
 91
        4
 64
     7
 65
   257
 75
     1
175
     1
 42
1.0
 92
        8
 66
     7
 43
1.0
 76
     1
 77
     6
 78
     2
 67
     7
 79
     5
170
     0
171
     0
290
     0
174
     0
 93
       13
 44
0.0
173
     0
291
     1
 45
0.0
  0
VISUALSTYLE
  5
654B9
102
{ACAD_REACTORS
330
654B7
102
}
330
654B7
100
AcDbVisualStyle
  2
FlatWithEdges
 70
     1
 71
     2
 72
     1
 73
     1
 90
        2
 40
-0.6
 41
30.0
 62
     5
 63
     7
421
 16777215
 74
     1
 91
        4
 64
     7
 65
   257
 75
     1
175
     1
 42
1.0
 92
        0
 66
   257
 43
1.0
 76
     1
 77
     6
 78
     2
 67
     7
 79
     5
170
     0
171
     0
290
     0
174
     0
 93
       13
 44
0.0
173
     0
291
     1
 45
0.0
  0
VISUALSTYLE
  5
654BA
102
{ACAD_REACTORS
330
654B7
102
}
330
654B7
100
AcDbVisualStyle
  2
Gouraud
 70
     2
 71
     2
 72
     2
 73
     1
 90
        2
 40
-0.6
 41
30.0
 62
     5
 63
     7
421
 16777215
 74
     0
 91
        4
 64
     7
 65
   257
 75
     1
175
     1
 42
1.0
 92
        0
 66
     7
 43
1.0
 76
     1
 77
     6
 78
     2
 67
     7
 79
     5
170
     0
171
     0
290
     0
174
     0
 93
       13
 44
0.0
173
     0
291
     1
 45
0.0
  0
VISUALSTYLE
  5
654BB
102
{ACAD_REACTORS
330
654B7
102
}
330
654B7
100
AcDbVisualStyle
  2
GouraudWithEdges
 70
     3
 71
     2
 72
     2
 73
     1
 90
        2
 40
-0.6
 41
30.0
 62
     5
 63
     7
421
 16777215
 74
     1
 91
        4
 64
     7
 65
   257
 75
     1
175
     1
 42
1.0
 92
        0
 66
   257
 43
1.0
 76
     1
 77
     6
 78
     2
 67
     7
 79
     5
170
     0
171
     0
290
     0
174
     0
 93
       13
 44
0.0
173
     0
291
     1
 45
0.0
  0
VISUALSTYLE
  5
654C5
102
{ACAD_REACTORS
330
654B7
102
}
330
654B7
100
AcDbVisualStyle
  2
Linepattern
 70
    14
 71
     2
 72
     2
 73
     0
 90
        0
 40
-0.6
 41
-30.0
 62
     5
 63
     7
421
 16777215
 74
     1
 91
        4
 64
     7
 65
   257
 75
     7
175
     7
 42
1.0
 92
        8
 66
     7
 43
1.0
 76
     1
 77
     6
 78
     2
 67
     7
 79
     5
170
     0
171
     0
290
     0
174
     0
 93
        1
 44
0.0
173
     0
291
     1
 45
0.0
  0
VISUALSTYLE
  5
654C1
102
{ACAD_REACTORS
330
654B7
102
}
330
654B7
100
AcDbVisualStyle
  2
Realistic
 70
     8
 71
     2
 72
     2
 73
     0
 90
        0
 40
-0.6
 41
-30.0
 62
     5
 63
     7
421
 16777215
 74
     1
 91
        0
 64
     7
 65
   257
 75
     1
175
     1
 42
1.0
 92
        8
 66
     8
424
  7895160
 43
1.0
 76
     1
 77
     6
 78
     2
 67
     7
 79
     5
170
     0
171
     0
290
     0
174
     0
 93
       13
 44
0.0
173
     0
291
     0
 45
0.0
  0
VISUALSTYLE
  5
654C4
102
{ACAD_REACTORS
330
654B7
102
}
330
654B7
100
AcDbVisualStyle
  2
Thicken
 70
    13
 71
     2
 72
     2
 73
     0
 90
        0
 40
-0.6
 41
-30.0
 62
     5
 63
     7
421
 16777215
 74
     1
 91
        4
 64
     7
 65
   257
 75
     1
175
     1
 42
1.0
 92
       12
 66
     7
 43
1.0
 76
     1
 77
     6
 78
     2
 67
     7
 79
     5
170
     0
171
     0
290
     0
174
     0
 93
        1
 44
0.0
173
     0
291
     1
 45
0.0
  0
XRECORD
  5
654E4
102
{ACAD_REACTORS
330
654E3
102
}
330
654E3
100
AcDbXrecord
280
     1
  1
WIRES
  1
WIRES
  1

290
     0
  0
DICTIONARYVAR
  5
654D8
102
{ACAD_REACTORS
330
458E1
102
}
330
458E1
100
DictionaryVariables
280
     0
  1
STANDARD
  0
DICTIONARYVAR
  5
458E2
102
{ACAD_REACTORS
330
458E1
102
}
330
458E1
100
DictionaryVariables
280
     0
  1
0
  0
XRECORD
  5
654D7
102
{ACAD_REACTORS
330
654D5
102
}
330
654D5
100
AcDbXrecord
280
     1
330
650FD
330
650FE
330
650FF
  0
ENDSEC
  0
EOF
