  0
SECTION
  2
HEADER
  9
$ACADVER
  1
AC1021
  9
$ACADMAINTVER
 70
     1
  9
$DWGCODEPAGE
  3
ANSI_1252
  9
$LASTSAVEDBY
  1
gdseiver
  9
$INSBASE
 10
0.0
 20
0.0
 30
0.0
  9
$EXTMIN
 10
-0.0000103494035411
 20
-2.405500000000002
 30
-0.0000000000000003
  9
$EXTMAX
 10
1.765410349403541
 20
0.7744999999999976
 30
3.332000000000001
  9
$LIMMIN
 10
0.0
 20
0.0
  9
$LIMMAX
 10
12.0
 20
9.0
  9
$ORTHOMODE
 70
     0
  9
$REGENMODE
 70
     1
  9
$FILLMODE
 70
     1
  9
$QTEXTMODE
 70
     0
  9
$MIRRTEXT
 70
     1
  9
$LTSCALE
 40
1.0
  9
$ATTMODE
 70
     1
  9
$TEXTSIZE
 40
0.12
  9
$TRACEWID
 40
0.05
  9
$TEXTSTYLE
  7
STANDARD
  9
$CLAYER
  8
0
  9
$CELTYPE
  6
BYLAYER
  9
$CECOLOR
 62
   256
  9
$CELTSCALE
 40
1.0
  9
$DISPSILH
 70
     0
  9
$DIMSCALE
 40
1.0
  9
$DIMASZ
 40
0.18
  9
$DIMEXO
 40
0.0625
  9
$DIMDLI
 40
0.375
  9
$DIMRND
 40
0.0
  9
$DIMDLE
 40
0.0
  9
$DIMEXE
 40
0.18
  9
$DIMTP
 40
0.0
  9
$DIMTM
 40
0.0
  9
$DIMTXT
 40
0.14
  9
$DIMCEN
 40
0.09
  9
$DIMTSZ
 40
0.0
  9
$DIMTOL
 70
     0
  9
$DIMLIM
 70
     0
  9
$DIMTIH
 70
     0
  9
$DIMTOH
 70
     1
  9
$DIMSE1
 70
     0
  9
$DIMSE2
 70
     0
  9
$DIMTAD
 70
     0
  9
$DIMZIN
 70
     4
  9
$DIMBLK
  1

  9
$DIMASO
 70
     1
  9
$DIMSHO
 70
     1
  9
$DIMPOST
  1

  9
$DIMAPOST
  1

  9
$DIMALT
 70
     1
  9
$DIMALTD
 70
     2
  9
$DIMALTF
 40
25.4
  9
$DIMLFAC
 40
1.0
  9
$DIMTOFL
 70
     0
  9
$DIMTVP
 40
0.0
  9
$DIMTIX
 70
     0
  9
$DIMSOXD
 70
     0
  9
$DIMSAH
 70
     0
  9
$DIMBLK1
  1

  9
$DIMBLK2
  1

  9
$DIMSTYLE
  2
ABECAD_3D
  9
$DIMCLRD
 70
     0
  9
$DIMCLRE
 70
     0
  9
$DIMCLRT
 70
     0
  9
$DIMTFAC
 40
1.5
  9
$DIMGAP
 40
0.09
  9
$DIMJUST
 70
     0
  9
$DIMSD1
 70
     0
  9
$DIMSD2
 70
     0
  9
$DIMTOLJ
 70
     1
  9
$DIMTZIN
 70
     4
  9
$DIMALTZ
 70
     4
  9
$DIMALTTZ
 70
     4
  9
$DIMUPT
 70
     1
  9
$DIMDEC
 70
     6
  9
$DIMTDEC
 70
     6
  9
$DIMALTU
 70
     2
  9
$DIMALTTD
 70
     2
  9
$DIMTXSTY
  7
STANDARD
  9
$DIMAUNIT
 70
     0
  9
$DIMADEC
 70
     0
  9
$DIMALTRND
 40
0.0
  9
$DIMAZIN
 70
     0
  9
$DIMDSEP
 70
    46
  9
$DIMATFIT
 70
     2
  9
$DIMFRAC
 70
     2
  9
$DIMLDRBLK
  1

  9
$DIMLUNIT
 70
     5
  9
$DIMLWD
 70
    -2
  9
$DIMLWE
 70
    -2
  9
$DIMTMOVE
 70
     2
  9
$DIMFXL
 40
1.0
  9
$DIMFXLON
 70
     0
  9
$DIMJOGANG
 40
0.7853981633974483
  9
$DIMTFILL
 70
     0
  9
$DIMTFILLCLR
 70
     0
  9
$DIMARCSYM
 70
     0
  9
$DIMLTYPE
  6

  9
$DIMLTEX1
  6

  9
$DIMLTEX2
  6

  9
$LUNITS
 70
     2
  9
$LUPREC
 70
     4
  9
$SKETCHINC
 40
0.1
  9
$FILLETRAD
 40
0.0
  9
$AUNITS
 70
     0
  9
$AUPREC
 70
     0
  9
$MENU
  1
ACAD
  9
$ELEVATION
 40
0.0
  9
$PELEVATION
 40
0.0
  9
$THICKNESS
 40
0.0
  9
$LIMCHECK
 70
     0
  9
$CHAMFERA
 40
0.0
  9
$CHAMFERB
 40
0.0
  9
$CHAMFERC
 40
0.0
  9
$CHAMFERD
 40
0.0
  9
$SKPOLY
 70
     0
  9
$TDCREATE
 40
2451726.480055787
  9
$TDUCREATE
 40
2451726.688389120
  9
$TDUPDATE
 40
2454229.679913866
  9
$TDUUPDATE
 40
2454229.888247199
  9
$TDINDWG
 40
0.7153031366
  9
$TDUSRTIMER
 40
0.7153031366
  9
$USRTIMER
 70
     1
  9
$ANGBASE
 50
0.0
  9
$ANGDIR
 70
     0
  9
$PDMODE
 70
     3
  9
$PDSIZE
 40
0.09
  9
$PLINEWID
 40
0.0
  9
$SPLFRAME
 70
     1
  9
$SPLINETYPE
 70
     6
  9
$SPLINESEGS
 70
     8
  9
$HANDSEED
  5
6263A
  9
$SURFTAB1
 70
     6
  9
$SURFTAB2
 70
     6
  9
$SURFTYPE
 70
     6
  9
$SURFU
 70
     6
  9
$SURFV
 70
     6
  9
$UCSBASE
  2

  9
$UCSNAME
  2

  9
$UCSORG
 10
0.0
 20
0.0
 30
0.0
  9
$UCSXDIR
 10
1.0
 20
0.0
 30
0.0
  9
$UCSYDIR
 10
0.0
 20
1.0
 30
0.0
  9
$UCSORTHOREF
  2

  9
$UCSORTHOVIEW
 70
     1
  9
$UCSORGTOP
 10
0.0
 20
0.0
 30
0.0
  9
$UCSORGBOTTOM
 10
0.0
 20
0.0
 30
0.0
  9
$UCSORGLEFT
 10
0.0
 20
0.0
 30
0.0
  9
$UCSORGRIGHT
 10
0.0
 20
0.0
 30
0.0
  9
$UCSORGFRONT
 10
0.0
 20
0.0
 30
0.0
  9
$UCSORGBACK
 10
0.0
 20
0.0
 30
0.0
  9
$PUCSBASE
  2

  9
$PUCSNAME
  2

  9
$PUCSORG
 10
0.0
 20
0.0
 30
0.0
  9
$PUCSXDIR
 10
1.0
 20
0.0
 30
0.0
  9
$PUCSYDIR
 10
0.0
 20
1.0
 30
0.0
  9
$PUCSORTHOREF
  2

  9
$PUCSORTHOVIEW
 70
     0
  9
$PUCSORGTOP
 10
0.0
 20
0.0
 30
0.0
  9
$PUCSORGBOTTOM
 10
0.0
 20
0.0
 30
0.0
  9
$PUCSORGLEFT
 10
0.0
 20
0.0
 30
0.0
  9
$PUCSORGRIGHT
 10
0.0
 20
0.0
 30
0.0
  9
$PUCSORGFRONT
 10
0.0
 20
0.0
 30
0.0
  9
$PUCSORGBACK
 10
0.0
 20
0.0
 30
0.0
  9
$USERI1
 70
     0
  9
$USERI2
 70
     0
  9
$USERI3
 70
     0
  9
$USERI4
 70
     0
  9
$USERI5
 70
     0
  9
$USERR1
 40
0.0
  9
$USERR2
 40
0.0
  9
$USERR3
 40
0.0
  9
$USERR4
 40
0.0
  9
$USERR5
 40
0.0
  9
$WORLDVIEW
 70
     1
  9
$SHADEDGE
 70
     3
  9
$SHADEDIF
 70
    70
  9
$TILEMODE
 70
     1
  9
$MAXACTVP
 70
    16
  9
$PINSBASE
 10
0.0
 20
0.0
 30
0.0
  9
$PLIMCHECK
 70
     0
  9
$PEXTMIN
 10
1.049999952316284
 20
0.7999999523162842
 30
0.0
  9
$PEXTMAX
 10
9.449999570846555
 20
7.199999570846556
 30
0.0
  9
$PLIMMIN
 10
-0.2500002402958907
 20
-0.2499999962453767
  9
$PLIMMAX
 10
10.74999951940821
 20
8.249999763458731
  9
$UNITMODE
 70
     0
  9
$VISRETAIN
 70
     0
  9
$PLINEGEN
 70
     0
  9
$PSLTSCALE
 70
     1
  9
$TREEDEPTH
 70
  3020
  9
$CMLSTYLE
  2
STANDARD
  9
$CMLJUST
 70
     0
  9
$CMLSCALE
 40
1.0
  9
$PROXYGRAPHICS
 70
     1
  9
$MEASUREMENT
 70
     0
  9
$CELWEIGHT
370
    -1
  9
$ENDCAPS
280
     0
  9
$JOINSTYLE
280
     0
  9
$LWDISPLAY
290
     0
  9
$INSUNITS
 70
     0
  9
$HYPERLINKBASE
  1

  9
$STYLESHEET
  1

  9
$XEDIT
290
     1
  9
$CEPSNTYPE
380
     0
  9
$PSTYLEMODE
290
     1
  9
$FINGERPRINTGUID
  2
{6E0CF4B8-225E-11D4-A150-00A0CC3303EC}
  9
$VERSIONGUID
  2
{672D0B48-4C0C-4DE1-B14B-49A700768087}
  9
$EXTNAMES
290
     1
  9
$PSVPSCALE
 40
0.0
  9
$OLESTARTUP
290
     0
  9
$SORTENTS
280
   127
  9
$INDEXCTL
280
     0
  9
$HIDETEXT
280
     0
  9
$XCLIPFRAME
290
     0
  9
$HALOGAP
280
     0
  9
$OBSCOLOR
 70
   257
  9
$OBSLTYPE
280
     0
  9
$INTERSECTIONDISPLAY
280
     0
  9
$INTERSECTIONCOLOR
 70
   257
  9
$DIMASSOC
280
     1
  9
$PROJECTNAME
  1

  9
$CAMERADISPLAY
290
     0
  9
$LENSLENGTH
 40
50.0
  9
$CAMERAHEIGHT
 40
0.0
  9
$STEPSPERSEC
 40
2.0
  9
$STEPSIZE
 40
6.0
  9
$3DDWFPREC
 40
2.0
  9
$PSOLWIDTH
 40
0.25
  9
$PSOLHEIGHT
 40
4.0
  9
$LOFTANG1
 40
1.570796326794896
  9
$LOFTANG2
 40
1.570796326794896
  9
$LOFTMAG1
 40
0.0
  9
$LOFTMAG2
 40
0.0
  9
$LOFTPARAM
 70
     7
  9
$LOFTNORMALS
280
     1
  9
$LATITUDE
 40
37.795
  9
$LONGITUDE
 40
-122.394
  9
$NORTHDIRECTION
 40
0.0
  9
$TIMEZONE
 70
 -8000
  9
$LIGHTGLYPHDISPLAY
280
     1
  9
$TILEMODELIGHTSYNCH
280
     1
  9
$CMATERIAL
347
625BF
  9
$SOLIDHIST
280
     1
  9
$SHOWHIST
280
     1
  9
$DWFFRAME
280
     2
  9
$DGNFRAME
280
     0
  9
$REALWORLDSCALE
290
     1
  9
$INTERFERECOLOR
 62
     1
  9
$INTERFEREOBJVS
345
625CC
  9
$INTERFEREVPVS
346
625C9
  9
$CSHADOW
280
     0
  9
$SHADOWPLANELOCATION
 40
0.0
  0
ENDSEC
  0
SECTION
  2
CLASSES
  0
CLASS
  1
DICTIONARYVAR
  2
AcDbDictionaryVar
  3
ObjectDBX Classes
 90
        0
 91
        2
280
     0
281
     0
  0
CLASS
  1
ACDBDICTIONARYWDFLT
  2
AcDbDictionaryWithDefault
  3
ObjectDBX Classes
 90
        0
 91
        1
280
     0
281
     0
  0
CLASS
  1
MATERIAL
  2
AcDbMaterial
  3
ObjectDBX Classes
 90
     1024
 91
        3
280
     0
281
     0
  0
CLASS
  1
VISUALSTYLE
  2
AcDbVisualStyle
  3
ObjectDBX Classes
 90
     4095
 91
       16
280
     0
281
     0
  0
CLASS
  1
TABLESTYLE
  2
AcDbTableStyle
  3
ObjectDBX Classes
 90
     4095
 91
        1
280
     0
281
     0
  0
CLASS
  1
SOLID_BACKGROUND
  2
AcDbSolidBackground
  3
SCENEOE
 90
     4095
 91
        1
280
     0
281
     0
  0
CLASS
  1
NPOCOLLECTION
  2
AcDbImpNonPersistentObjectsCollection
  3
ObjectDBX Classes
 90
     1153
 91
        1
280
     0
281
     0
  0
CLASS
  1
EXACXREFPANELOBJECT
  2
ExAcXREFPanelObject
  3
EXAC_ESW
 90
     1025
 91
        0
280
     0
281
     0
  0
ENDSEC
  0
SECTION
  2
TABLES
  0
TABLE
  2
VPORT
  5
458C7
102
{ACAD_XDICTIONARY
360
625EF
102
}
330
0
100
AcDbSymbolTable
 70
     1
  0
VPORT
  5
6258B
330
458C7
100
AcDbSymbolTableRecord
100
AcDbViewportTableRecord
  2
*Active
 70
     0
 10
0.0
 20
0.0
 11
1.0
 21
1.0
 12
0.3194921675890947
 22
0.0643866582435653
 13
0.0
 23
0.0
 14
0.25
 24
0.25
 15
0.25
 25
0.25
 16
0.0
 26
0.0
 36
1.0
 17
0.5634438949382106
 27
-0.8801371703728531
 37
1.68649307151727
 40
3.204442491728407
 41
1.421818181818182
 42
50.0
 43
0.0
 44
0.0
 50
0.0
 51
0.0
 71
     0
 72
 20000
 73
     1
 74
     1
 75
     0
 76
     0
 77
     0
 78
     0
281
     1
 65
     1
110
0.0
120
0.0
130
0.0
111
1.0
121
0.0
131
0.0
112
0.0
122
1.0
132
0.0
 79
     0
146
0.0
348
625C9
 60
     3
 61
     5
292
     1
282
     1
141
0.0
142
0.0
 63
   250
421
  3355443
  0
ENDTAB
  0
TABLE
  2
LTYPE
  5
458C4
330
0
100
AcDbSymbolTable
 70
     1
  0
LTYPE
  5
458D0
330
458C4
100
AcDbSymbolTableRecord
100
AcDbLinetypeTableRecord
  2
BYBLOCK
 70
     0
  3

 72
    65
 73
     0
 40
0.0
  0
LTYPE
  5
458D1
330
458C4
100
AcDbSymbolTableRecord
100
AcDbLinetypeTableRecord
  2
BYLAYER
 70
     0
  3

 72
    65
 73
     0
 40
0.0
  0
LTYPE
  5
458D2
330
458C4
100
AcDbSymbolTableRecord
100
AcDbLinetypeTableRecord
  2
CONTINUOUS
 70
     0
  3
Solid line
 72
    65
 73
     0
 40
0.0
  0
ENDTAB
  0
TABLE
  2
LAYER
  5
458C1
330
0
100
AcDbSymbolTable
 70
     8
  0
LAYER
  5
458CD
330
458C1
100
AcDbSymbolTableRecord
100
AcDbLayerTableRecord
  2
0
 70
     0
 62
     7
  6
CONTINUOUS
370
    -3
390
458FA
347
625C1
  0
LAYER
  5
458EA
330
458C1
100
AcDbSymbolTableRecord
100
AcDbLayerTableRecord
  2
DIMS-MTG-HOLES
 70
     0
 62
     1
  6
CONTINUOUS
370
    -3
390
458FA
347
625C1
  0
LAYER
  5
458EB
330
458C1
100
AcDbSymbolTableRecord
100
AcDbLayerTableRecord
  2
ATTRIBUTES
 70
     0
 62
     7
  6
CONTINUOUS
370
    -3
390
458FA
347
625C1
  0
LAYER
  5
4593B
330
458C1
100
AcDbSymbolTableRecord
100
AcDbLayerTableRecord
  2
AREA1
 70
     1
 62
     7
  6
CONTINUOUS
290
     0
370
    -3
390
458FA
347
625C1
  0
LAYER
  5
45940
330
458C1
100
AcDbSymbolTableRecord
100
AcDbLayerTableRecord
  2
Defpoints
 70
     1
 62
     7
  6
CONTINUOUS
290
     0
370
    -3
390
458FA
347
625C1
  0
LAYER
  5
45954
330
458C1
100
AcDbSymbolTableRecord
100
AcDbLayerTableRecord
  2
SCALE
 70
     1
 62
     7
  6
CONTINUOUS
370
    -3
390
458FA
347
625C1
  0
LAYER
  5
4D59A
330
458C1
100
AcDbSymbolTableRecord
100
AcDbLayerTableRecord
  2
SNAP_POINTS
 70
     1
 62
     1
  6
CONTINUOUS
370
    -3
390
458FA
347
625C1
  0
LAYER
  5
625DC
102
{ACAD_XDICTIONARY
360
625DD
102
}
330
458C1
100
AcDbSymbolTableRecord
100
AcDbLayerTableRecord
  2
WIRES
 70
     0
 62
     7
  6
CONTINUOUS
370
    -3
390
458FA
347
625C1
  0
ENDTAB
  0
TABLE
  2
STYLE
  5
458C2
330
0
100
AcDbSymbolTable
 70
     1
  0
STYLE
  5
458CE
330
458C2
100
AcDbSymbolTableRecord
100
AcDbTextStyleTableRecord
  2
STANDARD
 70
     0
 40
0.0
 41
1.0
 50
0.0
 71
     0
 42
0.12
  3
txt
  4

  0
ENDTAB
  0
TABLE
  2
VIEW
  5
458C5
330
0
100
AcDbSymbolTable
 70
     0
  0
ENDTAB
  0
TABLE
  2
UCS
  5
458C6
330
0
100
AcDbSymbolTable
 70
     0
  0
ENDTAB
  0
TABLE
  2
APPID
  5
458C8
330
0
100
AcDbSymbolTable
 70
     3
  0
APPID
  5
458CF
330
458C8
100
AcDbSymbolTableRecord
100
AcDbRegAppTableRecord
  2
ACAD
 70
     0
  0
APPID
  5
5FD5B
330
458C8
100
AcDbSymbolTableRecord
100
AcDbRegAppTableRecord
  2
AVE_RENDER
 70
     0
  0
APPID
  5
625E1
330
458C8
100
AcDbSymbolTableRecord
100
AcDbRegAppTableRecord
  2
DCO15
 70
     0
  0
ENDTAB
  0
TABLE
  2
DIMSTYLE
  5
458C9
330
0
100
AcDbSymbolTable
 70
     1
100
AcDbDimStyleTable
 71
     0
  0
DIMSTYLE
105
458F6
102
{ACAD_REACTORS
330
624E3
330
624F1
102
}
330
458C9
100
AcDbSymbolTableRecord
100
AcDbDimStyleTableRecord
  2
ABECAD_3D
 70
     0
 43
0.375
 73
     0
 78
     4
140
0.14
146
1.5
170
     1
271
     6
272
     6
276
     2
277
     5
279
     2
284
     4
285
     4
286
     4
288
     1
289
     2
340
458CE
  0
ENDTAB
  0
TABLE
  2
BLOCK_RECORD
  5
458C0
330
0
100
AcDbSymbolTable
 70
     3
  0
BLOCK_RECORD
  5
458D6
102
{ACAD_XDICTIONARY
360
4592C
102
}
330
458C0
100
AcDbSymbolTableRecord
100
AcDbBlockTableRecord
  2
*MODEL_SPACE
340
458FD
 70
     0
280
     1
281
     0
  0
BLOCK_RECORD
  5
458D3
102
{ACAD_XDICTIONARY
360
4592A
102
}
330
458C0
100
AcDbSymbolTableRecord
100
AcDbBlockTableRecord
  2
*PAPER_SPACE
340
458FE
 70
     0
280
     1
281
     0
  0
BLOCK_RECORD
  5
61D1A
330
458C0
100
AcDbSymbolTableRecord
100
AcDbBlockTableRecord
  2
AVE_RENDER
340
0
102
{BLKREFS
331
62207
331
62208
331
62209
102
}
 70
     0
280
     1
281
     0
  0
BLOCK_RECORD
  5
624E4
330
458C0
100
AcDbSymbolTableRecord
100
AcDbBlockTableRecord
  2
*D1
340
0
 70
     0
280
     1
281
     0
  0
BLOCK_RECORD
  5
624F2
330
458C0
100
AcDbSymbolTableRecord
100
AcDbBlockTableRecord
  2
*D2
340
0
 70
     0
280
     1
281
     0
  0
ENDTAB
  0
ENDSEC
  0
SECTION
  2
BLOCKS
  0
BLOCK
  5
458DF
330
458D6
100
AcDbEntity
  8
0
100
AcDbBlockBegin
  2
*MODEL_SPACE
 70
     0
 10
0.0
 20
0.0
 30
0.0
  3
*MODEL_SPACE
  1

  0
ENDBLK
  5
458E0
330
458D6
100
AcDbEntity
  8
0
100
AcDbBlockEnd
  0
BLOCK
  5
458DD
330
458D3
100
AcDbEntity
 67
     1
  8
0
100
AcDbBlockBegin
  2
*PAPER_SPACE
 70
     0
 10
0.0
 20
0.0
 30
0.0
  3
*PAPER_SPACE
  1

  0
ENDBLK
  5
458DE
330
458D3
100
AcDbEntity
 67
     1
  8
0
100
AcDbBlockEnd
  0
BLOCK
  5
61D1B
330
61D1A
100
AcDbEntity
  8
0
100
AcDbBlockBegin
  2
AVE_RENDER
 70
     0
 10
0.0
 20
0.0
 30
0.0
  3
AVE_RENDER
  1
AVE_RENDER
  0
ENDBLK
  5
61D1C
330
61D1A
100
AcDbEntity
  8
0
100
AcDbBlockEnd
  0
BLOCK
  5
624EF
330
624E4
100
AcDbEntity
  8
0
100
AcDbBlockBegin
  2
*D1
 70
     1
 10
0.0
 20
0.0
 30
0.0
  3
*D1
  1

  0
LINE
  5
624E5
330
624E4
100
AcDbEntity
  8
AREA1
 62
     0
370
    -2
100
AcDbLine
 10
0.6371999999999997
 20
0.7744999999999976
 30
0.0
 11
-0.6836777766366168
 21
0.7744999999999979
 31
0.0
  0
LINE
  5
624E6
330
624E4
100
AcDbEntity
  8
AREA1
 62
     0
370
    -2
100
AcDbLine
 10
0.2701999999999987
 20
-2.405500000000002
 30
0.0
 11
-0.6836777766366177
 21
-2.405500000000002
 31
0.0
  0
LINE
  5
624E7
330
624E4
100
AcDbEntity
  8
AREA1
 62
     0
370
    -2
100
AcDbLine
 10
-0.5036777766366171
 20
0.5944999999999979
 30
0.0
 11
-0.5036777766366172
 21
0.1303015525151019
 31
0.0
  0
LINE
  5
624E8
330
624E4
100
AcDbEntity
  8
AREA1
 62
     0
370
    -2
100
AcDbLine
 10
-0.5036777766366177
 20
-2.225500000000002
 30
0.0
 11
-0.5036777766366175
 21
-1.706365114151564
 31
0.0
  0
MTEXT
  5
624E9
330
624E4
100
AcDbEntity
  8
AREA1
 62
     0
100
AcDbMText
 10
-0.5036777766366174
 20
-0.7880317808182316
 30
0.0
 40
0.14
 41
0.0
 46
0.0
 71
     5
 72
     1
  1
\A1;3 3/16 [80.77]
 11
0.0000000000000001
 21
1.0
 31
0.0
 73
     1
 44
1.0
  0
SOLID
  5
624EA
330
624E4
100
AcDbEntity
  8
AREA1
 62
     0
100
AcDbTrace
 10
-0.5336777766366171
 20
0.5944999999999979
 30
0.0
 11
-0.4736777766366171
 21
0.5944999999999979
 31
0.0
 12
-0.503677776636617
 22
0.7744999999999979
 32
0.0
 13
-0.503677776636617
 23
0.7744999999999979
 33
0.0
  0
SOLID
  5
624EB
330
624E4
100
AcDbEntity
  8
AREA1
 62
     0
100
AcDbTrace
 10
-0.5336777766366177
 20
-2.225500000000002
 30
0.0
 11
-0.4736777766366177
 21
-2.225500000000002
 31
0.0
 12
-0.5036777766366178
 22
-2.405500000000002
 32
0.0
 13
-0.5036777766366178
 23
-2.405500000000002
 33
0.0
  0
POINT
  5
624EC
330
624E4
100
AcDbEntity
  8
Defpoints
 62
     0
100
AcDbPoint
 10
0.6996999999999997
 20
0.7744999999999976
 30
1.386
  0
POINT
  5
624ED
330
624E4
100
AcDbEntity
  8
Defpoints
 62
     0
100
AcDbPoint
 10
0.3326999999999987
 20
-2.405500000000002
 30
1.386
  0
POINT
  5
624EE
330
624E4
100
AcDbEntity
  8
Defpoints
 62
     0
100
AcDbPoint
 10
-0.5036777766366178
 20
-2.405500000000002
 30
0.0
  0
ENDBLK
  5
624F0
330
624E4
100
AcDbEntity
  8
0
100
AcDbBlockEnd
  0
BLOCK
  5
624FC
330
624F2
100
AcDbEntity
  8
0
100
AcDbBlockBegin
  2
*D2
 70
     1
 10
0.0
 20
0.0
 30
0.0
  3
*D2
  1

  0
LINE
  5
624FE
330
624F2
100
AcDbEntity
  8
AREA1
 62
     0
370
    -2
100
AcDbLine
 10
0.0052
 20
0.7810000000000002
 30
0.0
 11
0.0052
 21
1.335143000512088
 31
0.0
  0
LINE
  5
624FF
330
624F2
100
AcDbEntity
  8
AREA1
 62
     0
370
    -2
100
AcDbLine
 10
1.765199999999999
 20
0.637
 30
0.0
 11
1.765199999999999
 21
1.335143000512088
 31
0.0
  0
LINE
  5
62500
330
624F2
100
AcDbEntity
  8
AREA1
 62
     0
370
    -2
100
AcDbLine
 10
0.1852
 20
1.155143000512088
 30
0.0
 11
1.585199999999999
 21
1.155143000512088
 31
0.0
  0
MTEXT
  5
62501
330
624F2
100
AcDbEntity
  8
AREA1
 62
     0
100
AcDbMText
 10
0.8929590770589616
 20
1.546386237920637
 30
0.0
 40
0.14
 41
0.0
 46
0.0
 71
     5
 72
     1
  1
\A1;1 49/64 [44.70]
 73
     1
 44
1.0
  0
SOLID
  5
62502
330
624F2
100
AcDbEntity
  8
AREA1
 62
     0
100
AcDbTrace
 10
0.1852
 20
1.185143000512088
 30
0.0
 11
0.1852
 21
1.125143000512088
 31
0.0
 12
0.0052
 22
1.155143000512088
 32
0.0
 13
0.0052
 23
1.155143000512088
 33
0.0
  0
SOLID
  5
62503
330
624F2
100
AcDbEntity
  8
AREA1
 62
     0
100
AcDbTrace
 10
1.585199999999999
 20
1.185143000512088
 30
0.0
 11
1.585199999999999
 21
1.125143000512088
 31
0.0
 12
1.765199999999999
 22
1.155143000512088
 32
0.0
 13
1.765199999999999
 23
1.155143000512088
 33
0.0
  0
POINT
  5
62504
330
624F2
100
AcDbEntity
  8
Defpoints
 62
     0
100
AcDbPoint
 10
0.0052
 20
0.7185000000000002
 30
0.0
  0
POINT
  5
62505
330
624F2
100
AcDbEntity
  8
Defpoints
 62
     0
100
AcDbPoint
 10
1.765199999999999
 20
0.5745
 30
0.0
  0
POINT
  5
62506
330
624F2
100
AcDbEntity
  8
Defpoints
 62
     0
100
AcDbPoint
 10
1.765199999999999
 20
1.155143000512088
 30
0.0
  0
ENDBLK
  5
624FD
330
624F2
100
AcDbEntity
  8
0
100
AcDbBlockEnd
  0
ENDSEC
  0
SECTION
  2
ENTITIES
  0
ATTDEF
  5
6210A
330
458D6
100
AcDbEntity
  8
ATTRIBUTES
100
AcDbText
 10
0.1000944536306815
 20
-0.1342429569443211
 30
0.0
 40
0.0805203758744914
  1
SPRECHER+SCHUH
100
AcDbAttributeDefinition
  3
MANUFACTURER NAME?
  2
AC_VND_LABEL
 70
     1
280
     0
  0
ATTDEF
  5
6210B
330
458D6
100
AcDbEntity
  8
ATTRIBUTES
100
AcDbText
 10
0.1000944536306815
 20
-0.3019937400161781
 30
0.0
 40
0.0805203758744914
  1
CA7-09-10U, -12-10U, -16-10U, -23-10U
100
AcDbAttributeDefinition
  3
CATALOG NUMBER?
  2
AC_PART_NO
 70
     1
280
     0
  0
ATTDEF
  5
6210C
330
458D6
100
AcDbEntity
  8
ATTRIBUTES
100
AcDbText
 10
0.1000944536306815
 20
-0.4697445230880351
 30
0.0
 40
0.0805203758744914
  1
IEC AC CONTACTOR; 9A-23A; 1 N.O.
100
AcDbAttributeDefinition
  3
PART DESCRIPTION?
  2
AC_DESCRIPTION
 70
     1
280
     0
  0
ATTDEF
  5
6210D
330
458D6
100
AcDbEntity
  8
ATTRIBUTES
100
AcDbText
 10
0.1000944536306815
 20
-0.6374953061598921
 30
0.0
 40
0.0805203758744914
  1

100
AcDbAttributeDefinition
  3
DEVICE ID?
  2
DEVICE_ID
 70
     1
280
     0
  0
ATTDEF
  5
6210E
330
458D6
100
AcDbEntity
  8
ATTRIBUTES
100
AcDbText
 10
0.1000944536306815
 20
-0.805246089231749
 30
0.0
 40
0.0805203758744914
  1

100
AcDbAttributeDefinition
  3
CUSTOMER PART NUMBER?
  2
AC_CPART_NO
 70
     1
280
     0
  0
ATTDEF
  5
6210F
330
458D6
100
AcDbEntity
  8
ATTRIBUTES
100
AcDbText
 10
0.1000944536306815
 20
-0.9729968723036069
 30
0.0
 40
0.0805203758744914
  1

100
AcDbAttributeDefinition
  3
CUSTOMER NOTE?
  2
AC_NOTE
 70
     1
280
     0
  0
ATTDEF
  5
62110
330
458D6
100
AcDbEntity
  8
ATTRIBUTES
100
AcDbText
 10
0.1000944536306815
 20
-1.140747655375463
 30
0.0
 40
0.0805203758744914
  1

100
AcDbAttributeDefinition
  3
FASTENER DATA?
  2
FASTENER
 70
     1
280
     0
  0
ATTDEF
  5
62111
330
458D6
100
AcDbEntity
  8
ATTRIBUTES
100
AcDbText
 10
0.1000944536306815
 20
-1.30849843844732
 30
0.0
 40
0.0805203758744914
  1
INCH
100
AcDbAttributeDefinition
  3
UNIT OF SCALE?
  2
AC_SCALE_UNIT
 70
     1
280
     0
  0
ATTDEF
  5
62112
330
458D6
100
AcDbEntity
  8
ATTRIBUTES
100
AcDbText
 10
0.1000944536306815
 20
-1.476249221519177
 30
0.0
 40
0.0805203758744914
  1
0
100
AcDbAttributeDefinition
  3
VIEW CODE?
  2
AC_VIEW_CODE
 70
     1
280
     0
  0
POLYLINE
  5
62113
330
458D6
100
AcDbEntity
  8
0
100
AcDbPolygonMesh
 66
     1
 10
0.0
 20
0.0
 30
0.0
 70
    16
 71
     6
 72
     3
  0
VERTEX
  5
62114
330
62113
100
AcDbEntity
  8
0
100
AcDbVertex
100
AcDbPolygonMeshVertex
 10
1.765199999999999
 20
0.2384999999999997
 30
0.316
 70
    64
  0
VERTEX
  5
62115
330
62113
100
AcDbEntity
  8
0
100
AcDbVertex
100
AcDbPolygonMeshVertex
 10
1.765199999999999
 20
0.2384999999999997
 30
0.0
 70
    64
  0
VERTEX
  5
62116
330
62113
100
AcDbEntity
  8
0
100
AcDbVertex
100
AcDbPolygonMeshVertex
 10
1.765199999999999
 20
0.2384999999999997
 30
0.0
 70
    64
  0
VERTEX
  5
62117
330
62113
100
AcDbEntity
  8
0
100
AcDbVertex
100
AcDbPolygonMeshVertex
 10
1.374199999999999
 20
0.2384999999999997
 30
0.316
 70
    64
  0
VERTEX
  5
62118
330
62113
100
AcDbEntity
  8
0
100
AcDbVertex
100
AcDbPolygonMeshVertex
 10
1.374199999999999
 20
0.2384999999999997
 30
0.0
 70
    64
  0
VERTEX
  5
62119
330
62113
100
AcDbEntity
  8
0
100
AcDbVertex
100
AcDbPolygonMeshVertex
 10
1.374199999999999
 20
0.2384999999999997
 30
0.0
 70
    64
  0
VERTEX
  5
6211A
330
62113
100
AcDbEntity
  8
0
100
AcDbVertex
100
AcDbPolygonMeshVertex
 10
1.374199999999999
 20
0.5745
 30
0.316
 70
    64
  0
VERTEX
  5
6211B
330
62113
100
AcDbEntity
  8
0
100
AcDbVertex
100
AcDbPolygonMeshVertex
 10
1.374199999999999
 20
0.5745
 30
0.0
 70
    64
  0
VERTEX
  5
6211C
330
62113
100
AcDbEntity
  8
0
100
AcDbVertex
100
AcDbPolygonMeshVertex
 10
1.374199999999999
 20
0.2384999999999997
 30
0.0
 70
    64
  0
VERTEX
  5
6211D
330
62113
100
AcDbEntity
  8
0
100
AcDbVertex
100
AcDbPolygonMeshVertex
 10
1.765199999999999
 20
0.5745
 30
0.316
 70
    64
  0
VERTEX
  5
6211E
330
62113
100
AcDbEntity
  8
0
100
AcDbVertex
100
AcDbPolygonMeshVertex
 10
1.765199999999999
 20
0.5745
 30
0.0
 70
    64
  0
VERTEX
  5
6211F
330
62113
100
AcDbEntity
  8
0
100
AcDbVertex
100
AcDbPolygonMeshVertex
 10
1.765199999999999
 20
0.2384999999999997
 30
0.0
 70
    64
  0
VERTEX
  5
62120
330
62113
100
AcDbEntity
  8
0
100
AcDbVertex
100
AcDbPolygonMeshVertex
 10
1.765199999999999
 20
0.5745
 30
0.316
 70
    64
  0
VERTEX
  5
62121
330
62113
100
AcDbEntity
  8
0
100
AcDbVertex
100
AcDbPolygonMeshVertex
 10
1.765199999999999
 20
0.5745
 30
0.316
 70
    64
  0
VERTEX
  5
62122
330
62113
100
AcDbEntity
  8
0
100
AcDbVertex
100
AcDbPolygonMeshVertex
 10
1.765199999999999
 20
0.2384999999999997
 30
0.316
 70
    64
  0
VERTEX
  5
62123
330
62113
100
AcDbEntity
  8
0
100
AcDbVertex
100
AcDbPolygonMeshVertex
 10
1.374199999999999
 20
0.5745
 30
0.316
 70
    64
  0
VERTEX
  5
62124
330
62113
100
AcDbEntity
  8
0
100
AcDbVertex
100
AcDbPolygonMeshVertex
 10
1.374199999999999
 20
0.5745
 30
0.316
 70
    64
  0
VERTEX
  5
62125
330
62113
100
AcDbEntity
  8
0
100
AcDbVertex
100
AcDbPolygonMeshVertex
 10
1.374199999999999
 20
0.2384999999999997
 30
0.316
 70
    64
  0
SEQEND
  5
62126
330
62113
100
AcDbEntity
  8
0
  0
POLYLINE
  5
62127
330
458D6
100
AcDbEntity
  8
0
100
AcDbPolygonMesh
 66
     1
 10
0.0
 20
0.0
 30
0.0
 70
    16
 71
     6
 72
     3
  0
VERTEX
  5
62128
330
62127
100
AcDbEntity
  8
0
100
AcDbVertex
100
AcDbPolygonMeshVertex
 10
0.3962
 20
-1.685499999999999
 30
1.318
 70
    64
  0
VERTEX
  5
62129
330
62127
100
AcDbEntity
  8
0
100
AcDbVertex
100
AcDbPolygonMeshVertex
 10
0.3962
 20
-1.685499999999999
 30
0.187
 70
    64
  0
VERTEX
  5
6212A
330
62127
100
AcDbEntity
  8
0
100
AcDbVertex
100
AcDbPolygonMeshVertex
 10
0.3962
 20
-1.685499999999999
 30
0.187
 70
    64
  0
VERTEX
  5
6212B
330
62127
100
AcDbEntity
  8
0
100
AcDbVertex
100
AcDbPolygonMeshVertex
 10
0.0052
 20
-1.685499999999999
 30
1.318
 70
    64
  0
VERTEX
  5
6212C
330
62127
100
AcDbEntity
  8
0
100
AcDbVertex
100
AcDbPolygonMeshVertex
 10
0.0052
 20
-1.685499999999999
 30
0.187
 70
    64
  0
VERTEX
  5
6212D
330
62127
100
AcDbEntity
  8
0
100
AcDbVertex
100
AcDbPolygonMeshVertex
 10
0.0052
 20
-1.685499999999999
 30
0.187
 70
    64
  0
VERTEX
  5
6212E
330
62127
100
AcDbEntity
  8
0
100
AcDbVertex
100
AcDbPolygonMeshVertex
 10
0.0052
 20
0.5215000000000001
 30
1.318
 70
    64
  0
VERTEX
  5
6212F
330
62127
100
AcDbEntity
  8
0
100
AcDbVertex
100
AcDbPolygonMeshVertex
 10
0.0052
 20
0.5215000000000001
 30
0.187
 70
    64
  0
VERTEX
  5
62130
330
62127
100
AcDbEntity
  8
0
100
AcDbVertex
100
AcDbPolygonMeshVertex
 10
0.0052
 20
-1.685499999999999
 30
0.187
 70
    64
  0
VERTEX
  5
62131
330
62127
100
AcDbEntity
  8
0
100
AcDbVertex
100
AcDbPolygonMeshVertex
 10
0.3962
 20
0.5215000000000001
 30
1.318
 70
    64
  0
VERTEX
  5
62132
330
62127
100
AcDbEntity
  8
0
100
AcDbVertex
100
AcDbPolygonMeshVertex
 10
0.3962
 20
0.5215000000000001
 30
0.187
 70
    64
  0
VERTEX
  5
62133
330
62127
100
AcDbEntity
  8
0
100
AcDbVertex
100
AcDbPolygonMeshVertex
 10
0.3962
 20
-1.685499999999999
 30
0.187
 70
    64
  0
VERTEX
  5
62134
330
62127
100
AcDbEntity
  8
0
100
AcDbVertex
100
AcDbPolygonMeshVertex
 10
0.3962
 20
0.5215000000000001
 30
1.318
 70
    64
  0
VERTEX
  5
62135
330
62127
100
AcDbEntity
  8
0
100
AcDbVertex
100
AcDbPolygonMeshVertex
 10
0.3962
 20
0.5215000000000001
 30
1.318
 70
    64
  0
VERTEX
  5
62136
330
62127
100
AcDbEntity
  8
0
100
AcDbVertex
100
AcDbPolygonMeshVertex
 10
0.3962
 20
-1.685499999999999
 30
1.318
 70
    64
  0
VERTEX
  5
62137
330
62127
100
AcDbEntity
  8
0
100
AcDbVertex
100
AcDbPolygonMeshVertex
 10
0.0052
 20
0.5215000000000001
 30
1.318
 70
    64
  0
VERTEX
  5
62138
330
62127
100
AcDbEntity
  8
0
100
AcDbVertex
100
AcDbPolygonMeshVertex
 10
0.0052
 20
0.5215000000000001
 30
1.318
 70
    64
  0
VERTEX
  5
62139
330
62127
100
AcDbEntity
  8
0
100
AcDbVertex
100
AcDbPolygonMeshVertex
 10
0.0052
 20
-1.685499999999999
 30
1.318
 70
    64
  0
SEQEND
  5
6213A
330
62127
100
AcDbEntity
  8
0
  0
POLYLINE
  5
6213B
330
458D6
100
AcDbEntity
  8
0
100
AcDbPolygonMesh
 66
     1
 10
0.0
 20
0.0
 30
0.0
 70
    16
 71
     6
 72
     3
  0
VERTEX
  5
6213C
330
6213B
100
AcDbEntity
  8
0
100
AcDbVertex
100
AcDbPolygonMeshVertex
 10
1.765199999999999
 20
-1.9685
 30
1.318
 70
    64
  0
VERTEX
  5
6213D
330
6213B
100
AcDbEntity
  8
0
100
AcDbVertex
100
AcDbPolygonMeshVertex
 10
1.765199999999999
 20
-1.9685
 30
0.187
 70
    64
  0
VERTEX
  5
6213E
330
6213B
100
AcDbEntity
  8
0
100
AcDbVertex
100
AcDbPolygonMeshVertex
 10
1.765199999999999
 20
-1.9685
 30
0.187
 70
    64
  0
VERTEX
  5
6213F
330
6213B
100
AcDbEntity
  8
0
100
AcDbVertex
100
AcDbPolygonMeshVertex
 10
1.374199999999999
 20
-1.9685
 30
1.318
 70
    64
  0
VERTEX
  5
62140
330
6213B
100
AcDbEntity
  8
0
100
AcDbVertex
100
AcDbPolygonMeshVertex
 10
1.374199999999999
 20
-1.9685
 30
0.187
 70
    64
  0
VERTEX
  5
62141
330
6213B
100
AcDbEntity
  8
0
100
AcDbVertex
100
AcDbPolygonMeshVertex
 10
1.374199999999999
 20
-1.9685
 30
0.187
 70
    64
  0
VERTEX
  5
62142
330
6213B
100
AcDbEntity
  8
0
100
AcDbVertex
100
AcDbPolygonMeshVertex
 10
1.374199999999999
 20
0.2384999999999997
 30
1.318
 70
    64
  0
VERTEX
  5
62143
330
6213B
100
AcDbEntity
  8
0
100
AcDbVertex
100
AcDbPolygonMeshVertex
 10
1.374199999999999
 20
0.2384999999999997
 30
0.187
 70
    64
  0
VERTEX
  5
62144
330
6213B
100
AcDbEntity
  8
0
100
AcDbVertex
100
AcDbPolygonMeshVertex
 10
1.374199999999999
 20
-1.9685
 30
0.187
 70
    64
  0
VERTEX
  5
62145
330
6213B
100
AcDbEntity
  8
0
100
AcDbVertex
100
AcDbPolygonMeshVertex
 10
1.765199999999999
 20
0.2384999999999997
 30
1.318
 70
    64
  0
VERTEX
  5
62146
330
6213B
100
AcDbEntity
  8
0
100
AcDbVertex
100
AcDbPolygonMeshVertex
 10
1.765199999999999
 20
0.2384999999999997
 30
0.187
 70
    64
  0
VERTEX
  5
62147
330
6213B
100
AcDbEntity
  8
0
100
AcDbVertex
100
AcDbPolygonMeshVertex
 10
1.765199999999999
 20
-1.9685
 30
0.187
 70
    64
  0
VERTEX
  5
62148
330
6213B
100
AcDbEntity
  8
0
100
AcDbVertex
100
AcDbPolygonMeshVertex
 10
1.765199999999999
 20
0.2384999999999997
 30
1.318
 70
    64
  0
VERTEX
  5
62149
330
6213B
100
AcDbEntity
  8
0
100
AcDbVertex
100
AcDbPolygonMeshVertex
 10
1.765199999999999
 20
0.2384999999999997
 30
1.318
 70
    64
  0
VERTEX
  5
6214A
330
6213B
100
AcDbEntity
  8
0
100
AcDbVertex
100
AcDbPolygonMeshVertex
 10
1.765199999999999
 20
-1.9685
 30
1.318
 70
    64
  0
VERTEX
  5
6214B
330
6213B
100
AcDbEntity
  8
0
100
AcDbVertex
100
AcDbPolygonMeshVertex
 10
1.374199999999999
 20
0.2384999999999997
 30
1.318
 70
    64
  0
VERTEX
  5
6214C
330
6213B
100
AcDbEntity
  8
0
100
AcDbVertex
100
AcDbPolygonMeshVertex
 10
1.374199999999999
 20
0.2384999999999997
 30
1.318
 70
    64
  0
VERTEX
  5
6214D
330
6213B
100
AcDbEntity
  8
0
100
AcDbVertex
100
AcDbPolygonMeshVertex
 10
1.374199999999999
 20
-1.9685
 30
1.318
 70
    64
  0
SEQEND
  5
6214E
330
6213B
100
AcDbEntity
  8
0
  0
POLYLINE
  5
6214F
330
458D6
100
AcDbEntity
  8
0
100
AcDbPolygonMesh
 66
     1
 10
0.0
 20
0.0
 30
0.0
 70
    16
 71
     6
 72
     3
  0
VERTEX
  5
62150
330
6214F
100
AcDbEntity
  8
0
100
AcDbVertex
100
AcDbPolygonMeshVertex
 10
1.374199999999999
 20
-1.9685
 30
1.318
 70
    64
  0
VERTEX
  5
62151
330
6214F
100
AcDbEntity
  8
0
100
AcDbVertex
100
AcDbPolygonMeshVertex
 10
1.374199999999999
 20
-1.9685
 30
0.187
 70
    64
  0
VERTEX
  5
62152
330
6214F
100
AcDbEntity
  8
0
100
AcDbVertex
100
AcDbPolygonMeshVertex
 10
1.374199999999999
 20
-1.9685
 30
0.187
 70
    64
  0
VERTEX
  5
62153
330
6214F
100
AcDbEntity
  8
0
100
AcDbVertex
100
AcDbPolygonMeshVertex
 10
0.3962
 20
-1.9685
 30
1.318
 70
    64
  0
VERTEX
  5
62154
330
6214F
100
AcDbEntity
  8
0
100
AcDbVertex
100
AcDbPolygonMeshVertex
 10
0.3962
 20
-1.9685
 30
0.187
 70
    64
  0
VERTEX
  5
62155
330
6214F
100
AcDbEntity
  8
0
100
AcDbVertex
100
AcDbPolygonMeshVertex
 10
0.3962
 20
-1.9685
 30
0.187
 70
    64
  0
VERTEX
  5
62156
330
6214F
100
AcDbEntity
  8
0
100
AcDbVertex
100
AcDbPolygonMeshVertex
 10
0.3962
 20
0.5215000000000001
 30
1.318
 70
    64
  0
VERTEX
  5
62157
330
6214F
100
AcDbEntity
  8
0
100
AcDbVertex
100
AcDbPolygonMeshVertex
 10
0.3962
 20
0.5215000000000001
 30
0.187
 70
    64
  0
VERTEX
  5
62158
330
6214F
100
AcDbEntity
  8
0
100
AcDbVertex
100
AcDbPolygonMeshVertex
 10
0.3962
 20
-1.9685
 30
0.187
 70
    64
  0
VERTEX
  5
62159
330
6214F
100
AcDbEntity
  8
0
100
AcDbVertex
100
AcDbPolygonMeshVertex
 10
1.374199999999999
 20
0.5215000000000001
 30
1.318
 70
    64
  0
VERTEX
  5
6215A
330
6214F
100
AcDbEntity
  8
0
100
AcDbVertex
100
AcDbPolygonMeshVertex
 10
1.374199999999999
 20
0.5215000000000001
 30
0.187
 70
    64
  0
VERTEX
  5
6215B
330
6214F
100
AcDbEntity
  8
0
100
AcDbVertex
100
AcDbPolygonMeshVertex
 10
1.374199999999999
 20
-1.9685
 30
0.187
 70
    64
  0
VERTEX
  5
6215C
330
6214F
100
AcDbEntity
  8
0
100
AcDbVertex
100
AcDbPolygonMeshVertex
 10
1.374199999999999
 20
0.5215000000000001
 30
1.318
 70
    64
  0
VERTEX
  5
6215D
330
6214F
100
AcDbEntity
  8
0
100
AcDbVertex
100
AcDbPolygonMeshVertex
 10
1.374199999999999
 20
0.5215000000000001
 30
1.318
 70
    64
  0
VERTEX
  5
6215E
330
6214F
100
AcDbEntity
  8
0
100
AcDbVertex
100
AcDbPolygonMeshVertex
 10
1.374199999999999
 20
-1.9685
 30
1.318
 70
    64
  0
VERTEX
  5
6215F
330
6214F
100
AcDbEntity
  8
0
100
AcDbVertex
100
AcDbPolygonMeshVertex
 10
0.3962
 20
0.5215000000000001
 30
1.318
 70
    64
  0
VERTEX
  5
62160
330
6214F
100
AcDbEntity
  8
0
100
AcDbVertex
100
AcDbPolygonMeshVertex
 10
0.3962
 20
0.5215000000000001
 30
1.318
 70
    64
  0
VERTEX
  5
62161
330
6214F
100
AcDbEntity
  8
0
100
AcDbVertex
100
AcDbPolygonMeshVertex
 10
0.3962
 20
-1.9685
 30
1.318
 70
    64
  0
SEQEND
  5
62162
330
6214F
100
AcDbEntity
  8
0
  0
POLYLINE
  5
62163
330
458D6
100
AcDbEntity
  8
0
100
AcDbPolygonMesh
 66
     1
 10
0.0
 20
0.0
 30
0.0
 70
    16
 71
     6
 72
     3
  0
VERTEX
  5
62164
330
62163
100
AcDbEntity
  8
0
100
AcDbVertex
100
AcDbPolygonMeshVertex
 10
1.070699999999999
 20
0.7744999999999976
 30
2.06
 70
    64
  0
VERTEX
  5
62165
330
62163
100
AcDbEntity
  8
0
100
AcDbVertex
100
AcDbPolygonMeshVertex
 10
1.070699999999999
 20
0.7744999999999976
 30
1.386
 70
    64
  0
VERTEX
  5
62166
330
62163
100
AcDbEntity
  8
0
100
AcDbVertex
100
AcDbPolygonMeshVertex
 10
1.070699999999999
 20
0.7744999999999976
 30
1.386
 70
    64
  0
VERTEX
  5
62167
330
62163
100
AcDbEntity
  8
0
100
AcDbVertex
100
AcDbPolygonMeshVertex
 10
0.6996999999999997
 20
0.7744999999999976
 30
2.06
 70
    64
  0
VERTEX
  5
62168
330
62163
100
AcDbEntity
  8
0
100
AcDbVertex
100
AcDbPolygonMeshVertex
 10
0.6996999999999997
 20
0.7744999999999976
 30
1.386
 70
    64
  0
VERTEX
  5
62169
330
62163
100
AcDbEntity
  8
0
100
AcDbVertex
100
AcDbPolygonMeshVertex
 10
0.6996999999999997
 20
0.7744999999999976
 30
1.386
 70
    64
  0
VERTEX
  5
6216A
330
62163
100
AcDbEntity
  8
0
100
AcDbVertex
100
AcDbPolygonMeshVertex
 10
0.6996999999999997
 20
0.5214999999999974
 30
2.06
 70
    64
  0
VERTEX
  5
6216B
330
62163
100
AcDbEntity
  8
0
100
AcDbVertex
100
AcDbPolygonMeshVertex
 10
0.6996999999999997
 20
0.5214999999999974
 30
1.386
 70
    64
  0
VERTEX
  5
6216C
330
62163
100
AcDbEntity
  8
0
100
AcDbVertex
100
AcDbPolygonMeshVertex
 10
0.6996999999999997
 20
0.7744999999999976
 30
1.386
 70
    64
  0
VERTEX
  5
6216D
330
62163
100
AcDbEntity
  8
0
100
AcDbVertex
100
AcDbPolygonMeshVertex
 10
1.070699999999999
 20
0.5214999999999974
 30
2.06
 70
    64
  0
VERTEX
  5
6216E
330
62163
100
AcDbEntity
  8
0
100
AcDbVertex
100
AcDbPolygonMeshVertex
 10
1.070699999999999
 20
0.5214999999999974
 30
1.386
 70
    64
  0
VERTEX
  5
6216F
330
62163
100
AcDbEntity
  8
0
100
AcDbVertex
100
AcDbPolygonMeshVertex
 10
1.070699999999999
 20
0.7744999999999976
 30
1.386
 70
    64
  0
VERTEX
  5
62170
330
62163
100
AcDbEntity
  8
0
100
AcDbVertex
100
AcDbPolygonMeshVertex
 10
1.070699999999999
 20
0.5214999999999974
 30
2.06
 70
    64
  0
VERTEX
  5
62171
330
62163
100
AcDbEntity
  8
0
100
AcDbVertex
100
AcDbPolygonMeshVertex
 10
1.070699999999999
 20
0.5214999999999974
 30
2.06
 70
    64
  0
VERTEX
  5
62172
330
62163
100
AcDbEntity
  8
0
100
AcDbVertex
100
AcDbPolygonMeshVertex
 10
1.070699999999999
 20
0.7744999999999976
 30
2.06
 70
    64
  0
VERTEX
  5
62173
330
62163
100
AcDbEntity
  8
0
100
AcDbVertex
100
AcDbPolygonMeshVertex
 10
0.6996999999999997
 20
0.5214999999999974
 30
2.06
 70
    64
  0
VERTEX
  5
62174
330
62163
100
AcDbEntity
  8
0
100
AcDbVertex
100
AcDbPolygonMeshVertex
 10
0.6996999999999997
 20
0.5214999999999974
 30
2.06
 70
    64
  0
VERTEX
  5
62175
330
62163
100
AcDbEntity
  8
0
100
AcDbVertex
100
AcDbPolygonMeshVertex
 10
0.6996999999999997
 20
0.7744999999999976
 30
2.06
 70
    64
  0
SEQEND
  5
62176
330
62163
100
AcDbEntity
  8
0
  0
LWPOLYLINE
  5
62177
330
458D6
100
AcDbEntity
  8
0
100
AcDbPolyline
 90
        4
 70
     1
 43
0.0
 38
2.062
 10
0.7517000000000002
 20
0.5734999999999979
 10
1.0187
 20
0.5734999999999979
 10
1.0187
 20
0.722499999999998
 10
0.7517000000000002
 20
0.722499999999998
  0
LWPOLYLINE
  5
62178
330
458D6
100
AcDbEntity
  8
0
100
AcDbPolyline
 90
        4
 70
     1
 43
0.0
 38
1.388
 10
0.7517000000000002
 20
-2.020499999999999
 10
1.0187
 20
-2.020499999999999
 10
1.0187
 20
-2.169499999999999
 10
0.7517000000000002
 20
-2.169499999999999
  0
POLYLINE
  5
62179
330
458D6
100
AcDbEntity
  8
0
100
AcDbPolygonMesh
 66
     1
 10
0.0
 20
0.0
 30
0.0
 70
    16
 71
     6
 72
     3
  0
VERTEX
  5
6217A
330
62179
100
AcDbEntity
  8
0
100
AcDbVertex
100
AcDbPolygonMeshVertex
 10
0.3326999999999987
 20
-2.405500000000002
 30
2.06
 70
    64
  0
VERTEX
  5
6217B
330
62179
100
AcDbEntity
  8
0
100
AcDbVertex
100
AcDbPolygonMeshVertex
 10
0.3326999999999987
 20
-2.405500000000002
 30
1.386
 70
    64
  0
VERTEX
  5
6217C
330
62179
100
AcDbEntity
  8
0
100
AcDbVertex
100
AcDbPolygonMeshVertex
 10
0.3326999999999987
 20
-2.405500000000002
 30
1.386
 70
    64
  0
VERTEX
  5
6217D
330
62179
100
AcDbEntity
  8
0
100
AcDbVertex
100
AcDbPolygonMeshVertex
 10
1.437699999999999
 20
-2.405500000000002
 30
2.06
 70
    64
  0
VERTEX
  5
6217E
330
62179
100
AcDbEntity
  8
0
100
AcDbVertex
100
AcDbPolygonMeshVertex
 10
1.437699999999999
 20
-2.405500000000002
 30
1.386
 70
    64
  0
VERTEX
  5
6217F
330
62179
100
AcDbEntity
  8
0
100
AcDbVertex
100
AcDbPolygonMeshVertex
 10
1.437699999999999
 20
-2.405500000000002
 30
1.386
 70
    64
  0
VERTEX
  5
62180
330
62179
100
AcDbEntity
  8
0
100
AcDbVertex
100
AcDbPolygonMeshVertex
 10
1.437699999999999
 20
-1.968500000000002
 30
2.06
 70
    64
  0
VERTEX
  5
62181
330
62179
100
AcDbEntity
  8
0
100
AcDbVertex
100
AcDbPolygonMeshVertex
 10
1.437699999999999
 20
-1.968500000000002
 30
1.386
 70
    64
  0
VERTEX
  5
62182
330
62179
100
AcDbEntity
  8
0
100
AcDbVertex
100
AcDbPolygonMeshVertex
 10
1.437699999999999
 20
-2.405500000000002
 30
1.386
 70
    64
  0
VERTEX
  5
62183
330
62179
100
AcDbEntity
  8
0
100
AcDbVertex
100
AcDbPolygonMeshVertex
 10
0.3326999999999987
 20
-1.968500000000002
 30
2.06
 70
    64
  0
VERTEX
  5
62184
330
62179
100
AcDbEntity
  8
0
100
AcDbVertex
100
AcDbPolygonMeshVertex
 10
0.3326999999999987
 20
-1.968500000000002
 30
1.386
 70
    64
  0
VERTEX
  5
62185
330
62179
100
AcDbEntity
  8
0
100
AcDbVertex
100
AcDbPolygonMeshVertex
 10
0.3326999999999987
 20
-2.405500000000002
 30
1.386
 70
    64
  0
VERTEX
  5
62186
330
62179
100
AcDbEntity
  8
0
100
AcDbVertex
100
AcDbPolygonMeshVertex
 10
0.3326999999999987
 20
-1.968500000000002
 30
2.06
 70
    64
  0
VERTEX
  5
62187
330
62179
100
AcDbEntity
  8
0
100
AcDbVertex
100
AcDbPolygonMeshVertex
 10
0.3326999999999987
 20
-1.968500000000002
 30
2.06
 70
    64
  0
VERTEX
  5
62188
330
62179
100
AcDbEntity
  8
0
100
AcDbVertex
100
AcDbPolygonMeshVertex
 10
0.3326999999999987
 20
-2.405500000000002
 30
2.06
 70
    64
  0
VERTEX
  5
62189
330
62179
100
AcDbEntity
  8
0
100
AcDbVertex
100
AcDbPolygonMeshVertex
 10
1.437699999999999
 20
-1.968500000000002
 30
2.06
 70
    64
  0
VERTEX
  5
6218A
330
62179
100
AcDbEntity
  8
0
100
AcDbVertex
100
AcDbPolygonMeshVertex
 10
1.437699999999999
 20
-1.968500000000002
 30
2.06
 70
    64
  0
VERTEX
  5
6218B
330
62179
100
AcDbEntity
  8
0
100
AcDbVertex
100
AcDbPolygonMeshVertex
 10
1.437699999999999
 20
-2.405500000000002
 30
2.06
 70
    64
  0
SEQEND
  5
6218C
330
62179
100
AcDbEntity
  8
0
  0
LINE
  5
6218D
330
458D6
100
AcDbEntity
  8
0
100
AcDbLine
 10
0.7451999999999993
 20
-1.968500000000002
 30
2.06
 11
0.7451999999999993
 21
-2.203500000000001
 31
2.06
  0
LINE
  5
6218E
330
458D6
100
AcDbEntity
  8
0
100
AcDbLine
 10
1.025199999999998
 20
-1.968500000000002
 30
2.06
 11
1.025199999999998
 21
-2.203500000000001
 31
2.06
  0
LINE
  5
6218F
330
458D6
100
AcDbEntity
  8
0
100
AcDbLine
 10
1.025199999999998
 20
-2.203500000000001
 30
2.06
 11
0.7451999999999993
 21
-2.203500000000001
 31
2.06
  0
CIRCLE
  5
62190
330
458D6
100
AcDbEntity
  8
0
100
AcDbCircle
 10
0.5461999999999968
 20
-2.187000000000001
 30
2.06
 40
0.12
  0
CIRCLE
  5
62191
330
458D6
100
AcDbEntity
  8
0
100
AcDbCircle
 10
1.224200000000001
 20
-2.187000000000001
 30
2.06
 40
0.12
  0
POLYLINE
  5
62192
330
458D6
100
AcDbEntity
  8
0
100
AcDb3dPolyline
 66
     1
 10
0.0
 20
0.0
 30
0.0
 70
     8
  0
VERTEX
  5
62193
330
62192
100
AcDbEntity
  8
0
100
AcDbVertex
100
AcDb3dPolylineVertex
 10
1.765199999999999
 20
-1.352499999999999
 30
0.187
 70
    32
  0
VERTEX
  5
62194
330
62192
100
AcDbEntity
  8
0
100
AcDbVertex
100
AcDb3dPolylineVertex
 10
1.765199999999999
 20
-1.352499999999999
 30
1.056999999999999
 70
    32
  0
VERTEX
  5
62195
330
62192
100
AcDbEntity
  8
0
100
AcDbVertex
100
AcDb3dPolylineVertex
 10
1.765199999999999
 20
-1.507499999999999
 30
1.056999999999999
 70
    32
  0
VERTEX
  5
62196
330
62192
100
AcDbEntity
  8
0
100
AcDbVertex
100
AcDb3dPolylineVertex
 10
1.765199999999999
 20
-1.507499999999999
 30
0.187
 70
    32
  0
SEQEND
  5
62197
330
62192
100
AcDbEntity
  8
0
  0
POLYLINE
  5
62198
330
458D6
100
AcDbEntity
  8
0
100
AcDb3dPolyline
 66
     1
 10
0.0
 20
0.0
 30
0.0
 70
     8
  0
VERTEX
  5
62199
330
62198
100
AcDbEntity
  8
0
100
AcDbVertex
100
AcDb3dPolylineVertex
 10
1.765199999999999
 20
0.0265
 30
0.187
 70
    32
  0
VERTEX
  5
6219A
330
62198
100
AcDbEntity
  8
0
100
AcDbVertex
100
AcDb3dPolylineVertex
 10
1.765199999999999
 20
0.0265
 30
1.056999999999999
 70
    32
  0
VERTEX
  5
6219B
330
62198
100
AcDbEntity
  8
0
100
AcDbVertex
100
AcDb3dPolylineVertex
 10
1.765199999999999
 20
-0.1285000000000003
 30
1.056999999999999
 70
    32
  0
VERTEX
  5
6219C
330
62198
100
AcDbEntity
  8
0
100
AcDbVertex
100
AcDb3dPolylineVertex
 10
1.765199999999999
 20
-0.1285000000000003
 30
0.187
 70
    32
  0
SEQEND
  5
6219D
330
62198
100
AcDbEntity
  8
0
  0
LINE
  5
6219E
330
458D6
100
AcDbEntity
  8
0
100
AcDbLine
 10
1.765199999999999
 20
-0.6294999999999998
 30
0.5170000000000002
 11
1.765199999999999
 21
-0.8515
 31
0.5170000000000002
  0
LINE
  5
6219F
330
458D6
100
AcDbEntity
  8
0
100
AcDbLine
 10
1.765199999999999
 20
-0.8515
 30
0.5170000000000002
 11
1.765199999999999
 21
-0.8515
 31
0.187
  0
LINE
  5
621A0
330
458D6
100
AcDbEntity
  8
0
100
AcDbLine
 10
1.765199999999999
 20
-0.6294999999999998
 30
0.5170000000000002
 11
1.765199999999999
 21
-0.6294999999999998
 31
0.187
  0
POLYLINE
  5
621A1
330
458D6
100
AcDbEntity
  8
0
100
AcDb3dPolyline
 66
     1
 10
0.0
 20
0.0
 30
0.0
 70
     8
  0
VERTEX
  5
621A2
330
621A1
100
AcDbEntity
  8
0
100
AcDbVertex
100
AcDb3dPolylineVertex
 10
0.0052
 20
0.0265
 30
0.187
 70
    32
  0
VERTEX
  5
621A3
330
621A1
100
AcDbEntity
  8
0
100
AcDbVertex
100
AcDb3dPolylineVertex
 10
0.0052
 20
0.0265
 30
1.056999999999999
 70
    32
  0
VERTEX
  5
621A4
330
621A1
100
AcDbEntity
  8
0
100
AcDbVertex
100
AcDb3dPolylineVertex
 10
0.0052
 20
-0.1285000000000003
 30
1.056999999999999
 70
    32
  0
VERTEX
  5
621A5
330
621A1
100
AcDbEntity
  8
0
100
AcDbVertex
100
AcDb3dPolylineVertex
 10
0.0052
 20
-0.1285000000000003
 30
0.187
 70
    32
  0
SEQEND
  5
621A6
330
621A1
100
AcDbEntity
  8
0
  0
POLYLINE
  5
621A7
330
458D6
100
AcDbEntity
  8
0
100
AcDb3dPolyline
 66
     1
 10
0.0
 20
0.0
 30
0.0
 70
     8
  0
VERTEX
  5
621A8
330
621A7
100
AcDbEntity
  8
0
100
AcDbVertex
100
AcDb3dPolylineVertex
 10
0.0052
 20
-1.352499999999999
 30
0.187
 70
    32
  0
VERTEX
  5
621A9
330
621A7
100
AcDbEntity
  8
0
100
AcDbVertex
100
AcDb3dPolylineVertex
 10
0.0052
 20
-1.352499999999999
 30
1.056999999999999
 70
    32
  0
VERTEX
  5
621AA
330
621A7
100
AcDbEntity
  8
0
100
AcDbVertex
100
AcDb3dPolylineVertex
 10
0.0052
 20
-1.507499999999999
 30
1.056999999999999
 70
    32
  0
VERTEX
  5
621AB
330
621A7
100
AcDbEntity
  8
0
100
AcDbVertex
100
AcDb3dPolylineVertex
 10
0.0052
 20
-1.507499999999999
 30
0.187
 70
    32
  0
SEQEND
  5
621AC
330
621A7
100
AcDbEntity
  8
0
  0
LINE
  5
621AD
330
458D6
100
AcDbEntity
  8
0
100
AcDbLine
 10
1.765199999999999
 20
-1.5675
 30
0.187
 11
1.765199999999999
 21
-1.5675
 31
0.0
  0
LINE
  5
621AE
330
458D6
100
AcDbEntity
  8
0
100
AcDbLine
 10
1.765199999999999
 20
-1.5675
 30
0.0
 11
0.8851999999999998
 21
-1.5675
 31
0.0
  0
POLYLINE
  5
621AF
330
458D6
100
AcDbEntity
  8
0
100
AcDbPolygonMesh
 66
     1
 10
0.0
 20
0.0
 30
0.0
 70
    16
 71
     6
 72
     3
  0
VERTEX
  5
621B0
330
621AF
100
AcDbEntity
  8
0
100
AcDbVertex
100
AcDbPolygonMeshVertex
 10
0.8852000000000007
 20
-1.5675
 30
0.187
 70
    64
  0
VERTEX
  5
621B1
330
621AF
100
AcDbEntity
  8
0
100
AcDbVertex
100
AcDbPolygonMeshVertex
 10
0.8852000000000007
 20
-1.5675
 30
0.0
 70
    64
  0
VERTEX
  5
621B2
330
621AF
100
AcDbEntity
  8
0
100
AcDbVertex
100
AcDbPolygonMeshVertex
 10
0.8852000000000007
 20
-1.5675
 30
0.0
 70
    64
  0
VERTEX
  5
621B3
330
621AF
100
AcDbEntity
  8
0
100
AcDbVertex
100
AcDbPolygonMeshVertex
 10
1.765199999999999
 20
-1.5675
 30
0.187
 70
    64
  0
VERTEX
  5
621B4
330
621AF
100
AcDbEntity
  8
0
100
AcDbVertex
100
AcDbPolygonMeshVertex
 10
1.765199999999999
 20
-1.5675
 30
0.0
 70
    64
  0
VERTEX
  5
621B5
330
621AF
100
AcDbEntity
  8
0
100
AcDbVertex
100
AcDbPolygonMeshVertex
 10
1.765199999999999
 20
-1.5675
 30
0.0
 70
    64
  0
VERTEX
  5
621B6
330
621AF
100
AcDbEntity
  8
0
100
AcDbVertex
100
AcDbPolygonMeshVertex
 10
1.765199999999999
 20
-2.165499999999999
 30
0.187
 70
    64
  0
VERTEX
  5
621B7
330
621AF
100
AcDbEntity
  8
0
100
AcDbVertex
100
AcDbPolygonMeshVertex
 10
1.765199999999999
 20
-2.165499999999999
 30
0.0
 70
    64
  0
VERTEX
  5
621B8
330
621AF
100
AcDbEntity
  8
0
100
AcDbVertex
100
AcDbPolygonMeshVertex
 10
1.765199999999999
 20
-1.5675
 30
0.0
 70
    64
  0
VERTEX
  5
621B9
330
621AF
100
AcDbEntity
  8
0
100
AcDbVertex
100
AcDbPolygonMeshVertex
 10
0.8852000000000007
 20
-2.165499999999999
 30
0.187
 70
    64
  0
VERTEX
  5
621BA
330
621AF
100
AcDbEntity
  8
0
100
AcDbVertex
100
AcDbPolygonMeshVertex
 10
0.8852000000000007
 20
-2.165499999999999
 30
0.0
 70
    64
  0
VERTEX
  5
621BB
330
621AF
100
AcDbEntity
  8
0
100
AcDbVertex
100
AcDbPolygonMeshVertex
 10
0.8852000000000007
 20
-1.5675
 30
0.0
 70
    64
  0
VERTEX
  5
621BC
330
621AF
100
AcDbEntity
  8
0
100
AcDbVertex
100
AcDbPolygonMeshVertex
 10
0.8852000000000007
 20
-2.165499999999999
 30
0.187
 70
    64
  0
VERTEX
  5
621BD
330
621AF
100
AcDbEntity
  8
0
100
AcDbVertex
100
AcDbPolygonMeshVertex
 10
0.8852000000000007
 20
-2.165499999999999
 30
0.187
 70
    64
  0
VERTEX
  5
621BE
330
621AF
100
AcDbEntity
  8
0
100
AcDbVertex
100
AcDbPolygonMeshVertex
 10
0.8852000000000007
 20
-1.5675
 30
0.187
 70
    64
  0
VERTEX
  5
621BF
330
621AF
100
AcDbEntity
  8
0
100
AcDbVertex
100
AcDbPolygonMeshVertex
 10
1.765199999999999
 20
-2.165499999999999
 30
0.187
 70
    64
  0
VERTEX
  5
621C0
330
621AF
100
AcDbEntity
  8
0
100
AcDbVertex
100
AcDbPolygonMeshVertex
 10
1.765199999999999
 20
-2.165499999999999
 30
0.187
 70
    64
  0
VERTEX
  5
621C1
330
621AF
100
AcDbEntity
  8
0
100
AcDbVertex
100
AcDbPolygonMeshVertex
 10
1.765199999999999
 20
-1.5675
 30
0.187
 70
    64
  0
SEQEND
  5
621C2
330
621AF
100
AcDbEntity
  8
0
  0
POLYLINE
  5
621C3
330
458D6
100
AcDbEntity
  8
0
100
AcDbPolygonMesh
 66
     1
 10
0.0
 20
0.0
 30
0.0
 70
    16
 71
     6
 72
     3
  0
VERTEX
  5
621C4
330
621C3
100
AcDbEntity
  8
0
100
AcDbVertex
100
AcDbPolygonMeshVertex
 10
0.0052
 20
0.7185000000000002
 30
0.187
 70
    64
  0
VERTEX
  5
621C5
330
621C3
100
AcDbEntity
  8
0
100
AcDbVertex
100
AcDbPolygonMeshVertex
 10
0.0052
 20
0.7185000000000002
 30
0.0
 70
    64
  0
VERTEX
  5
621C6
330
621C3
100
AcDbEntity
  8
0
100
AcDbVertex
100
AcDbPolygonMeshVertex
 10
0.0052
 20
0.7185000000000002
 30
0.0
 70
    64
  0
VERTEX
  5
621C7
330
621C3
100
AcDbEntity
  8
0
100
AcDbVertex
100
AcDbPolygonMeshVertex
 10
0.8851999999999989
 20
0.7185000000000002
 30
0.187
 70
    64
  0
VERTEX
  5
621C8
330
621C3
100
AcDbEntity
  8
0
100
AcDbVertex
100
AcDbPolygonMeshVertex
 10
0.8851999999999989
 20
0.7185000000000002
 30
0.0
 70
    64
  0
VERTEX
  5
621C9
330
621C3
100
AcDbEntity
  8
0
100
AcDbVertex
100
AcDbPolygonMeshVertex
 10
0.8851999999999989
 20
0.7185000000000002
 30
0.0
 70
    64
  0
VERTEX
  5
621CA
330
621C3
100
AcDbEntity
  8
0
100
AcDbVertex
100
AcDbPolygonMeshVertex
 10
0.8851999999999989
 20
0.1205000000000003
 30
0.187
 70
    64
  0
VERTEX
  5
621CB
330
621C3
100
AcDbEntity
  8
0
100
AcDbVertex
100
AcDbPolygonMeshVertex
 10
0.8851999999999989
 20
0.1205000000000003
 30
0.0
 70
    64
  0
VERTEX
  5
621CC
330
621C3
100
AcDbEntity
  8
0
100
AcDbVertex
100
AcDbPolygonMeshVertex
 10
0.8851999999999989
 20
0.7185000000000002
 30
0.0
 70
    64
  0
VERTEX
  5
621CD
330
621C3
100
AcDbEntity
  8
0
100
AcDbVertex
100
AcDbPolygonMeshVertex
 10
0.0052
 20
0.1205000000000003
 30
0.187
 70
    64
  0
VERTEX
  5
621CE
330
621C3
100
AcDbEntity
  8
0
100
AcDbVertex
100
AcDbPolygonMeshVertex
 10
0.0052
 20
0.1205000000000003
 30
0.0
 70
    64
  0
VERTEX
  5
621CF
330
621C3
100
AcDbEntity
  8
0
100
AcDbVertex
100
AcDbPolygonMeshVertex
 10
0.0052
 20
0.7185000000000002
 30
0.0
 70
    64
  0
VERTEX
  5
621D0
330
621C3
100
AcDbEntity
  8
0
100
AcDbVertex
100
AcDbPolygonMeshVertex
 10
0.0052
 20
0.1205000000000003
 30
0.187
 70
    64
  0
VERTEX
  5
621D1
330
621C3
100
AcDbEntity
  8
0
100
AcDbVertex
100
AcDbPolygonMeshVertex
 10
0.0052
 20
0.1205000000000003
 30
0.187
 70
    64
  0
VERTEX
  5
621D2
330
621C3
100
AcDbEntity
  8
0
100
AcDbVertex
100
AcDbPolygonMeshVertex
 10
0.0052
 20
0.7185000000000002
 30
0.187
 70
    64
  0
VERTEX
  5
621D3
330
621C3
100
AcDbEntity
  8
0
100
AcDbVertex
100
AcDbPolygonMeshVertex
 10
0.8851999999999989
 20
0.1205000000000003
 30
0.187
 70
    64
  0
VERTEX
  5
621D4
330
621C3
100
AcDbEntity
  8
0
100
AcDbVertex
100
AcDbPolygonMeshVertex
 10
0.8851999999999989
 20
0.1205000000000003
 30
0.187
 70
    64
  0
VERTEX
  5
621D5
330
621C3
100
AcDbEntity
  8
0
100
AcDbVertex
100
AcDbPolygonMeshVertex
 10
0.8851999999999989
 20
0.7185000000000002
 30
0.187
 70
    64
  0
SEQEND
  5
621D6
330
621C3
100
AcDbEntity
  8
0
  0
LINE
  5
621D7
330
458D6
100
AcDbEntity
  8
0
100
AcDbLine
 10
1.765199999999996
 20
-0.8065000000000001
 30
1.8785
 11
1.765199999999996
 21
-0.6404999999999999
 31
1.8785
  0
POLYLINE
  5
621D8
330
458D6
100
AcDbEntity
  8
0
100
AcDb3dPolyline
 66
     1
 10
0.0
 20
0.0
 30
0.0
 70
     8
  0
VERTEX
  5
621D9
330
621D8
100
AcDbEntity
  8
0
100
AcDbVertex
100
AcDb3dPolylineVertex
 10
-0.0000103494035411
 20
-0.6404999999999999
 30
1.592
 70
    32
  0
VERTEX
  5
621DA
330
621D8
100
AcDbEntity
  8
0
100
AcDbVertex
100
AcDb3dPolylineVertex
 10
-0.0000103494035411
 20
-0.6404999999999999
 30
2.165
 70
    32
  0
VERTEX
  5
621DB
330
621D8
100
AcDbEntity
  8
0
100
AcDbVertex
100
AcDb3dPolylineVertex
 10
-0.0000103494035411
 20
-0.8064999999999997
 30
2.165
 70
    32
  0
VERTEX
  5
621DC
330
621D8
100
AcDbEntity
  8
0
100
AcDbVertex
100
AcDb3dPolylineVertex
 10
-0.0000103494035411
 20
-0.8065000000000001
 30
1.592
 70
    32
  0
VERTEX
  5
621DD
330
621D8
100
AcDbEntity
  8
0
100
AcDbVertex
100
AcDb3dPolylineVertex
 10
-0.0000103494035411
 20
-0.6404999999999999
 30
1.592
 70
    32
  0
SEQEND
  5
621DE
330
621D8
100
AcDbEntity
  8
0
  0
LINE
  5
621DF
330
458D6
100
AcDbEntity
  8
0
100
AcDbLine
 10
-0.0000103494035411
 20
-0.8065000000000001
 30
1.8785
 11
-0.0000103494035411
 21
-0.6404999999999999
 31
1.8785
  0
LINE
  5
621E0
330
458D6
100
AcDbEntity
  8
0
100
AcDbLine
 10
-0.0000103494035411
 20
-0.8065000000000001
 30
2.0685
 11
-0.0000103494035411
 21
-0.6404999999999999
 31
2.0685
  0
CIRCLE
  5
621E1
330
458D6
100
AcDbEntity
  8
0
100
AcDbCircle
 10
1.571199999999999
 20
0.4255
 30
0.316
 40
0.086
  0
POLYLINE
  5
621E2
330
458D6
100
AcDbEntity
  8
0
100
AcDb3dPolyline
 66
     1
 10
0.0
 20
0.0
 30
0.0
 70
     8
  0
VERTEX
  5
621E3
330
621E2
100
AcDbEntity
  8
0
100
AcDbVertex
100
AcDb3dPolylineVertex
 10
0.5505333333333319
 20
0.5215000000000001
 30
0.187
 70
    32
  0
VERTEX
  5
621E4
330
621E2
100
AcDbEntity
  8
0
100
AcDbVertex
100
AcDb3dPolylineVertex
 10
0.5505333333333319
 20
0.6564999999999999
 30
0.187
 70
    32
  0
VERTEX
  5
621E5
330
621E2
100
AcDbEntity
  8
0
100
AcDbVertex
100
AcDb3dPolylineVertex
 10
0.3398666666666662
 20
0.6564999999999999
 30
0.187
 70
    32
  0
VERTEX
  5
621E6
330
621E2
100
AcDbEntity
  8
0
100
AcDbVertex
100
AcDb3dPolylineVertex
 10
0.3398666666666662
 20
0.5215000000000001
 30
0.187
 70
    32
  0
SEQEND
  5
621E7
330
621E2
100
AcDbEntity
  8
0
  0
POLYLINE
  5
621E8
330
458D6
100
AcDbEntity
  8
0
100
AcDb3dPolyline
 66
     1
 10
0.0
 20
0.0
 30
0.0
 70
     8
  0
VERTEX
  5
621E9
330
621E8
100
AcDbEntity
  8
0
100
AcDbVertex
100
AcDb3dPolylineVertex
 10
0.2778666666666659
 20
0.5215000000000001
 30
0.187
 70
    32
  0
VERTEX
  5
621EA
330
621E8
100
AcDbEntity
  8
0
100
AcDbVertex
100
AcDb3dPolylineVertex
 10
0.2778666666666659
 20
0.6564999999999999
 30
0.187
 70
    32
  0
VERTEX
  5
621EB
330
621E8
100
AcDbEntity
  8
0
100
AcDbVertex
100
AcDb3dPolylineVertex
 10
0.0672000000000003
 20
0.6564999999999999
 30
0.187
 70
    32
  0
VERTEX
  5
621EC
330
621E8
100
AcDbEntity
  8
0
100
AcDbVertex
100
AcDb3dPolylineVertex
 10
0.0672000000000003
 20
0.5215000000000001
 30
0.187
 70
    32
  0
SEQEND
  5
621ED
330
621E8
100
AcDbEntity
  8
0
  0
POLYLINE
  5
621EE
330
458D6
100
AcDbEntity
  8
0
100
AcDb3dPolyline
 66
     1
 10
0.0
 20
0.0
 30
0.0
 70
     8
  0
VERTEX
  5
621EF
330
621EE
100
AcDbEntity
  8
0
100
AcDbVertex
100
AcDb3dPolylineVertex
 10
0.8231999999999978
 20
0.5215000000000001
 30
0.187
 70
    32
  0
VERTEX
  5
621F0
330
621EE
100
AcDbEntity
  8
0
100
AcDbVertex
100
AcDb3dPolylineVertex
 10
0.8231999999999978
 20
0.6564999999999999
 30
0.187
 70
    32
  0
VERTEX
  5
621F1
330
621EE
100
AcDbEntity
  8
0
100
AcDbVertex
100
AcDb3dPolylineVertex
 10
0.6125333333333322
 20
0.6564999999999999
 30
0.187
 70
    32
  0
VERTEX
  5
621F2
330
621EE
100
AcDbEntity
  8
0
100
AcDbVertex
100
AcDb3dPolylineVertex
 10
0.6125333333333322
 20
0.5215000000000001
 30
0.187
 70
    32
  0
SEQEND
  5
621F3
330
621EE
100
AcDbEntity
  8
0
  0
POLYLINE
  5
621F4
330
458D6
100
AcDbEntity
  8
0
100
AcDb3dPolyline
 66
     1
 10
0.0
 20
0.0
 30
0.0
 70
     8
  0
VERTEX
  5
621F5
330
621F4
100
AcDbEntity
  8
0
100
AcDbVertex
100
AcDb3dPolylineVertex
 10
1.492533333333333
 20
-1.9685
 30
0.187
 70
    32
  0
VERTEX
  5
621F6
330
621F4
100
AcDbEntity
  8
0
100
AcDbVertex
100
AcDb3dPolylineVertex
 10
1.492533333333333
 20
-2.103499999999999
 30
0.187
 70
    32
  0
VERTEX
  5
621F7
330
621F4
100
AcDbEntity
  8
0
100
AcDbVertex
100
AcDb3dPolylineVertex
 10
1.703199999999998
 20
-2.103499999999999
 30
0.187
 70
    32
  0
VERTEX
  5
621F8
330
621F4
100
AcDbEntity
  8
0
100
AcDbVertex
100
AcDb3dPolylineVertex
 10
1.703199999999998
 20
-1.9685
 30
0.187
 70
    32
  0
SEQEND
  5
621F9
330
621F4
100
AcDbEntity
  8
0
  0
POLYLINE
  5
621FA
330
458D6
100
AcDbEntity
  8
0
100
AcDb3dPolyline
 66
     1
 10
0.0
 20
0.0
 30
0.0
 70
     8
  0
VERTEX
  5
621FB
330
621FA
100
AcDbEntity
  8
0
100
AcDbVertex
100
AcDb3dPolylineVertex
 10
1.219866666666667
 20
-1.9685
 30
0.187
 70
    32
  0
VERTEX
  5
621FC
330
621FA
100
AcDbEntity
  8
0
100
AcDbVertex
100
AcDb3dPolylineVertex
 10
1.219866666666667
 20
-2.103499999999999
 30
0.187
 70
    32
  0
VERTEX
  5
621FD
330
621FA
100
AcDbEntity
  8
0
100
AcDbVertex
100
AcDb3dPolylineVertex
 10
1.430533333333332
 20
-2.103499999999999
 30
0.187
 70
    32
  0
VERTEX
  5
621FE
330
621FA
100
AcDbEntity
  8
0
100
AcDbVertex
100
AcDb3dPolylineVertex
 10
1.430533333333332
 20
-1.9685
 30
0.187
 70
    32
  0
SEQEND
  5
621FF
330
621FA
100
AcDbEntity
  8
0
  0
POLYLINE
  5
62200
330
458D6
100
AcDbEntity
  8
0
100
AcDb3dPolyline
 66
     1
 10
0.0
 20
0.0
 30
0.0
 70
     8
  0
VERTEX
  5
62201
330
62200
100
AcDbEntity
  8
0
100
AcDbVertex
100
AcDb3dPolylineVertex
 10
0.9472000000000019
 20
-1.9685
 30
0.187
 70
    32
  0
VERTEX
  5
62202
330
62200
100
AcDbEntity
  8
0
100
AcDbVertex
100
AcDb3dPolylineVertex
 10
0.9472000000000019
 20
-2.103499999999999
 30
0.187
 70
    32
  0
VERTEX
  5
62203
330
62200
100
AcDbEntity
  8
0
100
AcDbVertex
100
AcDb3dPolylineVertex
 10
1.157866666666666
 20
-2.103499999999999
 30
0.187
 70
    32
  0
VERTEX
  5
62204
330
62200
100
AcDbEntity
  8
0
100
AcDbVertex
100
AcDb3dPolylineVertex
 10
1.157866666666666
 20
-1.9685
 30
0.187
 70
    32
  0
SEQEND
  5
62205
330
62200
100
AcDbEntity
  8
0
  0
CIRCLE
  5
62206
330
458D6
100
AcDbEntity
  8
0
100
AcDbCircle
 10
0.1912000000000008
 20
-1.934499999999999
 30
0.316
 40
0.086
  0
INSERT
  5
62207
330
458D6
100
AcDbEntity
  8
0
 62
     1
100
AcDbBlockReference
  2
AVE_RENDER
 10
-6.627509659116597
 20
-2.735105295632668
 30
0.0
1001
AVE_RENDER
1002
{
1070
     2
1000
Pref
1070
    30
1070
    20
1070
     0
1070
     0
1000

1070
    10
1070
     0
1070
    30
1040
1.0
1070
     1
1040
0.3
1040
0.4
1040
0.76
1040
1.538461538461538
1010
-1.0
1020
-1.0
1030
-1.0
1040
0.3
1070
    49
1002
}
  0
INSERT
  5
62208
330
458D6
100
AcDbEntity
  8
0
 62
     3
100
AcDbBlockReference
  2
AVE_RENDER
 10
-6.627509659116597
 20
-2.735105295632668
 30
0.0
1001
AVE_RENDER
1002
{
1070
     0
1000
Full Opt
1070
     0
1070
     1
1070
     1
1070
     1
1070
     0
1070
     0
1070
     0
1070
     1
1070
     1
1040
0.0001
1040
0.0001
1002
}
  0
INSERT
  5
62209
330
458D6
100
AcDbEntity
  8
0
 62
     4
100
AcDbBlockReference
  2
AVE_RENDER
 10
-6.627509659116597
 20
-2.735105295632668
 30
0.0
1001
AVE_RENDER
1002
{
1070
     0
1000
Quick Opt
1070
     0
1070
     1
1070
     1
1070
     1
1070
     0
1070
     0
1070
     1
1002
}
  0
CIRCLE
  5
6220A
330
458D6
100
AcDbEntity
  8
0
100
AcDbCircle
 10
0.1911999999999999
 20
-1.934499999999999
 30
0.0
 40
0.086
  0
CIRCLE
  5
6220B
330
458D6
100
AcDbEntity
  8
0
100
AcDbCircle
 10
1.571199999999999
 20
0.4255
 30
0.0
 40
0.086
  0
POLYLINE
  5
6220C
330
458D6
100
AcDbEntity
  8
0
100
AcDb3dPolyline
 66
     1
 10
0.0
 20
0.0
 30
0.0
 70
     8
  0
VERTEX
  5
6220D
330
6220C
100
AcDbEntity
  8
0
100
AcDbVertex
100
AcDb3dPolylineVertex
 10
0.9472000000000019
 20
-1.9685
 30
-0.0000000000000001
 70
    32
  0
VERTEX
  5
6220E
330
6220C
100
AcDbEntity
  8
0
100
AcDbVertex
100
AcDb3dPolylineVertex
 10
0.9472000000000019
 20
-2.103499999999999
 30
0.0
 70
    32
  0
VERTEX
  5
6220F
330
6220C
100
AcDbEntity
  8
0
100
AcDbVertex
100
AcDb3dPolylineVertex
 10
1.157866666666666
 20
-2.103499999999999
 30
0.0
 70
    32
  0
VERTEX
  5
62210
330
6220C
100
AcDbEntity
  8
0
100
AcDbVertex
100
AcDb3dPolylineVertex
 10
1.157866666666666
 20
-1.9685
 30
-0.0000000000000001
 70
    32
  0
SEQEND
  5
62211
330
6220C
100
AcDbEntity
  8
0
  0
POLYLINE
  5
62212
330
458D6
100
AcDbEntity
  8
0
100
AcDb3dPolyline
 66
     1
 10
0.0
 20
0.0
 30
0.0
 70
     8
  0
VERTEX
  5
62213
330
62212
100
AcDbEntity
  8
0
100
AcDbVertex
100
AcDb3dPolylineVertex
 10
1.219866666666667
 20
-1.9685
 30
-0.0000000000000001
 70
    32
  0
VERTEX
  5
62214
330
62212
100
AcDbEntity
  8
0
100
AcDbVertex
100
AcDb3dPolylineVertex
 10
1.219866666666667
 20
-2.103499999999999
 30
0.0
 70
    32
  0
VERTEX
  5
62215
330
62212
100
AcDbEntity
  8
0
100
AcDbVertex
100
AcDb3dPolylineVertex
 10
1.430533333333332
 20
-2.103499999999999
 30
0.0
 70
    32
  0
VERTEX
  5
62216
330
62212
100
AcDbEntity
  8
0
100
AcDbVertex
100
AcDb3dPolylineVertex
 10
1.430533333333332
 20
-1.9685
 30
-0.0000000000000001
 70
    32
  0
SEQEND
  5
62217
330
62212
100
AcDbEntity
  8
0
  0
POLYLINE
  5
62218
330
458D6
100
AcDbEntity
  8
0
100
AcDb3dPolyline
 66
     1
 10
0.0
 20
0.0
 30
0.0
 70
     8
  0
VERTEX
  5
62219
330
62218
100
AcDbEntity
  8
0
100
AcDbVertex
100
AcDb3dPolylineVertex
 10
1.492533333333333
 20
-1.9685
 30
-0.0000000000000001
 70
    32
  0
VERTEX
  5
6221A
330
62218
100
AcDbEntity
  8
0
100
AcDbVertex
100
AcDb3dPolylineVertex
 10
1.492533333333333
 20
-2.103499999999999
 30
0.0
 70
    32
  0
VERTEX
  5
6221B
330
62218
100
AcDbEntity
  8
0
100
AcDbVertex
100
AcDb3dPolylineVertex
 10
1.703199999999998
 20
-2.103499999999999
 30
0.0
 70
    32
  0
VERTEX
  5
6221C
330
62218
100
AcDbEntity
  8
0
100
AcDbVertex
100
AcDb3dPolylineVertex
 10
1.703199999999998
 20
-1.9685
 30
-0.0000000000000001
 70
    32
  0
SEQEND
  5
6221D
330
62218
100
AcDbEntity
  8
0
  0
POLYLINE
  5
6221E
330
458D6
100
AcDbEntity
  8
0
100
AcDb3dPolyline
 66
     1
 10
0.0
 20
0.0
 30
0.0
 70
     8
  0
VERTEX
  5
6221F
330
6221E
100
AcDbEntity
  8
0
100
AcDbVertex
100
AcDb3dPolylineVertex
 10
0.8231999999999978
 20
0.5215000000000001
 30
-0.0000000000000001
 70
    32
  0
VERTEX
  5
62220
330
6221E
100
AcDbEntity
  8
0
100
AcDbVertex
100
AcDb3dPolylineVertex
 10
0.8231999999999978
 20
0.6564999999999999
 30
0.0
 70
    32
  0
VERTEX
  5
62221
330
6221E
100
AcDbEntity
  8
0
100
AcDbVertex
100
AcDb3dPolylineVertex
 10
0.6125333333333322
 20
0.6564999999999999
 30
0.0
 70
    32
  0
VERTEX
  5
62222
330
6221E
100
AcDbEntity
  8
0
100
AcDbVertex
100
AcDb3dPolylineVertex
 10
0.6125333333333322
 20
0.5215000000000001
 30
-0.0000000000000001
 70
    32
  0
SEQEND
  5
62223
330
6221E
100
AcDbEntity
  8
0
  0
POLYLINE
  5
62224
330
458D6
100
AcDbEntity
  8
0
100
AcDb3dPolyline
 66
     1
 10
0.0
 20
0.0
 30
0.0
 70
     8
  0
VERTEX
  5
62225
330
62224
100
AcDbEntity
  8
0
100
AcDbVertex
100
AcDb3dPolylineVertex
 10
0.5505333333333319
 20
0.5215000000000001
 30
-0.0000000000000001
 70
    32
  0
VERTEX
  5
62226
330
62224
100
AcDbEntity
  8
0
100
AcDbVertex
100
AcDb3dPolylineVertex
 10
0.5505333333333319
 20
0.6564999999999999
 30
0.0
 70
    32
  0
VERTEX
  5
62227
330
62224
100
AcDbEntity
  8
0
100
AcDbVertex
100
AcDb3dPolylineVertex
 10
0.3398666666666662
 20
0.6564999999999999
 30
0.0
 70
    32
  0
VERTEX
  5
62228
330
62224
100
AcDbEntity
  8
0
100
AcDbVertex
100
AcDb3dPolylineVertex
 10
0.3398666666666662
 20
0.5215000000000001
 30
-0.0000000000000001
 70
    32
  0
SEQEND
  5
62229
330
62224
100
AcDbEntity
  8
0
  0
POLYLINE
  5
6222A
330
458D6
100
AcDbEntity
  8
0
100
AcDb3dPolyline
 66
     1
 10
0.0
 20
0.0
 30
0.0
 70
     8
  0
VERTEX
  5
6222B
330
6222A
100
AcDbEntity
  8
0
100
AcDbVertex
100
AcDb3dPolylineVertex
 10
0.2778666666666659
 20
0.5215000000000001
 30
-0.0000000000000001
 70
    32
  0
VERTEX
  5
6222C
330
6222A
100
AcDbEntity
  8
0
100
AcDbVertex
100
AcDb3dPolylineVertex
 10
0.2778666666666659
 20
0.6564999999999999
 30
0.0
 70
    32
  0
VERTEX
  5
6222D
330
6222A
100
AcDbEntity
  8
0
100
AcDbVertex
100
AcDb3dPolylineVertex
 10
0.0672000000000003
 20
0.6564999999999999
 30
0.0
 70
    32
  0
VERTEX
  5
6222E
330
6222A
100
AcDbEntity
  8
0
100
AcDbVertex
100
AcDb3dPolylineVertex
 10
0.0672000000000003
 20
0.5215000000000001
 30
-0.0000000000000001
 70
    32
  0
SEQEND
  5
6222F
330
6222A
100
AcDbEntity
  8
0
  0
LINE
  5
62230
330
458D6
100
AcDbEntity
  8
0
100
AcDbLine
 10
1.703199999999998
 20
-1.9685
 30
-0.0000000000000001
 11
1.492533333333333
 21
-1.9685
 31
-0.0000000000000001
  0
LINE
  5
62231
330
458D6
100
AcDbEntity
  8
0
100
AcDbLine
 10
1.430533333333332
 20
-1.9685
 30
-0.0000000000000001
 11
1.219866666666667
 21
-1.9685
 31
-0.0000000000000001
  0
LINE
  5
62232
330
458D6
100
AcDbEntity
  8
0
100
AcDbLine
 10
1.157866666666666
 20
-1.9685
 30
-0.0000000000000001
 11
0.9472000000000019
 21
-1.9685
 31
-0.0000000000000001
  0
LINE
  5
62233
330
458D6
100
AcDbEntity
  8
0
100
AcDbLine
 10
0.8231999999999978
 20
0.5215000000000001
 30
-0.0000000000000001
 11
0.6125333333333322
 21
0.5215000000000001
 31
-0.0000000000000001
  0
LINE
  5
62234
330
458D6
100
AcDbEntity
  8
0
100
AcDbLine
 10
0.5505333333333319
 20
0.5215000000000001
 30
-0.0000000000000001
 11
0.3398666666666662
 21
0.5215000000000001
 31
-0.0000000000000001
  0
LINE
  5
62235
330
458D6
100
AcDbEntity
  8
0
100
AcDbLine
 10
0.2778666666666659
 20
0.5215000000000001
 30
-0.0000000000000001
 11
0.0672000000000003
 21
0.5215000000000001
 31
-0.0000000000000001
  0
POLYLINE
  5
62236
330
458D6
100
AcDbEntity
  8
0
100
AcDbPolygonMesh
 66
     1
 10
0.0
 20
0.0
 30
0.0
 70
    16
 71
     6
 72
     3
  0
VERTEX
  5
62237
330
62236
100
AcDbEntity
  8
0
100
AcDbVertex
100
AcDbPolygonMeshVertex
 10
0.9057
 20
-1.985499999999999
 30
2.929
 70
    64
  0
VERTEX
  5
62238
330
62236
100
AcDbEntity
  8
0
100
AcDbVertex
100
AcDbPolygonMeshVertex
 10
0.9057
 20
-1.985499999999999
 30
2.319
 70
    64
  0
VERTEX
  5
62239
330
62236
100
AcDbEntity
  8
0
100
AcDbVertex
100
AcDbPolygonMeshVertex
 10
0.9057
 20
-1.985499999999999
 30
2.319
 70
    64
  0
VERTEX
  5
6223A
330
62236
100
AcDbEntity
  8
0
100
AcDbVertex
100
AcDbPolygonMeshVertex
 10
0.8596999999999997
 20
-1.985499999999999
 30
2.929
 70
    64
  0
VERTEX
  5
6223B
330
62236
100
AcDbEntity
  8
0
100
AcDbVertex
100
AcDbPolygonMeshVertex
 10
0.8596999999999997
 20
-1.985499999999999
 30
2.319
 70
    64
  0
VERTEX
  5
6223C
330
62236
100
AcDbEntity
  8
0
100
AcDbVertex
100
AcDbPolygonMeshVertex
 10
0.8596999999999997
 20
-1.985499999999999
 30
2.319
 70
    64
  0
VERTEX
  5
6223D
330
62236
100
AcDbEntity
  8
0
100
AcDbVertex
100
AcDbPolygonMeshVertex
 10
0.8596999999999997
 20
-1.845499999999999
 30
2.929
 70
    64
  0
VERTEX
  5
6223E
330
62236
100
AcDbEntity
  8
0
100
AcDbVertex
100
AcDbPolygonMeshVertex
 10
0.8596999999999997
 20
-1.845499999999999
 30
2.319
 70
    64
  0
VERTEX
  5
6223F
330
62236
100
AcDbEntity
  8
0
100
AcDbVertex
100
AcDbPolygonMeshVertex
 10
0.8596999999999997
 20
-1.985499999999999
 30
2.319
 70
    64
  0
VERTEX
  5
62240
330
62236
100
AcDbEntity
  8
0
100
AcDbVertex
100
AcDbPolygonMeshVertex
 10
0.9057
 20
-1.845499999999999
 30
2.929
 70
    64
  0
VERTEX
  5
62241
330
62236
100
AcDbEntity
  8
0
100
AcDbVertex
100
AcDbPolygonMeshVertex
 10
0.9057
 20
-1.845499999999999
 30
2.319
 70
    64
  0
VERTEX
  5
62242
330
62236
100
AcDbEntity
  8
0
100
AcDbVertex
100
AcDbPolygonMeshVertex
 10
0.9057
 20
-1.985499999999999
 30
2.319
 70
    64
  0
VERTEX
  5
62243
330
62236
100
AcDbEntity
  8
0
100
AcDbVertex
100
AcDbPolygonMeshVertex
 10
0.9057
 20
-1.845499999999999
 30
2.929
 70
    64
  0
VERTEX
  5
62244
330
62236
100
AcDbEntity
  8
0
100
AcDbVertex
100
AcDbPolygonMeshVertex
 10
0.9057
 20
-1.845499999999999
 30
2.929
 70
    64
  0
VERTEX
  5
62245
330
62236
100
AcDbEntity
  8
0
100
AcDbVertex
100
AcDbPolygonMeshVertex
 10
0.9057
 20
-1.985499999999999
 30
2.929
 70
    64
  0
VERTEX
  5
62246
330
62236
100
AcDbEntity
  8
0
100
AcDbVertex
100
AcDbPolygonMeshVertex
 10
0.8596999999999997
 20
-1.845499999999999
 30
2.929
 70
    64
  0
VERTEX
  5
62247
330
62236
100
AcDbEntity
  8
0
100
AcDbVertex
100
AcDbPolygonMeshVertex
 10
0.8596999999999997
 20
-1.845499999999999
 30
2.929
 70
    64
  0
VERTEX
  5
62248
330
62236
100
AcDbEntity
  8
0
100
AcDbVertex
100
AcDbPolygonMeshVertex
 10
0.8596999999999997
 20
-1.985499999999999
 30
2.929
 70
    64
  0
SEQEND
  5
62249
330
62236
100
AcDbEntity
  8
0
  0
POLYLINE
  5
6224A
330
458D6
100
AcDbEntity
  8
0
100
AcDbPolygonMesh
 66
     1
 10
0.0
 20
0.0
 30
0.0
 70
    16
 71
     6
 72
     3
  0
VERTEX
  5
6224B
330
6224A
100
AcDbEntity
  8
0
100
AcDbVertex
100
AcDbPolygonMeshVertex
 10
1.33545
 20
-1.985499999999999
 30
2.929
 70
    64
  0
VERTEX
  5
6224C
330
6224A
100
AcDbEntity
  8
0
100
AcDbVertex
100
AcDbPolygonMeshVertex
 10
1.33545
 20
-1.985499999999999
 30
2.319
 70
    64
  0
VERTEX
  5
6224D
330
6224A
100
AcDbEntity
  8
0
100
AcDbVertex
100
AcDbPolygonMeshVertex
 10
1.33545
 20
-1.985499999999999
 30
2.319
 70
    64
  0
VERTEX
  5
6224E
330
6224A
100
AcDbEntity
  8
0
100
AcDbVertex
100
AcDbPolygonMeshVertex
 10
1.28945
 20
-1.985499999999999
 30
2.929
 70
    64
  0
VERTEX
  5
6224F
330
6224A
100
AcDbEntity
  8
0
100
AcDbVertex
100
AcDbPolygonMeshVertex
 10
1.28945
 20
-1.985499999999999
 30
2.319
 70
    64
  0
VERTEX
  5
62250
330
6224A
100
AcDbEntity
  8
0
100
AcDbVertex
100
AcDbPolygonMeshVertex
 10
1.28945
 20
-1.985499999999999
 30
2.319
 70
    64
  0
VERTEX
  5
62251
330
6224A
100
AcDbEntity
  8
0
100
AcDbVertex
100
AcDbPolygonMeshVertex
 10
1.28945
 20
-1.845499999999999
 30
2.929
 70
    64
  0
VERTEX
  5
62252
330
6224A
100
AcDbEntity
  8
0
100
AcDbVertex
100
AcDbPolygonMeshVertex
 10
1.28945
 20
-1.845499999999999
 30
2.319
 70
    64
  0
VERTEX
  5
62253
330
6224A
100
AcDbEntity
  8
0
100
AcDbVertex
100
AcDbPolygonMeshVertex
 10
1.28945
 20
-1.985499999999999
 30
2.319
 70
    64
  0
VERTEX
  5
62254
330
6224A
100
AcDbEntity
  8
0
100
AcDbVertex
100
AcDbPolygonMeshVertex
 10
1.33545
 20
-1.845499999999999
 30
2.929
 70
    64
  0
VERTEX
  5
62255
330
6224A
100
AcDbEntity
  8
0
100
AcDbVertex
100
AcDbPolygonMeshVertex
 10
1.33545
 20
-1.845499999999999
 30
2.319
 70
    64
  0
VERTEX
  5
62256
330
6224A
100
AcDbEntity
  8
0
100
AcDbVertex
100
AcDbPolygonMeshVertex
 10
1.33545
 20
-1.985499999999999
 30
2.319
 70
    64
  0
VERTEX
  5
62257
330
6224A
100
AcDbEntity
  8
0
100
AcDbVertex
100
AcDbPolygonMeshVertex
 10
1.33545
 20
-1.845499999999999
 30
2.929
 70
    64
  0
VERTEX
  5
62258
330
6224A
100
AcDbEntity
  8
0
100
AcDbVertex
100
AcDbPolygonMeshVertex
 10
1.33545
 20
-1.845499999999999
 30
2.929
 70
    64
  0
VERTEX
  5
62259
330
6224A
100
AcDbEntity
  8
0
100
AcDbVertex
100
AcDbPolygonMeshVertex
 10
1.33545
 20
-1.985499999999999
 30
2.929
 70
    64
  0
VERTEX
  5
6225A
330
6224A
100
AcDbEntity
  8
0
100
AcDbVertex
100
AcDbPolygonMeshVertex
 10
1.28945
 20
-1.845499999999999
 30
2.929
 70
    64
  0
VERTEX
  5
6225B
330
6224A
100
AcDbEntity
  8
0
100
AcDbVertex
100
AcDbPolygonMeshVertex
 10
1.28945
 20
-1.845499999999999
 30
2.929
 70
    64
  0
VERTEX
  5
6225C
330
6224A
100
AcDbEntity
  8
0
100
AcDbVertex
100
AcDbPolygonMeshVertex
 10
1.28945
 20
-1.985499999999999
 30
2.929
 70
    64
  0
SEQEND
  5
6225D
330
6224A
100
AcDbEntity
  8
0
  0
POLYLINE
  5
6225E
330
458D6
100
AcDbEntity
  8
0
100
AcDbPolygonMesh
 66
     1
 10
0.0
 20
0.0
 30
0.0
 70
    16
 71
     6
 72
     3
  0
VERTEX
  5
6225F
330
6225E
100
AcDbEntity
  8
0
100
AcDbVertex
100
AcDbPolygonMeshVertex
 10
1.719199999999999
 20
-2.057499999999999
 30
2.319
 70
    64
  0
VERTEX
  5
62260
330
6225E
100
AcDbEntity
  8
0
100
AcDbVertex
100
AcDbPolygonMeshVertex
 10
1.719199999999999
 20
-2.057499999999999
 30
2.06
 70
    64
  0
VERTEX
  5
62261
330
6225E
100
AcDbEntity
  8
0
100
AcDbVertex
100
AcDbPolygonMeshVertex
 10
1.719199999999999
 20
-2.057499999999999
 30
2.06
 70
    64
  0
VERTEX
  5
62262
330
6225E
100
AcDbEntity
  8
0
100
AcDbVertex
100
AcDbPolygonMeshVertex
 10
0.0461999999999999
 20
-2.057499999999999
 30
2.319
 70
    64
  0
VERTEX
  5
62263
330
6225E
100
AcDbEntity
  8
0
100
AcDbVertex
100
AcDbPolygonMeshVertex
 10
0.0461999999999999
 20
-2.057499999999999
 30
2.06
 70
    64
  0
VERTEX
  5
62264
330
6225E
100
AcDbEntity
  8
0
100
AcDbVertex
100
AcDbPolygonMeshVertex
 10
0.0461999999999999
 20
-2.057499999999999
 30
2.06
 70
    64
  0
VERTEX
  5
62265
330
6225E
100
AcDbEntity
  8
0
100
AcDbVertex
100
AcDbPolygonMeshVertex
 10
0.0461999999999999
 20
-1.845499999999999
 30
2.319
 70
    64
  0
VERTEX
  5
62266
330
6225E
100
AcDbEntity
  8
0
100
AcDbVertex
100
AcDbPolygonMeshVertex
 10
0.0461999999999999
 20
-1.845499999999999
 30
2.06
 70
    64
  0
VERTEX
  5
62267
330
6225E
100
AcDbEntity
  8
0
100
AcDbVertex
100
AcDbPolygonMeshVertex
 10
0.0461999999999999
 20
-2.057499999999999
 30
2.06
 70
    64
  0
VERTEX
  5
62268
330
6225E
100
AcDbEntity
  8
0
100
AcDbVertex
100
AcDbPolygonMeshVertex
 10
1.719199999999999
 20
-1.845499999999999
 30
2.319
 70
    64
  0
VERTEX
  5
62269
330
6225E
100
AcDbEntity
  8
0
100
AcDbVertex
100
AcDbPolygonMeshVertex
 10
1.719199999999999
 20
-1.845499999999999
 30
2.06
 70
    64
  0
VERTEX
  5
6226A
330
6225E
100
AcDbEntity
  8
0
100
AcDbVertex
100
AcDbPolygonMeshVertex
 10
1.719199999999999
 20
-2.057499999999999
 30
2.06
 70
    64
  0
VERTEX
  5
6226B
330
6225E
100
AcDbEntity
  8
0
100
AcDbVertex
100
AcDbPolygonMeshVertex
 10
1.719199999999999
 20
-1.845499999999999
 30
2.319
 70
    64
  0
VERTEX
  5
6226C
330
6225E
100
AcDbEntity
  8
0
100
AcDbVertex
100
AcDbPolygonMeshVertex
 10
1.719199999999999
 20
-1.845499999999999
 30
2.319
 70
    64
  0
VERTEX
  5
6226D
330
6225E
100
AcDbEntity
  8
0
100
AcDbVertex
100
AcDbPolygonMeshVertex
 10
1.719199999999999
 20
-2.057499999999999
 30
2.319
 70
    64
  0
VERTEX
  5
6226E
330
6225E
100
AcDbEntity
  8
0
100
AcDbVertex
100
AcDbPolygonMeshVertex
 10
0.0461999999999999
 20
-1.845499999999999
 30
2.319
 70
    64
  0
VERTEX
  5
6226F
330
6225E
100
AcDbEntity
  8
0
100
AcDbVertex
100
AcDbPolygonMeshVertex
 10
0.0461999999999999
 20
-1.845499999999999
 30
2.319
 70
    64
  0
VERTEX
  5
62270
330
6225E
100
AcDbEntity
  8
0
100
AcDbVertex
100
AcDbPolygonMeshVertex
 10
0.0461999999999999
 20
-2.057499999999999
 30
2.319
 70
    64
  0
SEQEND
  5
62271
330
6225E
100
AcDbEntity
  8
0
  0
POLYLINE
  5
62272
330
458D6
100
AcDbEntity
  8
0
100
AcDbPolygonMesh
 66
     1
 10
0.0
 20
0.0
 30
0.0
 70
    16
 71
     6
 72
     3
  0
VERTEX
  5
62273
330
62272
100
AcDbEntity
  8
0
100
AcDbVertex
100
AcDbPolygonMeshVertex
 10
1.765199999999999
 20
-1.9685
 30
2.06
 70
    64
  0
VERTEX
  5
62274
330
62272
100
AcDbEntity
  8
0
100
AcDbVertex
100
AcDbPolygonMeshVertex
 10
1.765199999999999
 20
-1.9685
 30
1.318
 70
    64
  0
VERTEX
  5
62275
330
62272
100
AcDbEntity
  8
0
100
AcDbVertex
100
AcDbPolygonMeshVertex
 10
1.765199999999999
 20
-1.9685
 30
1.318
 70
    64
  0
VERTEX
  5
62276
330
62272
100
AcDbEntity
  8
0
100
AcDbVertex
100
AcDbPolygonMeshVertex
 10
0.0002000000000001
 20
-1.9685
 30
2.06
 70
    64
  0
VERTEX
  5
62277
330
62272
100
AcDbEntity
  8
0
100
AcDbVertex
100
AcDbPolygonMeshVertex
 10
0.0002000000000001
 20
-1.9685
 30
1.318
 70
    64
  0
VERTEX
  5
62278
330
62272
100
AcDbEntity
  8
0
100
AcDbVertex
100
AcDbPolygonMeshVertex
 10
0.0002000000000001
 20
-1.9685
 30
1.318
 70
    64
  0
VERTEX
  5
62279
330
62272
100
AcDbEntity
  8
0
100
AcDbVertex
100
AcDbPolygonMeshVertex
 10
0.0002000000000001
 20
0.5215000000000001
 30
2.06
 70
    64
  0
VERTEX
  5
6227A
330
62272
100
AcDbEntity
  8
0
100
AcDbVertex
100
AcDbPolygonMeshVertex
 10
0.0002000000000001
 20
0.5215000000000001
 30
1.318
 70
    64
  0
VERTEX
  5
6227B
330
62272
100
AcDbEntity
  8
0
100
AcDbVertex
100
AcDbPolygonMeshVertex
 10
0.0002000000000001
 20
-1.9685
 30
1.318
 70
    64
  0
VERTEX
  5
6227C
330
62272
100
AcDbEntity
  8
0
100
AcDbVertex
100
AcDbPolygonMeshVertex
 10
1.765199999999999
 20
0.5215000000000001
 30
2.06
 70
    64
  0
VERTEX
  5
6227D
330
62272
100
AcDbEntity
  8
0
100
AcDbVertex
100
AcDbPolygonMeshVertex
 10
1.765199999999999
 20
0.5215000000000001
 30
1.318
 70
    64
  0
VERTEX
  5
6227E
330
62272
100
AcDbEntity
  8
0
100
AcDbVertex
100
AcDbPolygonMeshVertex
 10
1.765199999999999
 20
-1.9685
 30
1.318
 70
    64
  0
VERTEX
  5
6227F
330
62272
100
AcDbEntity
  8
0
100
AcDbVertex
100
AcDbPolygonMeshVertex
 10
1.765199999999999
 20
0.5215000000000001
 30
2.06
 70
    64
  0
VERTEX
  5
62280
330
62272
100
AcDbEntity
  8
0
100
AcDbVertex
100
AcDbPolygonMeshVertex
 10
1.765199999999999
 20
0.5215000000000001
 30
2.06
 70
    64
  0
VERTEX
  5
62281
330
62272
100
AcDbEntity
  8
0
100
AcDbVertex
100
AcDbPolygonMeshVertex
 10
1.765199999999999
 20
-1.9685
 30
2.06
 70
    64
  0
VERTEX
  5
62282
330
62272
100
AcDbEntity
  8
0
100
AcDbVertex
100
AcDbPolygonMeshVertex
 10
0.0002000000000001
 20
0.5215000000000001
 30
2.06
 70
    64
  0
VERTEX
  5
62283
330
62272
100
AcDbEntity
  8
0
100
AcDbVertex
100
AcDbPolygonMeshVertex
 10
0.0002000000000001
 20
0.5215000000000001
 30
2.06
 70
    64
  0
VERTEX
  5
62284
330
62272
100
AcDbEntity
  8
0
100
AcDbVertex
100
AcDbPolygonMeshVertex
 10
0.0002000000000001
 20
-1.9685
 30
2.06
 70
    64
  0
SEQEND
  5
62285
330
62272
100
AcDbEntity
  8
0
  0
POLYLINE
  5
62286
330
458D6
100
AcDbEntity
  8
0
100
AcDbPolygonMesh
 66
     1
 10
0.0
 20
0.0
 30
0.0
 70
    16
 71
     6
 72
     3
  0
VERTEX
  5
62287
330
62286
100
AcDbEntity
  8
0
100
AcDbVertex
100
AcDbPolygonMeshVertex
 10
0.42995
 20
-1.985499999999999
 30
2.929
 70
    64
  0
VERTEX
  5
62288
330
62286
100
AcDbEntity
  8
0
100
AcDbVertex
100
AcDbPolygonMeshVertex
 10
0.42995
 20
-1.985499999999999
 30
2.319
 70
    64
  0
VERTEX
  5
62289
330
62286
100
AcDbEntity
  8
0
100
AcDbVertex
100
AcDbPolygonMeshVertex
 10
0.42995
 20
-1.985499999999999
 30
2.319
 70
    64
  0
VERTEX
  5
6228A
330
62286
100
AcDbEntity
  8
0
100
AcDbVertex
100
AcDbPolygonMeshVertex
 10
0.4759499999999998
 20
-1.985499999999999
 30
2.929
 70
    64
  0
VERTEX
  5
6228B
330
62286
100
AcDbEntity
  8
0
100
AcDbVertex
100
AcDbPolygonMeshVertex
 10
0.4759499999999998
 20
-1.985499999999999
 30
2.319
 70
    64
  0
VERTEX
  5
6228C
330
62286
100
AcDbEntity
  8
0
100
AcDbVertex
100
AcDbPolygonMeshVertex
 10
0.4759499999999998
 20
-1.985499999999999
 30
2.319
 70
    64
  0
VERTEX
  5
6228D
330
62286
100
AcDbEntity
  8
0
100
AcDbVertex
100
AcDbPolygonMeshVertex
 10
0.4759499999999998
 20
-1.845499999999999
 30
2.929
 70
    64
  0
VERTEX
  5
6228E
330
62286
100
AcDbEntity
  8
0
100
AcDbVertex
100
AcDbPolygonMeshVertex
 10
0.4759499999999998
 20
-1.845499999999999
 30
2.319
 70
    64
  0
VERTEX
  5
6228F
330
62286
100
AcDbEntity
  8
0
100
AcDbVertex
100
AcDbPolygonMeshVertex
 10
0.4759499999999998
 20
-1.985499999999999
 30
2.319
 70
    64
  0
VERTEX
  5
62290
330
62286
100
AcDbEntity
  8
0
100
AcDbVertex
100
AcDbPolygonMeshVertex
 10
0.42995
 20
-1.845499999999999
 30
2.929
 70
    64
  0
VERTEX
  5
62291
330
62286
100
AcDbEntity
  8
0
100
AcDbVertex
100
AcDbPolygonMeshVertex
 10
0.42995
 20
-1.845499999999999
 30
2.319
 70
    64
  0
VERTEX
  5
62292
330
62286
100
AcDbEntity
  8
0
100
AcDbVertex
100
AcDbPolygonMeshVertex
 10
0.42995
 20
-1.985499999999999
 30
2.319
 70
    64
  0
VERTEX
  5
62293
330
62286
100
AcDbEntity
  8
0
100
AcDbVertex
100
AcDbPolygonMeshVertex
 10
0.42995
 20
-1.845499999999999
 30
2.929
 70
    64
  0
VERTEX
  5
62294
330
62286
100
AcDbEntity
  8
0
100
AcDbVertex
100
AcDbPolygonMeshVertex
 10
0.42995
 20
-1.845499999999999
 30
2.929
 70
    64
  0
VERTEX
  5
62295
330
62286
100
AcDbEntity
  8
0
100
AcDbVertex
100
AcDbPolygonMeshVertex
 10
0.42995
 20
-1.985499999999999
 30
2.929
 70
    64
  0
VERTEX
  5
62296
330
62286
100
AcDbEntity
  8
0
100
AcDbVertex
100
AcDbPolygonMeshVertex
 10
0.4759499999999998
 20
-1.845499999999999
 30
2.929
 70
    64
  0
VERTEX
  5
62297
330
62286
100
AcDbEntity
  8
0
100
AcDbVertex
100
AcDbPolygonMeshVertex
 10
0.4759499999999998
 20
-1.845499999999999
 30
2.929
 70
    64
  0
VERTEX
  5
62298
330
62286
100
AcDbEntity
  8
0
100
AcDbVertex
100
AcDbPolygonMeshVertex
 10
0.4759499999999998
 20
-1.985499999999999
 30
2.929
 70
    64
  0
SEQEND
  5
62299
330
62286
100
AcDbEntity
  8
0
  0
LINE
  5
6229A
330
458D6
100
AcDbEntity
  8
0
100
AcDbLine
 10
0.9057
 20
-1.845499999999999
 30
2.646
 11
1.28945
 21
-1.845499999999999
 31
2.646
  0
LINE
  5
6229B
330
458D6
100
AcDbEntity
  8
0
100
AcDbLine
 10
1.33545
 20
-1.845499999999999
 30
2.646
 11
1.719199999999999
 21
-1.845499999999999
 31
2.646
  0
LINE
  5
6229C
330
458D6
100
AcDbEntity
  8
0
100
AcDbLine
 10
0.4759499999999998
 20
-1.845499999999999
 30
2.646
 11
0.8596999999999997
 21
-1.845499999999999
 31
2.646
  0
LINE
  5
6229D
330
458D6
100
AcDbEntity
  8
0
100
AcDbLine
 10
0.0462000000000004
 20
-1.845499999999999
 30
2.646
 11
0.42995
 21
-1.845499999999999
 31
2.646
  0
POLYLINE
  5
6229E
330
458D6
100
AcDbEntity
  8
0
100
AcDbPolygonMesh
 66
     1
 10
0.0
 20
0.0
 30
0.0
 70
    16
 71
     6
 72
     3
  0
VERTEX
  5
6229F
330
6229E
100
AcDbEntity
  8
0
100
AcDbVertex
100
AcDbPolygonMeshVertex
 10
0.0461999999999999
 20
-1.985499999999999
 30
2.929
 70
    64
  0
VERTEX
  5
622A0
330
6229E
100
AcDbEntity
  8
0
100
AcDbVertex
100
AcDbPolygonMeshVertex
 10
0.0461999999999999
 20
-1.985499999999999
 30
2.06
 70
    64
  0
VERTEX
  5
622A1
330
6229E
100
AcDbEntity
  8
0
100
AcDbVertex
100
AcDbPolygonMeshVertex
 10
0.0461999999999999
 20
-1.985499999999999
 30
2.06
 70
    64
  0
VERTEX
  5
622A2
330
6229E
100
AcDbEntity
  8
0
100
AcDbVertex
100
AcDbPolygonMeshVertex
 10
0.0002000000000001
 20
-1.985499999999999
 30
2.929
 70
    64
  0
VERTEX
  5
622A3
330
6229E
100
AcDbEntity
  8
0
100
AcDbVertex
100
AcDbPolygonMeshVertex
 10
0.0002000000000001
 20
-1.985499999999999
 30
2.06
 70
    64
  0
VERTEX
  5
622A4
330
6229E
100
AcDbEntity
  8
0
100
AcDbVertex
100
AcDbPolygonMeshVertex
 10
0.0002000000000001
 20
-1.985499999999999
 30
2.06
 70
    64
  0
VERTEX
  5
622A5
330
6229E
100
AcDbEntity
  8
0
100
AcDbVertex
100
AcDbPolygonMeshVertex
 10
0.0002000000000001
 20
-1.845499999999999
 30
2.929
 70
    64
  0
VERTEX
  5
622A6
330
6229E
100
AcDbEntity
  8
0
100
AcDbVertex
100
AcDbPolygonMeshVertex
 10
0.0002000000000001
 20
-1.845499999999999
 30
2.06
 70
    64
  0
VERTEX
  5
622A7
330
6229E
100
AcDbEntity
  8
0
100
AcDbVertex
100
AcDbPolygonMeshVertex
 10
0.0002000000000001
 20
-1.985499999999999
 30
2.06
 70
    64
  0
VERTEX
  5
622A8
330
6229E
100
AcDbEntity
  8
0
100
AcDbVertex
100
AcDbPolygonMeshVertex
 10
0.0461999999999999
 20
-1.845499999999999
 30
2.929
 70
    64
  0
VERTEX
  5
622A9
330
6229E
100
AcDbEntity
  8
0
100
AcDbVertex
100
AcDbPolygonMeshVertex
 10
0.0461999999999999
 20
-1.845499999999999
 30
2.06
 70
    64
  0
VERTEX
  5
622AA
330
6229E
100
AcDbEntity
  8
0
100
AcDbVertex
100
AcDbPolygonMeshVertex
 10
0.0461999999999999
 20
-1.985499999999999
 30
2.06
 70
    64
  0
VERTEX
  5
622AB
330
6229E
100
AcDbEntity
  8
0
100
AcDbVertex
100
AcDbPolygonMeshVertex
 10
0.0461999999999999
 20
-1.845499999999999
 30
2.929
 70
    64
  0
VERTEX
  5
622AC
330
6229E
100
AcDbEntity
  8
0
100
AcDbVertex
100
AcDbPolygonMeshVertex
 10
0.0461999999999999
 20
-1.845499999999999
 30
2.929
 70
    64
  0
VERTEX
  5
622AD
330
6229E
100
AcDbEntity
  8
0
100
AcDbVertex
100
AcDbPolygonMeshVertex
 10
0.0461999999999999
 20
-1.985499999999999
 30
2.929
 70
    64
  0
VERTEX
  5
622AE
330
6229E
100
AcDbEntity
  8
0
100
AcDbVertex
100
AcDbPolygonMeshVertex
 10
0.0002000000000001
 20
-1.845499999999999
 30
2.929
 70
    64
  0
VERTEX
  5
622AF
330
6229E
100
AcDbEntity
  8
0
100
AcDbVertex
100
AcDbPolygonMeshVertex
 10
0.0002000000000001
 20
-1.845499999999999
 30
2.929
 70
    64
  0
VERTEX
  5
622B0
330
6229E
100
AcDbEntity
  8
0
100
AcDbVertex
100
AcDbPolygonMeshVertex
 10
0.0002000000000001
 20
-1.985499999999999
 30
2.929
 70
    64
  0
SEQEND
  5
622B1
330
6229E
100
AcDbEntity
  8
0
  0
POLYLINE
  5
622B2
330
458D6
100
AcDbEntity
  8
0
100
AcDbPolygonMesh
 66
     1
 10
0.0
 20
0.0
 30
0.0
 70
    16
 71
     6
 72
     3
  0
VERTEX
  5
622B3
330
622B2
100
AcDbEntity
  8
0
100
AcDbVertex
100
AcDbPolygonMeshVertex
 10
1.765199999999999
 20
-1.985499999999999
 30
2.929
 70
    64
  0
VERTEX
  5
622B4
330
622B2
100
AcDbEntity
  8
0
100
AcDbVertex
100
AcDbPolygonMeshVertex
 10
1.765199999999999
 20
-1.985499999999999
 30
2.06
 70
    64
  0
VERTEX
  5
622B5
330
622B2
100
AcDbEntity
  8
0
100
AcDbVertex
100
AcDbPolygonMeshVertex
 10
1.765199999999999
 20
-1.985499999999999
 30
2.06
 70
    64
  0
VERTEX
  5
622B6
330
622B2
100
AcDbEntity
  8
0
100
AcDbVertex
100
AcDbPolygonMeshVertex
 10
1.7192
 20
-1.985499999999999
 30
2.929
 70
    64
  0
VERTEX
  5
622B7
330
622B2
100
AcDbEntity
  8
0
100
AcDbVertex
100
AcDbPolygonMeshVertex
 10
1.7192
 20
-1.985499999999999
 30
2.06
 70
    64
  0
VERTEX
  5
622B8
330
622B2
100
AcDbEntity
  8
0
100
AcDbVertex
100
AcDbPolygonMeshVertex
 10
1.7192
 20
-1.985499999999999
 30
2.06
 70
    64
  0
VERTEX
  5
622B9
330
622B2
100
AcDbEntity
  8
0
100
AcDbVertex
100
AcDbPolygonMeshVertex
 10
1.7192
 20
-1.845499999999999
 30
2.929
 70
    64
  0
VERTEX
  5
622BA
330
622B2
100
AcDbEntity
  8
0
100
AcDbVertex
100
AcDbPolygonMeshVertex
 10
1.7192
 20
-1.845499999999999
 30
2.06
 70
    64
  0
VERTEX
  5
622BB
330
622B2
100
AcDbEntity
  8
0
100
AcDbVertex
100
AcDbPolygonMeshVertex
 10
1.7192
 20
-1.985499999999999
 30
2.06
 70
    64
  0
VERTEX
  5
622BC
330
622B2
100
AcDbEntity
  8
0
100
AcDbVertex
100
AcDbPolygonMeshVertex
 10
1.765199999999999
 20
-1.845499999999999
 30
2.929
 70
    64
  0
VERTEX
  5
622BD
330
622B2
100
AcDbEntity
  8
0
100
AcDbVertex
100
AcDbPolygonMeshVertex
 10
1.765199999999999
 20
-1.845499999999999
 30
2.06
 70
    64
  0
VERTEX
  5
622BE
330
622B2
100
AcDbEntity
  8
0
100
AcDbVertex
100
AcDbPolygonMeshVertex
 10
1.765199999999999
 20
-1.985499999999999
 30
2.06
 70
    64
  0
VERTEX
  5
622BF
330
622B2
100
AcDbEntity
  8
0
100
AcDbVertex
100
AcDbPolygonMeshVertex
 10
1.765199999999999
 20
-1.845499999999999
 30
2.929
 70
    64
  0
VERTEX
  5
622C0
330
622B2
100
AcDbEntity
  8
0
100
AcDbVertex
100
AcDbPolygonMeshVertex
 10
1.765199999999999
 20
-1.845499999999999
 30
2.929
 70
    64
  0
VERTEX
  5
622C1
330
622B2
100
AcDbEntity
  8
0
100
AcDbVertex
100
AcDbPolygonMeshVertex
 10
1.765199999999999
 20
-1.985499999999999
 30
2.929
 70
    64
  0
VERTEX
  5
622C2
330
622B2
100
AcDbEntity
  8
0
100
AcDbVertex
100
AcDbPolygonMeshVertex
 10
1.7192
 20
-1.845499999999999
 30
2.929
 70
    64
  0
VERTEX
  5
622C3
330
622B2
100
AcDbEntity
  8
0
100
AcDbVertex
100
AcDbPolygonMeshVertex
 10
1.7192
 20
-1.845499999999999
 30
2.929
 70
    64
  0
VERTEX
  5
622C4
330
622B2
100
AcDbEntity
  8
0
100
AcDbVertex
100
AcDbPolygonMeshVertex
 10
1.7192
 20
-1.985499999999999
 30
2.929
 70
    64
  0
SEQEND
  5
622C5
330
622B2
100
AcDbEntity
  8
0
  0
POLYLINE
  5
622C6
330
458D6
100
AcDbEntity
  8
0
100
AcDbPolygonMesh
 66
     1
 10
0.0
 20
0.0
 30
0.0
 70
    16
 71
     6
 72
     3
  0
VERTEX
  5
622C7
330
622C6
100
AcDbEntity
  8
0
100
AcDbVertex
100
AcDbPolygonMeshVertex
 10
1.765199999999999
 20
0.5384999999999996
 30
2.929
 70
    64
  0
VERTEX
  5
622C8
330
622C6
100
AcDbEntity
  8
0
100
AcDbVertex
100
AcDbPolygonMeshVertex
 10
1.765199999999999
 20
0.5384999999999996
 30
2.06
 70
    64
  0
VERTEX
  5
622C9
330
622C6
100
AcDbEntity
  8
0
100
AcDbVertex
100
AcDbPolygonMeshVertex
 10
1.765199999999999
 20
0.5384999999999996
 30
2.06
 70
    64
  0
VERTEX
  5
622CA
330
622C6
100
AcDbEntity
  8
0
100
AcDbVertex
100
AcDbPolygonMeshVertex
 10
1.7192
 20
0.5384999999999996
 30
2.929
 70
    64
  0
VERTEX
  5
622CB
330
622C6
100
AcDbEntity
  8
0
100
AcDbVertex
100
AcDbPolygonMeshVertex
 10
1.7192
 20
0.5384999999999996
 30
2.06
 70
    64
  0
VERTEX
  5
622CC
330
622C6
100
AcDbEntity
  8
0
100
AcDbVertex
100
AcDbPolygonMeshVertex
 10
1.7192
 20
0.5384999999999996
 30
2.06
 70
    64
  0
VERTEX
  5
622CD
330
622C6
100
AcDbEntity
  8
0
100
AcDbVertex
100
AcDbPolygonMeshVertex
 10
1.7192
 20
0.3984999999999994
 30
2.929
 70
    64
  0
VERTEX
  5
622CE
330
622C6
100
AcDbEntity
  8
0
100
AcDbVertex
100
AcDbPolygonMeshVertex
 10
1.7192
 20
0.3984999999999994
 30
2.06
 70
    64
  0
VERTEX
  5
622CF
330
622C6
100
AcDbEntity
  8
0
100
AcDbVertex
100
AcDbPolygonMeshVertex
 10
1.7192
 20
0.5384999999999996
 30
2.06
 70
    64
  0
VERTEX
  5
622D0
330
622C6
100
AcDbEntity
  8
0
100
AcDbVertex
100
AcDbPolygonMeshVertex
 10
1.765199999999999
 20
0.3984999999999994
 30
2.929
 70
    64
  0
VERTEX
  5
622D1
330
622C6
100
AcDbEntity
  8
0
100
AcDbVertex
100
AcDbPolygonMeshVertex
 10
1.765199999999999
 20
0.3984999999999994
 30
2.06
 70
    64
  0
VERTEX
  5
622D2
330
622C6
100
AcDbEntity
  8
0
100
AcDbVertex
100
AcDbPolygonMeshVertex
 10
1.765199999999999
 20
0.5384999999999996
 30
2.06
 70
    64
  0
VERTEX
  5
622D3
330
622C6
100
AcDbEntity
  8
0
100
AcDbVertex
100
AcDbPolygonMeshVertex
 10
1.765199999999999
 20
0.3984999999999994
 30
2.929
 70
    64
  0
VERTEX
  5
622D4
330
622C6
100
AcDbEntity
  8
0
100
AcDbVertex
100
AcDbPolygonMeshVertex
 10
1.765199999999999
 20
0.3984999999999994
 30
2.929
 70
    64
  0
VERTEX
  5
622D5
330
622C6
100
AcDbEntity
  8
0
100
AcDbVertex
100
AcDbPolygonMeshVertex
 10
1.765199999999999
 20
0.5384999999999996
 30
2.929
 70
    64
  0
VERTEX
  5
622D6
330
622C6
100
AcDbEntity
  8
0
100
AcDbVertex
100
AcDbPolygonMeshVertex
 10
1.7192
 20
0.3984999999999994
 30
2.929
 70
    64
  0
VERTEX
  5
622D7
330
622C6
100
AcDbEntity
  8
0
100
AcDbVertex
100
AcDbPolygonMeshVertex
 10
1.7192
 20
0.3984999999999994
 30
2.929
 70
    64
  0
VERTEX
  5
622D8
330
622C6
100
AcDbEntity
  8
0
100
AcDbVertex
100
AcDbPolygonMeshVertex
 10
1.7192
 20
0.5384999999999996
 30
2.929
 70
    64
  0
SEQEND
  5
622D9
330
622C6
100
AcDbEntity
  8
0
  0
LINE
  5
622DA
330
458D6
100
AcDbEntity
  8
0
100
AcDbLine
 10
1.33545
 20
0.3984999999999994
 30
2.646
 11
1.719199999999999
 21
0.3984999999999994
 31
2.646
  0
POLYLINE
  5
622DB
330
458D6
100
AcDbEntity
  8
0
100
AcDbPolygonMesh
 66
     1
 10
0.0
 20
0.0
 30
0.0
 70
    16
 71
     6
 72
     3
  0
VERTEX
  5
622DC
330
622DB
100
AcDbEntity
  8
0
100
AcDbVertex
100
AcDbPolygonMeshVertex
 10
1.33545
 20
0.5384999999999996
 30
2.929
 70
    64
  0
VERTEX
  5
622DD
330
622DB
100
AcDbEntity
  8
0
100
AcDbVertex
100
AcDbPolygonMeshVertex
 10
1.33545
 20
0.5384999999999996
 30
2.319
 70
    64
  0
VERTEX
  5
622DE
330
622DB
100
AcDbEntity
  8
0
100
AcDbVertex
100
AcDbPolygonMeshVertex
 10
1.33545
 20
0.5384999999999996
 30
2.319
 70
    64
  0
VERTEX
  5
622DF
330
622DB
100
AcDbEntity
  8
0
100
AcDbVertex
100
AcDbPolygonMeshVertex
 10
1.28945
 20
0.5384999999999996
 30
2.929
 70
    64
  0
VERTEX
  5
622E0
330
622DB
100
AcDbEntity
  8
0
100
AcDbVertex
100
AcDbPolygonMeshVertex
 10
1.28945
 20
0.5384999999999996
 30
2.319
 70
    64
  0
VERTEX
  5
622E1
330
622DB
100
AcDbEntity
  8
0
100
AcDbVertex
100
AcDbPolygonMeshVertex
 10
1.28945
 20
0.5384999999999996
 30
2.319
 70
    64
  0
VERTEX
  5
622E2
330
622DB
100
AcDbEntity
  8
0
100
AcDbVertex
100
AcDbPolygonMeshVertex
 10
1.28945
 20
0.3984999999999994
 30
2.929
 70
    64
  0
VERTEX
  5
622E3
330
622DB
100
AcDbEntity
  8
0
100
AcDbVertex
100
AcDbPolygonMeshVertex
 10
1.28945
 20
0.3984999999999994
 30
2.319
 70
    64
  0
VERTEX
  5
622E4
330
622DB
100
AcDbEntity
  8
0
100
AcDbVertex
100
AcDbPolygonMeshVertex
 10
1.28945
 20
0.5384999999999996
 30
2.319
 70
    64
  0
VERTEX
  5
622E5
330
622DB
100
AcDbEntity
  8
0
100
AcDbVertex
100
AcDbPolygonMeshVertex
 10
1.33545
 20
0.3984999999999994
 30
2.929
 70
    64
  0
VERTEX
  5
622E6
330
622DB
100
AcDbEntity
  8
0
100
AcDbVertex
100
AcDbPolygonMeshVertex
 10
1.33545
 20
0.3984999999999994
 30
2.319
 70
    64
  0
VERTEX
  5
622E7
330
622DB
100
AcDbEntity
  8
0
100
AcDbVertex
100
AcDbPolygonMeshVertex
 10
1.33545
 20
0.5384999999999996
 30
2.319
 70
    64
  0
VERTEX
  5
622E8
330
622DB
100
AcDbEntity
  8
0
100
AcDbVertex
100
AcDbPolygonMeshVertex
 10
1.33545
 20
0.3984999999999994
 30
2.929
 70
    64
  0
VERTEX
  5
622E9
330
622DB
100
AcDbEntity
  8
0
100
AcDbVertex
100
AcDbPolygonMeshVertex
 10
1.33545
 20
0.3984999999999994
 30
2.929
 70
    64
  0
VERTEX
  5
622EA
330
622DB
100
AcDbEntity
  8
0
100
AcDbVertex
100
AcDbPolygonMeshVertex
 10
1.33545
 20
0.5384999999999996
 30
2.929
 70
    64
  0
VERTEX
  5
622EB
330
622DB
100
AcDbEntity
  8
0
100
AcDbVertex
100
AcDbPolygonMeshVertex
 10
1.28945
 20
0.3984999999999994
 30
2.929
 70
    64
  0
VERTEX
  5
622EC
330
622DB
100
AcDbEntity
  8
0
100
AcDbVertex
100
AcDbPolygonMeshVertex
 10
1.28945
 20
0.3984999999999994
 30
2.929
 70
    64
  0
VERTEX
  5
622ED
330
622DB
100
AcDbEntity
  8
0
100
AcDbVertex
100
AcDbPolygonMeshVertex
 10
1.28945
 20
0.5384999999999996
 30
2.929
 70
    64
  0
SEQEND
  5
622EE
330
622DB
100
AcDbEntity
  8
0
  0
LINE
  5
622EF
330
458D6
100
AcDbEntity
  8
0
100
AcDbLine
 10
0.9057
 20
0.3984999999999994
 30
2.646
 11
1.28945
 21
0.3984999999999994
 31
2.646
  0
POLYLINE
  5
622F0
330
458D6
100
AcDbEntity
  8
0
100
AcDbPolygonMesh
 66
     1
 10
0.0
 20
0.0
 30
0.0
 70
    16
 71
     6
 72
     3
  0
VERTEX
  5
622F1
330
622F0
100
AcDbEntity
  8
0
100
AcDbVertex
100
AcDbPolygonMeshVertex
 10
0.9057
 20
0.5384999999999996
 30
2.929
 70
    64
  0
VERTEX
  5
622F2
330
622F0
100
AcDbEntity
  8
0
100
AcDbVertex
100
AcDbPolygonMeshVertex
 10
0.9057
 20
0.5384999999999996
 30
2.319
 70
    64
  0
VERTEX
  5
622F3
330
622F0
100
AcDbEntity
  8
0
100
AcDbVertex
100
AcDbPolygonMeshVertex
 10
0.9057
 20
0.5384999999999996
 30
2.319
 70
    64
  0
VERTEX
  5
622F4
330
622F0
100
AcDbEntity
  8
0
100
AcDbVertex
100
AcDbPolygonMeshVertex
 10
0.8596999999999997
 20
0.5384999999999996
 30
2.929
 70
    64
  0
VERTEX
  5
622F5
330
622F0
100
AcDbEntity
  8
0
100
AcDbVertex
100
AcDbPolygonMeshVertex
 10
0.8596999999999997
 20
0.5384999999999996
 30
2.319
 70
    64
  0
VERTEX
  5
622F6
330
622F0
100
AcDbEntity
  8
0
100
AcDbVertex
100
AcDbPolygonMeshVertex
 10
0.8596999999999997
 20
0.5384999999999996
 30
2.319
 70
    64
  0
VERTEX
  5
622F7
330
622F0
100
AcDbEntity
  8
0
100
AcDbVertex
100
AcDbPolygonMeshVertex
 10
0.8596999999999997
 20
0.3984999999999994
 30
2.929
 70
    64
  0
VERTEX
  5
622F8
330
622F0
100
AcDbEntity
  8
0
100
AcDbVertex
100
AcDbPolygonMeshVertex
 10
0.8596999999999997
 20
0.3984999999999994
 30
2.319
 70
    64
  0
VERTEX
  5
622F9
330
622F0
100
AcDbEntity
  8
0
100
AcDbVertex
100
AcDbPolygonMeshVertex
 10
0.8596999999999997
 20
0.5384999999999996
 30
2.319
 70
    64
  0
VERTEX
  5
622FA
330
622F0
100
AcDbEntity
  8
0
100
AcDbVertex
100
AcDbPolygonMeshVertex
 10
0.9057
 20
0.3984999999999994
 30
2.929
 70
    64
  0
VERTEX
  5
622FB
330
622F0
100
AcDbEntity
  8
0
100
AcDbVertex
100
AcDbPolygonMeshVertex
 10
0.9057
 20
0.3984999999999994
 30
2.319
 70
    64
  0
VERTEX
  5
622FC
330
622F0
100
AcDbEntity
  8
0
100
AcDbVertex
100
AcDbPolygonMeshVertex
 10
0.9057
 20
0.5384999999999996
 30
2.319
 70
    64
  0
VERTEX
  5
622FD
330
622F0
100
AcDbEntity
  8
0
100
AcDbVertex
100
AcDbPolygonMeshVertex
 10
0.9057
 20
0.3984999999999994
 30
2.929
 70
    64
  0
VERTEX
  5
622FE
330
622F0
100
AcDbEntity
  8
0
100
AcDbVertex
100
AcDbPolygonMeshVertex
 10
0.9057
 20
0.3984999999999994
 30
2.929
 70
    64
  0
VERTEX
  5
622FF
330
622F0
100
AcDbEntity
  8
0
100
AcDbVertex
100
AcDbPolygonMeshVertex
 10
0.9057
 20
0.5384999999999996
 30
2.929
 70
    64
  0
VERTEX
  5
62300
330
622F0
100
AcDbEntity
  8
0
100
AcDbVertex
100
AcDbPolygonMeshVertex
 10
0.8596999999999997
 20
0.3984999999999994
 30
2.929
 70
    64
  0
VERTEX
  5
62301
330
622F0
100
AcDbEntity
  8
0
100
AcDbVertex
100
AcDbPolygonMeshVertex
 10
0.8596999999999997
 20
0.3984999999999994
 30
2.929
 70
    64
  0
VERTEX
  5
62302
330
622F0
100
AcDbEntity
  8
0
100
AcDbVertex
100
AcDbPolygonMeshVertex
 10
0.8596999999999997
 20
0.5384999999999996
 30
2.929
 70
    64
  0
SEQEND
  5
62303
330
622F0
100
AcDbEntity
  8
0
  0
POLYLINE
  5
62304
330
458D6
100
AcDbEntity
  8
0
100
AcDbPolygonMesh
 66
     1
 10
0.0
 20
0.0
 30
0.0
 70
    16
 71
     6
 72
     3
  0
VERTEX
  5
62305
330
62304
100
AcDbEntity
  8
0
100
AcDbVertex
100
AcDbPolygonMeshVertex
 10
0.42995
 20
0.5384999999999996
 30
2.929
 70
    64
  0
VERTEX
  5
62306
330
62304
100
AcDbEntity
  8
0
100
AcDbVertex
100
AcDbPolygonMeshVertex
 10
0.42995
 20
0.5384999999999996
 30
2.319
 70
    64
  0
VERTEX
  5
62307
330
62304
100
AcDbEntity
  8
0
100
AcDbVertex
100
AcDbPolygonMeshVertex
 10
0.42995
 20
0.5384999999999996
 30
2.319
 70
    64
  0
VERTEX
  5
62308
330
62304
100
AcDbEntity
  8
0
100
AcDbVertex
100
AcDbPolygonMeshVertex
 10
0.4759499999999998
 20
0.5384999999999996
 30
2.929
 70
    64
  0
VERTEX
  5
62309
330
62304
100
AcDbEntity
  8
0
100
AcDbVertex
100
AcDbPolygonMeshVertex
 10
0.4759499999999998
 20
0.5384999999999996
 30
2.319
 70
    64
  0
VERTEX
  5
6230A
330
62304
100
AcDbEntity
  8
0
100
AcDbVertex
100
AcDbPolygonMeshVertex
 10
0.4759499999999998
 20
0.5384999999999996
 30
2.319
 70
    64
  0
VERTEX
  5
6230B
330
62304
100
AcDbEntity
  8
0
100
AcDbVertex
100
AcDbPolygonMeshVertex
 10
0.4759499999999998
 20
0.3984999999999994
 30
2.929
 70
    64
  0
VERTEX
  5
6230C
330
62304
100
AcDbEntity
  8
0
100
AcDbVertex
100
AcDbPolygonMeshVertex
 10
0.4759499999999998
 20
0.3984999999999994
 30
2.319
 70
    64
  0
VERTEX
  5
6230D
330
62304
100
AcDbEntity
  8
0
100
AcDbVertex
100
AcDbPolygonMeshVertex
 10
0.4759499999999998
 20
0.5384999999999996
 30
2.319
 70
    64
  0
VERTEX
  5
6230E
330
62304
100
AcDbEntity
  8
0
100
AcDbVertex
100
AcDbPolygonMeshVertex
 10
0.42995
 20
0.3984999999999994
 30
2.929
 70
    64
  0
VERTEX
  5
6230F
330
62304
100
AcDbEntity
  8
0
100
AcDbVertex
100
AcDbPolygonMeshVertex
 10
0.42995
 20
0.3984999999999994
 30
2.319
 70
    64
  0
VERTEX
  5
62310
330
62304
100
AcDbEntity
  8
0
100
AcDbVertex
100
AcDbPolygonMeshVertex
 10
0.42995
 20
0.5384999999999996
 30
2.319
 70
    64
  0
VERTEX
  5
62311
330
62304
100
AcDbEntity
  8
0
100
AcDbVertex
100
AcDbPolygonMeshVertex
 10
0.42995
 20
0.3984999999999994
 30
2.929
 70
    64
  0
VERTEX
  5
62312
330
62304
100
AcDbEntity
  8
0
100
AcDbVertex
100
AcDbPolygonMeshVertex
 10
0.42995
 20
0.3984999999999994
 30
2.929
 70
    64
  0
VERTEX
  5
62313
330
62304
100
AcDbEntity
  8
0
100
AcDbVertex
100
AcDbPolygonMeshVertex
 10
0.42995
 20
0.5384999999999996
 30
2.929
 70
    64
  0
VERTEX
  5
62314
330
62304
100
AcDbEntity
  8
0
100
AcDbVertex
100
AcDbPolygonMeshVertex
 10
0.4759499999999998
 20
0.3984999999999994
 30
2.929
 70
    64
  0
VERTEX
  5
62315
330
62304
100
AcDbEntity
  8
0
100
AcDbVertex
100
AcDbPolygonMeshVertex
 10
0.4759499999999998
 20
0.3984999999999994
 30
2.929
 70
    64
  0
VERTEX
  5
62316
330
62304
100
AcDbEntity
  8
0
100
AcDbVertex
100
AcDbPolygonMeshVertex
 10
0.4759499999999998
 20
0.5384999999999996
 30
2.929
 70
    64
  0
SEQEND
  5
62317
330
62304
100
AcDbEntity
  8
0
  0
LINE
  5
62318
330
458D6
100
AcDbEntity
  8
0
100
AcDbLine
 10
0.0462000000000004
 20
0.3984999999999994
 30
2.646
 11
0.42995
 21
0.3984999999999994
 31
2.646
  0
LINE
  5
62319
330
458D6
100
AcDbEntity
  8
0
100
AcDbLine
 10
0.4759499999999998
 20
0.3984999999999994
 30
2.646
 11
0.8596999999999997
 21
0.3984999999999994
 31
2.646
  0
POLYLINE
  5
6231A
330
458D6
100
AcDbEntity
  8
0
100
AcDbPolygonMesh
 66
     1
 10
0.0
 20
0.0
 30
0.0
 70
    16
 71
     6
 72
     3
  0
VERTEX
  5
6231B
330
6231A
100
AcDbEntity
  8
0
100
AcDbVertex
100
AcDbPolygonMeshVertex
 10
0.0461999999999999
 20
0.5384999999999996
 30
2.929
 70
    64
  0
VERTEX
  5
6231C
330
6231A
100
AcDbEntity
  8
0
100
AcDbVertex
100
AcDbPolygonMeshVertex
 10
0.0461999999999999
 20
0.5384999999999996
 30
2.06
 70
    64
  0
VERTEX
  5
6231D
330
6231A
100
AcDbEntity
  8
0
100
AcDbVertex
100
AcDbPolygonMeshVertex
 10
0.0461999999999999
 20
0.5384999999999996
 30
2.06
 70
    64
  0
VERTEX
  5
6231E
330
6231A
100
AcDbEntity
  8
0
100
AcDbVertex
100
AcDbPolygonMeshVertex
 10
0.0002000000000001
 20
0.5384999999999996
 30
2.929
 70
    64
  0
VERTEX
  5
6231F
330
6231A
100
AcDbEntity
  8
0
100
AcDbVertex
100
AcDbPolygonMeshVertex
 10
0.0002000000000001
 20
0.5384999999999996
 30
2.06
 70
    64
  0
VERTEX
  5
62320
330
6231A
100
AcDbEntity
  8
0
100
AcDbVertex
100
AcDbPolygonMeshVertex
 10
0.0002000000000001
 20
0.5384999999999996
 30
2.06
 70
    64
  0
VERTEX
  5
62321
330
6231A
100
AcDbEntity
  8
0
100
AcDbVertex
100
AcDbPolygonMeshVertex
 10
0.0002000000000001
 20
0.3984999999999994
 30
2.929
 70
    64
  0
VERTEX
  5
62322
330
6231A
100
AcDbEntity
  8
0
100
AcDbVertex
100
AcDbPolygonMeshVertex
 10
0.0002000000000001
 20
0.3984999999999994
 30
2.06
 70
    64
  0
VERTEX
  5
62323
330
6231A
100
AcDbEntity
  8
0
100
AcDbVertex
100
AcDbPolygonMeshVertex
 10
0.0002000000000001
 20
0.5384999999999996
 30
2.06
 70
    64
  0
VERTEX
  5
62324
330
6231A
100
AcDbEntity
  8
0
100
AcDbVertex
100
AcDbPolygonMeshVertex
 10
0.0461999999999999
 20
0.3984999999999994
 30
2.929
 70
    64
  0
VERTEX
  5
62325
330
6231A
100
AcDbEntity
  8
0
100
AcDbVertex
100
AcDbPolygonMeshVertex
 10
0.0461999999999999
 20
0.3984999999999994
 30
2.06
 70
    64
  0
VERTEX
  5
62326
330
6231A
100
AcDbEntity
  8
0
100
AcDbVertex
100
AcDbPolygonMeshVertex
 10
0.0461999999999999
 20
0.5384999999999996
 30
2.06
 70
    64
  0
VERTEX
  5
62327
330
6231A
100
AcDbEntity
  8
0
100
AcDbVertex
100
AcDbPolygonMeshVertex
 10
0.0461999999999999
 20
0.3984999999999994
 30
2.929
 70
    64
  0
VERTEX
  5
62328
330
6231A
100
AcDbEntity
  8
0
100
AcDbVertex
100
AcDbPolygonMeshVertex
 10
0.0461999999999999
 20
0.3984999999999994
 30
2.929
 70
    64
  0
VERTEX
  5
62329
330
6231A
100
AcDbEntity
  8
0
100
AcDbVertex
100
AcDbPolygonMeshVertex
 10
0.0461999999999999
 20
0.5384999999999996
 30
2.929
 70
    64
  0
VERTEX
  5
6232A
330
6231A
100
AcDbEntity
  8
0
100
AcDbVertex
100
AcDbPolygonMeshVertex
 10
0.0002000000000001
 20
0.3984999999999994
 30
2.929
 70
    64
  0
VERTEX
  5
6232B
330
6231A
100
AcDbEntity
  8
0
100
AcDbVertex
100
AcDbPolygonMeshVertex
 10
0.0002000000000001
 20
0.3984999999999994
 30
2.929
 70
    64
  0
VERTEX
  5
6232C
330
6231A
100
AcDbEntity
  8
0
100
AcDbVertex
100
AcDbPolygonMeshVertex
 10
0.0002000000000001
 20
0.5384999999999996
 30
2.929
 70
    64
  0
SEQEND
  5
6232D
330
6231A
100
AcDbEntity
  8
0
  0
POLYLINE
  5
6232E
330
458D6
100
AcDbEntity
  8
0
100
AcDbPolygonMesh
 66
     1
 10
0.0
 20
0.0
 30
0.0
 70
    16
 71
     6
 72
     3
  0
VERTEX
  5
6232F
330
6232E
100
AcDbEntity
  8
0
100
AcDbVertex
100
AcDbPolygonMeshVertex
 10
1.719199999999999
 20
0.6104999999999992
 30
2.319
 70
    64
  0
VERTEX
  5
62330
330
6232E
100
AcDbEntity
  8
0
100
AcDbVertex
100
AcDbPolygonMeshVertex
 10
1.719199999999999
 20
0.6104999999999992
 30
2.06
 70
    64
  0
VERTEX
  5
62331
330
6232E
100
AcDbEntity
  8
0
100
AcDbVertex
100
AcDbPolygonMeshVertex
 10
1.719199999999999
 20
0.6104999999999992
 30
2.06
 70
    64
  0
VERTEX
  5
62332
330
6232E
100
AcDbEntity
  8
0
100
AcDbVertex
100
AcDbPolygonMeshVertex
 10
0.0461999999999999
 20
0.6104999999999992
 30
2.319
 70
    64
  0
VERTEX
  5
62333
330
6232E
100
AcDbEntity
  8
0
100
AcDbVertex
100
AcDbPolygonMeshVertex
 10
0.0461999999999999
 20
0.6104999999999992
 30
2.06
 70
    64
  0
VERTEX
  5
62334
330
6232E
100
AcDbEntity
  8
0
100
AcDbVertex
100
AcDbPolygonMeshVertex
 10
0.0461999999999999
 20
0.6104999999999992
 30
2.06
 70
    64
  0
VERTEX
  5
62335
330
6232E
100
AcDbEntity
  8
0
100
AcDbVertex
100
AcDbPolygonMeshVertex
 10
0.0461999999999999
 20
0.3984999999999994
 30
2.319
 70
    64
  0
VERTEX
  5
62336
330
6232E
100
AcDbEntity
  8
0
100
AcDbVertex
100
AcDbPolygonMeshVertex
 10
0.0461999999999999
 20
0.3984999999999994
 30
2.06
 70
    64
  0
VERTEX
  5
62337
330
6232E
100
AcDbEntity
  8
0
100
AcDbVertex
100
AcDbPolygonMeshVertex
 10
0.0461999999999999
 20
0.6104999999999992
 30
2.06
 70
    64
  0
VERTEX
  5
62338
330
6232E
100
AcDbEntity
  8
0
100
AcDbVertex
100
AcDbPolygonMeshVertex
 10
1.719199999999999
 20
0.3984999999999994
 30
2.319
 70
    64
  0
VERTEX
  5
62339
330
6232E
100
AcDbEntity
  8
0
100
AcDbVertex
100
AcDbPolygonMeshVertex
 10
1.719199999999999
 20
0.3984999999999994
 30
2.06
 70
    64
  0
VERTEX
  5
6233A
330
6232E
100
AcDbEntity
  8
0
100
AcDbVertex
100
AcDbPolygonMeshVertex
 10
1.719199999999999
 20
0.6104999999999992
 30
2.06
 70
    64
  0
VERTEX
  5
6233B
330
6232E
100
AcDbEntity
  8
0
100
AcDbVertex
100
AcDbPolygonMeshVertex
 10
1.719199999999999
 20
0.3984999999999994
 30
2.319
 70
    64
  0
VERTEX
  5
6233C
330
6232E
100
AcDbEntity
  8
0
100
AcDbVertex
100
AcDbPolygonMeshVertex
 10
1.719199999999999
 20
0.3984999999999994
 30
2.319
 70
    64
  0
VERTEX
  5
6233D
330
6232E
100
AcDbEntity
  8
0
100
AcDbVertex
100
AcDbPolygonMeshVertex
 10
1.719199999999999
 20
0.6104999999999992
 30
2.319
 70
    64
  0
VERTEX
  5
6233E
330
6232E
100
AcDbEntity
  8
0
100
AcDbVertex
100
AcDbPolygonMeshVertex
 10
0.0461999999999999
 20
0.3984999999999994
 30
2.319
 70
    64
  0
VERTEX
  5
6233F
330
6232E
100
AcDbEntity
  8
0
100
AcDbVertex
100
AcDbPolygonMeshVertex
 10
0.0461999999999999
 20
0.3984999999999994
 30
2.319
 70
    64
  0
VERTEX
  5
62340
330
6232E
100
AcDbEntity
  8
0
100
AcDbVertex
100
AcDbPolygonMeshVertex
 10
0.0461999999999999
 20
0.6104999999999992
 30
2.319
 70
    64
  0
SEQEND
  5
62341
330
6232E
100
AcDbEntity
  8
0
  0
TEXT
  5
62342
330
458D6
100
AcDbEntity
  8
0
100
AcDbText
 39
0.0000001
 10
0.3648370764473055
 20
-2.30158237681768
 30
2.06
 40
0.0834654981097751
  1
A1
 50
180.0
 71
     2
100
AcDbText
  0
TEXT
  5
62343
330
458D6
100
AcDbEntity
  8
0
100
AcDbText
 39
0.0000001
 10
1.285817362457554
 20
-2.300740510711833
 30
2.06
 40
0.0834654981097751
  1
A2
 50
180.0
 71
     2
100
AcDbText
  0
LINE
  5
62344
330
458D6
100
AcDbEntity
  8
0
100
AcDbLine
 10
0.652923391696637
 20
-1.9685
 30
-0.0000000000000003
 11
0.8635900583633034
 21
-1.9685
 31
-0.0000000000000003
  0
POLYLINE
  5
62345
330
458D6
100
AcDbEntity
  8
0
100
AcDb3dPolyline
 66
     1
 10
0.0
 20
0.0
 30
0.0
 70
     8
  0
VERTEX
  5
62346
330
62345
100
AcDbEntity
  8
0
100
AcDbVertex
100
AcDb3dPolylineVertex
 10
0.652923391696637
 20
-1.9685
 30
-0.0000000000000003
 70
    32
  0
VERTEX
  5
62347
330
62345
100
AcDbEntity
  8
0
100
AcDbVertex
100
AcDb3dPolylineVertex
 10
0.652923391696637
 20
-2.103499999999999
 30
-0.0000000000000002
 70
    32
  0
VERTEX
  5
62348
330
62345
100
AcDbEntity
  8
0
100
AcDbVertex
100
AcDb3dPolylineVertex
 10
0.8635900583633034
 20
-2.103499999999999
 30
-0.0000000000000002
 70
    32
  0
VERTEX
  5
62349
330
62345
100
AcDbEntity
  8
0
100
AcDbVertex
100
AcDb3dPolylineVertex
 10
0.8635900583633034
 20
-1.9685
 30
-0.0000000000000003
 70
    32
  0
SEQEND
  5
6234A
330
62345
100
AcDbEntity
  8
0
  0
POLYLINE
  5
6234B
330
458D6
100
AcDbEntity
  8
0
100
AcDb3dPolyline
 66
     1
 10
0.0
 20
0.0
 30
0.0
 70
     8
  0
VERTEX
  5
6234C
330
6234B
100
AcDbEntity
  8
0
100
AcDbVertex
100
AcDb3dPolylineVertex
 10
0.581132708066341
 20
-1.9685
 30
0.1869999999999998
 70
    32
  0
VERTEX
  5
6234D
330
6234B
100
AcDbEntity
  8
0
100
AcDbVertex
100
AcDb3dPolylineVertex
 10
0.581132708066341
 20
-2.103499999999999
 30
0.1869999999999998
 70
    32
  0
VERTEX
  5
6234E
330
6234B
100
AcDbEntity
  8
0
100
AcDbVertex
100
AcDb3dPolylineVertex
 10
0.7917993747330076
 20
-2.103499999999999
 30
0.1869999999999998
 70
    32
  0
VERTEX
  5
6234F
330
6234B
100
AcDbEntity
  8
0
100
AcDbVertex
100
AcDb3dPolylineVertex
 10
0.7917993747330076
 20
-1.9685
 30
0.1869999999999998
 70
    32
  0
SEQEND
  5
62350
330
6234B
100
AcDbEntity
  8
0
  0
POLYLINE
  5
62351
330
458D6
100
AcDbEntity
  8
0
100
AcDbPolygonMesh
 66
     1
 10
0.0
 20
0.0
 30
0.0
 70
    16
 71
     6
 72
     3
  0
VERTEX
  5
62352
330
62351
100
AcDbEntity
  8
0
100
AcDbVertex
100
AcDbPolygonMeshVertex
 10
0.8537993747330069
 20
-2.1655
 30
0.1869999999999998
 70
    64
  0
VERTEX
  5
62353
330
62351
100
AcDbEntity
  8
0
100
AcDbVertex
100
AcDbPolygonMeshVertex
 10
0.8537993747330069
 20
-2.1655
 30
0.0
 70
    64
  0
VERTEX
  5
62354
330
62351
100
AcDbEntity
  8
0
100
AcDbVertex
100
AcDbPolygonMeshVertex
 10
0.8537993747330069
 20
-2.1655
 30
0.0
 70
    64
  0
VERTEX
  5
62355
330
62351
100
AcDbEntity
  8
0
100
AcDbVertex
100
AcDbPolygonMeshVertex
 10
0.2464660413996739
 20
-2.1655
 30
0.1869999999999998
 70
    64
  0
VERTEX
  5
62356
330
62351
100
AcDbEntity
  8
0
100
AcDbVertex
100
AcDbPolygonMeshVertex
 10
0.2464660413996739
 20
-2.1655
 30
0.0
 70
    64
  0
VERTEX
  5
62357
330
62351
100
AcDbEntity
  8
0
100
AcDbVertex
100
AcDbPolygonMeshVertex
 10
0.2464660413996739
 20
-2.1655
 30
0.0
 70
    64
  0
VERTEX
  5
62358
330
62351
100
AcDbEntity
  8
0
100
AcDbVertex
100
AcDbPolygonMeshVertex
 10
0.2464660413996739
 20
-2.103499999999999
 30
0.1869999999999998
 70
    64
  0
VERTEX
  5
62359
330
62351
100
AcDbEntity
  8
0
100
AcDbVertex
100
AcDbPolygonMeshVertex
 10
0.2464660413996739
 20
-2.103499999999999
 30
0.0
 70
    64
  0
VERTEX
  5
6235A
330
62351
100
AcDbEntity
  8
0
100
AcDbVertex
100
AcDbPolygonMeshVertex
 10
0.2464660413996739
 20
-2.1655
 30
0.0
 70
    64
  0
VERTEX
  5
6235B
330
62351
100
AcDbEntity
  8
0
100
AcDbVertex
100
AcDbPolygonMeshVertex
 10
0.8537993747330069
 20
-2.103499999999999
 30
0.1869999999999998
 70
    64
  0
VERTEX
  5
6235C
330
62351
100
AcDbEntity
  8
0
100
AcDbVertex
100
AcDbPolygonMeshVertex
 10
0.8537993747330069
 20
-2.103499999999999
 30
0.0
 70
    64
  0
VERTEX
  5
6235D
330
62351
100
AcDbEntity
  8
0
100
AcDbVertex
100
AcDbPolygonMeshVertex
 10
0.8537993747330069
 20
-2.1655
 30
0.0
 70
    64
  0
VERTEX
  5
6235E
330
62351
100
AcDbEntity
  8
0
100
AcDbVertex
100
AcDbPolygonMeshVertex
 10
0.8537993747330069
 20
-2.103499999999999
 30
0.1869999999999998
 70
    64
  0
VERTEX
  5
6235F
330
62351
100
AcDbEntity
  8
0
100
AcDbVertex
100
AcDbPolygonMeshVertex
 10
0.8537993747330069
 20
-2.103499999999999
 30
0.1869999999999998
 70
    64
  0
VERTEX
  5
62360
330
62351
100
AcDbEntity
  8
0
100
AcDbVertex
100
AcDbPolygonMeshVertex
 10
0.8537993747330069
 20
-2.1655
 30
0.1869999999999998
 70
    64
  0
VERTEX
  5
62361
330
62351
100
AcDbEntity
  8
0
100
AcDbVertex
100
AcDbPolygonMeshVertex
 10
0.2464660413996739
 20
-2.103499999999999
 30
0.1869999999999998
 70
    64
  0
VERTEX
  5
62362
330
62351
100
AcDbEntity
  8
0
100
AcDbVertex
100
AcDbPolygonMeshVertex
 10
0.2464660413996739
 20
-2.103499999999999
 30
0.1869999999999998
 70
    64
  0
VERTEX
  5
62363
330
62351
100
AcDbEntity
  8
0
100
AcDbVertex
100
AcDbPolygonMeshVertex
 10
0.2464660413996739
 20
-2.1655
 30
0.1869999999999998
 70
    64
  0
SEQEND
  5
62364
330
62351
100
AcDbEntity
  8
0
  0
POLYLINE
  5
62365
330
458D6
100
AcDbEntity
  8
0
100
AcDbPolygonMesh
 66
     1
 10
0.0
 20
0.0
 30
0.0
 70
    16
 71
     6
 72
     3
  0
VERTEX
  5
62366
330
62365
100
AcDbEntity
  8
0
100
AcDbVertex
100
AcDbPolygonMeshVertex
 10
0.8537993747330069
 20
-2.103499999999999
 30
0.1869999999999998
 70
    64
  0
VERTEX
  5
62367
330
62365
100
AcDbEntity
  8
0
100
AcDbVertex
100
AcDbPolygonMeshVertex
 10
0.8537993747330069
 20
-2.103499999999999
 30
0.0
 70
    64
  0
VERTEX
  5
62368
330
62365
100
AcDbEntity
  8
0
100
AcDbVertex
100
AcDbPolygonMeshVertex
 10
0.8537993747330069
 20
-2.103499999999999
 30
0.0
 70
    64
  0
VERTEX
  5
62369
330
62365
100
AcDbEntity
  8
0
100
AcDbVertex
100
AcDbPolygonMeshVertex
 10
0.5191327080663416
 20
-2.103499999999999
 30
0.1869999999999998
 70
    64
  0
VERTEX
  5
6236A
330
62365
100
AcDbEntity
  8
0
100
AcDbVertex
100
AcDbPolygonMeshVertex
 10
0.5191327080663416
 20
-2.103499999999999
 30
0.0
 70
    64
  0
VERTEX
  5
6236B
330
62365
100
AcDbEntity
  8
0
100
AcDbVertex
100
AcDbPolygonMeshVertex
 10
0.5191327080663416
 20
-2.103499999999999
 30
0.0
 70
    64
  0
VERTEX
  5
6236C
330
62365
100
AcDbEntity
  8
0
100
AcDbVertex
100
AcDbPolygonMeshVertex
 10
0.5191327080663416
 20
-1.9065
 30
0.1869999999999998
 70
    64
  0
VERTEX
  5
6236D
330
62365
100
AcDbEntity
  8
0
100
AcDbVertex
100
AcDbPolygonMeshVertex
 10
0.5191327080663416
 20
-1.9065
 30
0.0
 70
    64
  0
VERTEX
  5
6236E
330
62365
100
AcDbEntity
  8
0
100
AcDbVertex
100
AcDbPolygonMeshVertex
 10
0.5191327080663416
 20
-2.103499999999999
 30
0.0
 70
    64
  0
VERTEX
  5
6236F
330
62365
100
AcDbEntity
  8
0
100
AcDbVertex
100
AcDbPolygonMeshVertex
 10
0.8537993747330069
 20
-1.9065
 30
0.1869999999999998
 70
    64
  0
VERTEX
  5
62370
330
62365
100
AcDbEntity
  8
0
100
AcDbVertex
100
AcDbPolygonMeshVertex
 10
0.8537993747330069
 20
-1.9065
 30
0.0
 70
    64
  0
VERTEX
  5
62371
330
62365
100
AcDbEntity
  8
0
100
AcDbVertex
100
AcDbPolygonMeshVertex
 10
0.8537993747330069
 20
-2.103499999999999
 30
0.0
 70
    64
  0
VERTEX
  5
62372
330
62365
100
AcDbEntity
  8
0
100
AcDbVertex
100
AcDbPolygonMeshVertex
 10
0.8537993747330069
 20
-1.9065
 30
0.1869999999999998
 70
    64
  0
VERTEX
  5
62373
330
62365
100
AcDbEntity
  8
0
100
AcDbVertex
100
AcDbPolygonMeshVertex
 10
0.8537993747330069
 20
-1.9065
 30
0.1869999999999998
 70
    64
  0
VERTEX
  5
62374
330
62365
100
AcDbEntity
  8
0
100
AcDbVertex
100
AcDbPolygonMeshVertex
 10
0.8537993747330069
 20
-2.103499999999999
 30
0.1869999999999998
 70
    64
  0
VERTEX
  5
62375
330
62365
100
AcDbEntity
  8
0
100
AcDbVertex
100
AcDbPolygonMeshVertex
 10
0.5191327080663416
 20
-1.9065
 30
0.1869999999999998
 70
    64
  0
VERTEX
  5
62376
330
62365
100
AcDbEntity
  8
0
100
AcDbVertex
100
AcDbPolygonMeshVertex
 10
0.5191327080663416
 20
-1.9065
 30
0.1869999999999998
 70
    64
  0
VERTEX
  5
62377
330
62365
100
AcDbEntity
  8
0
100
AcDbVertex
100
AcDbPolygonMeshVertex
 10
0.5191327080663416
 20
-2.103499999999999
 30
0.1869999999999998
 70
    64
  0
SEQEND
  5
62378
330
62365
100
AcDbEntity
  8
0
  0
LINE
  5
62379
330
458D6
100
AcDbEntity
  8
0
100
AcDbLine
 10
0.652923391696637
 20
-1.9685
 30
0.1869999999999998
 11
0.8635900583633034
 21
-1.9685
 31
0.1869999999999998
  0
POLYLINE
  5
6237A
330
458D6
100
AcDbEntity
  8
0
100
AcDbPolygonMesh
 66
     1
 10
0.0
 20
0.0
 30
0.0
 70
    16
 71
     6
 72
     3
  0
VERTEX
  5
6237B
330
6237A
100
AcDbEntity
  8
0
100
AcDbVertex
100
AcDbPolygonMeshVertex
 10
1.765199999999999
 20
-1.685499999999999
 30
0.187
 70
    64
  0
VERTEX
  5
6237C
330
6237A
100
AcDbEntity
  8
0
100
AcDbVertex
100
AcDbPolygonMeshVertex
 10
1.765199999999999
 20
-1.685499999999999
 30
0.0
 70
    64
  0
VERTEX
  5
6237D
330
6237A
100
AcDbEntity
  8
0
100
AcDbVertex
100
AcDbPolygonMeshVertex
 10
1.765199999999999
 20
-1.685499999999999
 30
0.0
 70
    64
  0
VERTEX
  5
6237E
330
6237A
100
AcDbEntity
  8
0
100
AcDbVertex
100
AcDbPolygonMeshVertex
 10
0.0052
 20
-1.685499999999999
 30
0.187
 70
    64
  0
VERTEX
  5
6237F
330
6237A
100
AcDbEntity
  8
0
100
AcDbVertex
100
AcDbPolygonMeshVertex
 10
0.0052
 20
-1.685499999999999
 30
0.0
 70
    64
  0
VERTEX
  5
62380
330
6237A
100
AcDbEntity
  8
0
100
AcDbVertex
100
AcDbPolygonMeshVertex
 10
0.0052
 20
-1.685499999999999
 30
0.0
 70
    64
  0
VERTEX
  5
62381
330
6237A
100
AcDbEntity
  8
0
100
AcDbVertex
100
AcDbPolygonMeshVertex
 10
0.0052
 20
-1.480999999999999
 30
0.187
 70
    64
  0
VERTEX
  5
62382
330
6237A
100
AcDbEntity
  8
0
100
AcDbVertex
100
AcDbPolygonMeshVertex
 10
0.0052
 20
-1.480999999999999
 30
0.0
 70
    64
  0
VERTEX
  5
62383
330
6237A
100
AcDbEntity
  8
0
100
AcDbVertex
100
AcDbPolygonMeshVertex
 10
0.0052
 20
-1.685499999999999
 30
0.0
 70
    64
  0
VERTEX
  5
62384
330
6237A
100
AcDbEntity
  8
0
100
AcDbVertex
100
AcDbPolygonMeshVertex
 10
1.765199999999999
 20
-1.480999999999999
 30
0.187
 70
    64
  0
VERTEX
  5
62385
330
6237A
100
AcDbEntity
  8
0
100
AcDbVertex
100
AcDbPolygonMeshVertex
 10
1.765199999999999
 20
-1.480999999999999
 30
0.0
 70
    64
  0
VERTEX
  5
62386
330
6237A
100
AcDbEntity
  8
0
100
AcDbVertex
100
AcDbPolygonMeshVertex
 10
1.765199999999999
 20
-1.685499999999999
 30
0.0
 70
    64
  0
VERTEX
  5
62387
330
6237A
100
AcDbEntity
  8
0
100
AcDbVertex
100
AcDbPolygonMeshVertex
 10
1.765199999999999
 20
-1.480999999999999
 30
0.187
 70
    64
  0
VERTEX
  5
62388
330
6237A
100
AcDbEntity
  8
0
100
AcDbVertex
100
AcDbPolygonMeshVertex
 10
1.765199999999999
 20
-1.480999999999999
 30
0.187
 70
    64
  0
VERTEX
  5
62389
330
6237A
100
AcDbEntity
  8
0
100
AcDbVertex
100
AcDbPolygonMeshVertex
 10
1.765199999999999
 20
-1.685499999999999
 30
0.187
 70
    64
  0
VERTEX
  5
6238A
330
6237A
100
AcDbEntity
  8
0
100
AcDbVertex
100
AcDbPolygonMeshVertex
 10
0.0052
 20
-1.480999999999999
 30
0.187
 70
    64
  0
VERTEX
  5
6238B
330
6237A
100
AcDbEntity
  8
0
100
AcDbVertex
100
AcDbPolygonMeshVertex
 10
0.0052
 20
-1.480999999999999
 30
0.187
 70
    64
  0
VERTEX
  5
6238C
330
6237A
100
AcDbEntity
  8
0
100
AcDbVertex
100
AcDbPolygonMeshVertex
 10
0.0052
 20
-1.685499999999999
 30
0.187
 70
    64
  0
SEQEND
  5
6238D
330
6237A
100
AcDbEntity
  8
0
  0
POLYLINE
  5
6238E
330
458D6
100
AcDbEntity
  8
0
100
AcDbPolygonMesh
 66
     1
 10
0.0
 20
0.0
 30
0.0
 70
    16
 71
     6
 72
     3
  0
VERTEX
  5
6238F
330
6238E
100
AcDbEntity
  8
0
100
AcDbVertex
100
AcDbPolygonMeshVertex
 10
1.765199999999999
 20
0.2044999999999999
 30
0.187
 70
    64
  0
VERTEX
  5
62390
330
6238E
100
AcDbEntity
  8
0
100
AcDbVertex
100
AcDbPolygonMeshVertex
 10
1.765199999999999
 20
0.2044999999999999
 30
0.0
 70
    64
  0
VERTEX
  5
62391
330
6238E
100
AcDbEntity
  8
0
100
AcDbVertex
100
AcDbPolygonMeshVertex
 10
1.765199999999999
 20
0.2044999999999999
 30
0.0
 70
    64
  0
VERTEX
  5
62392
330
6238E
100
AcDbEntity
  8
0
100
AcDbVertex
100
AcDbPolygonMeshVertex
 10
0.0052
 20
0.2044999999999999
 30
0.187
 70
    64
  0
VERTEX
  5
62393
330
6238E
100
AcDbEntity
  8
0
100
AcDbVertex
100
AcDbPolygonMeshVertex
 10
0.0052
 20
0.2044999999999999
 30
0.0
 70
    64
  0
VERTEX
  5
62394
330
6238E
100
AcDbEntity
  8
0
100
AcDbVertex
100
AcDbPolygonMeshVertex
 10
0.0052
 20
0.2044999999999999
 30
0.0
 70
    64
  0
VERTEX
  5
62395
330
6238E
100
AcDbEntity
  8
0
100
AcDbVertex
100
AcDbPolygonMeshVertex
 10
0.0052
 20
0.0
 30
0.187
 70
    64
  0
VERTEX
  5
62396
330
6238E
100
AcDbEntity
  8
0
100
AcDbVertex
100
AcDbPolygonMeshVertex
 10
0.0052
 20
0.0
 30
0.0
 70
    64
  0
VERTEX
  5
62397
330
6238E
100
AcDbEntity
  8
0
100
AcDbVertex
100
AcDbPolygonMeshVertex
 10
0.0052
 20
0.2044999999999999
 30
0.0
 70
    64
  0
VERTEX
  5
62398
330
6238E
100
AcDbEntity
  8
0
100
AcDbVertex
100
AcDbPolygonMeshVertex
 10
1.765199999999999
 20
0.0
 30
0.187
 70
    64
  0
VERTEX
  5
62399
330
6238E
100
AcDbEntity
  8
0
100
AcDbVertex
100
AcDbPolygonMeshVertex
 10
1.765199999999999
 20
0.0
 30
0.0
 70
    64
  0
VERTEX
  5
6239A
330
6238E
100
AcDbEntity
  8
0
100
AcDbVertex
100
AcDbPolygonMeshVertex
 10
1.765199999999999
 20
0.2044999999999999
 30
0.0
 70
    64
  0
VERTEX
  5
6239B
330
6238E
100
AcDbEntity
  8
0
100
AcDbVertex
100
AcDbPolygonMeshVertex
 10
1.765199999999999
 20
0.0
 30
0.187
 70
    64
  0
VERTEX
  5
6239C
330
6238E
100
AcDbEntity
  8
0
100
AcDbVertex
100
AcDbPolygonMeshVertex
 10
1.765199999999999
 20
0.0
 30
0.187
 70
    64
  0
VERTEX
  5
6239D
330
6238E
100
AcDbEntity
  8
0
100
AcDbVertex
100
AcDbPolygonMeshVertex
 10
1.765199999999999
 20
0.2044999999999999
 30
0.187
 70
    64
  0
VERTEX
  5
6239E
330
6238E
100
AcDbEntity
  8
0
100
AcDbVertex
100
AcDbPolygonMeshVertex
 10
0.0052
 20
0.0
 30
0.187
 70
    64
  0
VERTEX
  5
6239F
330
6238E
100
AcDbEntity
  8
0
100
AcDbVertex
100
AcDbPolygonMeshVertex
 10
0.0052
 20
0.0
 30
0.187
 70
    64
  0
VERTEX
  5
623A0
330
6238E
100
AcDbEntity
  8
0
100
AcDbVertex
100
AcDbPolygonMeshVertex
 10
0.0052
 20
0.2044999999999999
 30
0.187
 70
    64
  0
SEQEND
  5
623A1
330
6238E
100
AcDbEntity
  8
0
  0
POLYLINE
  5
623A2
330
458D6
100
AcDbEntity
  8
0
100
AcDbPolygonMesh
 66
     1
 10
0.0
 20
0.0
 30
0.0
 70
    16
 71
     6
 72
     3
  0
VERTEX
  5
623A3
330
623A2
100
AcDbEntity
  8
0
100
AcDbVertex
100
AcDbPolygonMeshVertex
 10
0.3962
 20
-2.081499999999999
 30
0.316
 70
    64
  0
VERTEX
  5
623A4
330
623A2
100
AcDbEntity
  8
0
100
AcDbVertex
100
AcDbPolygonMeshVertex
 10
0.3962
 20
-2.081499999999999
 30
0.0
 70
    64
  0
VERTEX
  5
623A5
330
623A2
100
AcDbEntity
  8
0
100
AcDbVertex
100
AcDbPolygonMeshVertex
 10
0.3962
 20
-2.081499999999999
 30
0.0
 70
    64
  0
VERTEX
  5
623A6
330
623A2
100
AcDbEntity
  8
0
100
AcDbVertex
100
AcDbPolygonMeshVertex
 10
0.0052
 20
-2.081499999999999
 30
0.316
 70
    64
  0
VERTEX
  5
623A7
330
623A2
100
AcDbEntity
  8
0
100
AcDbVertex
100
AcDbPolygonMeshVertex
 10
0.0052
 20
-2.081499999999999
 30
0.0
 70
    64
  0
VERTEX
  5
623A8
330
623A2
100
AcDbEntity
  8
0
100
AcDbVertex
100
AcDbPolygonMeshVertex
 10
0.0052
 20
-2.081499999999999
 30
0.0
 70
    64
  0
VERTEX
  5
623A9
330
623A2
100
AcDbEntity
  8
0
100
AcDbVertex
100
AcDbPolygonMeshVertex
 10
0.0052
 20
-1.685499999999999
 30
0.316
 70
    64
  0
VERTEX
  5
623AA
330
623A2
100
AcDbEntity
  8
0
100
AcDbVertex
100
AcDbPolygonMeshVertex
 10
0.0052
 20
-1.685499999999999
 30
0.0
 70
    64
  0
VERTEX
  5
623AB
330
623A2
100
AcDbEntity
  8
0
100
AcDbVertex
100
AcDbPolygonMeshVertex
 10
0.0052
 20
-2.081499999999999
 30
0.0
 70
    64
  0
VERTEX
  5
623AC
330
623A2
100
AcDbEntity
  8
0
100
AcDbVertex
100
AcDbPolygonMeshVertex
 10
0.3962
 20
-1.685499999999999
 30
0.316
 70
    64
  0
VERTEX
  5
623AD
330
623A2
100
AcDbEntity
  8
0
100
AcDbVertex
100
AcDbPolygonMeshVertex
 10
0.3962
 20
-1.685499999999999
 30
0.0
 70
    64
  0
VERTEX
  5
623AE
330
623A2
100
AcDbEntity
  8
0
100
AcDbVertex
100
AcDbPolygonMeshVertex
 10
0.3962
 20
-2.081499999999999
 30
0.0
 70
    64
  0
VERTEX
  5
623AF
330
623A2
100
AcDbEntity
  8
0
100
AcDbVertex
100
AcDbPolygonMeshVertex
 10
0.3962
 20
-1.685499999999999
 30
0.316
 70
    64
  0
VERTEX
  5
623B0
330
623A2
100
AcDbEntity
  8
0
100
AcDbVertex
100
AcDbPolygonMeshVertex
 10
0.3962
 20
-1.685499999999999
 30
0.316
 70
    64
  0
VERTEX
  5
623B1
330
623A2
100
AcDbEntity
  8
0
100
AcDbVertex
100
AcDbPolygonMeshVertex
 10
0.3962
 20
-2.081499999999999
 30
0.316
 70
    64
  0
VERTEX
  5
623B2
330
623A2
100
AcDbEntity
  8
0
100
AcDbVertex
100
AcDbPolygonMeshVertex
 10
0.0052
 20
-1.685499999999999
 30
0.316
 70
    64
  0
VERTEX
  5
623B3
330
623A2
100
AcDbEntity
  8
0
100
AcDbVertex
100
AcDbPolygonMeshVertex
 10
0.0052
 20
-1.685499999999999
 30
0.316
 70
    64
  0
VERTEX
  5
623B4
330
623A2
100
AcDbEntity
  8
0
100
AcDbVertex
100
AcDbPolygonMeshVertex
 10
0.0052
 20
-2.081499999999999
 30
0.316
 70
    64
  0
SEQEND
  5
623B5
330
623A2
100
AcDbEntity
  8
0
  0
POINT
  5
623B6
330
458D6
100
AcDbEntity
  8
SNAP_POINTS
100
AcDbPoint
 10
0.0
 20
0.0
 30
0.0
  0
3DFACE
  5
623B7
330
458D6
100
AcDbEntity
  8
0
100
AcDbFace
 10
1.765199999999999
 20
-1.845499999999999
 30
2.06
 11
1.765199999999999
 21
-1.845499999999999
 31
2.06
 12
0.0002000000000001
 22
-1.845499999999999
 32
2.06
 13
0.0002000000000001
 23
-1.845499999999999
 33
2.06
  0
3DFACE
  5
623B8
330
458D6
100
AcDbEntity
  8
0
100
AcDbFace
 10
0.0002000000000001
 20
-1.845499999999999
 30
2.06
 11
0.0002000000000001
 21
-1.845499999999999
 31
2.06
 12
0.0002000000000001
 22
-1.845499999999999
 32
2.06
 13
0.0002000000000001
 23
0.3984999999999994
 33
2.06
  0
3DFACE
  5
623B9
330
458D6
100
AcDbEntity
  8
0
100
AcDbFace
 10
0.0002000000000001
 20
0.3984999999999994
 30
2.06
 11
0.0002000000000001
 21
-1.845499999999999
 31
2.06
 12
1.765199999999999
 22
-1.845499999999999
 32
2.06
 13
1.765199999999999
 23
0.3984999999999994
 33
2.06
  0
POLYLINE
  5
623BA
330
458D6
100
AcDbEntity
  8
0
  6
Continuous
100
AcDb3dPolyline
 66
     1
 10
0.0
 20
0.0
 30
0.0
 70
     8
  0
VERTEX
  5
623BB
330
623BA
100
AcDbEntity
  8
0
  6
Continuous
100
AcDbVertex
100
AcDb3dPolylineVertex
 10
1.765199999999999
 20
0.3984999999999994
 30
2.06
 70
    32
1001
ACAD
1000
R13OBJECT
1002
{
1005
623BA
1002
}
  0
VERTEX
  5
623BC
330
623BA
100
AcDbEntity
  8
0
  6
Continuous
100
AcDbVertex
100
AcDb3dPolylineVertex
 10
1.765199999999999
 20
-1.845500000000001
 30
2.06
 70
    32
1001
ACAD
1000
R13OBJECT
1002
{
1005
623BA
1002
}
  0
SEQEND
  5
623BD
330
623BA
100
AcDbEntity
  8
0
  6
Continuous
  0
POLYLINE
  5
623BE
330
458D6
100
AcDbEntity
  8
0
  6
Continuous
100
AcDb3dPolyline
 66
     1
 10
0.0
 20
0.0
 30
0.0
 70
     8
1001
ACAD
1000
R13OBJECT
1002
{
1005
623BA
1002
}
  0
VERTEX
  5
623BF
330
623BE
100
AcDbEntity
  8
0
  6
Continuous
100
AcDbVertex
100
AcDb3dPolylineVertex
 10
1.765199999999999
 20
-1.845500000000001
 30
2.06
 70
    32
1001
ACAD
1000
R13OBJECT
1002
{
1005
623BA
1002
}
  0
VERTEX
  5
623C0
330
623BE
100
AcDbEntity
  8
0
  6
Continuous
100
AcDbVertex
100
AcDb3dPolylineVertex
 10
0.0002000000000001
 20
-1.845500000000001
 30
2.06
 70
    32
1001
ACAD
1000
R13OBJECT
1002
{
1005
623BA
1002
}
  0
SEQEND
  5
623C1
330
623BE
100
AcDbEntity
  8
0
  6
Continuous
  0
POLYLINE
  5
623C2
330
458D6
100
AcDbEntity
  8
0
  6
Continuous
100
AcDb3dPolyline
 66
     1
 10
0.0
 20
0.0
 30
0.0
 70
     8
1001
ACAD
1000
R13OBJECT
1002
{
1005
623BA
1002
}
  0
VERTEX
  5
623C3
330
623C2
100
AcDbEntity
  8
0
  6
Continuous
100
AcDbVertex
100
AcDb3dPolylineVertex
 10
0.0002000000000001
 20
-1.845500000000001
 30
2.06
 70
    32
1001
ACAD
1000
R13OBJECT
1002
{
1005
623BA
1002
}
  0
VERTEX
  5
623C4
330
623C2
100
AcDbEntity
  8
0
  6
Continuous
100
AcDbVertex
100
AcDb3dPolylineVertex
 10
0.0002000000000001
 20
0.3984999999999994
 30
2.06
 70
    32
1001
ACAD
1000
R13OBJECT
1002
{
1005
623BA
1002
}
  0
SEQEND
  5
623C5
330
623C2
100
AcDbEntity
  8
0
  6
Continuous
  0
POLYLINE
  5
623C6
330
458D6
100
AcDbEntity
  8
0
  6
Continuous
100
AcDb3dPolyline
 66
     1
 10
0.0
 20
0.0
 30
0.0
 70
     8
1001
ACAD
1000
R13OBJECT
1002
{
1005
623BA
1002
}
  0
VERTEX
  5
623C7
330
623C6
100
AcDbEntity
  8
0
  6
Continuous
100
AcDbVertex
100
AcDb3dPolylineVertex
 10
0.0002000000000001
 20
0.3984999999999994
 30
2.06
 70
    32
1001
ACAD
1000
R13OBJECT
1002
{
1005
623BA
1002
}
  0
VERTEX
  5
623C8
330
623C6
100
AcDbEntity
  8
0
  6
Continuous
100
AcDbVertex
100
AcDb3dPolylineVertex
 10
1.765199999999999
 20
0.3984999999999994
 30
2.06
 70
    32
1001
ACAD
1000
R13OBJECT
1002
{
1005
623BA
1002
}
  0
SEQEND
  5
623C9
330
623C6
100
AcDbEntity
  8
0
  6
Continuous
  0
POLYLINE
  5
623CA
330
458D6
100
AcDbEntity
  8
0
  6
Continuous
100
AcDb3dPolyline
 66
     1
 10
0.0
 20
0.0
 30
0.0
 70
     8
  0
VERTEX
  5
623CB
330
623CA
100
AcDbEntity
  8
0
  6
Continuous
100
AcDbVertex
100
AcDb3dPolylineVertex
 10
0.0002000000000001
 20
-1.845500000000001
 30
3.082
 70
    32
1001
ACAD
1000
R13OBJECT
1002
{
1005
623CA
1002
}
  0
VERTEX
  5
623CC
330
623CA
100
AcDbEntity
  8
0
  6
Continuous
100
AcDbVertex
100
AcDb3dPolylineVertex
 10
0.0002000000000001
 20
-1.845500000000001
 30
2.06
 70
    32
1001
ACAD
1000
R13OBJECT
1002
{
1005
623CA
1002
}
  0
SEQEND
  5
623CD
330
623CA
100
AcDbEntity
  8
0
  6
Continuous
  0
POLYLINE
  5
623CE
330
458D6
100
AcDbEntity
  8
0
  6
Continuous
100
AcDb3dPolyline
 66
     1
 10
0.0
 20
0.0
 30
0.0
 70
     8
1001
ACAD
1000
R13OBJECT
1002
{
1005
623CA
1002
}
  0
VERTEX
  5
623CF
330
623CE
100
AcDbEntity
  8
0
  6
Continuous
100
AcDbVertex
100
AcDb3dPolylineVertex
 10
1.765199999999999
 20
-1.845500000000001
 30
2.06
 70
    32
1001
ACAD
1000
R13OBJECT
1002
{
1005
623CA
1002
}
  0
VERTEX
  5
623D0
330
623CE
100
AcDbEntity
  8
0
  6
Continuous
100
AcDbVertex
100
AcDb3dPolylineVertex
 10
0.0002000000000001
 20
-1.845500000000001
 30
2.06
 70
    32
1001
ACAD
1000
R13OBJECT
1002
{
1005
623CA
1002
}
  0
SEQEND
  5
623D1
330
623CE
100
AcDbEntity
  8
0
  6
Continuous
  0
POLYLINE
  5
623D2
330
458D6
100
AcDbEntity
  8
0
  6
Continuous
100
AcDb3dPolyline
 66
     1
 10
0.0
 20
0.0
 30
0.0
 70
     8
1001
ACAD
1000
R13OBJECT
1002
{
1005
623CA
1002
}
  0
VERTEX
  5
623D3
330
623D2
100
AcDbEntity
  8
0
  6
Continuous
100
AcDbVertex
100
AcDb3dPolylineVertex
 10
1.765199999999999
 20
-1.845500000000001
 30
3.082
 70
    32
1001
ACAD
1000
R13OBJECT
1002
{
1005
623CA
1002
}
  0
VERTEX
  5
623D4
330
623D2
100
AcDbEntity
  8
0
  6
Continuous
100
AcDbVertex
100
AcDb3dPolylineVertex
 10
1.765199999999999
 20
-1.845500000000001
 30
2.06
 70
    32
1001
ACAD
1000
R13OBJECT
1002
{
1005
623CA
1002
}
  0
SEQEND
  5
623D5
330
623D2
100
AcDbEntity
  8
0
  6
Continuous
  0
POLYLINE
  5
623D6
330
458D6
100
AcDbEntity
  8
0
  6
Continuous
100
AcDb3dPolyline
 66
     1
 10
0.0
 20
0.0
 30
0.0
 70
     8
1001
ACAD
1000
R13OBJECT
1002
{
1005
623CA
1002
}
  0
VERTEX
  5
623D7
330
623D6
100
AcDbEntity
  8
0
  6
Continuous
100
AcDbVertex
100
AcDb3dPolylineVertex
 10
0.0002000000000001
 20
-1.845500000000001
 30
3.082
 70
    32
1001
ACAD
1000
R13OBJECT
1002
{
1005
623CA
1002
}
  0
VERTEX
  5
623D8
330
623D6
100
AcDbEntity
  8
0
  6
Continuous
100
AcDbVertex
100
AcDb3dPolylineVertex
 10
1.765199999999999
 20
-1.845500000000001
 30
3.082
 70
    32
1001
ACAD
1000
R13OBJECT
1002
{
1005
623CA
1002
}
  0
SEQEND
  5
623D9
330
623D6
100
AcDbEntity
  8
0
  6
Continuous
  0
POLYLINE
  5
623DA
330
458D6
100
AcDbEntity
  8
0
  6
Continuous
100
AcDb3dPolyline
 66
     1
 10
0.0
 20
0.0
 30
0.0
 70
     8
  0
VERTEX
  5
623DB
330
623DA
100
AcDbEntity
  8
0
  6
Continuous
100
AcDbVertex
100
AcDb3dPolylineVertex
 10
1.765199999999999
 20
0.3984999999999994
 30
3.082
 70
    32
1001
ACAD
1000
R13OBJECT
1002
{
1005
623DA
1002
}
  0
VERTEX
  5
623DC
330
623DA
100
AcDbEntity
  8
0
  6
Continuous
100
AcDbVertex
100
AcDb3dPolylineVertex
 10
1.765199999999999
 20
0.3984999999999994
 30
2.06
 70
    32
1001
ACAD
1000
R13OBJECT
1002
{
1005
623DA
1002
}
  0
SEQEND
  5
623DD
330
623DA
100
AcDbEntity
  8
0
  6
Continuous
  0
POLYLINE
  5
623DE
330
458D6
100
AcDbEntity
  8
0
  6
Continuous
100
AcDb3dPolyline
 66
     1
 10
0.0
 20
0.0
 30
0.0
 70
     8
1001
ACAD
1000
R13OBJECT
1002
{
1005
623DA
1002
}
  0
VERTEX
  5
623DF
330
623DE
100
AcDbEntity
  8
0
  6
Continuous
100
AcDbVertex
100
AcDb3dPolylineVertex
 10
0.0002000000000001
 20
0.3984999999999994
 30
2.06
 70
    32
1001
ACAD
1000
R13OBJECT
1002
{
1005
623DA
1002
}
  0
VERTEX
  5
623E0
330
623DE
100
AcDbEntity
  8
0
  6
Continuous
100
AcDbVertex
100
AcDb3dPolylineVertex
 10
1.765199999999999
 20
0.3984999999999994
 30
2.06
 70
    32
1001
ACAD
1000
R13OBJECT
1002
{
1005
623DA
1002
}
  0
SEQEND
  5
623E1
330
623DE
100
AcDbEntity
  8
0
  6
Continuous
  0
POLYLINE
  5
623E2
330
458D6
100
AcDbEntity
  8
0
  6
Continuous
100
AcDb3dPolyline
 66
     1
 10
0.0
 20
0.0
 30
0.0
 70
     8
1001
ACAD
1000
R13OBJECT
1002
{
1005
623DA
1002
}
  0
VERTEX
  5
623E3
330
623E2
100
AcDbEntity
  8
0
  6
Continuous
100
AcDbVertex
100
AcDb3dPolylineVertex
 10
0.0002000000000001
 20
0.3984999999999994
 30
3.082
 70
    32
1001
ACAD
1000
R13OBJECT
1002
{
1005
623DA
1002
}
  0
VERTEX
  5
623E4
330
623E2
100
AcDbEntity
  8
0
  6
Continuous
100
AcDbVertex
100
AcDb3dPolylineVertex
 10
0.0002000000000001
 20
0.3984999999999994
 30
2.06
 70
    32
1001
ACAD
1000
R13OBJECT
1002
{
1005
623DA
1002
}
  0
SEQEND
  5
623E5
330
623E2
100
AcDbEntity
  8
0
  6
Continuous
  0
POLYLINE
  5
623E6
330
458D6
100
AcDbEntity
  8
0
  6
Continuous
100
AcDb3dPolyline
 66
     1
 10
0.0
 20
0.0
 30
0.0
 70
     8
1001
ACAD
1000
R13OBJECT
1002
{
1005
623DA
1002
}
  0
VERTEX
  5
623E7
330
623E6
100
AcDbEntity
  8
0
  6
Continuous
100
AcDbVertex
100
AcDb3dPolylineVertex
 10
1.765199999999999
 20
0.3984999999999994
 30
3.082
 70
    32
1001
ACAD
1000
R13OBJECT
1002
{
1005
623DA
1002
}
  0
VERTEX
  5
623E8
330
623E6
100
AcDbEntity
  8
0
  6
Continuous
100
AcDbVertex
100
AcDb3dPolylineVertex
 10
0.0002000000000001
 20
0.3984999999999994
 30
3.082
 70
    32
1001
ACAD
1000
R13OBJECT
1002
{
1005
623DA
1002
}
  0
SEQEND
  5
623E9
330
623E6
100
AcDbEntity
  8
0
  6
Continuous
  0
POLYLINE
  5
623EA
330
458D6
100
AcDbEntity
  8
0
  6
Continuous
100
AcDb3dPolyline
 66
     1
 10
0.0
 20
0.0
 30
0.0
 70
     8
  0
VERTEX
  5
623EB
330
623EA
100
AcDbEntity
  8
0
  6
Continuous
100
AcDbVertex
100
AcDb3dPolylineVertex
 10
1.765199999999999
 20
-1.845500000000001
 30
3.082
 70
    32
1001
ACAD
1000
R13OBJECT
1002
{
1005
623EA
1002
}
  0
VERTEX
  5
623EC
330
623EA
100
AcDbEntity
  8
0
  6
Continuous
100
AcDbVertex
100
AcDb3dPolylineVertex
 10
1.765199999999999
 20
-1.845500000000001
 30
2.06
 70
    32
1001
ACAD
1000
R13OBJECT
1002
{
1005
623EA
1002
}
  0
SEQEND
  5
623ED
330
623EA
100
AcDbEntity
  8
0
  6
Continuous
  0
POLYLINE
  5
623EE
330
458D6
100
AcDbEntity
  8
0
  6
Continuous
100
AcDb3dPolyline
 66
     1
 10
0.0
 20
0.0
 30
0.0
 70
     8
1001
ACAD
1000
R13OBJECT
1002
{
1005
623EA
1002
}
  0
VERTEX
  5
623EF
330
623EE
100
AcDbEntity
  8
0
  6
Continuous
100
AcDbVertex
100
AcDb3dPolylineVertex
 10
1.765199999999999
 20
0.3984999999999994
 30
2.06
 70
    32
1001
ACAD
1000
R13OBJECT
1002
{
1005
623EA
1002
}
  0
VERTEX
  5
623F0
330
623EE
100
AcDbEntity
  8
0
  6
Continuous
100
AcDbVertex
100
AcDb3dPolylineVertex
 10
1.765199999999999
 20
-1.845500000000001
 30
2.06
 70
    32
1001
ACAD
1000
R13OBJECT
1002
{
1005
623EA
1002
}
  0
SEQEND
  5
623F1
330
623EE
100
AcDbEntity
  8
0
  6
Continuous
  0
POLYLINE
  5
623F2
330
458D6
100
AcDbEntity
  8
0
  6
Continuous
100
AcDb3dPolyline
 66
     1
 10
0.0
 20
0.0
 30
0.0
 70
     8
1001
ACAD
1000
R13OBJECT
1002
{
1005
623EA
1002
}
  0
VERTEX
  5
623F3
330
623F2
100
AcDbEntity
  8
0
  6
Continuous
100
AcDbVertex
100
AcDb3dPolylineVertex
 10
1.765199999999999
 20
0.3984999999999994
 30
3.082
 70
    32
1001
ACAD
1000
R13OBJECT
1002
{
1005
623EA
1002
}
  0
VERTEX
  5
623F4
330
623F2
100
AcDbEntity
  8
0
  6
Continuous
100
AcDbVertex
100
AcDb3dPolylineVertex
 10
1.765199999999999
 20
0.3984999999999994
 30
2.06
 70
    32
1001
ACAD
1000
R13OBJECT
1002
{
1005
623EA
1002
}
  0
SEQEND
  5
623F5
330
623F2
100
AcDbEntity
  8
0
  6
Continuous
  0
POLYLINE
  5
623F6
330
458D6
100
AcDbEntity
  8
0
  6
Continuous
100
AcDb3dPolyline
 66
     1
 10
0.0
 20
0.0
 30
0.0
 70
     8
1001
ACAD
1000
R13OBJECT
1002
{
1005
623EA
1002
}
  0
VERTEX
  5
623F7
330
623F6
100
AcDbEntity
  8
0
  6
Continuous
100
AcDbVertex
100
AcDb3dPolylineVertex
 10
1.765199999999999
 20
-1.845500000000001
 30
3.082
 70
    32
1001
ACAD
1000
R13OBJECT
1002
{
1005
623EA
1002
}
  0
VERTEX
  5
623F8
330
623F6
100
AcDbEntity
  8
0
  6
Continuous
100
AcDbVertex
100
AcDb3dPolylineVertex
 10
1.765199999999999
 20
0.3984999999999994
 30
3.082
 70
    32
1001
ACAD
1000
R13OBJECT
1002
{
1005
623EA
1002
}
  0
SEQEND
  5
623F9
330
623F6
100
AcDbEntity
  8
0
  6
Continuous
  0
LINE
  5
623FA
330
458D6
100
AcDbEntity
  8
0
100
AcDbLine
 10
0.0002000000000001
 20
0.3984999999999994
 30
3.082
 11
0.0002000000000001
 21
0.3984999999999994
 31
2.06
210
-1.0
220
0.0
230
0.0
  0
LINE
  5
623FB
330
458D6
100
AcDbEntity
  8
0
100
AcDbLine
 10
0.0002000000000001
 20
0.3984999999999994
 30
3.082
 11
0.0002000000000001
 21
-1.845500000000001
 31
3.082
210
-1.0
220
0.0
230
0.0
  0
LINE
  5
623FC
330
458D6
100
AcDbEntity
  8
0
100
AcDbLine
 10
0.0002000000000001
 20
-1.845500000000001
 30
3.082
 11
0.0002000000000001
 21
-1.845500000000001
 31
2.06
210
-1.0
220
0.0
230
0.0
  0
3DFACE
  5
623FD
330
458D6
100
AcDbEntity
  8
0
100
AcDbFace
 10
1.765199999999999
 20
0.3984999999999981
 30
3.082
 11
1.765199999999999
 21
-1.845500000000001
 31
3.082
 12
0.0002000000000001
 22
-1.845500000000001
 32
3.082
 13
0.0002000000000001
 23
0.3984999999999981
 33
3.082
  0
POLYLINE
  5
623FE
330
458D6
100
AcDbEntity
  8
0
100
AcDbPolygonMesh
 66
     1
 10
0.0
 20
0.0
 30
0.0
 70
    16
 71
     6
 72
     3
  0
VERTEX
  5
623FF
330
623FE
100
AcDbEntity
  8
0
100
AcDbVertex
100
AcDbPolygonMeshVertex
 10
1.250699999999999
 20
-0.4394862069696881
 30
3.293
 70
    64
  0
VERTEX
  5
62400
330
623FE
100
AcDbEntity
  8
0
100
AcDbVertex
100
AcDbPolygonMeshVertex
 10
1.250699999999999
 20
-0.4394862069696881
 30
3.116
 70
    64
  0
VERTEX
  5
62401
330
623FE
100
AcDbEntity
  8
0
100
AcDbVertex
100
AcDbPolygonMeshVertex
 10
1.250699999999999
 20
-0.4394862069696881
 30
3.116
 70
    64
  0
VERTEX
  5
62402
330
623FE
100
AcDbEntity
  8
0
100
AcDbVertex
100
AcDbPolygonMeshVertex
 10
1.081199999999998
 20
-0.4394862069696881
 30
3.293
 70
    64
  0
VERTEX
  5
62403
330
623FE
100
AcDbEntity
  8
0
100
AcDbVertex
100
AcDbPolygonMeshVertex
 10
1.081199999999998
 20
-0.4394862069696881
 30
3.116
 70
    64
  0
VERTEX
  5
62404
330
623FE
100
AcDbEntity
  8
0
100
AcDbVertex
100
AcDbPolygonMeshVertex
 10
1.081199999999998
 20
-0.4394862069696881
 30
3.116
 70
    64
  0
VERTEX
  5
62405
330
623FE
100
AcDbEntity
  8
0
100
AcDbVertex
100
AcDbPolygonMeshVertex
 10
1.081199999999998
 20
-0.0864862069696884
 30
3.293
 70
    64
  0
VERTEX
  5
62406
330
623FE
100
AcDbEntity
  8
0
100
AcDbVertex
100
AcDbPolygonMeshVertex
 10
1.081199999999998
 20
-0.0864862069696884
 30
3.116
 70
    64
  0
VERTEX
  5
62407
330
623FE
100
AcDbEntity
  8
0
100
AcDbVertex
100
AcDbPolygonMeshVertex
 10
1.081199999999998
 20
-0.4394862069696881
 30
3.116
 70
    64
  0
VERTEX
  5
62408
330
623FE
100
AcDbEntity
  8
0
100
AcDbVertex
100
AcDbPolygonMeshVertex
 10
1.250699999999999
 20
-0.0864862069696884
 30
3.293
 70
    64
  0
VERTEX
  5
62409
330
623FE
100
AcDbEntity
  8
0
100
AcDbVertex
100
AcDbPolygonMeshVertex
 10
1.250699999999999
 20
-0.0864862069696884
 30
3.116
 70
    64
  0
VERTEX
  5
6240A
330
623FE
100
AcDbEntity
  8
0
100
AcDbVertex
100
AcDbPolygonMeshVertex
 10
1.250699999999999
 20
-0.4394862069696881
 30
3.116
 70
    64
  0
VERTEX
  5
6240B
330
623FE
100
AcDbEntity
  8
0
100
AcDbVertex
100
AcDbPolygonMeshVertex
 10
1.250699999999999
 20
-0.0864862069696884
 30
3.293
 70
    64
  0
VERTEX
  5
6240C
330
623FE
100
AcDbEntity
  8
0
100
AcDbVertex
100
AcDbPolygonMeshVertex
 10
1.250699999999999
 20
-0.0864862069696884
 30
3.293
 70
    64
  0
VERTEX
  5
6240D
330
623FE
100
AcDbEntity
  8
0
100
AcDbVertex
100
AcDbPolygonMeshVertex
 10
1.250699999999999
 20
-0.4394862069696881
 30
3.293
 70
    64
  0
VERTEX
  5
6240E
330
623FE
100
AcDbEntity
  8
0
100
AcDbVertex
100
AcDbPolygonMeshVertex
 10
1.081199999999998
 20
-0.0864862069696884
 30
3.293
 70
    64
  0
VERTEX
  5
6240F
330
623FE
100
AcDbEntity
  8
0
100
AcDbVertex
100
AcDbPolygonMeshVertex
 10
1.081199999999998
 20
-0.0864862069696884
 30
3.293
 70
    64
  0
VERTEX
  5
62410
330
623FE
100
AcDbEntity
  8
0
100
AcDbVertex
100
AcDbPolygonMeshVertex
 10
1.081199999999998
 20
-0.4394862069696881
 30
3.293
 70
    64
  0
SEQEND
  5
62411
330
623FE
100
AcDbEntity
  8
0
  0
POLYLINE
  5
62412
330
458D6
100
AcDbEntity
  8
0
100
AcDbPolygonMesh
 66
     1
 10
0.0
 20
0.0
 30
0.0
 70
    16
 71
     6
 72
     3
  0
VERTEX
  5
62413
330
62412
100
AcDbEntity
  8
0
100
AcDbVertex
100
AcDbPolygonMeshVertex
 10
1.122699999999998
 20
-0.8944862069696878
 30
3.332000000000001
 70
    64
  0
VERTEX
  5
62414
330
62412
100
AcDbEntity
  8
0
100
AcDbVertex
100
AcDbPolygonMeshVertex
 10
1.122699999999998
 20
-0.8944862069696878
 30
3.116
 70
    64
  0
VERTEX
  5
62415
330
62412
100
AcDbEntity
  8
0
100
AcDbVertex
100
AcDbPolygonMeshVertex
 10
1.122699999999998
 20
-0.8944862069696878
 30
3.116
 70
    64
  0
VERTEX
  5
62416
330
62412
100
AcDbEntity
  8
0
100
AcDbVertex
100
AcDbPolygonMeshVertex
 10
0.987699999999999
 20
-0.8944862069696878
 30
3.332000000000001
 70
    64
  0
VERTEX
  5
62417
330
62412
100
AcDbEntity
  8
0
100
AcDbVertex
100
AcDbPolygonMeshVertex
 10
0.987699999999999
 20
-0.8944862069696878
 30
3.116
 70
    64
  0
VERTEX
  5
62418
330
62412
100
AcDbEntity
  8
0
100
AcDbVertex
100
AcDbPolygonMeshVertex
 10
0.987699999999999
 20
-0.8944862069696878
 30
3.116
 70
    64
  0
VERTEX
  5
62419
330
62412
100
AcDbEntity
  8
0
100
AcDbVertex
100
AcDbPolygonMeshVertex
 10
0.987699999999999
 20
-0.5494862069696876
 30
3.332000000000001
 70
    64
  0
VERTEX
  5
6241A
330
62412
100
AcDbEntity
  8
0
100
AcDbVertex
100
AcDbPolygonMeshVertex
 10
0.987699999999999
 20
-0.5494862069696876
 30
3.116
 70
    64
  0
VERTEX
  5
6241B
330
62412
100
AcDbEntity
  8
0
100
AcDbVertex
100
AcDbPolygonMeshVertex
 10
0.987699999999999
 20
-0.8944862069696878
 30
3.116
 70
    64
  0
VERTEX
  5
6241C
330
62412
100
AcDbEntity
  8
0
100
AcDbVertex
100
AcDbPolygonMeshVertex
 10
1.122699999999998
 20
-0.5494862069696876
 30
3.332000000000001
 70
    64
  0
VERTEX
  5
6241D
330
62412
100
AcDbEntity
  8
0
100
AcDbVertex
100
AcDbPolygonMeshVertex
 10
1.122699999999998
 20
-0.5494862069696876
 30
3.116
 70
    64
  0
VERTEX
  5
6241E
330
62412
100
AcDbEntity
  8
0
100
AcDbVertex
100
AcDbPolygonMeshVertex
 10
1.122699999999998
 20
-0.8944862069696878
 30
3.116
 70
    64
  0
VERTEX
  5
6241F
330
62412
100
AcDbEntity
  8
0
100
AcDbVertex
100
AcDbPolygonMeshVertex
 10
1.122699999999998
 20
-0.5494862069696876
 30
3.332000000000001
 70
    64
  0
VERTEX
  5
62420
330
62412
100
AcDbEntity
  8
0
100
AcDbVertex
100
AcDbPolygonMeshVertex
 10
1.122699999999998
 20
-0.5494862069696876
 30
3.332000000000001
 70
    64
  0
VERTEX
  5
62421
330
62412
100
AcDbEntity
  8
0
100
AcDbVertex
100
AcDbPolygonMeshVertex
 10
1.122699999999998
 20
-0.8944862069696878
 30
3.332000000000001
 70
    64
  0
VERTEX
  5
62422
330
62412
100
AcDbEntity
  8
0
100
AcDbVertex
100
AcDbPolygonMeshVertex
 10
0.987699999999999
 20
-0.5494862069696876
 30
3.332000000000001
 70
    64
  0
VERTEX
  5
62423
330
62412
100
AcDbEntity
  8
0
100
AcDbVertex
100
AcDbPolygonMeshVertex
 10
0.987699999999999
 20
-0.5494862069696876
 30
3.332000000000001
 70
    64
  0
VERTEX
  5
62424
330
62412
100
AcDbEntity
  8
0
100
AcDbVertex
100
AcDbPolygonMeshVertex
 10
0.987699999999999
 20
-0.8944862069696878
 30
3.332000000000001
 70
    64
  0
SEQEND
  5
62425
330
62412
100
AcDbEntity
  8
0
  0
3DFACE
  5
62426
330
458D6
100
AcDbEntity
  8
0
100
AcDbFace
 10
1.765199999999999
 20
0.3984999999999981
 30
3.082
 11
1.765199999999999
 21
0.3984999999999981
 31
3.082
 12
0.0002000000000001
 22
0.3984999999999981
 32
3.082
 13
0.0002000000000001
 23
0.3984999999999981
 33
3.082
  0
CIRCLE
  5
62427
330
458D6
100
AcDbEntity
  8
0
100
AcDbCircle
 10
0.2380749999999995
 20
0.1549075779401257
 30
3.082
 40
0.138
  0
TEXT
  5
62428
330
458D6
100
AcDbEntity
  8
0
100
AcDbText
 10
0.0726171893171534
 20
0.301596169847989
 30
3.082
 40
0.0834654981097751
  1
1
100
AcDbText
  0
TEXT
  5
62429
330
458D6
100
AcDbEntity
  8
0
100
AcDbText
 10
1.169566170998377
 20
0.304735651778393
 30
3.082
 40
0.0834654981097751
  1
L3
100
AcDbText
  0
CIRCLE
  5
6242A
330
458D6
100
AcDbEntity
  8
0
100
AcDbCircle
 10
0.6678249999999998
 20
0.1549075779401257
 30
3.082
 40
0.138
  0
TEXT
  5
6242B
330
458D6
100
AcDbEntity
  8
0
100
AcDbText
 10
0.7630191193613373
 20
0.3013239366769129
 30
3.082
 40
0.0834654981097751
  1
L2
100
AcDbText
  0
TEXT
  5
6242C
330
458D6
100
AcDbEntity
  8
0
100
AcDbText
 10
0.3363953097455404
 20
0.3007543037421425
 30
3.082
 40
0.0834654981097751
  1
L1
100
AcDbText
  0
TEXT
  5
6242D
330
458D6
100
AcDbEntity
  8
0
100
AcDbText
 10
0.5233684387662298
 20
0.299912437636296
 30
3.082
 40
0.0834654981097751
  1
3
100
AcDbText
  0
TEXT
  5
6242E
330
458D6
100
AcDbEntity
  8
0
100
AcDbText
 10
0.9649023543462657
 20
0.3027354357175302
 30
3.082
 40
0.0834654981097751
  1
5
100
AcDbText
  0
CIRCLE
  5
6242F
330
458D6
100
AcDbEntity
  8
0
100
AcDbCircle
 10
1.097574999999999
 20
0.1549075779401257
 30
3.082
 40
0.138
  0
TEXT
  5
62430
330
458D6
100
AcDbEntity
  8
0
100
AcDbText
 10
1.599316170998377
 20
0.304735651778393
 30
3.082
 40
0.0834654981097751
  1
NO
100
AcDbText
  0
TEXT
  5
62431
330
458D6
100
AcDbEntity
  8
0
100
AcDbText
 10
1.370108047435937
 20
0.3027354357175302
 30
3.082
 40
0.0834654981097751
  1
13
100
AcDbText
  0
CIRCLE
  5
62432
330
458D6
100
AcDbEntity
  8
0
100
AcDbCircle
 10
1.527325
 20
0.1549075779401257
 30
3.082
 40
0.138
  0
POLYLINE
  5
62433
330
458D6
100
AcDbEntity
  8
0
100
AcDbPolygonMesh
 66
     1
 10
0.0
 20
0.0
 30
0.0
 70
    16
 71
     6
 72
     3
  0
VERTEX
  5
62434
330
62433
100
AcDbEntity
  8
0
100
AcDbVertex
100
AcDbPolygonMeshVertex
 10
1.2707
 20
-1.376486206969687
 30
3.282
 70
    64
  0
VERTEX
  5
62435
330
62433
100
AcDbEntity
  8
0
100
AcDbVertex
100
AcDbPolygonMeshVertex
 10
1.2707
 20
-1.376486206969687
 30
3.082
 70
    64
  0
VERTEX
  5
62436
330
62433
100
AcDbEntity
  8
0
100
AcDbVertex
100
AcDbPolygonMeshVertex
 10
1.2707
 20
-1.376486206969687
 30
3.082
 70
    64
  0
VERTEX
  5
62437
330
62433
100
AcDbEntity
  8
0
100
AcDbVertex
100
AcDbPolygonMeshVertex
 10
0.4996999999999995
 20
-1.376486206969687
 30
3.282
 70
    64
  0
VERTEX
  5
62438
330
62433
100
AcDbEntity
  8
0
100
AcDbVertex
100
AcDbPolygonMeshVertex
 10
0.4996999999999995
 20
-1.376486206969687
 30
3.082
 70
    64
  0
VERTEX
  5
62439
330
62433
100
AcDbEntity
  8
0
100
AcDbVertex
100
AcDbPolygonMeshVertex
 10
0.4996999999999995
 20
-1.376486206969687
 30
3.082
 70
    64
  0
VERTEX
  5
6243A
330
62433
100
AcDbEntity
  8
0
100
AcDbVertex
100
AcDbPolygonMeshVertex
 10
0.4996999999999995
 20
-1.094486206969687
 30
3.282
 70
    64
  0
VERTEX
  5
6243B
330
62433
100
AcDbEntity
  8
0
100
AcDbVertex
100
AcDbPolygonMeshVertex
 10
0.4996999999999995
 20
-1.094486206969687
 30
3.082
 70
    64
  0
VERTEX
  5
6243C
330
62433
100
AcDbEntity
  8
0
100
AcDbVertex
100
AcDbPolygonMeshVertex
 10
0.4996999999999995
 20
-1.376486206969687
 30
3.082
 70
    64
  0
VERTEX
  5
6243D
330
62433
100
AcDbEntity
  8
0
100
AcDbVertex
100
AcDbPolygonMeshVertex
 10
1.2707
 20
-1.094486206969687
 30
3.282
 70
    64
  0
VERTEX
  5
6243E
330
62433
100
AcDbEntity
  8
0
100
AcDbVertex
100
AcDbPolygonMeshVertex
 10
1.2707
 20
-1.094486206969687
 30
3.082
 70
    64
  0
VERTEX
  5
6243F
330
62433
100
AcDbEntity
  8
0
100
AcDbVertex
100
AcDbPolygonMeshVertex
 10
1.2707
 20
-1.376486206969687
 30
3.082
 70
    64
  0
VERTEX
  5
62440
330
62433
100
AcDbEntity
  8
0
100
AcDbVertex
100
AcDbPolygonMeshVertex
 10
1.2707
 20
-1.094486206969687
 30
3.282
 70
    64
  0
VERTEX
  5
62441
330
62433
100
AcDbEntity
  8
0
100
AcDbVertex
100
AcDbPolygonMeshVertex
 10
1.2707
 20
-1.094486206969687
 30
3.282
 70
    64
  0
VERTEX
  5
62442
330
62433
100
AcDbEntity
  8
0
100
AcDbVertex
100
AcDbPolygonMeshVertex
 10
1.2707
 20
-1.376486206969687
 30
3.282
 70
    64
  0
VERTEX
  5
62443
330
62433
100
AcDbEntity
  8
0
100
AcDbVertex
100
AcDbPolygonMeshVertex
 10
0.4996999999999995
 20
-1.094486206969687
 30
3.282
 70
    64
  0
VERTEX
  5
62444
330
62433
100
AcDbEntity
  8
0
100
AcDbVertex
100
AcDbPolygonMeshVertex
 10
0.4996999999999995
 20
-1.094486206969687
 30
3.282
 70
    64
  0
VERTEX
  5
62445
330
62433
100
AcDbEntity
  8
0
100
AcDbVertex
100
AcDbPolygonMeshVertex
 10
0.4996999999999995
 20
-1.376486206969687
 30
3.282
 70
    64
  0
SEQEND
  5
62446
330
62433
100
AcDbEntity
  8
0
  0
POLYLINE
  5
62447
330
458D6
100
AcDbEntity
  8
0
100
AcDbPolygonMesh
 66
     1
 10
0.0
 20
0.0
 30
0.0
 70
    16
 71
     6
 72
     3
  0
VERTEX
  5
62448
330
62447
100
AcDbEntity
  8
0
100
AcDbVertex
100
AcDbPolygonMeshVertex
 10
1.250699999999999
 20
-0.4394862069696881
 30
3.116
 70
    64
  0
VERTEX
  5
62449
330
62447
100
AcDbEntity
  8
0
100
AcDbVertex
100
AcDbPolygonMeshVertex
 10
1.250699999999999
 20
-0.4394862069696881
 30
3.082
 70
    64
  0
VERTEX
  5
6244A
330
62447
100
AcDbEntity
  8
0
100
AcDbVertex
100
AcDbPolygonMeshVertex
 10
1.250699999999999
 20
-0.4394862069696881
 30
3.082
 70
    64
  0
VERTEX
  5
6244B
330
62447
100
AcDbEntity
  8
0
100
AcDbVertex
100
AcDbPolygonMeshVertex
 10
0.5196999999999991
 20
-0.4394862069696881
 30
3.116
 70
    64
  0
VERTEX
  5
6244C
330
62447
100
AcDbEntity
  8
0
100
AcDbVertex
100
AcDbPolygonMeshVertex
 10
0.5196999999999991
 20
-0.4394862069696881
 30
3.082
 70
    64
  0
VERTEX
  5
6244D
330
62447
100
AcDbEntity
  8
0
100
AcDbVertex
100
AcDbPolygonMeshVertex
 10
0.5196999999999991
 20
-0.4394862069696881
 30
3.082
 70
    64
  0
VERTEX
  5
6244E
330
62447
100
AcDbEntity
  8
0
100
AcDbVertex
100
AcDbPolygonMeshVertex
 10
0.5196999999999991
 20
-0.0864862069696884
 30
3.116
 70
    64
  0
VERTEX
  5
6244F
330
62447
100
AcDbEntity
  8
0
100
AcDbVertex
100
AcDbPolygonMeshVertex
 10
0.5196999999999991
 20
-0.0864862069696884
 30
3.082
 70
    64
  0
VERTEX
  5
62450
330
62447
100
AcDbEntity
  8
0
100
AcDbVertex
100
AcDbPolygonMeshVertex
 10
0.5196999999999991
 20
-0.4394862069696881
 30
3.082
 70
    64
  0
VERTEX
  5
62451
330
62447
100
AcDbEntity
  8
0
100
AcDbVertex
100
AcDbPolygonMeshVertex
 10
1.250699999999999
 20
-0.0864862069696884
 30
3.116
 70
    64
  0
VERTEX
  5
62452
330
62447
100
AcDbEntity
  8
0
100
AcDbVertex
100
AcDbPolygonMeshVertex
 10
1.250699999999999
 20
-0.0864862069696884
 30
3.082
 70
    64
  0
VERTEX
  5
62453
330
62447
100
AcDbEntity
  8
0
100
AcDbVertex
100
AcDbPolygonMeshVertex
 10
1.250699999999999
 20
-0.4394862069696881
 30
3.082
 70
    64
  0
VERTEX
  5
62454
330
62447
100
AcDbEntity
  8
0
100
AcDbVertex
100
AcDbPolygonMeshVertex
 10
1.250699999999999
 20
-0.0864862069696884
 30
3.116
 70
    64
  0
VERTEX
  5
62455
330
62447
100
AcDbEntity
  8
0
100
AcDbVertex
100
AcDbPolygonMeshVertex
 10
1.250699999999999
 20
-0.0864862069696884
 30
3.116
 70
    64
  0
VERTEX
  5
62456
330
62447
100
AcDbEntity
  8
0
100
AcDbVertex
100
AcDbPolygonMeshVertex
 10
1.250699999999999
 20
-0.4394862069696881
 30
3.116
 70
    64
  0
VERTEX
  5
62457
330
62447
100
AcDbEntity
  8
0
100
AcDbVertex
100
AcDbPolygonMeshVertex
 10
0.5196999999999991
 20
-0.0864862069696884
 30
3.116
 70
    64
  0
VERTEX
  5
62458
330
62447
100
AcDbEntity
  8
0
100
AcDbVertex
100
AcDbPolygonMeshVertex
 10
0.5196999999999991
 20
-0.0864862069696884
 30
3.116
 70
    64
  0
VERTEX
  5
62459
330
62447
100
AcDbEntity
  8
0
100
AcDbVertex
100
AcDbPolygonMeshVertex
 10
0.5196999999999991
 20
-0.4394862069696881
 30
3.116
 70
    64
  0
SEQEND
  5
6245A
330
62447
100
AcDbEntity
  8
0
  0
POLYLINE
  5
6245B
330
458D6
100
AcDbEntity
  8
0
100
AcDbPolygonMesh
 66
     1
 10
0.0
 20
0.0
 30
0.0
 70
    16
 71
     6
 72
     3
  0
VERTEX
  5
6245C
330
6245B
100
AcDbEntity
  8
0
100
AcDbVertex
100
AcDbPolygonMeshVertex
 10
0.6891999999999993
 20
-0.4394862069696881
 30
3.293
 70
    64
  0
VERTEX
  5
6245D
330
6245B
100
AcDbEntity
  8
0
100
AcDbVertex
100
AcDbPolygonMeshVertex
 10
0.6891999999999993
 20
-0.4394862069696881
 30
3.116
 70
    64
  0
VERTEX
  5
6245E
330
6245B
100
AcDbEntity
  8
0
100
AcDbVertex
100
AcDbPolygonMeshVertex
 10
0.6891999999999993
 20
-0.4394862069696881
 30
3.116
 70
    64
  0
VERTEX
  5
6245F
330
6245B
100
AcDbEntity
  8
0
100
AcDbVertex
100
AcDbPolygonMeshVertex
 10
0.5196999999999991
 20
-0.4394862069696881
 30
3.293
 70
    64
  0
VERTEX
  5
62460
330
6245B
100
AcDbEntity
  8
0
100
AcDbVertex
100
AcDbPolygonMeshVertex
 10
0.5196999999999991
 20
-0.4394862069696881
 30
3.116
 70
    64
  0
VERTEX
  5
62461
330
6245B
100
AcDbEntity
  8
0
100
AcDbVertex
100
AcDbPolygonMeshVertex
 10
0.5196999999999991
 20
-0.4394862069696881
 30
3.116
 70
    64
  0
VERTEX
  5
62462
330
6245B
100
AcDbEntity
  8
0
100
AcDbVertex
100
AcDbPolygonMeshVertex
 10
0.5196999999999991
 20
-0.0864862069696884
 30
3.293
 70
    64
  0
VERTEX
  5
62463
330
6245B
100
AcDbEntity
  8
0
100
AcDbVertex
100
AcDbPolygonMeshVertex
 10
0.5196999999999991
 20
-0.0864862069696884
 30
3.116
 70
    64
  0
VERTEX
  5
62464
330
6245B
100
AcDbEntity
  8
0
100
AcDbVertex
100
AcDbPolygonMeshVertex
 10
0.5196999999999991
 20
-0.4394862069696881
 30
3.116
 70
    64
  0
VERTEX
  5
62465
330
6245B
100
AcDbEntity
  8
0
100
AcDbVertex
100
AcDbPolygonMeshVertex
 10
0.6891999999999993
 20
-0.0864862069696884
 30
3.293
 70
    64
  0
VERTEX
  5
62466
330
6245B
100
AcDbEntity
  8
0
100
AcDbVertex
100
AcDbPolygonMeshVertex
 10
0.6891999999999993
 20
-0.0864862069696884
 30
3.116
 70
    64
  0
VERTEX
  5
62467
330
6245B
100
AcDbEntity
  8
0
100
AcDbVertex
100
AcDbPolygonMeshVertex
 10
0.6891999999999993
 20
-0.4394862069696881
 30
3.116
 70
    64
  0
VERTEX
  5
62468
330
6245B
100
AcDbEntity
  8
0
100
AcDbVertex
100
AcDbPolygonMeshVertex
 10
0.6891999999999993
 20
-0.0864862069696884
 30
3.293
 70
    64
  0
VERTEX
  5
62469
330
6245B
100
AcDbEntity
  8
0
100
AcDbVertex
100
AcDbPolygonMeshVertex
 10
0.6891999999999993
 20
-0.0864862069696884
 30
3.293
 70
    64
  0
VERTEX
  5
6246A
330
6245B
100
AcDbEntity
  8
0
100
AcDbVertex
100
AcDbPolygonMeshVertex
 10
0.6891999999999993
 20
-0.4394862069696881
 30
3.293
 70
    64
  0
VERTEX
  5
6246B
330
6245B
100
AcDbEntity
  8
0
100
AcDbVertex
100
AcDbPolygonMeshVertex
 10
0.5196999999999991
 20
-0.0864862069696884
 30
3.293
 70
    64
  0
VERTEX
  5
6246C
330
6245B
100
AcDbEntity
  8
0
100
AcDbVertex
100
AcDbPolygonMeshVertex
 10
0.5196999999999991
 20
-0.0864862069696884
 30
3.293
 70
    64
  0
VERTEX
  5
6246D
330
6245B
100
AcDbEntity
  8
0
100
AcDbVertex
100
AcDbPolygonMeshVertex
 10
0.5196999999999991
 20
-0.4394862069696881
 30
3.293
 70
    64
  0
SEQEND
  5
6246E
330
6245B
100
AcDbEntity
  8
0
  0
POLYLINE
  5
6246F
330
458D6
100
AcDbEntity
  8
0
100
AcDbPolygonMesh
 66
     1
 10
0.0
 20
0.0
 30
0.0
 70
    16
 71
     6
 72
     3
  0
VERTEX
  5
62470
330
6246F
100
AcDbEntity
  8
0
100
AcDbVertex
100
AcDbPolygonMeshVertex
 10
0.782699999999999
 20
-0.8944862069696878
 30
3.332000000000001
 70
    64
  0
VERTEX
  5
62471
330
6246F
100
AcDbEntity
  8
0
100
AcDbVertex
100
AcDbPolygonMeshVertex
 10
0.782699999999999
 20
-0.8944862069696878
 30
3.116
 70
    64
  0
VERTEX
  5
62472
330
6246F
100
AcDbEntity
  8
0
100
AcDbVertex
100
AcDbPolygonMeshVertex
 10
0.782699999999999
 20
-0.8944862069696878
 30
3.116
 70
    64
  0
VERTEX
  5
62473
330
6246F
100
AcDbEntity
  8
0
100
AcDbVertex
100
AcDbPolygonMeshVertex
 10
0.6476999999999992
 20
-0.8944862069696878
 30
3.332000000000001
 70
    64
  0
VERTEX
  5
62474
330
6246F
100
AcDbEntity
  8
0
100
AcDbVertex
100
AcDbPolygonMeshVertex
 10
0.6476999999999992
 20
-0.8944862069696878
 30
3.116
 70
    64
  0
VERTEX
  5
62475
330
6246F
100
AcDbEntity
  8
0
100
AcDbVertex
100
AcDbPolygonMeshVertex
 10
0.6476999999999992
 20
-0.8944862069696878
 30
3.116
 70
    64
  0
VERTEX
  5
62476
330
6246F
100
AcDbEntity
  8
0
100
AcDbVertex
100
AcDbPolygonMeshVertex
 10
0.6476999999999992
 20
-0.5494862069696876
 30
3.332000000000001
 70
    64
  0
VERTEX
  5
62477
330
6246F
100
AcDbEntity
  8
0
100
AcDbVertex
100
AcDbPolygonMeshVertex
 10
0.6476999999999992
 20
-0.5494862069696876
 30
3.116
 70
    64
  0
VERTEX
  5
62478
330
6246F
100
AcDbEntity
  8
0
100
AcDbVertex
100
AcDbPolygonMeshVertex
 10
0.6476999999999992
 20
-0.8944862069696878
 30
3.116
 70
    64
  0
VERTEX
  5
62479
330
6246F
100
AcDbEntity
  8
0
100
AcDbVertex
100
AcDbPolygonMeshVertex
 10
0.782699999999999
 20
-0.5494862069696876
 30
3.332000000000001
 70
    64
  0
VERTEX
  5
6247A
330
6246F
100
AcDbEntity
  8
0
100
AcDbVertex
100
AcDbPolygonMeshVertex
 10
0.782699999999999
 20
-0.5494862069696876
 30
3.116
 70
    64
  0
VERTEX
  5
6247B
330
6246F
100
AcDbEntity
  8
0
100
AcDbVertex
100
AcDbPolygonMeshVertex
 10
0.782699999999999
 20
-0.8944862069696878
 30
3.116
 70
    64
  0
VERTEX
  5
6247C
330
6246F
100
AcDbEntity
  8
0
100
AcDbVertex
100
AcDbPolygonMeshVertex
 10
0.782699999999999
 20
-0.5494862069696876
 30
3.332000000000001
 70
    64
  0
VERTEX
  5
6247D
330
6246F
100
AcDbEntity
  8
0
100
AcDbVertex
100
AcDbPolygonMeshVertex
 10
0.782699999999999
 20
-0.5494862069696876
 30
3.332000000000001
 70
    64
  0
VERTEX
  5
6247E
330
6246F
100
AcDbEntity
  8
0
100
AcDbVertex
100
AcDbPolygonMeshVertex
 10
0.782699999999999
 20
-0.8944862069696878
 30
3.332000000000001
 70
    64
  0
VERTEX
  5
6247F
330
6246F
100
AcDbEntity
  8
0
100
AcDbVertex
100
AcDbPolygonMeshVertex
 10
0.6476999999999992
 20
-0.5494862069696876
 30
3.332000000000001
 70
    64
  0
VERTEX
  5
62480
330
6246F
100
AcDbEntity
  8
0
100
AcDbVertex
100
AcDbPolygonMeshVertex
 10
0.6476999999999992
 20
-0.5494862069696876
 30
3.332000000000001
 70
    64
  0
VERTEX
  5
62481
330
6246F
100
AcDbEntity
  8
0
100
AcDbVertex
100
AcDbPolygonMeshVertex
 10
0.6476999999999992
 20
-0.8944862069696878
 30
3.332000000000001
 70
    64
  0
SEQEND
  5
62482
330
6246F
100
AcDbEntity
  8
0
  0
TEXT
  5
62483
330
458D6
100
AcDbEntity
  8
0
100
AcDbText
 10
0.7497214061352758
 20
-1.81957131621648
 30
3.082
 40
0.0834654981097751
  1
T2
100
AcDbText
  0
TEXT
  5
62484
330
458D6
100
AcDbEntity
  8
0
100
AcDbText
 10
0.9687721570885658
 20
-1.820413182322326
 30
3.082
 40
0.0834654981097751
  1
6
100
AcDbText
  0
POLYLINE
  5
62485
330
458D6
100
AcDbEntity
  8
0
100
AcDbPolygonMesh
 66
     1
 10
0.0
 20
0.0
 30
0.0
 70
    16
 71
     6
 72
     3
  0
VERTEX
  5
62486
330
62485
100
AcDbEntity
  8
0
100
AcDbVertex
100
AcDbPolygonMeshVertex
 10
1.122699999999998
 20
-0.8944862069696878
 30
3.116
 70
    64
  0
VERTEX
  5
62487
330
62485
100
AcDbEntity
  8
0
100
AcDbVertex
100
AcDbPolygonMeshVertex
 10
1.122699999999998
 20
-0.8944862069696878
 30
3.082
 70
    64
  0
VERTEX
  5
62488
330
62485
100
AcDbEntity
  8
0
100
AcDbVertex
100
AcDbPolygonMeshVertex
 10
1.122699999999998
 20
-0.8944862069696878
 30
3.082
 70
    64
  0
VERTEX
  5
62489
330
62485
100
AcDbEntity
  8
0
100
AcDbVertex
100
AcDbPolygonMeshVertex
 10
0.6476999999999992
 20
-0.8944862069696878
 30
3.116
 70
    64
  0
VERTEX
  5
6248A
330
62485
100
AcDbEntity
  8
0
100
AcDbVertex
100
AcDbPolygonMeshVertex
 10
0.6476999999999992
 20
-0.8944862069696878
 30
3.082
 70
    64
  0
VERTEX
  5
6248B
330
62485
100
AcDbEntity
  8
0
100
AcDbVertex
100
AcDbPolygonMeshVertex
 10
0.6476999999999992
 20
-0.8944862069696878
 30
3.082
 70
    64
  0
VERTEX
  5
6248C
330
62485
100
AcDbEntity
  8
0
100
AcDbVertex
100
AcDbPolygonMeshVertex
 10
0.6476999999999992
 20
-0.5494862069696876
 30
3.116
 70
    64
  0
VERTEX
  5
6248D
330
62485
100
AcDbEntity
  8
0
100
AcDbVertex
100
AcDbPolygonMeshVertex
 10
0.6476999999999992
 20
-0.5494862069696876
 30
3.082
 70
    64
  0
VERTEX
  5
6248E
330
62485
100
AcDbEntity
  8
0
100
AcDbVertex
100
AcDbPolygonMeshVertex
 10
0.6476999999999992
 20
-0.8944862069696878
 30
3.082
 70
    64
  0
VERTEX
  5
6248F
330
62485
100
AcDbEntity
  8
0
100
AcDbVertex
100
AcDbPolygonMeshVertex
 10
1.122699999999998
 20
-0.5494862069696876
 30
3.116
 70
    64
  0
VERTEX
  5
62490
330
62485
100
AcDbEntity
  8
0
100
AcDbVertex
100
AcDbPolygonMeshVertex
 10
1.122699999999998
 20
-0.5494862069696876
 30
3.082
 70
    64
  0
VERTEX
  5
62491
330
62485
100
AcDbEntity
  8
0
100
AcDbVertex
100
AcDbPolygonMeshVertex
 10
1.122699999999998
 20
-0.8944862069696878
 30
3.082
 70
    64
  0
VERTEX
  5
62492
330
62485
100
AcDbEntity
  8
0
100
AcDbVertex
100
AcDbPolygonMeshVertex
 10
1.122699999999998
 20
-0.5494862069696876
 30
3.116
 70
    64
  0
VERTEX
  5
62493
330
62485
100
AcDbEntity
  8
0
100
AcDbVertex
100
AcDbPolygonMeshVertex
 10
1.122699999999998
 20
-0.5494862069696876
 30
3.116
 70
    64
  0
VERTEX
  5
62494
330
62485
100
AcDbEntity
  8
0
100
AcDbVertex
100
AcDbPolygonMeshVertex
 10
1.122699999999998
 20
-0.8944862069696878
 30
3.116
 70
    64
  0
VERTEX
  5
62495
330
62485
100
AcDbEntity
  8
0
100
AcDbVertex
100
AcDbPolygonMeshVertex
 10
0.6476999999999992
 20
-0.5494862069696876
 30
3.116
 70
    64
  0
VERTEX
  5
62496
330
62485
100
AcDbEntity
  8
0
100
AcDbVertex
100
AcDbPolygonMeshVertex
 10
0.6476999999999992
 20
-0.5494862069696876
 30
3.116
 70
    64
  0
VERTEX
  5
62497
330
62485
100
AcDbEntity
  8
0
100
AcDbVertex
100
AcDbPolygonMeshVertex
 10
0.6476999999999992
 20
-0.8944862069696878
 30
3.116
 70
    64
  0
SEQEND
  5
62498
330
62485
100
AcDbEntity
  8
0
  0
TEXT
  5
62499
330
458D6
100
AcDbEntity
  8
0
100
AcDbText
 10
1.168744176302742
 20
-1.81900168328171
 30
3.082
 40
0.0834654981097751
  1
T3
100
AcDbText
  0
TEXT
  5
6249A
330
458D6
100
AcDbEntity
  8
0
100
AcDbText
 10
0.3250117058396814
 20
-1.817524560975508
 30
3.082
 40
0.0834654981097751
  1
T1
100
AcDbText
  0
CIRCLE
  5
6249B
330
458D6
100
AcDbEntity
  8
0
100
AcDbCircle
 10
0.2380749999999995
 20
-1.587879991879503
 30
3.082
 40
0.138
  0
TEXT
  5
6249C
330
458D6
100
AcDbEntity
  8
0
100
AcDbText
 10
0.080558581031785
 20
-1.821552448191868
 30
3.082
 40
0.0834654981097751
  1
2
100
AcDbText
  0
TEXT
  5
6249D
330
458D6
100
AcDbEntity
  8
0
100
AcDbText
 10
1.598494176302742
 20
-1.81900168328171
 30
3.082
 40
0.0834654981097751
  1
NO
100
AcDbText
  0
TEXT
  5
6249E
330
458D6
100
AcDbEntity
  8
0
100
AcDbText
 10
1.398522157088566
 20
-1.820413182322326
 30
3.082
 40
0.0834654981097751
  1
14
100
AcDbText
  0
LWPOLYLINE
  5
6249F
330
458D6
100
AcDbEntity
  8
0
100
AcDbPolyline
 90
        2
 70
     0
 43
0.0
 38
2.06
 10
0.0002000000000001
 20
-1.845500000000001
 10
0.0002000000000001
 20
0.3984999999999994
  0
POLYLINE
  5
624A0
330
458D6
100
AcDbEntity
  8
0
100
AcDbPolygonMesh
 66
     1
 10
0.0
 20
0.0
 30
0.0
 70
    16
 71
     6
 72
     3
  0
VERTEX
  5
624A1
330
624A0
100
AcDbEntity
  8
0
100
AcDbVertex
100
AcDbPolygonMeshVertex
 10
1.765199999999999
 20
-1.845499999999999
 30
3.082
 70
    64
  0
VERTEX
  5
624A2
330
624A0
100
AcDbEntity
  8
0
100
AcDbVertex
100
AcDbPolygonMeshVertex
 10
1.765199999999999
 20
-1.845499999999999
 30
2.06
 70
    64
  0
VERTEX
  5
624A3
330
624A0
100
AcDbEntity
  8
0
100
AcDbVertex
100
AcDbPolygonMeshVertex
 10
1.765199999999999
 20
-1.845499999999999
 30
2.06
 70
    64
  0
VERTEX
  5
624A4
330
624A0
100
AcDbEntity
  8
0
100
AcDbVertex
100
AcDbPolygonMeshVertex
 10
0.0002000000000001
 20
-1.845499999999999
 30
3.082
 70
    64
  0
VERTEX
  5
624A5
330
624A0
100
AcDbEntity
  8
0
100
AcDbVertex
100
AcDbPolygonMeshVertex
 10
0.0002000000000001
 20
-1.845499999999999
 30
2.06
 70
    64
  0
VERTEX
  5
624A6
330
624A0
100
AcDbEntity
  8
0
100
AcDbVertex
100
AcDbPolygonMeshVertex
 10
0.0002000000000001
 20
-1.845499999999999
 30
2.06
 70
    64
  0
VERTEX
  5
624A7
330
624A0
100
AcDbEntity
  8
0
100
AcDbVertex
100
AcDbPolygonMeshVertex
 10
0.0002000000000001
 20
0.3989714299807865
 30
3.082
 70
    64
  0
VERTEX
  5
624A8
330
624A0
100
AcDbEntity
  8
0
100
AcDbVertex
100
AcDbPolygonMeshVertex
 10
0.0002000000000001
 20
0.3989714299807865
 30
2.06
 70
    64
  0
VERTEX
  5
624A9
330
624A0
100
AcDbEntity
  8
0
100
AcDbVertex
100
AcDbPolygonMeshVertex
 10
0.0002000000000001
 20
-1.845499999999999
 30
2.06
 70
    64
  0
VERTEX
  5
624AA
330
624A0
100
AcDbEntity
  8
0
100
AcDbVertex
100
AcDbPolygonMeshVertex
 10
1.765199999999999
 20
0.3989714299807865
 30
3.082
 70
    64
  0
VERTEX
  5
624AB
330
624A0
100
AcDbEntity
  8
0
100
AcDbVertex
100
AcDbPolygonMeshVertex
 10
1.765199999999999
 20
0.3989714299807865
 30
2.06
 70
    64
  0
VERTEX
  5
624AC
330
624A0
100
AcDbEntity
  8
0
100
AcDbVertex
100
AcDbPolygonMeshVertex
 10
1.765199999999999
 20
-1.845499999999999
 30
2.06
 70
    64
  0
VERTEX
  5
624AD
330
624A0
100
AcDbEntity
  8
0
100
AcDbVertex
100
AcDbPolygonMeshVertex
 10
1.765199999999999
 20
0.3989714299807865
 30
3.082
 70
    64
  0
VERTEX
  5
624AE
330
624A0
100
AcDbEntity
  8
0
100
AcDbVertex
100
AcDbPolygonMeshVertex
 10
1.765199999999999
 20
0.3989714299807865
 30
3.082
 70
    64
  0
VERTEX
  5
624AF
330
624A0
100
AcDbEntity
  8
0
100
AcDbVertex
100
AcDbPolygonMeshVertex
 10
1.765199999999999
 20
-1.845499999999999
 30
3.082
 70
    64
  0
VERTEX
  5
624B0
330
624A0
100
AcDbEntity
  8
0
100
AcDbVertex
100
AcDbPolygonMeshVertex
 10
0.0002000000000001
 20
0.3989714299807865
 30
3.082
 70
    64
  0
VERTEX
  5
624B1
330
624A0
100
AcDbEntity
  8
0
100
AcDbVertex
100
AcDbPolygonMeshVertex
 10
0.0002000000000001
 20
0.3989714299807865
 30
3.082
 70
    64
  0
VERTEX
  5
624B2
330
624A0
100
AcDbEntity
  8
0
100
AcDbVertex
100
AcDbPolygonMeshVertex
 10
0.0002000000000001
 20
-1.845499999999999
 30
3.082
 70
    64
  0
SEQEND
  5
624B3
330
624A0
100
AcDbEntity
  8
0
  0
POINT
  5
624B4
330
458D6
100
AcDbEntity
  8
SNAP_POINTS
100
AcDbPoint
 10
-0.0000103494035411
 20
-0.7734999999999999
 30
2.0685
  0
POLYLINE
  5
624B5
330
458D6
100
AcDbEntity
  8
0
100
AcDb3dPolyline
 66
     1
 10
0.0
 20
0.0
 30
0.0
 70
     8
  0
VERTEX
  5
624B6
330
624B5
100
AcDbEntity
  8
0
100
AcDbVertex
100
AcDb3dPolylineVertex
 10
1.765410349403541
 20
-0.6404999999999999
 30
1.592
 70
    32
  0
VERTEX
  5
624B7
330
624B5
100
AcDbEntity
  8
0
100
AcDbVertex
100
AcDb3dPolylineVertex
 10
1.765410349403541
 20
-0.6404999999999999
 30
2.165
 70
    32
  0
VERTEX
  5
624B8
330
624B5
100
AcDbEntity
  8
0
100
AcDbVertex
100
AcDb3dPolylineVertex
 10
1.765410349403541
 20
-0.8064999999999997
 30
2.165
 70
    32
  0
VERTEX
  5
624B9
330
624B5
100
AcDbEntity
  8
0
100
AcDbVertex
100
AcDb3dPolylineVertex
 10
1.765410349403541
 20
-0.8065000000000001
 30
1.592
 70
    32
  0
VERTEX
  5
624BA
330
624B5
100
AcDbEntity
  8
0
100
AcDbVertex
100
AcDb3dPolylineVertex
 10
1.765410349403541
 20
-0.6404999999999999
 30
1.592
 70
    32
  0
SEQEND
  5
624BB
330
624B5
100
AcDbEntity
  8
0
  0
LINE
  5
624BC
330
458D6
100
AcDbEntity
  8
0
100
AcDbLine
 10
1.765410349403541
 20
-0.8065000000000001
 30
1.8785
 11
1.765410349403541
 21
-0.6404999999999999
 31
1.8785
  0
POINT
  5
624BD
330
458D6
100
AcDbEntity
  8
SNAP_POINTS
100
AcDbPoint
 10
1.765410349403541
 20
-0.6734999999999998
 30
2.0685
  0
LINE
  5
624BE
330
458D6
100
AcDbEntity
  8
0
100
AcDbLine
 10
1.765410349403541
 20
-0.8065000000000001
 30
2.0685
 11
1.765410349403541
 21
-0.6404999999999999
 31
2.0685
  0
POINT
  5
624BF
330
458D6
100
AcDbEntity
  8
SNAP_POINTS
100
AcDbPoint
 10
0.8851999999999989
 20
-0.7219862069696877
 30
3.116
  0
LINE
  5
624C0
330
458D6
100
AcDbEntity
  8
0
100
AcDbLine
 10
1.065699999999999
 20
-2.405500000000002
 30
1.839
 11
1.382699999999999
 21
-2.405500000000002
 31
1.839
  0
LINE
  5
624C1
330
458D6
100
AcDbEntity
  8
0
100
AcDbLine
 10
1.382699999999999
 20
-2.405500000000002
 30
1.839
 11
1.382699999999999
 21
-2.405500000000002
 31
1.639
  0
LINE
  5
624C2
330
458D6
100
AcDbEntity
  8
0
100
AcDbLine
 10
1.065699999999999
 20
-2.405500000000002
 30
1.639
 11
1.382699999999999
 21
-2.405500000000002
 31
1.639
  0
LINE
  5
624C3
330
458D6
100
AcDbEntity
  8
0
100
AcDbLine
 10
1.065699999999999
 20
-2.405500000000002
 30
1.839
 11
1.065699999999999
 21
-2.405500000000002
 31
1.639
  0
POINT
  5
624C4
330
458D6
100
AcDbEntity
  8
SNAP_POINTS
100
AcDbPoint
 10
1.065699999999999
 20
-2.405500000000002
 30
1.639
  0
LINE
  5
624C5
330
458D6
100
AcDbEntity
  8
0
100
AcDbLine
 10
0.7046999999999987
 20
-2.405500000000002
 30
1.839
 11
0.7046999999999987
 21
-2.405500000000002
 31
1.639
  0
LINE
  5
624C6
330
458D6
100
AcDbEntity
  8
0
100
AcDbLine
 10
0.7046999999999987
 20
-2.405500000000002
 30
1.639
 11
0.3876999999999985
 21
-2.405500000000002
 31
1.639
  0
LINE
  5
624C7
330
458D6
100
AcDbEntity
  8
0
100
AcDbLine
 10
0.7046999999999987
 20
-2.405500000000002
 30
1.839
 11
0.3876999999999985
 21
-2.405500000000002
 31
1.839
  0
LINE
  5
624C8
330
458D6
100
AcDbEntity
  8
0
100
AcDbLine
 10
0.3876999999999985
 20
-2.405500000000002
 30
1.839
 11
0.3876999999999985
 21
-2.405500000000002
 31
1.639
  0
POINT
  5
624C9
330
458D6
100
AcDbEntity
  8
DIMS-MTG-HOLES
100
AcDbPoint
 10
0.1911999999999991
 20
-1.934499999999999
 30
0.0
  0
POINT
  5
624CA
330
458D6
100
AcDbEntity
  8
DIMS-MTG-HOLES
100
AcDbPoint
 10
1.571199999999999
 20
0.4255
 30
0.0
  0
LWPOLYLINE
  5
624CB
330
458D6
100
AcDbEntity
  8
0
100
AcDbPolyline
 90
        6
 70
     0
 43
0.0
 38
3.082
 10
1.507324999999999
 20
0.2914506114497129
 10
1.507324999999999
 20
0.1749075779401259
 10
1.447325
 20
0.1749075779401261
 10
1.447325
 20
0.1349075779401259
 10
1.507324999999999
 20
0.1349075779401263
 10
1.507324999999999
 20
0.0183645444305394
  0
LWPOLYLINE
  5
624CC
330
458D6
100
AcDbEntity
  8
0
100
AcDbPolyline
 90
        6
 70
     0
 43
0.0
 38
3.082
 10
1.547325
 20
0.2914506114497129
 10
1.547325
 20
0.1749075779401259
 10
1.607325
 20
0.1749075779401261
 10
1.607325
 20
0.1349075779401259
 10
1.547325
 20
0.1349075779401263
 10
1.547325
 20
0.0183645444305394
  0
LWPOLYLINE
  5
624CD
330
458D6
100
AcDbEntity
  8
0
100
AcDbPolyline
 90
        6
 70
     0
 43
0.0
 38
3.082
 10
1.077574999999999
 20
0.2914506114497129
 10
1.077574999999999
 20
0.1749075779401259
 10
1.017574999999999
 20
0.1749075779401261
 10
1.017574999999999
 20
0.1349075779401259
 10
1.077574999999999
 20
0.1349075779401263
 10
1.077574999999999
 20
0.0183645444305394
  0
LWPOLYLINE
  5
624CE
330
458D6
100
AcDbEntity
  8
0
100
AcDbPolyline
 90
        6
 70
     0
 43
0.0
 38
3.082
 10
1.117574999999999
 20
0.2914506114497129
 10
1.117574999999999
 20
0.1749075779401259
 10
1.177574999999999
 20
0.1749075779401261
 10
1.177574999999999
 20
0.1349075779401259
 10
1.117574999999999
 20
0.1349075779401263
 10
1.117574999999999
 20
0.0183645444305394
  0
LWPOLYLINE
  5
624CF
330
458D6
100
AcDbEntity
  8
0
100
AcDbPolyline
 90
        6
 70
     0
 43
0.0
 38
3.082
 10
0.6878249999999998
 20
0.2914506114497129
 10
0.6878249999999998
 20
0.1749075779401259
 10
0.7478249999999999
 20
0.1749075779401261
 10
0.7478249999999999
 20
0.1349075779401259
 10
0.6878249999999998
 20
0.1349075779401263
 10
0.6878249999999998
 20
0.0183645444305394
  0
LWPOLYLINE
  5
624D0
330
458D6
100
AcDbEntity
  8
0
100
AcDbPolyline
 90
        6
 70
     0
 43
0.0
 38
3.082
 10
0.6478249999999998
 20
0.2914506114497129
 10
0.6478249999999998
 20
0.1749075779401259
 10
0.587825
 20
0.1749075779401261
 10
0.587825
 20
0.1349075779401259
 10
0.6478249999999998
 20
0.1349075779401263
 10
0.6478249999999998
 20
0.0183645444305394
  0
LWPOLYLINE
  5
624D1
330
458D6
100
AcDbEntity
  8
0
100
AcDbPolyline
 90
        6
 70
     0
 43
0.0
 38
3.082
 10
0.2580749999999995
 20
0.2914506114497129
 10
0.2580749999999995
 20
0.1749075779401259
 10
0.3180749999999995
 20
0.1749075779401261
 10
0.3180749999999995
 20
0.1349075779401259
 10
0.2580749999999995
 20
0.1349075779401263
 10
0.2580749999999995
 20
0.0183645444305394
  0
LWPOLYLINE
  5
624D2
330
458D6
100
AcDbEntity
  8
0
100
AcDbPolyline
 90
        6
 70
     0
 43
0.0
 38
3.082
 10
0.2180749999999994
 20
0.2914506114497129
 10
0.2180749999999994
 20
0.1749075779401259
 10
0.1580749999999996
 20
0.1749075779401261
 10
0.1580749999999996
 20
0.1349075779401259
 10
0.2180749999999994
 20
0.1349075779401263
 10
0.2180749999999994
 20
0.0183645444305394
  0
CIRCLE
  5
624D3
330
458D6
100
AcDbEntity
  8
0
100
AcDbCircle
 10
0.6678249999999998
 20
-1.587879991879503
 30
3.082
 40
0.138
  0
LWPOLYLINE
  5
624D4
330
458D6
100
AcDbEntity
  8
0
100
AcDbPolyline
 90
        6
 70
     0
 43
0.0
 38
3.082
 10
0.6478249999999998
 20
-1.451336958369916
 10
0.6478249999999998
 20
-1.567879991879503
 10
0.587825
 20
-1.567879991879503
 10
0.587825
 20
-1.607879991879503
 10
0.6478249999999998
 20
-1.607879991879503
 10
0.6478249999999998
 20
-1.72442302538909
  0
LWPOLYLINE
  5
624D5
330
458D6
100
AcDbEntity
  8
0
100
AcDbPolyline
 90
        6
 70
     0
 43
0.0
 38
3.082
 10
0.6878249999999998
 20
-1.451336958369916
 10
0.6878249999999998
 20
-1.567879991879503
 10
0.7478249999999999
 20
-1.567879991879503
 10
0.7478249999999999
 20
-1.607879991879503
 10
0.6878249999999998
 20
-1.607879991879503
 10
0.6878249999999998
 20
-1.72442302538909
  0
LWPOLYLINE
  5
624D6
330
458D6
100
AcDbEntity
  8
0
100
AcDbPolyline
 90
        6
 70
     0
 43
0.0
 38
3.082
 10
1.117574999999999
 20
-1.451336958369916
 10
1.117574999999999
 20
-1.567879991879503
 10
1.177574999999999
 20
-1.567879991879503
 10
1.177574999999999
 20
-1.607879991879503
 10
1.117574999999999
 20
-1.607879991879503
 10
1.117574999999999
 20
-1.72442302538909
  0
LWPOLYLINE
  5
624D7
330
458D6
100
AcDbEntity
  8
0
100
AcDbPolyline
 90
        6
 70
     0
 43
0.0
 38
3.082
 10
1.077574999999999
 20
-1.451336958369916
 10
1.077574999999999
 20
-1.567879991879503
 10
1.017574999999999
 20
-1.567879991879503
 10
1.017574999999999
 20
-1.607879991879503
 10
1.077574999999999
 20
-1.607879991879503
 10
1.077574999999999
 20
-1.72442302538909
  0
CIRCLE
  5
624D8
330
458D6
100
AcDbEntity
  8
0
100
AcDbCircle
 10
1.097574999999999
 20
-1.587879991879503
 30
3.082
 40
0.138
  0
LWPOLYLINE
  5
624D9
330
458D6
100
AcDbEntity
  8
0
100
AcDbPolyline
 90
        6
 70
     0
 43
0.0
 38
3.082
 10
1.547325
 20
-1.451336958369916
 10
1.547325
 20
-1.567879991879503
 10
1.607325
 20
-1.567879991879503
 10
1.607325
 20
-1.607879991879503
 10
1.547325
 20
-1.607879991879503
 10
1.547325
 20
-1.72442302538909
  0
LWPOLYLINE
  5
624DA
330
458D6
100
AcDbEntity
  8
0
100
AcDbPolyline
 90
        6
 70
     0
 43
0.0
 38
3.082
 10
1.507324999999999
 20
-1.451336958369916
 10
1.507324999999999
 20
-1.567879991879503
 10
1.447325
 20
-1.567879991879503
 10
1.447325
 20
-1.607879991879503
 10
1.507324999999999
 20
-1.607879991879503
 10
1.507324999999999
 20
-1.72442302538909
  0
CIRCLE
  5
624DB
330
458D6
100
AcDbEntity
  8
0
100
AcDbCircle
 10
1.527325
 20
-1.587879991879503
 30
3.082
 40
0.138
  0
LWPOLYLINE
  5
624DC
330
458D6
100
AcDbEntity
  8
0
100
AcDbPolyline
 90
        6
 70
     0
 43
0.0
 38
3.082
 10
0.2580749999999995
 20
-1.451336958369916
 10
0.2580749999999995
 20
-1.567879991879503
 10
0.3180749999999995
 20
-1.567879991879503
 10
0.3180749999999995
 20
-1.607879991879503
 10
0.2580749999999995
 20
-1.607879991879503
 10
0.2580749999999995
 20
-1.72442302538909
  0
LWPOLYLINE
  5
624DD
330
458D6
100
AcDbEntity
  8
0
100
AcDbPolyline
 90
        6
 70
     0
 43
0.0
 38
3.082
 10
0.2180749999999994
 20
-1.451336958369916
 10
0.2180749999999994
 20
-1.567879991879503
 10
0.1580749999999996
 20
-1.567879991879503
 10
0.1580749999999996
 20
-1.607879991879503
 10
0.2180749999999994
 20
-1.607879991879503
 10
0.2180749999999994
 20
-1.72442302538909
  0
LWPOLYLINE
  5
624DE
330
458D6
100
AcDbEntity
  8
0
100
AcDbPolyline
 90
        6
 70
     0
 43
0.0
 38
2.06
 10
0.5261999999999968
 20
-2.068678404338013
 10
0.5261999999999968
 20
-2.167000000000001
 10
0.466199999999997
 20
-2.167000000000001
 10
0.466199999999997
 20
-2.207000000000001
 10
0.5261999999999968
 20
-2.207
 10
0.5261999999999968
 20
-2.305321595661998
  0
LWPOLYLINE
  5
624DF
330
458D6
100
AcDbEntity
  8
0
100
AcDbPolyline
 90
        6
 70
     0
 43
0.0
 38
2.06
 10
0.5661999999999968
 20
-2.068678404338005
 10
0.5661999999999968
 20
-2.167000000000001
 10
0.6261999999999969
 20
-2.167000000000001
 10
0.6261999999999969
 20
-2.207000000000001
 10
0.5661999999999968
 20
-2.207
 10
0.5661999999999968
 20
-2.305321595661989
  0
LWPOLYLINE
  5
624E0
330
458D6
100
AcDbEntity
  8
0
100
AcDbPolyline
 90
        6
 70
     0
 43
0.0
 38
2.06
 10
1.244200000000001
 20
-2.068678404338005
 10
1.244200000000001
 20
-2.167000000000001
 10
1.304200000000001
 20
-2.167000000000001
 10
1.304200000000001
 20
-2.207000000000001
 10
1.244200000000001
 20
-2.207
 10
1.244200000000001
 20
-2.305321595661989
  0
LWPOLYLINE
  5
624E1
330
458D6
100
AcDbEntity
  8
0
100
AcDbPolyline
 90
        6
 70
     0
 43
0.0
 38
2.06
 10
1.204200000000001
 20
-2.068678404338013
 10
1.204200000000001
 20
-2.167000000000001
 10
1.144200000000001
 20
-2.167000000000001
 10
1.144200000000001
 20
-2.207000000000001
 10
1.204200000000001
 20
-2.207
 10
1.204200000000001
 20
-2.305321595661998
  0
TEXT
  5
624E2
330
458D6
100
AcDbEntity
  8
0
100
AcDbText
 10
0.5026440778530553
 20
-1.820413182322326
 30
3.082
 40
0.0834654981097751
  1
4
100
AcDbText
  0
DIMENSION
  5
624E3
330
458D6
100
AcDbEntity
  8
AREA1
100
AcDbDimension
  2
*D1
 10
-0.5036777766366178
 20
-2.405500000000002
 30
0.0
 11
-0.5036777766366174
 21
-0.7880317808182316
 31
0.0
 70
   160
 71
     5
 42
-1.0
 73
     0
 74
     0
 75
     0
  3
ABECAD_3D
100
AcDbAlignedDimension
 13
0.6996999999999997
 23
0.7744999999999976
 33
1.386
 14
0.3326999999999987
 24
-2.405500000000002
 34
1.386
 50
90.0
100
AcDbRotatedDimension
  0
DIMENSION
  5
624F1
330
458D6
100
AcDbEntity
  8
AREA1
100
AcDbDimension
  2
*D2
 10
1.765199999999999
 20
1.155143000512088
 30
0.0
 11
0.8929590770589616
 21
1.546386237920637
 31
0.0
 70
   160
 71
     5
 42
-1.0
 73
     0
 74
     0
 75
     0
  3
ABECAD_3D
100
AcDbAlignedDimension
 13
0.0052
 23
0.7185000000000002
 33
0.0
 14
1.765199999999999
 24
0.5745
 34
0.0
100
AcDbRotatedDimension
  0
LWPOLYLINE
  5
62516
330
458D6
100
AcDbEntity
  8
SCALE
100
AcDbPolyline
 90
        4
 70
     1
 43
0.0
 10
0.2998004915109651
 20
-2.533708432569716
 10
1.435429311052937
 20
-2.533708432569716
 10
1.435429311052937
 20
-3.375317999347731
 10
0.2998004915109651
 20
-3.375317999347731
  0
LINE
  5
62517
330
458D6
100
AcDbEntity
  8
SCALE
100
AcDbLine
 10
0.3577991557377271
 20
-2.913786751273931
 30
0.0
 11
1.357799155737727
 21
-2.913786751273931
 31
0.0
  0
LINE
  5
62518
330
458D6
100
AcDbEntity
  8
SCALE
100
AcDbLine
 10
0.3577991557377271
 20
-3.213786751273931
 30
0.0
 11
0.7514991557377271
 21
-3.213786751273931
 31
0.0
  0
LINE
  5
62519
330
458D6
100
AcDbEntity
  8
SCALE
100
AcDbLine
 10
0.3577991557377271
 20
-3.013786751273932
 30
0.0
 11
0.3577991557377271
 21
-2.813786751273931
 31
0.0
  0
TEXT
  5
6251A
330
458D6
100
AcDbEntity
  8
SCALE
100
AcDbText
 10
0.413775137668202
 20
-3.166101661511089
 30
0.0
 40
0.0625
  1
[10mm]
100
AcDbText
  0
LINE
  5
6251B
330
458D6
100
AcDbEntity
  8
SCALE
100
AcDbLine
 10
0.3577991557377271
 20
-3.313786751273931
 30
0.0
 11
0.3577991557377271
 21
-3.113786751273932
 31
0.0
  0
TEXT
  5
6251C
330
458D6
100
AcDbEntity
  8
SCALE
100
AcDbText
 10
0.359329420984253
 20
-2.638909630000318
 30
0.0
 40
0.0625
  1
SCALE:
100
AcDbText
  0
LINE
  5
6251D
330
458D6
100
AcDbEntity
  8
SCALE
100
AcDbLine
 10
0.7514991557377271
 20
-3.313786751273931
 30
0.0
 11
0.7514991557377271
 21
-3.113786751273932
 31
0.0
  0
TEXT
  5
6251E
330
458D6
100
AcDbEntity
  8
SCALE
100
AcDbText
 10
0.7210821442216369
 20
-2.84473805590073
 30
0.0
 40
0.0625
  1
1 Inch
100
AcDbText
  0
LINE
  5
6251F
330
458D6
100
AcDbEntity
  8
SCALE
100
AcDbLine
 10
1.357799155737727
 20
-2.913786751273931
 30
0.0
 11
1.357799155737727
 21
-3.013786751273932
 31
0.0
  0
LINE
  5
62520
330
458D6
100
AcDbEntity
  8
SCALE
100
AcDbLine
 10
1.357799155737727
 20
-3.013786751273932
 30
0.0
 11
1.357799155737727
 21
-2.813786751273931
 31
0.0
  0
VIEWPORT
  5
5677D
330
458D3
100
AcDbEntity
 67
     1
  8
0
100
AcDbViewport
 10
5.249999639556163
 20
3.999999883606677
 30
0.0
 40
16.38686186943767
 41
8.992999745766947
 68
     1
 69
     1
 12
5.249999639556163
 22
3.999999883606677
 13
0.0
 23
0.0
 14
0.5
 24
0.5
 15
0.5
 25
0.5
 16
0.0
 26
0.0
 36
1.0
 17
0.0
 27
0.0
 37
0.0
 42
50.0
 43
0.0
 44
0.0
 45
8.992999745766947
 50
0.0
 51
0.0
 72
 20000
 90
    32800
  1

281
     0
 71
     1
 74
     0
110
0.0
120
0.0
130
0.0
111
1.0
121
0.0
131
0.0
112
0.0
122
1.0
132
0.0
 79
     0
146
0.0
170
     0
 61
     5
348
625C8
292
     1
282
     1
141
0.0
142
0.0
 63
   250
421
  3355443
  0
VIEWPORT
  5
5677F
330
458D3
100
AcDbEntity
 67
     1
  8
AREA1
100
AcDbViewport
 10
5.24999976158142
 20
3.99999976158142
 30
0.0
 40
8.399999618530271
 41
6.399999618530272
 68
     2
 69
     2
 12
-1.017175299537903
 22
0.747812767808223
 13
0.0
 23
0.0
 14
0.25
 24
0.25
 15
0.25
 25
0.25
 16
0.0
 26
0.0
 36
1.0
 17
0.5634438949382106
 27
-0.8801371703728531
 37
1.68649307151727
 42
50.0
 43
0.0
 44
0.0
 45
4.58291448918931
 50
0.0
 51
0.0
 72
 20000
 90
    32800
  1

281
     1
 71
     1
 74
     0
110
0.0
120
0.0
130
0.0
111
1.0
121
0.0
131
0.0
112
0.0
122
1.0
132
0.0
 79
     1
146
0.0
170
     0
 61
     5
348
625C9
292
     1
282
     1
141
0.0
142
0.0
 63
   250
421
  3355443
  0
ENDSEC
  0
SECTION
  2
OBJECTS
  0
DICTIONARY
  5
458CB
330
0
100
AcDbDictionary
281
     1
  3
ACAD_BACKGROUND
350
625D8
  3
ACAD_COLOR
350
625D3
  3
ACAD_GROUP
350
458CC
  3
ACAD_LAYOUT
350
458FB
  3
ACAD_MATERIAL
350
625BE
  3
ACAD_MLINESTYLE
350
458D9
  3
ACAD_PLOTSETTINGS
350
458FC
  3
ACAD_PLOTSTYLENAME
350
458F9
  3
ACAD_TABLESTYLE
350
625D4
  3
ACAD_VISUALSTYLE
350
625C2
  3
ACADE_WIRETYPE
350
625ED
  3
ACDBVARIABLEDICTIONARY
350
458E1
  3
ASE_INDEX_DICTIONARY
350
625E0
  0
DICTIONARY
  5
625EF
330
458C7
100
AcDbDictionary
280
     1
281
     1
  0
DICTIONARY
  5
625DD
330
625DC
100
AcDbDictionary
280
     1
281
     1
  3
ACADE_WIRETYPE
360
625DE
  0
DICTIONARY
  5
4592C
330
458D6
100
AcDbDictionary
280
     1
281
     1
  3
ACAD_LAYOUTSELFREF
360
625B2
  0
DICTIONARY
  5
4592A
330
458D3
100
AcDbDictionary
280
     1
281
     1
  3
ACAD_LAYOUTSELFREF
360
625B1
  0
DICTIONARY
  5
625D8
102
{ACAD_REACTORS
330
458CB
102
}
330
458CB
100
AcDbDictionary
281
     1
  0
DICTIONARY
  5
625D3
102
{ACAD_REACTORS
330
458CB
102
}
330
458CB
100
AcDbDictionary
281
     1
  0
DICTIONARY
  5
458CC
102
{ACAD_REACTORS
330
458CB
102
}
330
458CB
100
AcDbDictionary
281
     1
  0
DICTIONARY
  5
458FB
102
{ACAD_REACTORS
330
458CB
102
}
330
458CB
100
AcDbDictionary
281
     1
  3
Layout1
350
458FE
  3
Model
350
458FD
  0
DICTIONARY
  5
625BE
102
{ACAD_REACTORS
330
458CB
102
}
330
458CB
100
AcDbDictionary
281
     1
  3
ByBlock
350
625C0
  3
ByLayer
350
625BF
  3
Global
350
625C1
  0
DICTIONARY
  5
458D9
102
{ACAD_REACTORS
330
458CB
102
}
330
458CB
100
AcDbDictionary
281
     1
  3
STANDARD
350
458DA
  0
DICTIONARY
  5
458FC
102
{ACAD_REACTORS
330
458CB
102
}
330
458CB
100
AcDbDictionary
281
     1
  0
ACDBDICTIONARYWDFLT
  5
458F9
102
{ACAD_REACTORS
330
458CB
102
}
330
458CB
100
AcDbDictionary
281
     1
  3
Normal
350
458FA
100
AcDbDictionaryWithDefault
340
458FA
  0
DICTIONARY
  5
625D4
102
{ACAD_REACTORS
330
458CB
102
}
330
458CB
100
AcDbDictionary
281
     1
  3
Standard
350
625D5
  0
DICTIONARY
  5
625C2
102
{ACAD_REACTORS
330
458CB
102
}
330
458CB
100
AcDbDictionary
281
     1
  3
2dWireframe
350
625C8
  3
3D Hidden
350
625CA
  3
3dWireframe
350
625C9
  3
Basic
350
625C7
  3
Brighten
350
625CE
  3
ColorChange
350
625D2
  3
Conceptual
350
625CB
  3
Dim
350
625CD
  3
Facepattern
350
625D1
  3
Flat
350
625C3
  3
FlatWithEdges
350
625C4
  3
Gouraud
350
625C5
  3
GouraudWithEdges
350
625C6
  3
Linepattern
350
625D0
  3
Realistic
350
625CC
  3
Thicken
350
625CF
  0
DICTIONARY
  5
625ED
102
{ACAD_REACTORS
330
458CB
102
}
330
458CB
100
AcDbDictionary
281
     1
  3
CURRENT_WIRELAY
350
625EE
  0
DICTIONARY
  5
458E1
102
{ACAD_REACTORS
330
458CB
102
}
330
458CB
100
AcDbDictionary
281
     1
  3
CTABLESTYLE
350
625E3
  3
DIMADEC
350
458E2
  0
DICTIONARY
  5
625E0
102
{ACAD_REACTORS
330
458CB
102
}
330
458CB
100
AcDbDictionary
281
     1
  3
ASEBlockHierarchyIndexRecord
350
625E2
1001
DCO15
1040
1582951618.325
  0
XRECORD
  5
625DE
102
{ACAD_REACTORS
330
625DD
102
}
330
625DD
100
AcDbXrecord
280
     1
  1

  2

  3
WIRE
 90
        0
  0
XRECORD
  5
625B2
102
{ACAD_REACTORS
330
4592C
102
}
330
4592C
100
AcDbXrecord
280
     1
340
458D6
  0
XRECORD
  5
625B1
102
{ACAD_REACTORS
330
4592A
102
}
330
4592A
100
AcDbXrecord
280
     1
340
458D3
  0
LAYOUT
  5
458FE
102
{ACAD_REACTORS
330
458FB
102
}
330
458FB
100
AcDbPlotSettings
  1

  2
none_device
  4
Letter_(8.50_x_11.00_Inches)
  6

 40
6.349999904632568
 41
6.349999904632568
 42
6.350006103515625
 43
6.350006103515625
 44
215.8999938964844
 45
279.3999938964844
 46
0.0
 47
0.0
 48
0.0
 49
0.0
140
0.0
141
0.0
142
1.0
143
1.0
 70
   688
 72
     0
 73
     1
 74
     5
  7
Default R14 pen assignments.ctb
 75
    16
147
1.0
 76
     0
 77
     2
 78
   300
148
0.0
149
0.0
100
AcDbLayout
  1
Layout1
 70
     1
 71
     1
 10
-0.2500002402958907
 20
-0.2499999962453767
 11
10.74999951940821
 21
8.249999763458731
 12
0.0
 22
0.0
 32
0.0
 14
1.049999952316284
 24
0.7999999523162842
 34
0.0
 15
9.449999570846555
 25
7.199999570846556
 35
0.0
146
0.0
 13
0.0
 23
0.0
 33
0.0
 16
1.0
 26
0.0
 36
0.0
 17
0.0
 27
1.0
 37
0.0
 76
     0
330
458D3
331
5677D
  0
LAYOUT
  5
458FD
102
{ACAD_REACTORS
330
458FB
102
}
330
458FB
100
AcDbPlotSettings
  1

  2
HP LaserJet 5000 Series PCL 6
  4

  6

 40
0.0
 41
0.0
 42
0.0
 43
0.0
 44
0.0
 45
0.0
 46
0.0
 47
0.0
 48
0.0
 49
0.0
140
0.0
141
0.0
142
1.0
143
1.0
 70
  1712
 72
     0
 73
     0
 74
     0
  7
Default R14 pen assignments.ctb
 75
     0
147
1.0
 76
     0
 77
     2
 78
   300
148
0.0
149
0.0
100
AcDbLayout
  1
Model
 70
     1
 71
     0
 10
0.0
 20
0.0
 11
12.0
 21
9.0
 12
0.0
 22
0.0
 32
0.0
 14
0.0
 24
0.0
 34
0.0
 15
0.0
 25
0.0
 35
0.0
146
0.0
 13
0.0
 23
0.0
 33
0.0
 16
1.0
 26
0.0
 36
0.0
 17
0.0
 27
1.0
 37
0.0
 76
     0
330
458D6
331
6258B
  0
MATERIAL
  5
625C0
102
{ACAD_REACTORS
330
625BE
102
}
330
625BE
100
AcDbMaterial
  1
ByBlock
  0
MATERIAL
  5
625BF
102
{ACAD_REACTORS
330
625BE
102
}
330
625BE
100
AcDbMaterial
  1
ByLayer
  0
MATERIAL
  5
625C1
102
{ACAD_REACTORS
330
625BE
102
}
330
625BE
100
AcDbMaterial
  1
Global
  0
MLINESTYLE
  5
458DA
102
{ACAD_REACTORS
330
458D9
102
}
330
458D9
100
AcDbMlineStyle
  2
STANDARD
 70
     0
  3

 62
   256
 51
90.0
 52
90.0
 71
     2
 49
0.5
 62
   256
  6
BYLAYER
 49
-0.5
 62
   256
  6
BYLAYER
  0
ACDBPLACEHOLDER
  5
458FA
102
{ACAD_REACTORS
330
458F9
102
}
330
458F9
  0
TABLESTYLE
  5
625D5
102
{ACAD_REACTORS
330
625D4
102
}
330
625D4
100
AcDbTableStyle
  3
Standard
 70
     0
 71
     0
 40
0.06
 41
0.06
280
     0
281
     0
  7
STANDARD
140
0.18
170
     2
 62
     0
 63
     7
283
     0
 90
      512
 91
        0
  1

274
    -2
284
     1
 64
     0
275
    -2
285
     1
 65
     0
276
    -2
286
     1
 66
     0
277
    -2
287
     1
 67
     0
278
    -2
288
     1
 68
     0
279
    -2
289
     1
 69
     0
  7
STANDARD
140
0.25
170
     5
 62
     0
 63
     7
283
     0
 90
      512
 91
        0
  1

274
    -2
284
     1
 64
     0
275
    -2
285
     1
 65
     0
276
    -2
286
     1
 66
     0
277
    -2
287
     1
 67
     0
278
    -2
288
     1
 68
     0
279
    -2
289
     1
 69
     0
  7
STANDARD
140
0.18
170
     5
 62
     0
 63
     7
283
     0
 90
      512
 91
        0
  1

274
    -2
284
     1
 64
     0
275
    -2
285
     1
 65
     0
276
    -2
286
     1
 66
     0
277
    -2
287
     1
 67
     0
278
    -2
288
     1
 68
     0
279
    -2
289
     1
 69
     0
  0
VISUALSTYLE
  5
625C8
102
{ACAD_REACTORS
330
625C2
102
}
330
625C2
100
AcDbVisualStyle
  2
2dWireframe
 70
     4
 71
     0
 72
     2
 73
     0
 90
        0
 40
-0.6
 41
-30.0
 62
     5
 63
     7
421
 16777215
 74
     1
 91
        4
 64
     7
 65
   257
 75
     1
175
     1
 42
1.0
 92
        0
 66
   257
 43
1.0
 76
     1
 77
     6
 78
     2
 67
     7
 79
     5
170
     0
171
     0
290
     0
174
     0
 93
        1
 44
0.0
173
     0
291
     0
 45
0.0
  0
VISUALSTYLE
  5
625CA
102
{ACAD_REACTORS
330
625C2
102
}
330
625C2
100
AcDbVisualStyle
  2
3D Hidden
 70
     6
 71
     1
 72
     2
 73
     2
 90
        0
 40
-0.6
 41
-30.0
 62
     5
 63
     7
421
 16777215
 74
     2
 91
        2
 64
     7
 65
   257
 75
     2
175
     1
 42
40.0
 92
        0
 66
   257
 43
1.0
 76
     1
 77
     6
 78
     2
 67
     7
 79
     3
170
     0
171
     0
290
     0
174
     0
 93
        1
 44
0.0
173
     0
291
     0
 45
0.0
  0
VISUALSTYLE
  5
625C9
102
{ACAD_REACTORS
330
625C2
102
}
330
625C2
100
AcDbVisualStyle
  2
3dWireframe
 70
     5
 71
     0
 72
     2
 73
     0
 90
        0
 40
-0.6
 41
-30.0
 62
     5
 63
     7
421
 16777215
 74
     1
 91
        4
 64
     7
 65
   257
 75
     1
175
     1
 42
1.0
 92
        0
 66
   257
 43
1.0
 76
     1
 77
     6
 78
     2
 67
     7
 79
     5
170
     0
171
     0
290
     0
174
     0
 93
        1
 44
0.0
173
     0
291
     0
 45
0.0
  0
VISUALSTYLE
  5
625C7
102
{ACAD_REACTORS
330
625C2
102
}
330
625C2
100
AcDbVisualStyle
  2
Basic
 70
     7
 71
     1
 72
     0
 73
     1
 90
        0
 40
-0.6
 41
-30.0
 62
     5
 63
     7
421
 16777215
 74
     0
 91
        4
 64
     7
 65
   257
 75
     1
175
     1
 42
1.0
 92
        8
 66
     7
 43
1.0
 76
     1
 77
     6
 78
     2
 67
     7
 79
     5
170
     0
171
     0
290
     0
174
     0
 93
        1
 44
0.0
173
     0
291
     1
 45
0.0
  0
VISUALSTYLE
  5
625CE
102
{ACAD_REACTORS
330
625C2
102
}
330
625C2
100
AcDbVisualStyle
  2
Brighten
 70
    12
 71
     2
 72
     2
 73
     0
 90
        0
 40
-0.6
 41
-30.0
 62
     5
 63
     7
421
 16777215
 74
     1
 91
        4
 64
     7
 65
   257
 75
     1
175
     1
 42
1.0
 92
        8
 66
     7
 43
1.0
 76
     1
 77
     6
 78
     2
 67
     7
 79
     5
170
     0
171
     0
290
     0
174
     0
 93
        1
 44
50.0
173
     0
291
     1
 45
0.0
  0
VISUALSTYLE
  5
625D2
102
{ACAD_REACTORS
330
625C2
102
}
330
625C2
100
AcDbVisualStyle
  2
ColorChange
 70
    16
 71
     2
 72
     2
 73
     3
 90
        0
 40
-0.6
 41
-30.0
 62
     5
 63
     8
421
  8421504
 74
     1
 91
        4
 64
     7
 65
   257
 75
     1
175
     1
 42
1.0
 92
        8
 66
     8
424
  8421504
 43
1.0
 76
     1
 77
     6
 78
     2
 67
     7
 79
     5
170
     0
171
     0
290
     0
174
     0
 93
        1
 44
0.0
173
     0
291
     1
 45
0.0
  0
VISUALSTYLE
  5
625CB
102
{ACAD_REACTORS
330
625C2
102
}
330
625C2
100
AcDbVisualStyle
  2
Conceptual
 70
     9
 71
     3
 72
     2
 73
     0
 90
        0
 40
-0.6
 41
-30.0
 62
     5
 63
     7
421
 16777215
 74
     2
 91
        2
 64
     7
 65
   257
 75
     1
175
     1
 42
40.0
 92
        8
 66
     7
 43
1.0
 76
     1
 77
     6
 78
     2
 67
     7
 79
     3
170
     0
171
     0
290
     0
174
     0
 93
        1
 44
0.0
173
     0
291
     0
 45
0.0
  0
VISUALSTYLE
  5
625CD
102
{ACAD_REACTORS
330
625C2
102
}
330
625C2
100
AcDbVisualStyle
  2
Dim
 70
    11
 71
     2
 72
     2
 73
     0
 90
        0
 40
-0.6
 41
-30.0
 62
     5
 63
     7
421
 16777215
 74
     1
 91
        4
 64
     7
 65
   257
 75
     1
175
     1
 42
1.0
 92
        8
 66
     7
 43
1.0
 76
     1
 77
     6
 78
     2
 67
     7
 79
     5
170
     0
171
     0
290
     0
174
     0
 93
        1
 44
-50.0
173
     0
291
     1
 45
0.0
  0
VISUALSTYLE
  5
625D1
102
{ACAD_REACTORS
330
625C2
102
}
330
625C2
100
AcDbVisualStyle
  2
Facepattern
 70
    15
 71
     2
 72
     2
 73
     0
 90
        0
 40
-0.6
 41
-30.0
 62
     5
 63
     7
421
 16777215
 74
     1
 91
        4
 64
     7
 65
   257
 75
     1
175
     1
 42
1.0
 92
        8
 66
     7
 43
1.0
 76
     1
 77
     6
 78
     2
 67
     7
 79
     5
170
     0
171
     0
290
     0
174
     0
 93
        1
 44
0.0
173
     0
291
     1
 45
0.0
  0
VISUALSTYLE
  5
625C3
102
{ACAD_REACTORS
330
625C2
102
}
330
625C2
100
AcDbVisualStyle
  2
Flat
 70
     0
 71
     2
 72
     1
 73
     1
 90
        2
 40
-0.6
 41
30.0
 62
     5
 63
     7
421
 16777215
 74
     0
 91
        4
 64
     7
 65
   257
 75
     1
175
     1
 42
1.0
 92
        8
 66
     7
 43
1.0
 76
     1
 77
     6
 78
     2
 67
     7
 79
     5
170
     0
171
     0
290
     0
174
     0
 93
       13
 44
0.0
173
     0
291
     1
 45
0.0
  0
VISUALSTYLE
  5
625C4
102
{ACAD_REACTORS
330
625C2
102
}
330
625C2
100
AcDbVisualStyle
  2
FlatWithEdges
 70
     1
 71
     2
 72
     1
 73
     1
 90
        2
 40
-0.6
 41
30.0
 62
     5
 63
     7
421
 16777215
 74
     1
 91
        4
 64
     7
 65
   257
 75
     1
175
     1
 42
1.0
 92
        0
 66
   257
 43
1.0
 76
     1
 77
     6
 78
     2
 67
     7
 79
     5
170
     0
171
     0
290
     0
174
     0
 93
       13
 44
0.0
173
     0
291
     1
 45
0.0
  0
VISUALSTYLE
  5
625C5
102
{ACAD_REACTORS
330
625C2
102
}
330
625C2
100
AcDbVisualStyle
  2
Gouraud
 70
     2
 71
     2
 72
     2
 73
     1
 90
        2
 40
-0.6
 41
30.0
 62
     5
 63
     7
421
 16777215
 74
     0
 91
        4
 64
     7
 65
   257
 75
     1
175
     1
 42
1.0
 92
        0
 66
     7
 43
1.0
 76
     1
 77
     6
 78
     2
 67
     7
 79
     5
170
     0
171
     0
290
     0
174
     0
 93
       13
 44
0.0
173
     0
291
     1
 45
0.0
  0
VISUALSTYLE
  5
625C6
102
{ACAD_REACTORS
330
625C2
102
}
330
625C2
100
AcDbVisualStyle
  2
GouraudWithEdges
 70
     3
 71
     2
 72
     2
 73
     1
 90
        2
 40
-0.6
 41
30.0
 62
     5
 63
     7
421
 16777215
 74
     1
 91
        4
 64
     7
 65
   257
 75
     1
175
     1
 42
1.0
 92
        0
 66
   257
 43
1.0
 76
     1
 77
     6
 78
     2
 67
     7
 79
     5
170
     0
171
     0
290
     0
174
     0
 93
       13
 44
0.0
173
     0
291
     1
 45
0.0
  0
VISUALSTYLE
  5
625D0
102
{ACAD_REACTORS
330
625C2
102
}
330
625C2
100
AcDbVisualStyle
  2
Linepattern
 70
    14
 71
     2
 72
     2
 73
     0
 90
        0
 40
-0.6
 41
-30.0
 62
     5
 63
     7
421
 16777215
 74
     1
 91
        4
 64
     7
 65
   257
 75
     7
175
     7
 42
1.0
 92
        8
 66
     7
 43
1.0
 76
     1
 77
     6
 78
     2
 67
     7
 79
     5
170
     0
171
     0
290
     0
174
     0
 93
        1
 44
0.0
173
     0
291
     1
 45
0.0
  0
VISUALSTYLE
  5
625CC
102
{ACAD_REACTORS
330
625C2
102
}
330
625C2
100
AcDbVisualStyle
  2
Realistic
 70
     8
 71
     2
 72
     2
 73
     0
 90
        0
 40
-0.6
 41
-30.0
 62
     5
 63
     7
421
 16777215
 74
     1
 91
        0
 64
     7
 65
   257
 75
     1
175
     1
 42
1.0
 92
        8
 66
     8
424
  7895160
 43
1.0
 76
     1
 77
     6
 78
     2
 67
     7
 79
     5
170
     0
171
     0
290
     0
174
     0
 93
       13
 44
0.0
173
     0
291
     0
 45
0.0
  0
VISUALSTYLE
  5
625CF
102
{ACAD_REACTORS
330
625C2
102
}
330
625C2
100
AcDbVisualStyle
  2
Thicken
 70
    13
 71
     2
 72
     2
 73
     0
 90
        0
 40
-0.6
 41
-30.0
 62
     5
 63
     7
421
 16777215
 74
     1
 91
        4
 64
     7
 65
   257
 75
     1
175
     1
 42
1.0
 92
       12
 66
     7
 43
1.0
 76
     1
 77
     6
 78
     2
 67
     7
 79
     5
170
     0
171
     0
290
     0
174
     0
 93
        1
 44
0.0
173
     0
291
     1
 45
0.0
  0
XRECORD
  5
625EE
102
{ACAD_REACTORS
330
625ED
102
}
330
625ED
100
AcDbXrecord
280
     1
  1
WIRES
  1
WIRES
  1

290
     0
  0
DICTIONARYVAR
  5
625E3
102
{ACAD_REACTORS
330
458E1
102
}
330
458E1
100
DictionaryVariables
280
     0
  1
STANDARD
  0
DICTIONARYVAR
  5
458E2
102
{ACAD_REACTORS
330
458E1
102
}
330
458E1
100
DictionaryVariables
280
     0
  1
0
  0
XRECORD
  5
625E2
102
{ACAD_REACTORS
330
625E0
102
}
330
625E0
100
AcDbXrecord
280
     1
330
62207
330
62208
330
62209
  0
ENDSEC
  0
EOF
