  0
SECTION
  2
HEADER
  9
$ACADVER
  1
AC1021
  9
$ACADMAINTVER
 70
     1
  9
$DWGCODEPAGE
  3
ANSI_1252
  9
$LASTSAVEDBY
  1
gdseiver
  9
$INSBASE
 10
0.0
 20
0.0
 30
0.0
  9
$EXTMIN
 10
-0.0002829042254575
 20
-2.221711887139687
 30
-0.0000508065968088
  9
$EXTMAX
 10
1.766112064997578
 20
0.9588188247220479
 30
3.33205085314715
  9
$LIMMIN
 10
0.0
 20
0.0
  9
$LIMMAX
 10
12.0
 20
9.0
  9
$ORTHOMODE
 70
     0
  9
$REGENMODE
 70
     1
  9
$FILLMODE
 70
     1
  9
$QTEXTMODE
 70
     0
  9
$MIRRTEXT
 70
     1
  9
$LTSCALE
 40
1.0
  9
$ATTMODE
 70
     1
  9
$TEXTSIZE
 40
0.12
  9
$TRACEWID
 40
0.05
  9
$TEXTSTYLE
  7
STANDARD
  9
$CLAYER
  8
0
  9
$CELTYPE
  6
BYLAYER
  9
$CECOLOR
 62
   256
  9
$CELTSCALE
 40
1.0
  9
$DISPSILH
 70
     0
  9
$DIMSCALE
 40
1.0
  9
$DIMASZ
 40
0.18
  9
$DIMEXO
 40
0.0625
  9
$DIMDLI
 40
0.375
  9
$DIMRND
 40
0.0
  9
$DIMDLE
 40
0.0
  9
$DIMEXE
 40
0.18
  9
$DIMTP
 40
0.0
  9
$DIMTM
 40
0.0
  9
$DIMTXT
 40
0.14
  9
$DIMCEN
 40
0.09
  9
$DIMTSZ
 40
0.0
  9
$DIMTOL
 70
     0
  9
$DIMLIM
 70
     0
  9
$DIMTIH
 70
     0
  9
$DIMTOH
 70
     1
  9
$DIMSE1
 70
     0
  9
$DIMSE2
 70
     0
  9
$DIMTAD
 70
     0
  9
$DIMZIN
 70
     4
  9
$DIMBLK
  1

  9
$DIMASO
 70
     1
  9
$DIMSHO
 70
     1
  9
$DIMPOST
  1

  9
$DIMAPOST
  1

  9
$DIMALT
 70
     1
  9
$DIMALTD
 70
     2
  9
$DIMALTF
 40
25.4
  9
$DIMLFAC
 40
1.0
  9
$DIMTOFL
 70
     0
  9
$DIMTVP
 40
0.0
  9
$DIMTIX
 70
     0
  9
$DIMSOXD
 70
     0
  9
$DIMSAH
 70
     0
  9
$DIMBLK1
  1

  9
$DIMBLK2
  1

  9
$DIMSTYLE
  2
ABECAD_3D
  9
$DIMCLRD
 70
     0
  9
$DIMCLRE
 70
     0
  9
$DIMCLRT
 70
     0
  9
$DIMTFAC
 40
1.5
  9
$DIMGAP
 40
0.09
  9
$DIMJUST
 70
     0
  9
$DIMSD1
 70
     0
  9
$DIMSD2
 70
     0
  9
$DIMTOLJ
 70
     1
  9
$DIMTZIN
 70
     4
  9
$DIMALTZ
 70
     4
  9
$DIMALTTZ
 70
     4
  9
$DIMUPT
 70
     1
  9
$DIMDEC
 70
     6
  9
$DIMTDEC
 70
     6
  9
$DIMALTU
 70
     2
  9
$DIMALTTD
 70
     2
  9
$DIMTXSTY
  7
STANDARD
  9
$DIMAUNIT
 70
     0
  9
$DIMADEC
 70
     0
  9
$DIMALTRND
 40
0.0
  9
$DIMAZIN
 70
     0
  9
$DIMDSEP
 70
    46
  9
$DIMATFIT
 70
     2
  9
$DIMFRAC
 70
     2
  9
$DIMLDRBLK
  1

  9
$DIMLUNIT
 70
     5
  9
$DIMLWD
 70
    -2
  9
$DIMLWE
 70
    -2
  9
$DIMTMOVE
 70
     2
  9
$DIMFXL
 40
1.0
  9
$DIMFXLON
 70
     0
  9
$DIMJOGANG
 40
0.7853981633974483
  9
$DIMTFILL
 70
     0
  9
$DIMTFILLCLR
 70
     0
  9
$DIMARCSYM
 70
     0
  9
$DIMLTYPE
  6

  9
$DIMLTEX1
  6

  9
$DIMLTEX2
  6

  9
$LUNITS
 70
     2
  9
$LUPREC
 70
     4
  9
$SKETCHINC
 40
0.1
  9
$FILLETRAD
 40
0.0
  9
$AUNITS
 70
     0
  9
$AUPREC
 70
     0
  9
$MENU
  1
ACAD
  9
$ELEVATION
 40
0.0
  9
$PELEVATION
 40
0.0
  9
$THICKNESS
 40
0.0
  9
$LIMCHECK
 70
     0
  9
$CHAMFERA
 40
0.0
  9
$CHAMFERB
 40
0.0
  9
$CHAMFERC
 40
0.0
  9
$CHAMFERD
 40
0.0
  9
$SKPOLY
 70
     0
  9
$TDCREATE
 40
2451726.480055787
  9
$TDUCREATE
 40
2451726.688389120
  9
$TDUPDATE
 40
2454229.401326528
  9
$TDUUPDATE
 40
2454229.609659861
  9
$TDINDWG
 40
0.7344585185
  9
$TDUSRTIMER
 40
0.7344585185
  9
$USRTIMER
 70
     1
  9
$ANGBASE
 50
0.0
  9
$ANGDIR
 70
     0
  9
$PDMODE
 70
     3
  9
$PDSIZE
 40
0.09
  9
$PLINEWID
 40
0.0
  9
$SPLFRAME
 70
     1
  9
$SPLINETYPE
 70
     6
  9
$SPLINESEGS
 70
     8
  9
$HANDSEED
  5
6449C
  9
$SURFTAB1
 70
     6
  9
$SURFTAB2
 70
     6
  9
$SURFTYPE
 70
     6
  9
$SURFU
 70
     6
  9
$SURFV
 70
     6
  9
$UCSBASE
  2

  9
$UCSNAME
  2

  9
$UCSORG
 10
0.0
 20
0.0
 30
0.0
  9
$UCSXDIR
 10
1.0
 20
0.0
 30
0.0
  9
$UCSYDIR
 10
0.0
 20
1.0
 30
0.0
  9
$UCSORTHOREF
  2

  9
$UCSORTHOVIEW
 70
     1
  9
$UCSORGTOP
 10
0.0
 20
0.0
 30
0.0
  9
$UCSORGBOTTOM
 10
0.0
 20
0.0
 30
0.0
  9
$UCSORGLEFT
 10
0.0
 20
0.0
 30
0.0
  9
$UCSORGRIGHT
 10
0.0
 20
0.0
 30
0.0
  9
$UCSORGFRONT
 10
0.0
 20
0.0
 30
0.0
  9
$UCSORGBACK
 10
0.0
 20
0.0
 30
0.0
  9
$PUCSBASE
  2

  9
$PUCSNAME
  2

  9
$PUCSORG
 10
0.0
 20
0.0
 30
0.0
  9
$PUCSXDIR
 10
1.0
 20
0.0
 30
0.0
  9
$PUCSYDIR
 10
0.0
 20
1.0
 30
0.0
  9
$PUCSORTHOREF
  2

  9
$PUCSORTHOVIEW
 70
     0
  9
$PUCSORGTOP
 10
0.0
 20
0.0
 30
0.0
  9
$PUCSORGBOTTOM
 10
0.0
 20
0.0
 30
0.0
  9
$PUCSORGLEFT
 10
0.0
 20
0.0
 30
0.0
  9
$PUCSORGRIGHT
 10
0.0
 20
0.0
 30
0.0
  9
$PUCSORGFRONT
 10
0.0
 20
0.0
 30
0.0
  9
$PUCSORGBACK
 10
0.0
 20
0.0
 30
0.0
  9
$USERI1
 70
     0
  9
$USERI2
 70
     0
  9
$USERI3
 70
     0
  9
$USERI4
 70
     0
  9
$USERI5
 70
     0
  9
$USERR1
 40
0.0
  9
$USERR2
 40
0.0
  9
$USERR3
 40
0.0
  9
$USERR4
 40
0.0
  9
$USERR5
 40
0.0
  9
$WORLDVIEW
 70
     1
  9
$SHADEDGE
 70
     3
  9
$SHADEDIF
 70
    70
  9
$TILEMODE
 70
     1
  9
$MAXACTVP
 70
    16
  9
$PINSBASE
 10
0.0
 20
0.0
 30
0.0
  9
$PLIMCHECK
 70
     0
  9
$PEXTMIN
 10
1.049999952316284
 20
0.7999999523162842
 30
0.0
  9
$PEXTMAX
 10
9.449999570846555
 20
7.199999570846556
 30
0.0
  9
$PLIMMIN
 10
-0.2500002402958907
 20
-0.2499999962453767
  9
$PLIMMAX
 10
10.74999951940821
 20
8.249999763458731
  9
$UNITMODE
 70
     0
  9
$VISRETAIN
 70
     0
  9
$PLINEGEN
 70
     0
  9
$PSLTSCALE
 70
     1
  9
$TREEDEPTH
 70
  3020
  9
$CMLSTYLE
  2
STANDARD
  9
$CMLJUST
 70
     0
  9
$CMLSCALE
 40
1.0
  9
$PROXYGRAPHICS
 70
     1
  9
$MEASUREMENT
 70
     0
  9
$CELWEIGHT
370
    -1
  9
$ENDCAPS
280
     0
  9
$JOINSTYLE
280
     0
  9
$LWDISPLAY
290
     0
  9
$INSUNITS
 70
     0
  9
$HYPERLINKBASE
  1

  9
$STYLESHEET
  1

  9
$XEDIT
290
     1
  9
$CEPSNTYPE
380
     0
  9
$PSTYLEMODE
290
     1
  9
$FINGERPRINTGUID
  2
{6E0CF4B8-225E-11D4-A150-00A0CC3303EC}
  9
$VERSIONGUID
  2
{AFF339E2-931A-4CA4-8AE8-104B48E82005}
  9
$EXTNAMES
290
     1
  9
$PSVPSCALE
 40
0.0
  9
$OLESTARTUP
290
     0
  9
$SORTENTS
280
   127
  9
$INDEXCTL
280
     0
  9
$HIDETEXT
280
     0
  9
$XCLIPFRAME
290
     0
  9
$HALOGAP
280
     0
  9
$OBSCOLOR
 70
   257
  9
$OBSLTYPE
280
     0
  9
$INTERSECTIONDISPLAY
280
     0
  9
$INTERSECTIONCOLOR
 70
   257
  9
$DIMASSOC
280
     1
  9
$PROJECTNAME
  1

  9
$CAMERADISPLAY
290
     0
  9
$LENSLENGTH
 40
50.0
  9
$CAMERAHEIGHT
 40
0.0
  9
$STEPSPERSEC
 40
2.0
  9
$STEPSIZE
 40
6.0
  9
$3DDWFPREC
 40
2.0
  9
$PSOLWIDTH
 40
0.25
  9
$PSOLHEIGHT
 40
4.0
  9
$LOFTANG1
 40
1.570796326794896
  9
$LOFTANG2
 40
1.570796326794896
  9
$LOFTMAG1
 40
0.0
  9
$LOFTMAG2
 40
0.0
  9
$LOFTPARAM
 70
     7
  9
$LOFTNORMALS
280
     1
  9
$LATITUDE
 40
37.795
  9
$LONGITUDE
 40
-122.394
  9
$NORTHDIRECTION
 40
0.0
  9
$TIMEZONE
 70
 -8000
  9
$LIGHTGLYPHDISPLAY
280
     1
  9
$TILEMODELIGHTSYNCH
280
     1
  9
$CMATERIAL
347
6444F
  9
$SOLIDHIST
280
     1
  9
$SHOWHIST
280
     1
  9
$DWFFRAME
280
     2
  9
$DGNFRAME
280
     0
  9
$REALWORLDSCALE
290
     1
  9
$INTERFERECOLOR
 62
     1
  9
$INTERFEREOBJVS
345
6445C
  9
$INTERFEREVPVS
346
64459
  9
$CSHADOW
280
     0
  9
$SHADOWPLANELOCATION
 40
0.0
  0
ENDSEC
  0
SECTION
  2
CLASSES
  0
CLASS
  1
DICTIONARYVAR
  2
AcDbDictionaryVar
  3
ObjectDBX Classes
 90
        0
 91
        2
280
     0
281
     0
  0
CLASS
  1
ACDBDICTIONARYWDFLT
  2
AcDbDictionaryWithDefault
  3
ObjectDBX Classes
 90
        0
 91
        1
280
     0
281
     0
  0
CLASS
  1
MATERIAL
  2
AcDbMaterial
  3
ObjectDBX Classes
 90
     1024
 91
        3
280
     0
281
     0
  0
CLASS
  1
VISUALSTYLE
  2
AcDbVisualStyle
  3
ObjectDBX Classes
 90
     4095
 91
       16
280
     0
281
     0
  0
CLASS
  1
TABLESTYLE
  2
AcDbTableStyle
  3
ObjectDBX Classes
 90
     4095
 91
        1
280
     0
281
     0
  0
CLASS
  1
SOLID_BACKGROUND
  2
AcDbSolidBackground
  3
SCENEOE
 90
     4095
 91
        1
280
     0
281
     0
  0
CLASS
  1
NPOCOLLECTION
  2
AcDbImpNonPersistentObjectsCollection
  3
ObjectDBX Classes
 90
     1153
 91
        1
280
     0
281
     0
  0
CLASS
  1
EXACXREFPANELOBJECT
  2
ExAcXREFPanelObject
  3
EXAC_ESW
 90
     1025
 91
        0
280
     0
281
     0
  0
ENDSEC
  0
SECTION
  2
TABLES
  0
TABLE
  2
VPORT
  5
458C7
330
0
100
AcDbSymbolTable
 70
     1
  0
VPORT
  5
6441B
330
458C7
100
AcDbSymbolTableRecord
100
AcDbViewportTableRecord
  2
*Active
 70
     0
 10
0.0
 20
0.0
 11
1.0
 21
1.0
 12
0.3194706854478502
 22
0.2486906391640336
 13
0.0
 23
0.0
 14
0.25
 24
0.25
 15
0.25
 25
0.25
 16
0.0
 26
0.0
 36
1.0
 17
0.5634438949382106
 27
-0.8801371703728531
 37
1.68649307151727
 40
3.203633840519326
 41
1.421818181818181
 42
50.0
 43
0.0
 44
0.0
 50
0.0
 51
0.0
 71
     0
 72
 20000
 73
     1
 74
     1
 75
     0
 76
     0
 77
     0
 78
     0
281
     1
 65
     1
110
0.0
120
0.0
130
0.0
111
1.0
121
0.0
131
0.0
112
0.0
122
1.0
132
0.0
 79
     0
146
0.0
348
64459
 60
     3
 61
     5
292
     1
282
     1
141
0.0
142
0.0
 63
   250
421
  3355443
  0
ENDTAB
  0
TABLE
  2
LTYPE
  5
458C4
330
0
100
AcDbSymbolTable
 70
     1
  0
LTYPE
  5
458D0
330
458C4
100
AcDbSymbolTableRecord
100
AcDbLinetypeTableRecord
  2
BYBLOCK
 70
     0
  3

 72
    65
 73
     0
 40
0.0
  0
LTYPE
  5
458D1
330
458C4
100
AcDbSymbolTableRecord
100
AcDbLinetypeTableRecord
  2
BYLAYER
 70
     0
  3

 72
    65
 73
     0
 40
0.0
  0
LTYPE
  5
458D2
330
458C4
100
AcDbSymbolTableRecord
100
AcDbLinetypeTableRecord
  2
CONTINUOUS
 70
     0
  3
Solid line
 72
    65
 73
     0
 40
0.0
  0
ENDTAB
  0
TABLE
  2
LAYER
  5
458C1
330
0
100
AcDbSymbolTable
 70
     8
  0
LAYER
  5
458CD
330
458C1
100
AcDbSymbolTableRecord
100
AcDbLayerTableRecord
  2
0
 70
     0
 62
     7
  6
CONTINUOUS
370
    -3
390
458FA
347
64451
  0
LAYER
  5
458EA
330
458C1
100
AcDbSymbolTableRecord
100
AcDbLayerTableRecord
  2
DIMS-MTG-HOLES
 70
     0
 62
     1
  6
CONTINUOUS
370
    -3
390
458FA
347
64451
  0
LAYER
  5
458EB
330
458C1
100
AcDbSymbolTableRecord
100
AcDbLayerTableRecord
  2
ATTRIBUTES
 70
     0
 62
     7
  6
CONTINUOUS
370
    -3
390
458FA
347
64451
  0
LAYER
  5
4593B
330
458C1
100
AcDbSymbolTableRecord
100
AcDbLayerTableRecord
  2
AREA1
 70
     1
 62
     7
  6
CONTINUOUS
290
     0
370
    -3
390
458FA
347
64451
  0
LAYER
  5
45940
330
458C1
100
AcDbSymbolTableRecord
100
AcDbLayerTableRecord
  2
Defpoints
 70
     1
 62
     7
  6
CONTINUOUS
290
     0
370
    -3
390
458FA
347
64451
  0
LAYER
  5
45954
330
458C1
100
AcDbSymbolTableRecord
100
AcDbLayerTableRecord
  2
SCALE
 70
     1
 62
     7
  6
CONTINUOUS
370
    -3
390
458FA
347
64451
  0
LAYER
  5
4D59A
330
458C1
100
AcDbSymbolTableRecord
100
AcDbLayerTableRecord
  2
SNAP_POINTS
 70
     1
 62
     1
  6
CONTINUOUS
370
    -3
390
458FA
347
64451
  0
LAYER
  5
6446C
102
{ACAD_XDICTIONARY
360
6446D
102
}
330
458C1
100
AcDbSymbolTableRecord
100
AcDbLayerTableRecord
  2
WIRES
 70
     0
 62
     7
  6
CONTINUOUS
370
    -3
390
458FA
347
64451
  0
ENDTAB
  0
TABLE
  2
STYLE
  5
458C2
330
0
100
AcDbSymbolTable
 70
     1
  0
STYLE
  5
458CE
330
458C2
100
AcDbSymbolTableRecord
100
AcDbTextStyleTableRecord
  2
STANDARD
 70
     0
 40
0.0
 41
1.0
 50
0.0
 71
     0
 42
0.12
  3
txt
  4

  0
ENDTAB
  0
TABLE
  2
VIEW
  5
458C5
330
0
100
AcDbSymbolTable
 70
     0
  0
ENDTAB
  0
TABLE
  2
UCS
  5
458C6
330
0
100
AcDbSymbolTable
 70
     0
  0
ENDTAB
  0
TABLE
  2
APPID
  5
458C8
330
0
100
AcDbSymbolTable
 70
     3
  0
APPID
  5
458CF
330
458C8
100
AcDbSymbolTableRecord
100
AcDbRegAppTableRecord
  2
ACAD
 70
     0
  0
APPID
  5
5FD5B
330
458C8
100
AcDbSymbolTableRecord
100
AcDbRegAppTableRecord
  2
AVE_RENDER
 70
     0
  0
APPID
  5
64471
330
458C8
100
AcDbSymbolTableRecord
100
AcDbRegAppTableRecord
  2
DCO15
 70
     0
  0
ENDTAB
  0
TABLE
  2
DIMSTYLE
  5
458C9
330
0
100
AcDbSymbolTable
 70
     1
100
AcDbDimStyleTable
 71
     0
  0
DIMSTYLE
105
458F6
102
{ACAD_REACTORS
330
64373
330
64381
102
}
330
458C9
100
AcDbSymbolTableRecord
100
AcDbDimStyleTableRecord
  2
ABECAD_3D
 70
     0
 43
0.375
 73
     0
 78
     4
140
0.14
146
1.5
170
     1
271
     6
272
     6
276
     2
277
     5
279
     2
284
     4
285
     4
286
     4
288
     1
289
     2
340
458CE
  0
ENDTAB
  0
TABLE
  2
BLOCK_RECORD
  5
458C0
330
0
100
AcDbSymbolTable
 70
     3
  0
BLOCK_RECORD
  5
458D6
102
{ACAD_XDICTIONARY
360
4592C
102
}
330
458C0
100
AcDbSymbolTableRecord
100
AcDbBlockTableRecord
  2
*MODEL_SPACE
340
458FD
 70
     0
280
     1
281
     0
  0
BLOCK_RECORD
  5
458D3
102
{ACAD_XDICTIONARY
360
4592A
102
}
330
458C0
100
AcDbSymbolTableRecord
100
AcDbBlockTableRecord
  2
*PAPER_SPACE
340
458FE
 70
     0
280
     1
281
     0
  0
BLOCK_RECORD
  5
63BAF
330
458C0
100
AcDbSymbolTableRecord
100
AcDbBlockTableRecord
  2
AVE_RENDER
340
0
102
{BLKREFS
331
64097
331
64098
331
64099
102
}
 70
     0
280
     1
281
     0
  0
BLOCK_RECORD
  5
64374
330
458C0
100
AcDbSymbolTableRecord
100
AcDbBlockTableRecord
  2
*D1
340
0
 70
     0
280
     1
281
     0
  0
BLOCK_RECORD
  5
64382
330
458C0
100
AcDbSymbolTableRecord
100
AcDbBlockTableRecord
  2
*D2
340
0
 70
     0
280
     1
281
     0
  0
ENDTAB
  0
ENDSEC
  0
SECTION
  2
BLOCKS
  0
BLOCK
  5
458DF
330
458D6
100
AcDbEntity
  8
0
100
AcDbBlockBegin
  2
*MODEL_SPACE
 70
     0
 10
0.0
 20
0.0
 30
0.0
  3
*MODEL_SPACE
  1

  0
ENDBLK
  5
458E0
330
458D6
100
AcDbEntity
  8
0
100
AcDbBlockEnd
  0
BLOCK
  5
458DD
330
458D3
100
AcDbEntity
 67
     1
  8
0
100
AcDbBlockBegin
  2
*PAPER_SPACE
 70
     0
 10
0.0
 20
0.0
 30
0.0
  3
*PAPER_SPACE
  1

  0
ENDBLK
  5
458DE
330
458D3
100
AcDbEntity
 67
     1
  8
0
100
AcDbBlockEnd
  0
BLOCK
  5
63BB0
330
63BAF
100
AcDbEntity
  8
0
100
AcDbBlockBegin
  2
AVE_RENDER
 70
     0
 10
0.0
 20
0.0
 30
0.0
  3
AVE_RENDER
  1
AVE_RENDER
  0
ENDBLK
  5
63BB1
330
63BAF
100
AcDbEntity
  8
0
100
AcDbBlockEnd
  0
BLOCK
  5
6437F
330
64374
100
AcDbEntity
  8
0
100
AcDbBlockBegin
  2
*D1
 70
     1
 10
0.0
 20
0.0
 30
0.0
  3
*D1
  1

  0
LINE
  5
64375
330
64374
100
AcDbEntity
  8
AREA1
 62
     0
370
    -2
100
AcDbLine
 10
0.2702103499999988
 20
0.9585000000000004
 30
0.0
 11
-0.6577798596506874
 21
0.9585000000000006
 31
0.0
  0
LINE
  5
64376
330
64374
100
AcDbEntity
  8
AREA1
 62
     0
370
    -2
100
AcDbLine
 10
0.6372103499999997
 20
-2.221499999999999
 30
0.0
 11
-0.6577798596506881
 21
-2.221499999999999
 31
0.0
  0
LINE
  5
64377
330
64374
100
AcDbEntity
  8
AREA1
 62
     0
370
    -2
100
AcDbLine
 10
-0.4777798596506876
 20
0.7785000000000006
 30
0.0
 11
-0.4777798596506877
 21
0.2417131231048999
 31
0.0
  0
LINE
  5
64378
330
64374
100
AcDbEntity
  8
AREA1
 62
     0
370
    -2
100
AcDbLine
 10
-0.4777798596506882
 20
-2.041499999999999
 30
0.0
 11
-0.4777798596506881
 21
-1.594953543561766
 31
0.0
  0
MTEXT
  5
64379
330
64374
100
AcDbEntity
  8
AREA1
 62
     0
100
AcDbMText
 10
-0.477779859650688
 20
-0.6766202102284336
 30
0.0
 40
0.14
 41
0.0
 46
0.0
 71
     5
 72
     1
  1
\A1;3 3/16 [80.77]
 11
0.0000000000000001
 21
1.0
 31
0.0
 73
     1
 44
1.0
  0
SOLID
  5
6437A
330
64374
100
AcDbEntity
  8
AREA1
 62
     0
100
AcDbTrace
 10
-0.5077798596506876
 20
0.7785000000000006
 30
0.0
 11
-0.4477798596506876
 21
0.7785000000000006
 31
0.0
 12
-0.4777798596506876
 22
0.9585000000000006
 32
0.0
 13
-0.4777798596506876
 23
0.9585000000000006
 33
0.0
  0
SOLID
  5
6437B
330
64374
100
AcDbEntity
  8
AREA1
 62
     0
100
AcDbTrace
 10
-0.5077798596506882
 20
-2.041499999999999
 30
0.0
 11
-0.4477798596506882
 21
-2.041499999999999
 31
0.0
 12
-0.4777798596506883
 22
-2.221499999999999
 32
0.0
 13
-0.4777798596506883
 23
-2.221499999999999
 33
0.0
  0
POINT
  5
6437C
330
64374
100
AcDbEntity
  8
Defpoints
 62
     0
100
AcDbPoint
 10
0.3327103499999988
 20
0.9585000000000004
 30
1.386
  0
POINT
  5
6437D
330
64374
100
AcDbEntity
  8
Defpoints
 62
     0
100
AcDbPoint
 10
0.6997103499999997
 20
-2.221499999999999
 30
1.386
  0
POINT
  5
6437E
330
64374
100
AcDbEntity
  8
Defpoints
 62
     0
100
AcDbPoint
 10
-0.4777798596506883
 20
-2.221499999999999
 30
0.0
  0
ENDBLK
  5
64380
330
64374
100
AcDbEntity
  8
0
100
AcDbBlockEnd
  0
BLOCK
  5
6438C
330
64382
100
AcDbEntity
  8
0
100
AcDbBlockBegin
  2
*D2
 70
     1
 10
0.0
 20
0.0
 30
0.0
  3
*D2
  1

  0
LINE
  5
6438E
330
64382
100
AcDbEntity
  8
AREA1
 62
     0
370
    -2
100
AcDbLine
 10
0.00521035
 20
0.7810000000000002
 30
0.0
 11
0.00521035
 21
1.483368561562292
 31
0.0
  0
LINE
  5
6438F
330
64382
100
AcDbEntity
  8
AREA1
 62
     0
370
    -2
100
AcDbLine
 10
1.765210349999999
 20
0.637
 30
0.0
 11
1.765210349999999
 21
1.483368561562292
 31
0.0
  0
LINE
  5
64390
330
64382
100
AcDbEntity
  8
AREA1
 62
     0
370
    -2
100
AcDbLine
 10
0.18521035
 20
1.303368561562292
 30
0.0
 11
1.585210349999999
 21
1.303368561562292
 31
0.0
  0
MTEXT
  5
64391
330
64382
100
AcDbEntity
  8
AREA1
 62
     0
100
AcDbMText
 10
0.8775764082350047
 20
1.693210906828538
 30
0.0
 40
0.14
 41
0.0
 46
0.0
 71
     5
 72
     1
  1
\A1;1 49/64 [44.70]
 73
     1
 44
1.0
  0
SOLID
  5
64392
330
64382
100
AcDbEntity
  8
AREA1
 62
     0
100
AcDbTrace
 10
0.18521035
 20
1.333368561562292
 30
0.0
 11
0.18521035
 21
1.273368561562292
 31
0.0
 12
0.00521035
 22
1.303368561562292
 32
0.0
 13
0.00521035
 23
1.303368561562292
 33
0.0
  0
SOLID
  5
64393
330
64382
100
AcDbEntity
  8
AREA1
 62
     0
100
AcDbTrace
 10
1.585210349999999
 20
1.333368561562292
 30
0.0
 11
1.585210349999999
 21
1.273368561562292
 31
0.0
 12
1.765210349999999
 22
1.303368561562292
 32
0.0
 13
1.765210349999999
 23
1.303368561562292
 33
0.0
  0
POINT
  5
64394
330
64382
100
AcDbEntity
  8
Defpoints
 62
     0
100
AcDbPoint
 10
0.00521035
 20
0.7185000000000002
 30
0.0
  0
POINT
  5
64395
330
64382
100
AcDbEntity
  8
Defpoints
 62
     0
100
AcDbPoint
 10
1.765210349999999
 20
0.5745
 30
0.0
  0
POINT
  5
64396
330
64382
100
AcDbEntity
  8
Defpoints
 62
     0
100
AcDbPoint
 10
1.765210349999999
 20
1.303368561562292
 30
0.0
  0
ENDBLK
  5
6438D
330
64382
100
AcDbEntity
  8
0
100
AcDbBlockEnd
  0
ENDSEC
  0
SECTION
  2
ENTITIES
  0
ATTDEF
  5
63F9A
330
458D6
100
AcDbEntity
  8
ATTRIBUTES
100
AcDbText
 10
0.1001048036306815
 20
-0.1342429569443211
 30
0.0
 40
0.0805203758744914
  1
SPRECHER+SCHUH
100
AcDbAttributeDefinition
  3
MANUFACTURER NAME?
  2
AC_VND_LABEL
 70
     1
280
     0
  0
ATTDEF
  5
63F9B
330
458D6
100
AcDbEntity
  8
ATTRIBUTES
100
AcDbText
 10
0.1001048036306815
 20
-0.3019937400161781
 30
0.0
 40
0.0805203758744914
  1
CA7-09, -12, -16, -23*01
100
AcDbAttributeDefinition
  3
CATALOG NUMBER?
  2
AC_PART_NO
 70
     1
280
     0
  0
ATTDEF
  5
63F9C
330
458D6
100
AcDbEntity
  8
ATTRIBUTES
100
AcDbText
 10
0.1001048036306815
 20
-0.4697445230880351
 30
0.0
 40
0.0805203758744914
  1
IEC AC CONTACTOR; 9A-23A; 1 N.C.
100
AcDbAttributeDefinition
  3
PART DESCRIPTION?
  2
AC_DESCRIPTION
 70
     1
280
     0
  0
ATTDEF
  5
63F9D
330
458D6
100
AcDbEntity
  8
ATTRIBUTES
100
AcDbText
 10
0.1001048036306815
 20
-0.6374953061598921
 30
0.0
 40
0.0805203758744914
  1

100
AcDbAttributeDefinition
  3
DEVICE ID?
  2
DEVICE_ID
 70
     1
280
     0
  0
ATTDEF
  5
63F9E
330
458D6
100
AcDbEntity
  8
ATTRIBUTES
100
AcDbText
 10
0.1001048036306815
 20
-0.805246089231749
 30
0.0
 40
0.0805203758744914
  1

100
AcDbAttributeDefinition
  3
CUSTOMER PART NUMBER?
  2
AC_CPART_NO
 70
     1
280
     0
  0
ATTDEF
  5
63F9F
330
458D6
100
AcDbEntity
  8
ATTRIBUTES
100
AcDbText
 10
0.1001048036306815
 20
-0.9729968723036069
 30
0.0
 40
0.0805203758744914
  1

100
AcDbAttributeDefinition
  3
CUSTOMER NOTE?
  2
AC_NOTE
 70
     1
280
     0
  0
ATTDEF
  5
63FA0
330
458D6
100
AcDbEntity
  8
ATTRIBUTES
100
AcDbText
 10
0.1001048036306815
 20
-1.140747655375463
 30
0.0
 40
0.0805203758744914
  1

100
AcDbAttributeDefinition
  3
FASTENER DATA?
  2
FASTENER
 70
     1
280
     0
  0
ATTDEF
  5
63FA1
330
458D6
100
AcDbEntity
  8
ATTRIBUTES
100
AcDbText
 10
0.1001048036306815
 20
-1.30849843844732
 30
0.0
 40
0.0805203758744914
  1
INCH
100
AcDbAttributeDefinition
  3
UNIT OF SCALE?
  2
AC_SCALE_UNIT
 70
     1
280
     0
  0
ATTDEF
  5
63FA2
330
458D6
100
AcDbEntity
  8
ATTRIBUTES
100
AcDbText
 10
0.1001048036306815
 20
-1.476249221519177
 30
0.0
 40
0.0805203758744914
  1
0
100
AcDbAttributeDefinition
  3
VIEW CODE?
  2
AC_VIEW_CODE
 70
     1
280
     0
  0
POLYLINE
  5
63FA3
330
458D6
100
AcDbEntity
  8
0
100
AcDbPolygonMesh
 66
     1
 10
0.0
 20
0.0
 30
0.0
 70
    16
 71
     6
 72
     3
  0
VERTEX
  5
63FA4
330
63FA3
100
AcDbEntity
  8
0
100
AcDbVertex
100
AcDbPolygonMeshVertex
 10
1.765210349999999
 20
0.2384999999999997
 30
0.316
 70
    64
  0
VERTEX
  5
63FA5
330
63FA3
100
AcDbEntity
  8
0
100
AcDbVertex
100
AcDbPolygonMeshVertex
 10
1.765210349999999
 20
0.2384999999999997
 30
0.0
 70
    64
  0
VERTEX
  5
63FA6
330
63FA3
100
AcDbEntity
  8
0
100
AcDbVertex
100
AcDbPolygonMeshVertex
 10
1.765210349999999
 20
0.2384999999999997
 30
0.0
 70
    64
  0
VERTEX
  5
63FA7
330
63FA3
100
AcDbEntity
  8
0
100
AcDbVertex
100
AcDbPolygonMeshVertex
 10
1.374210349999999
 20
0.2384999999999997
 30
0.316
 70
    64
  0
VERTEX
  5
63FA8
330
63FA3
100
AcDbEntity
  8
0
100
AcDbVertex
100
AcDbPolygonMeshVertex
 10
1.374210349999999
 20
0.2384999999999997
 30
0.0
 70
    64
  0
VERTEX
  5
63FA9
330
63FA3
100
AcDbEntity
  8
0
100
AcDbVertex
100
AcDbPolygonMeshVertex
 10
1.374210349999999
 20
0.2384999999999997
 30
0.0
 70
    64
  0
VERTEX
  5
63FAA
330
63FA3
100
AcDbEntity
  8
0
100
AcDbVertex
100
AcDbPolygonMeshVertex
 10
1.374210349999999
 20
0.5745
 30
0.316
 70
    64
  0
VERTEX
  5
63FAB
330
63FA3
100
AcDbEntity
  8
0
100
AcDbVertex
100
AcDbPolygonMeshVertex
 10
1.374210349999999
 20
0.5745
 30
0.0
 70
    64
  0
VERTEX
  5
63FAC
330
63FA3
100
AcDbEntity
  8
0
100
AcDbVertex
100
AcDbPolygonMeshVertex
 10
1.374210349999999
 20
0.2384999999999997
 30
0.0
 70
    64
  0
VERTEX
  5
63FAD
330
63FA3
100
AcDbEntity
  8
0
100
AcDbVertex
100
AcDbPolygonMeshVertex
 10
1.765210349999999
 20
0.5745
 30
0.316
 70
    64
  0
VERTEX
  5
63FAE
330
63FA3
100
AcDbEntity
  8
0
100
AcDbVertex
100
AcDbPolygonMeshVertex
 10
1.765210349999999
 20
0.5745
 30
0.0
 70
    64
  0
VERTEX
  5
63FAF
330
63FA3
100
AcDbEntity
  8
0
100
AcDbVertex
100
AcDbPolygonMeshVertex
 10
1.765210349999999
 20
0.2384999999999997
 30
0.0
 70
    64
  0
VERTEX
  5
63FB0
330
63FA3
100
AcDbEntity
  8
0
100
AcDbVertex
100
AcDbPolygonMeshVertex
 10
1.765210349999999
 20
0.5745
 30
0.316
 70
    64
  0
VERTEX
  5
63FB1
330
63FA3
100
AcDbEntity
  8
0
100
AcDbVertex
100
AcDbPolygonMeshVertex
 10
1.765210349999999
 20
0.5745
 30
0.316
 70
    64
  0
VERTEX
  5
63FB2
330
63FA3
100
AcDbEntity
  8
0
100
AcDbVertex
100
AcDbPolygonMeshVertex
 10
1.765210349999999
 20
0.2384999999999997
 30
0.316
 70
    64
  0
VERTEX
  5
63FB3
330
63FA3
100
AcDbEntity
  8
0
100
AcDbVertex
100
AcDbPolygonMeshVertex
 10
1.374210349999999
 20
0.5745
 30
0.316
 70
    64
  0
VERTEX
  5
63FB4
330
63FA3
100
AcDbEntity
  8
0
100
AcDbVertex
100
AcDbPolygonMeshVertex
 10
1.374210349999999
 20
0.5745
 30
0.316
 70
    64
  0
VERTEX
  5
63FB5
330
63FA3
100
AcDbEntity
  8
0
100
AcDbVertex
100
AcDbPolygonMeshVertex
 10
1.374210349999999
 20
0.2384999999999997
 30
0.316
 70
    64
  0
SEQEND
  5
63FB6
330
63FA3
100
AcDbEntity
  8
0
  0
POLYLINE
  5
63FB7
330
458D6
100
AcDbEntity
  8
0
100
AcDbPolygonMesh
 66
     1
 10
0.0
 20
0.0
 30
0.0
 70
    16
 71
     6
 72
     3
  0
VERTEX
  5
63FB8
330
63FB7
100
AcDbEntity
  8
0
100
AcDbVertex
100
AcDbPolygonMeshVertex
 10
0.39621035
 20
-1.685499999999999
 30
1.318
 70
    64
  0
VERTEX
  5
63FB9
330
63FB7
100
AcDbEntity
  8
0
100
AcDbVertex
100
AcDbPolygonMeshVertex
 10
0.39621035
 20
-1.685499999999999
 30
0.187
 70
    64
  0
VERTEX
  5
63FBA
330
63FB7
100
AcDbEntity
  8
0
100
AcDbVertex
100
AcDbPolygonMeshVertex
 10
0.39621035
 20
-1.685499999999999
 30
0.187
 70
    64
  0
VERTEX
  5
63FBB
330
63FB7
100
AcDbEntity
  8
0
100
AcDbVertex
100
AcDbPolygonMeshVertex
 10
0.00521035
 20
-1.685499999999999
 30
1.318
 70
    64
  0
VERTEX
  5
63FBC
330
63FB7
100
AcDbEntity
  8
0
100
AcDbVertex
100
AcDbPolygonMeshVertex
 10
0.00521035
 20
-1.685499999999999
 30
0.187
 70
    64
  0
VERTEX
  5
63FBD
330
63FB7
100
AcDbEntity
  8
0
100
AcDbVertex
100
AcDbPolygonMeshVertex
 10
0.00521035
 20
-1.685499999999999
 30
0.187
 70
    64
  0
VERTEX
  5
63FBE
330
63FB7
100
AcDbEntity
  8
0
100
AcDbVertex
100
AcDbPolygonMeshVertex
 10
0.00521035
 20
0.5215000000000001
 30
1.318
 70
    64
  0
VERTEX
  5
63FBF
330
63FB7
100
AcDbEntity
  8
0
100
AcDbVertex
100
AcDbPolygonMeshVertex
 10
0.00521035
 20
0.5215000000000001
 30
0.187
 70
    64
  0
VERTEX
  5
63FC0
330
63FB7
100
AcDbEntity
  8
0
100
AcDbVertex
100
AcDbPolygonMeshVertex
 10
0.00521035
 20
-1.685499999999999
 30
0.187
 70
    64
  0
VERTEX
  5
63FC1
330
63FB7
100
AcDbEntity
  8
0
100
AcDbVertex
100
AcDbPolygonMeshVertex
 10
0.39621035
 20
0.5215000000000001
 30
1.318
 70
    64
  0
VERTEX
  5
63FC2
330
63FB7
100
AcDbEntity
  8
0
100
AcDbVertex
100
AcDbPolygonMeshVertex
 10
0.39621035
 20
0.5215000000000001
 30
0.187
 70
    64
  0
VERTEX
  5
63FC3
330
63FB7
100
AcDbEntity
  8
0
100
AcDbVertex
100
AcDbPolygonMeshVertex
 10
0.39621035
 20
-1.685499999999999
 30
0.187
 70
    64
  0
VERTEX
  5
63FC4
330
63FB7
100
AcDbEntity
  8
0
100
AcDbVertex
100
AcDbPolygonMeshVertex
 10
0.39621035
 20
0.5215000000000001
 30
1.318
 70
    64
  0
VERTEX
  5
63FC5
330
63FB7
100
AcDbEntity
  8
0
100
AcDbVertex
100
AcDbPolygonMeshVertex
 10
0.39621035
 20
0.5215000000000001
 30
1.318
 70
    64
  0
VERTEX
  5
63FC6
330
63FB7
100
AcDbEntity
  8
0
100
AcDbVertex
100
AcDbPolygonMeshVertex
 10
0.39621035
 20
-1.685499999999999
 30
1.318
 70
    64
  0
VERTEX
  5
63FC7
330
63FB7
100
AcDbEntity
  8
0
100
AcDbVertex
100
AcDbPolygonMeshVertex
 10
0.00521035
 20
0.5215000000000001
 30
1.318
 70
    64
  0
VERTEX
  5
63FC8
330
63FB7
100
AcDbEntity
  8
0
100
AcDbVertex
100
AcDbPolygonMeshVertex
 10
0.00521035
 20
0.5215000000000001
 30
1.318
 70
    64
  0
VERTEX
  5
63FC9
330
63FB7
100
AcDbEntity
  8
0
100
AcDbVertex
100
AcDbPolygonMeshVertex
 10
0.00521035
 20
-1.685499999999999
 30
1.318
 70
    64
  0
SEQEND
  5
63FCA
330
63FB7
100
AcDbEntity
  8
0
  0
POLYLINE
  5
63FCB
330
458D6
100
AcDbEntity
  8
0
100
AcDbPolygonMesh
 66
     1
 10
0.0
 20
0.0
 30
0.0
 70
    16
 71
     6
 72
     3
  0
VERTEX
  5
63FCC
330
63FCB
100
AcDbEntity
  8
0
100
AcDbVertex
100
AcDbPolygonMeshVertex
 10
1.765210349999999
 20
-1.9685
 30
1.318
 70
    64
  0
VERTEX
  5
63FCD
330
63FCB
100
AcDbEntity
  8
0
100
AcDbVertex
100
AcDbPolygonMeshVertex
 10
1.765210349999999
 20
-1.9685
 30
0.187
 70
    64
  0
VERTEX
  5
63FCE
330
63FCB
100
AcDbEntity
  8
0
100
AcDbVertex
100
AcDbPolygonMeshVertex
 10
1.765210349999999
 20
-1.9685
 30
0.187
 70
    64
  0
VERTEX
  5
63FCF
330
63FCB
100
AcDbEntity
  8
0
100
AcDbVertex
100
AcDbPolygonMeshVertex
 10
1.374210349999999
 20
-1.9685
 30
1.318
 70
    64
  0
VERTEX
  5
63FD0
330
63FCB
100
AcDbEntity
  8
0
100
AcDbVertex
100
AcDbPolygonMeshVertex
 10
1.374210349999999
 20
-1.9685
 30
0.187
 70
    64
  0
VERTEX
  5
63FD1
330
63FCB
100
AcDbEntity
  8
0
100
AcDbVertex
100
AcDbPolygonMeshVertex
 10
1.374210349999999
 20
-1.9685
 30
0.187
 70
    64
  0
VERTEX
  5
63FD2
330
63FCB
100
AcDbEntity
  8
0
100
AcDbVertex
100
AcDbPolygonMeshVertex
 10
1.374210349999999
 20
0.2384999999999997
 30
1.318
 70
    64
  0
VERTEX
  5
63FD3
330
63FCB
100
AcDbEntity
  8
0
100
AcDbVertex
100
AcDbPolygonMeshVertex
 10
1.374210349999999
 20
0.2384999999999997
 30
0.187
 70
    64
  0
VERTEX
  5
63FD4
330
63FCB
100
AcDbEntity
  8
0
100
AcDbVertex
100
AcDbPolygonMeshVertex
 10
1.374210349999999
 20
-1.9685
 30
0.187
 70
    64
  0
VERTEX
  5
63FD5
330
63FCB
100
AcDbEntity
  8
0
100
AcDbVertex
100
AcDbPolygonMeshVertex
 10
1.765210349999999
 20
0.2384999999999997
 30
1.318
 70
    64
  0
VERTEX
  5
63FD6
330
63FCB
100
AcDbEntity
  8
0
100
AcDbVertex
100
AcDbPolygonMeshVertex
 10
1.765210349999999
 20
0.2384999999999997
 30
0.187
 70
    64
  0
VERTEX
  5
63FD7
330
63FCB
100
AcDbEntity
  8
0
100
AcDbVertex
100
AcDbPolygonMeshVertex
 10
1.765210349999999
 20
-1.9685
 30
0.187
 70
    64
  0
VERTEX
  5
63FD8
330
63FCB
100
AcDbEntity
  8
0
100
AcDbVertex
100
AcDbPolygonMeshVertex
 10
1.765210349999999
 20
0.2384999999999997
 30
1.318
 70
    64
  0
VERTEX
  5
63FD9
330
63FCB
100
AcDbEntity
  8
0
100
AcDbVertex
100
AcDbPolygonMeshVertex
 10
1.765210349999999
 20
0.2384999999999997
 30
1.318
 70
    64
  0
VERTEX
  5
63FDA
330
63FCB
100
AcDbEntity
  8
0
100
AcDbVertex
100
AcDbPolygonMeshVertex
 10
1.765210349999999
 20
-1.9685
 30
1.318
 70
    64
  0
VERTEX
  5
63FDB
330
63FCB
100
AcDbEntity
  8
0
100
AcDbVertex
100
AcDbPolygonMeshVertex
 10
1.374210349999999
 20
0.2384999999999997
 30
1.318
 70
    64
  0
VERTEX
  5
63FDC
330
63FCB
100
AcDbEntity
  8
0
100
AcDbVertex
100
AcDbPolygonMeshVertex
 10
1.374210349999999
 20
0.2384999999999997
 30
1.318
 70
    64
  0
VERTEX
  5
63FDD
330
63FCB
100
AcDbEntity
  8
0
100
AcDbVertex
100
AcDbPolygonMeshVertex
 10
1.374210349999999
 20
-1.9685
 30
1.318
 70
    64
  0
SEQEND
  5
63FDE
330
63FCB
100
AcDbEntity
  8
0
  0
POLYLINE
  5
63FDF
330
458D6
100
AcDbEntity
  8
0
100
AcDbPolygonMesh
 66
     1
 10
0.0
 20
0.0
 30
0.0
 70
    16
 71
     6
 72
     3
  0
VERTEX
  5
63FE0
330
63FDF
100
AcDbEntity
  8
0
100
AcDbVertex
100
AcDbPolygonMeshVertex
 10
1.374210349999999
 20
-1.9685
 30
1.318
 70
    64
  0
VERTEX
  5
63FE1
330
63FDF
100
AcDbEntity
  8
0
100
AcDbVertex
100
AcDbPolygonMeshVertex
 10
1.374210349999999
 20
-1.9685
 30
0.187
 70
    64
  0
VERTEX
  5
63FE2
330
63FDF
100
AcDbEntity
  8
0
100
AcDbVertex
100
AcDbPolygonMeshVertex
 10
1.374210349999999
 20
-1.9685
 30
0.187
 70
    64
  0
VERTEX
  5
63FE3
330
63FDF
100
AcDbEntity
  8
0
100
AcDbVertex
100
AcDbPolygonMeshVertex
 10
0.39621035
 20
-1.9685
 30
1.318
 70
    64
  0
VERTEX
  5
63FE4
330
63FDF
100
AcDbEntity
  8
0
100
AcDbVertex
100
AcDbPolygonMeshVertex
 10
0.39621035
 20
-1.9685
 30
0.187
 70
    64
  0
VERTEX
  5
63FE5
330
63FDF
100
AcDbEntity
  8
0
100
AcDbVertex
100
AcDbPolygonMeshVertex
 10
0.39621035
 20
-1.9685
 30
0.187
 70
    64
  0
VERTEX
  5
63FE6
330
63FDF
100
AcDbEntity
  8
0
100
AcDbVertex
100
AcDbPolygonMeshVertex
 10
0.39621035
 20
0.5215000000000001
 30
1.318
 70
    64
  0
VERTEX
  5
63FE7
330
63FDF
100
AcDbEntity
  8
0
100
AcDbVertex
100
AcDbPolygonMeshVertex
 10
0.39621035
 20
0.5215000000000001
 30
0.187
 70
    64
  0
VERTEX
  5
63FE8
330
63FDF
100
AcDbEntity
  8
0
100
AcDbVertex
100
AcDbPolygonMeshVertex
 10
0.39621035
 20
-1.9685
 30
0.187
 70
    64
  0
VERTEX
  5
63FE9
330
63FDF
100
AcDbEntity
  8
0
100
AcDbVertex
100
AcDbPolygonMeshVertex
 10
1.374210349999999
 20
0.5215000000000001
 30
1.318
 70
    64
  0
VERTEX
  5
63FEA
330
63FDF
100
AcDbEntity
  8
0
100
AcDbVertex
100
AcDbPolygonMeshVertex
 10
1.374210349999999
 20
0.5215000000000001
 30
0.187
 70
    64
  0
VERTEX
  5
63FEB
330
63FDF
100
AcDbEntity
  8
0
100
AcDbVertex
100
AcDbPolygonMeshVertex
 10
1.374210349999999
 20
-1.9685
 30
0.187
 70
    64
  0
VERTEX
  5
63FEC
330
63FDF
100
AcDbEntity
  8
0
100
AcDbVertex
100
AcDbPolygonMeshVertex
 10
1.374210349999999
 20
0.5215000000000001
 30
1.318
 70
    64
  0
VERTEX
  5
63FED
330
63FDF
100
AcDbEntity
  8
0
100
AcDbVertex
100
AcDbPolygonMeshVertex
 10
1.374210349999999
 20
0.5215000000000001
 30
1.318
 70
    64
  0
VERTEX
  5
63FEE
330
63FDF
100
AcDbEntity
  8
0
100
AcDbVertex
100
AcDbPolygonMeshVertex
 10
1.374210349999999
 20
-1.9685
 30
1.318
 70
    64
  0
VERTEX
  5
63FEF
330
63FDF
100
AcDbEntity
  8
0
100
AcDbVertex
100
AcDbPolygonMeshVertex
 10
0.39621035
 20
0.5215000000000001
 30
1.318
 70
    64
  0
VERTEX
  5
63FF0
330
63FDF
100
AcDbEntity
  8
0
100
AcDbVertex
100
AcDbPolygonMeshVertex
 10
0.39621035
 20
0.5215000000000001
 30
1.318
 70
    64
  0
VERTEX
  5
63FF1
330
63FDF
100
AcDbEntity
  8
0
100
AcDbVertex
100
AcDbPolygonMeshVertex
 10
0.39621035
 20
-1.9685
 30
1.318
 70
    64
  0
SEQEND
  5
63FF2
330
63FDF
100
AcDbEntity
  8
0
  0
POLYLINE
  5
63FF3
330
458D6
100
AcDbEntity
  8
0
100
AcDbPolygonMesh
 66
     1
 10
0.0
 20
0.0
 30
0.0
 70
    16
 71
     6
 72
     3
  0
VERTEX
  5
63FF4
330
63FF3
100
AcDbEntity
  8
0
100
AcDbVertex
100
AcDbPolygonMeshVertex
 10
1.070710349999999
 20
-2.221499999999999
 30
2.06
 70
    64
  0
VERTEX
  5
63FF5
330
63FF3
100
AcDbEntity
  8
0
100
AcDbVertex
100
AcDbPolygonMeshVertex
 10
1.070710349999999
 20
-2.221499999999999
 30
1.386
 70
    64
  0
VERTEX
  5
63FF6
330
63FF3
100
AcDbEntity
  8
0
100
AcDbVertex
100
AcDbPolygonMeshVertex
 10
1.070710349999999
 20
-2.221499999999999
 30
1.386
 70
    64
  0
VERTEX
  5
63FF7
330
63FF3
100
AcDbEntity
  8
0
100
AcDbVertex
100
AcDbPolygonMeshVertex
 10
0.6997103499999997
 20
-2.221499999999999
 30
2.06
 70
    64
  0
VERTEX
  5
63FF8
330
63FF3
100
AcDbEntity
  8
0
100
AcDbVertex
100
AcDbPolygonMeshVertex
 10
0.6997103499999997
 20
-2.221499999999999
 30
1.386
 70
    64
  0
VERTEX
  5
63FF9
330
63FF3
100
AcDbEntity
  8
0
100
AcDbVertex
100
AcDbPolygonMeshVertex
 10
0.6997103499999997
 20
-2.221499999999999
 30
1.386
 70
    64
  0
VERTEX
  5
63FFA
330
63FF3
100
AcDbEntity
  8
0
100
AcDbVertex
100
AcDbPolygonMeshVertex
 10
0.6997103499999997
 20
-1.968499999999999
 30
2.06
 70
    64
  0
VERTEX
  5
63FFB
330
63FF3
100
AcDbEntity
  8
0
100
AcDbVertex
100
AcDbPolygonMeshVertex
 10
0.6997103499999997
 20
-1.968499999999999
 30
1.386
 70
    64
  0
VERTEX
  5
63FFC
330
63FF3
100
AcDbEntity
  8
0
100
AcDbVertex
100
AcDbPolygonMeshVertex
 10
0.6997103499999997
 20
-2.221499999999999
 30
1.386
 70
    64
  0
VERTEX
  5
63FFD
330
63FF3
100
AcDbEntity
  8
0
100
AcDbVertex
100
AcDbPolygonMeshVertex
 10
1.070710349999999
 20
-1.968499999999999
 30
2.06
 70
    64
  0
VERTEX
  5
63FFE
330
63FF3
100
AcDbEntity
  8
0
100
AcDbVertex
100
AcDbPolygonMeshVertex
 10
1.070710349999999
 20
-1.968499999999999
 30
1.386
 70
    64
  0
VERTEX
  5
63FFF
330
63FF3
100
AcDbEntity
  8
0
100
AcDbVertex
100
AcDbPolygonMeshVertex
 10
1.070710349999999
 20
-2.221499999999999
 30
1.386
 70
    64
  0
VERTEX
  5
64000
330
63FF3
100
AcDbEntity
  8
0
100
AcDbVertex
100
AcDbPolygonMeshVertex
 10
1.070710349999999
 20
-1.968499999999999
 30
2.06
 70
    64
  0
VERTEX
  5
64001
330
63FF3
100
AcDbEntity
  8
0
100
AcDbVertex
100
AcDbPolygonMeshVertex
 10
1.070710349999999
 20
-1.968499999999999
 30
2.06
 70
    64
  0
VERTEX
  5
64002
330
63FF3
100
AcDbEntity
  8
0
100
AcDbVertex
100
AcDbPolygonMeshVertex
 10
1.070710349999999
 20
-2.221499999999999
 30
2.06
 70
    64
  0
VERTEX
  5
64003
330
63FF3
100
AcDbEntity
  8
0
100
AcDbVertex
100
AcDbPolygonMeshVertex
 10
0.6997103499999997
 20
-1.968499999999999
 30
2.06
 70
    64
  0
VERTEX
  5
64004
330
63FF3
100
AcDbEntity
  8
0
100
AcDbVertex
100
AcDbPolygonMeshVertex
 10
0.6997103499999997
 20
-1.968499999999999
 30
2.06
 70
    64
  0
VERTEX
  5
64005
330
63FF3
100
AcDbEntity
  8
0
100
AcDbVertex
100
AcDbPolygonMeshVertex
 10
0.6997103499999997
 20
-2.221499999999999
 30
2.06
 70
    64
  0
SEQEND
  5
64006
330
63FF3
100
AcDbEntity
  8
0
  0
LWPOLYLINE
  5
64007
330
458D6
100
AcDbEntity
  8
0
100
AcDbPolyline
 90
        4
 70
     1
 43
0.0
 38
2.062
 10
0.7517103500000002
 20
-2.020499999999999
 10
1.01871035
 20
-2.020499999999999
 10
1.01871035
 20
-2.169499999999999
 10
0.7517103500000002
 20
-2.169499999999999
  0
LWPOLYLINE
  5
64008
330
458D6
100
AcDbEntity
  8
0
100
AcDbPolyline
 90
        4
 70
     1
 43
0.0
 38
1.388
 10
0.7517103500000002
 20
-2.020499999999999
 10
1.01871035
 20
-2.020499999999999
 10
1.01871035
 20
-2.169499999999999
 10
0.7517103500000002
 20
-2.169499999999999
  0
POLYLINE
  5
64009
330
458D6
100
AcDbEntity
  8
0
100
AcDbPolygonMesh
 66
     1
 10
0.0
 20
0.0
 30
0.0
 70
    16
 71
     6
 72
     3
  0
VERTEX
  5
6400A
330
64009
100
AcDbEntity
  8
0
100
AcDbVertex
100
AcDbPolygonMeshVertex
 10
0.3327103499999988
 20
0.9585000000000004
 30
2.06
 70
    64
  0
VERTEX
  5
6400B
330
64009
100
AcDbEntity
  8
0
100
AcDbVertex
100
AcDbPolygonMeshVertex
 10
0.3327103499999988
 20
0.9585000000000004
 30
1.386
 70
    64
  0
VERTEX
  5
6400C
330
64009
100
AcDbEntity
  8
0
100
AcDbVertex
100
AcDbPolygonMeshVertex
 10
0.3327103499999988
 20
0.9585000000000004
 30
1.386
 70
    64
  0
VERTEX
  5
6400D
330
64009
100
AcDbEntity
  8
0
100
AcDbVertex
100
AcDbPolygonMeshVertex
 10
1.437710349999999
 20
0.9585000000000004
 30
2.06
 70
    64
  0
VERTEX
  5
6400E
330
64009
100
AcDbEntity
  8
0
100
AcDbVertex
100
AcDbPolygonMeshVertex
 10
1.437710349999999
 20
0.9585000000000004
 30
1.386
 70
    64
  0
VERTEX
  5
6400F
330
64009
100
AcDbEntity
  8
0
100
AcDbVertex
100
AcDbPolygonMeshVertex
 10
1.437710349999999
 20
0.9585000000000004
 30
1.386
 70
    64
  0
VERTEX
  5
64010
330
64009
100
AcDbEntity
  8
0
100
AcDbVertex
100
AcDbPolygonMeshVertex
 10
1.437710349999999
 20
0.5215000000000001
 30
2.06
 70
    64
  0
VERTEX
  5
64011
330
64009
100
AcDbEntity
  8
0
100
AcDbVertex
100
AcDbPolygonMeshVertex
 10
1.437710349999999
 20
0.5215000000000001
 30
1.386
 70
    64
  0
VERTEX
  5
64012
330
64009
100
AcDbEntity
  8
0
100
AcDbVertex
100
AcDbPolygonMeshVertex
 10
1.437710349999999
 20
0.9585000000000004
 30
1.386
 70
    64
  0
VERTEX
  5
64013
330
64009
100
AcDbEntity
  8
0
100
AcDbVertex
100
AcDbPolygonMeshVertex
 10
0.3327103499999988
 20
0.5215000000000001
 30
2.06
 70
    64
  0
VERTEX
  5
64014
330
64009
100
AcDbEntity
  8
0
100
AcDbVertex
100
AcDbPolygonMeshVertex
 10
0.3327103499999988
 20
0.5215000000000001
 30
1.386
 70
    64
  0
VERTEX
  5
64015
330
64009
100
AcDbEntity
  8
0
100
AcDbVertex
100
AcDbPolygonMeshVertex
 10
0.3327103499999988
 20
0.9585000000000004
 30
1.386
 70
    64
  0
VERTEX
  5
64016
330
64009
100
AcDbEntity
  8
0
100
AcDbVertex
100
AcDbPolygonMeshVertex
 10
0.3327103499999988
 20
0.5215000000000001
 30
2.06
 70
    64
  0
VERTEX
  5
64017
330
64009
100
AcDbEntity
  8
0
100
AcDbVertex
100
AcDbPolygonMeshVertex
 10
0.3327103499999988
 20
0.5215000000000001
 30
2.06
 70
    64
  0
VERTEX
  5
64018
330
64009
100
AcDbEntity
  8
0
100
AcDbVertex
100
AcDbPolygonMeshVertex
 10
0.3327103499999988
 20
0.9585000000000004
 30
2.06
 70
    64
  0
VERTEX
  5
64019
330
64009
100
AcDbEntity
  8
0
100
AcDbVertex
100
AcDbPolygonMeshVertex
 10
1.437710349999999
 20
0.5215000000000001
 30
2.06
 70
    64
  0
VERTEX
  5
6401A
330
64009
100
AcDbEntity
  8
0
100
AcDbVertex
100
AcDbPolygonMeshVertex
 10
1.437710349999999
 20
0.5215000000000001
 30
2.06
 70
    64
  0
VERTEX
  5
6401B
330
64009
100
AcDbEntity
  8
0
100
AcDbVertex
100
AcDbPolygonMeshVertex
 10
1.437710349999999
 20
0.9585000000000004
 30
2.06
 70
    64
  0
SEQEND
  5
6401C
330
64009
100
AcDbEntity
  8
0
  0
LINE
  5
6401D
330
458D6
100
AcDbEntity
  8
0
100
AcDbLine
 10
0.7452103499999994
 20
0.5215000000000001
 30
2.06
 11
0.7452103499999994
 21
0.7565
 31
2.06
  0
LINE
  5
6401E
330
458D6
100
AcDbEntity
  8
0
100
AcDbLine
 10
1.025210349999998
 20
0.5215000000000001
 30
2.06
 11
1.025210349999998
 21
0.7565
 31
2.06
  0
LINE
  5
6401F
330
458D6
100
AcDbEntity
  8
0
100
AcDbLine
 10
1.025210349999998
 20
0.7565
 30
2.06
 11
0.7452103499999994
 21
0.7565
 31
2.06
  0
CIRCLE
  5
64020
330
458D6
100
AcDbEntity
  8
0
100
AcDbCircle
 10
0.5462103499999969
 20
0.7399999999999998
 30
2.06
 40
0.12
  0
CIRCLE
  5
64021
330
458D6
100
AcDbEntity
  8
0
100
AcDbCircle
 10
1.224210350000001
 20
0.7399999999999998
 30
2.06
 40
0.12
  0
POLYLINE
  5
64022
330
458D6
100
AcDbEntity
  8
0
100
AcDb3dPolyline
 66
     1
 10
0.0
 20
0.0
 30
0.0
 70
     8
  0
VERTEX
  5
64023
330
64022
100
AcDbEntity
  8
0
100
AcDbVertex
100
AcDb3dPolylineVertex
 10
1.765210349999999
 20
-1.352499999999999
 30
0.187
 70
    32
  0
VERTEX
  5
64024
330
64022
100
AcDbEntity
  8
0
100
AcDbVertex
100
AcDb3dPolylineVertex
 10
1.765210349999999
 20
-1.352499999999999
 30
1.056999999999999
 70
    32
  0
VERTEX
  5
64025
330
64022
100
AcDbEntity
  8
0
100
AcDbVertex
100
AcDb3dPolylineVertex
 10
1.765210349999999
 20
-1.507499999999999
 30
1.056999999999999
 70
    32
  0
VERTEX
  5
64026
330
64022
100
AcDbEntity
  8
0
100
AcDbVertex
100
AcDb3dPolylineVertex
 10
1.765210349999999
 20
-1.507499999999999
 30
0.187
 70
    32
  0
SEQEND
  5
64027
330
64022
100
AcDbEntity
  8
0
  0
POLYLINE
  5
64028
330
458D6
100
AcDbEntity
  8
0
100
AcDb3dPolyline
 66
     1
 10
0.0
 20
0.0
 30
0.0
 70
     8
  0
VERTEX
  5
64029
330
64028
100
AcDbEntity
  8
0
100
AcDbVertex
100
AcDb3dPolylineVertex
 10
1.765210349999999
 20
0.0265
 30
0.187
 70
    32
  0
VERTEX
  5
6402A
330
64028
100
AcDbEntity
  8
0
100
AcDbVertex
100
AcDb3dPolylineVertex
 10
1.765210349999999
 20
0.0265
 30
1.056999999999999
 70
    32
  0
VERTEX
  5
6402B
330
64028
100
AcDbEntity
  8
0
100
AcDbVertex
100
AcDb3dPolylineVertex
 10
1.765210349999999
 20
-0.1285000000000003
 30
1.056999999999999
 70
    32
  0
VERTEX
  5
6402C
330
64028
100
AcDbEntity
  8
0
100
AcDbVertex
100
AcDb3dPolylineVertex
 10
1.765210349999999
 20
-0.1285000000000003
 30
0.187
 70
    32
  0
SEQEND
  5
6402D
330
64028
100
AcDbEntity
  8
0
  0
LINE
  5
6402E
330
458D6
100
AcDbEntity
  8
0
100
AcDbLine
 10
1.765210349999999
 20
-0.6294999999999998
 30
0.5170000000000002
 11
1.765210349999999
 21
-0.8515
 31
0.5170000000000002
  0
LINE
  5
6402F
330
458D6
100
AcDbEntity
  8
0
100
AcDbLine
 10
1.765210349999999
 20
-0.8515
 30
0.5170000000000002
 11
1.765210349999999
 21
-0.8515
 31
0.187
  0
LINE
  5
64030
330
458D6
100
AcDbEntity
  8
0
100
AcDbLine
 10
1.765210349999999
 20
-0.6294999999999998
 30
0.5170000000000002
 11
1.765210349999999
 21
-0.6294999999999998
 31
0.187
  0
POLYLINE
  5
64031
330
458D6
100
AcDbEntity
  8
0
100
AcDb3dPolyline
 66
     1
 10
0.0
 20
0.0
 30
0.0
 70
     8
  0
VERTEX
  5
64032
330
64031
100
AcDbEntity
  8
0
100
AcDbVertex
100
AcDb3dPolylineVertex
 10
0.00521035
 20
0.0265
 30
0.187
 70
    32
  0
VERTEX
  5
64033
330
64031
100
AcDbEntity
  8
0
100
AcDbVertex
100
AcDb3dPolylineVertex
 10
0.00521035
 20
0.0265
 30
1.056999999999999
 70
    32
  0
VERTEX
  5
64034
330
64031
100
AcDbEntity
  8
0
100
AcDbVertex
100
AcDb3dPolylineVertex
 10
0.00521035
 20
-0.1285000000000003
 30
1.056999999999999
 70
    32
  0
VERTEX
  5
64035
330
64031
100
AcDbEntity
  8
0
100
AcDbVertex
100
AcDb3dPolylineVertex
 10
0.00521035
 20
-0.1285000000000003
 30
0.187
 70
    32
  0
SEQEND
  5
64036
330
64031
100
AcDbEntity
  8
0
  0
POLYLINE
  5
64037
330
458D6
100
AcDbEntity
  8
0
100
AcDb3dPolyline
 66
     1
 10
0.0
 20
0.0
 30
0.0
 70
     8
  0
VERTEX
  5
64038
330
64037
100
AcDbEntity
  8
0
100
AcDbVertex
100
AcDb3dPolylineVertex
 10
0.00521035
 20
-1.352499999999999
 30
0.187
 70
    32
  0
VERTEX
  5
64039
330
64037
100
AcDbEntity
  8
0
100
AcDbVertex
100
AcDb3dPolylineVertex
 10
0.00521035
 20
-1.352499999999999
 30
1.056999999999999
 70
    32
  0
VERTEX
  5
6403A
330
64037
100
AcDbEntity
  8
0
100
AcDbVertex
100
AcDb3dPolylineVertex
 10
0.00521035
 20
-1.507499999999999
 30
1.056999999999999
 70
    32
  0
VERTEX
  5
6403B
330
64037
100
AcDbEntity
  8
0
100
AcDbVertex
100
AcDb3dPolylineVertex
 10
0.00521035
 20
-1.507499999999999
 30
0.187
 70
    32
  0
SEQEND
  5
6403C
330
64037
100
AcDbEntity
  8
0
  0
LINE
  5
6403D
330
458D6
100
AcDbEntity
  8
0
100
AcDbLine
 10
1.765210349999999
 20
-1.5675
 30
0.187
 11
1.765210349999999
 21
-1.5675
 31
0.0
  0
LINE
  5
6403E
330
458D6
100
AcDbEntity
  8
0
100
AcDbLine
 10
1.765210349999999
 20
-1.5675
 30
0.0
 11
0.8852103499999998
 21
-1.5675
 31
0.0
  0
POLYLINE
  5
6403F
330
458D6
100
AcDbEntity
  8
0
100
AcDbPolygonMesh
 66
     1
 10
0.0
 20
0.0
 30
0.0
 70
    16
 71
     6
 72
     3
  0
VERTEX
  5
64040
330
6403F
100
AcDbEntity
  8
0
100
AcDbVertex
100
AcDbPolygonMeshVertex
 10
0.8852103500000009
 20
-1.5675
 30
0.187
 70
    64
  0
VERTEX
  5
64041
330
6403F
100
AcDbEntity
  8
0
100
AcDbVertex
100
AcDbPolygonMeshVertex
 10
0.8852103500000009
 20
-1.5675
 30
0.0
 70
    64
  0
VERTEX
  5
64042
330
6403F
100
AcDbEntity
  8
0
100
AcDbVertex
100
AcDbPolygonMeshVertex
 10
0.8852103500000009
 20
-1.5675
 30
0.0
 70
    64
  0
VERTEX
  5
64043
330
6403F
100
AcDbEntity
  8
0
100
AcDbVertex
100
AcDbPolygonMeshVertex
 10
1.765210349999999
 20
-1.5675
 30
0.187
 70
    64
  0
VERTEX
  5
64044
330
6403F
100
AcDbEntity
  8
0
100
AcDbVertex
100
AcDbPolygonMeshVertex
 10
1.765210349999999
 20
-1.5675
 30
0.0
 70
    64
  0
VERTEX
  5
64045
330
6403F
100
AcDbEntity
  8
0
100
AcDbVertex
100
AcDbPolygonMeshVertex
 10
1.765210349999999
 20
-1.5675
 30
0.0
 70
    64
  0
VERTEX
  5
64046
330
6403F
100
AcDbEntity
  8
0
100
AcDbVertex
100
AcDbPolygonMeshVertex
 10
1.765210349999999
 20
-2.165499999999999
 30
0.187
 70
    64
  0
VERTEX
  5
64047
330
6403F
100
AcDbEntity
  8
0
100
AcDbVertex
100
AcDbPolygonMeshVertex
 10
1.765210349999999
 20
-2.165499999999999
 30
0.0
 70
    64
  0
VERTEX
  5
64048
330
6403F
100
AcDbEntity
  8
0
100
AcDbVertex
100
AcDbPolygonMeshVertex
 10
1.765210349999999
 20
-1.5675
 30
0.0
 70
    64
  0
VERTEX
  5
64049
330
6403F
100
AcDbEntity
  8
0
100
AcDbVertex
100
AcDbPolygonMeshVertex
 10
0.8852103500000009
 20
-2.165499999999999
 30
0.187
 70
    64
  0
VERTEX
  5
6404A
330
6403F
100
AcDbEntity
  8
0
100
AcDbVertex
100
AcDbPolygonMeshVertex
 10
0.8852103500000009
 20
-2.165499999999999
 30
0.0
 70
    64
  0
VERTEX
  5
6404B
330
6403F
100
AcDbEntity
  8
0
100
AcDbVertex
100
AcDbPolygonMeshVertex
 10
0.8852103500000009
 20
-1.5675
 30
0.0
 70
    64
  0
VERTEX
  5
6404C
330
6403F
100
AcDbEntity
  8
0
100
AcDbVertex
100
AcDbPolygonMeshVertex
 10
0.8852103500000009
 20
-2.165499999999999
 30
0.187
 70
    64
  0
VERTEX
  5
6404D
330
6403F
100
AcDbEntity
  8
0
100
AcDbVertex
100
AcDbPolygonMeshVertex
 10
0.8852103500000009
 20
-2.165499999999999
 30
0.187
 70
    64
  0
VERTEX
  5
6404E
330
6403F
100
AcDbEntity
  8
0
100
AcDbVertex
100
AcDbPolygonMeshVertex
 10
0.8852103500000009
 20
-1.5675
 30
0.187
 70
    64
  0
VERTEX
  5
6404F
330
6403F
100
AcDbEntity
  8
0
100
AcDbVertex
100
AcDbPolygonMeshVertex
 10
1.765210349999999
 20
-2.165499999999999
 30
0.187
 70
    64
  0
VERTEX
  5
64050
330
6403F
100
AcDbEntity
  8
0
100
AcDbVertex
100
AcDbPolygonMeshVertex
 10
1.765210349999999
 20
-2.165499999999999
 30
0.187
 70
    64
  0
VERTEX
  5
64051
330
6403F
100
AcDbEntity
  8
0
100
AcDbVertex
100
AcDbPolygonMeshVertex
 10
1.765210349999999
 20
-1.5675
 30
0.187
 70
    64
  0
SEQEND
  5
64052
330
6403F
100
AcDbEntity
  8
0
  0
POLYLINE
  5
64053
330
458D6
100
AcDbEntity
  8
0
100
AcDbPolygonMesh
 66
     1
 10
0.0
 20
0.0
 30
0.0
 70
    16
 71
     6
 72
     3
  0
VERTEX
  5
64054
330
64053
100
AcDbEntity
  8
0
100
AcDbVertex
100
AcDbPolygonMeshVertex
 10
0.00521035
 20
0.7185000000000002
 30
0.187
 70
    64
  0
VERTEX
  5
64055
330
64053
100
AcDbEntity
  8
0
100
AcDbVertex
100
AcDbPolygonMeshVertex
 10
0.00521035
 20
0.7185000000000002
 30
0.0
 70
    64
  0
VERTEX
  5
64056
330
64053
100
AcDbEntity
  8
0
100
AcDbVertex
100
AcDbPolygonMeshVertex
 10
0.00521035
 20
0.7185000000000002
 30
0.0
 70
    64
  0
VERTEX
  5
64057
330
64053
100
AcDbEntity
  8
0
100
AcDbVertex
100
AcDbPolygonMeshVertex
 10
0.8852103499999991
 20
0.7185000000000002
 30
0.187
 70
    64
  0
VERTEX
  5
64058
330
64053
100
AcDbEntity
  8
0
100
AcDbVertex
100
AcDbPolygonMeshVertex
 10
0.8852103499999991
 20
0.7185000000000002
 30
0.0
 70
    64
  0
VERTEX
  5
64059
330
64053
100
AcDbEntity
  8
0
100
AcDbVertex
100
AcDbPolygonMeshVertex
 10
0.8852103499999991
 20
0.7185000000000002
 30
0.0
 70
    64
  0
VERTEX
  5
6405A
330
64053
100
AcDbEntity
  8
0
100
AcDbVertex
100
AcDbPolygonMeshVertex
 10
0.8852103499999991
 20
0.1205000000000003
 30
0.187
 70
    64
  0
VERTEX
  5
6405B
330
64053
100
AcDbEntity
  8
0
100
AcDbVertex
100
AcDbPolygonMeshVertex
 10
0.8852103499999991
 20
0.1205000000000003
 30
0.0
 70
    64
  0
VERTEX
  5
6405C
330
64053
100
AcDbEntity
  8
0
100
AcDbVertex
100
AcDbPolygonMeshVertex
 10
0.8852103499999991
 20
0.7185000000000002
 30
0.0
 70
    64
  0
VERTEX
  5
6405D
330
64053
100
AcDbEntity
  8
0
100
AcDbVertex
100
AcDbPolygonMeshVertex
 10
0.00521035
 20
0.1205000000000003
 30
0.187
 70
    64
  0
VERTEX
  5
6405E
330
64053
100
AcDbEntity
  8
0
100
AcDbVertex
100
AcDbPolygonMeshVertex
 10
0.00521035
 20
0.1205000000000003
 30
0.0
 70
    64
  0
VERTEX
  5
6405F
330
64053
100
AcDbEntity
  8
0
100
AcDbVertex
100
AcDbPolygonMeshVertex
 10
0.00521035
 20
0.7185000000000002
 30
0.0
 70
    64
  0
VERTEX
  5
64060
330
64053
100
AcDbEntity
  8
0
100
AcDbVertex
100
AcDbPolygonMeshVertex
 10
0.00521035
 20
0.1205000000000003
 30
0.187
 70
    64
  0
VERTEX
  5
64061
330
64053
100
AcDbEntity
  8
0
100
AcDbVertex
100
AcDbPolygonMeshVertex
 10
0.00521035
 20
0.1205000000000003
 30
0.187
 70
    64
  0
VERTEX
  5
64062
330
64053
100
AcDbEntity
  8
0
100
AcDbVertex
100
AcDbPolygonMeshVertex
 10
0.00521035
 20
0.7185000000000002
 30
0.187
 70
    64
  0
VERTEX
  5
64063
330
64053
100
AcDbEntity
  8
0
100
AcDbVertex
100
AcDbPolygonMeshVertex
 10
0.8852103499999991
 20
0.1205000000000003
 30
0.187
 70
    64
  0
VERTEX
  5
64064
330
64053
100
AcDbEntity
  8
0
100
AcDbVertex
100
AcDbPolygonMeshVertex
 10
0.8852103499999991
 20
0.1205000000000003
 30
0.187
 70
    64
  0
VERTEX
  5
64065
330
64053
100
AcDbEntity
  8
0
100
AcDbVertex
100
AcDbPolygonMeshVertex
 10
0.8852103499999991
 20
0.7185000000000002
 30
0.187
 70
    64
  0
SEQEND
  5
64066
330
64053
100
AcDbEntity
  8
0
  0
LINE
  5
64067
330
458D6
100
AcDbEntity
  8
0
100
AcDbLine
 10
1.765210349999996
 20
-0.8065000000000001
 30
1.8785
 11
1.765210349999996
 21
-0.6404999999999999
 31
1.8785
  0
POLYLINE
  5
64068
330
458D6
100
AcDbEntity
  8
0
100
AcDb3dPolyline
 66
     1
 10
0.0
 20
0.0
 30
0.0
 70
     8
  0
VERTEX
  5
64069
330
64068
100
AcDbEntity
  8
0
100
AcDbVertex
100
AcDb3dPolylineVertex
 10
0.0000000005964589
 20
-0.6404999999999999
 30
1.592
 70
    32
  0
VERTEX
  5
6406A
330
64068
100
AcDbEntity
  8
0
100
AcDbVertex
100
AcDb3dPolylineVertex
 10
0.0000000005964589
 20
-0.6404999999999999
 30
2.165
 70
    32
  0
VERTEX
  5
6406B
330
64068
100
AcDbEntity
  8
0
100
AcDbVertex
100
AcDb3dPolylineVertex
 10
0.0000000005964589
 20
-0.8064999999999997
 30
2.165
 70
    32
  0
VERTEX
  5
6406C
330
64068
100
AcDbEntity
  8
0
100
AcDbVertex
100
AcDb3dPolylineVertex
 10
0.0000000005964589
 20
-0.8065000000000001
 30
1.592
 70
    32
  0
VERTEX
  5
6406D
330
64068
100
AcDbEntity
  8
0
100
AcDbVertex
100
AcDb3dPolylineVertex
 10
0.0000000005964589
 20
-0.6404999999999999
 30
1.592
 70
    32
  0
SEQEND
  5
6406E
330
64068
100
AcDbEntity
  8
0
  0
LINE
  5
6406F
330
458D6
100
AcDbEntity
  8
0
100
AcDbLine
 10
0.0000000005964589
 20
-0.8065000000000001
 30
1.8785
 11
0.0000000005964589
 21
-0.6404999999999999
 31
1.8785
  0
LINE
  5
64070
330
458D6
100
AcDbEntity
  8
0
100
AcDbLine
 10
0.0000000005964589
 20
-0.8065000000000001
 30
2.0685
 11
0.0000000005964589
 21
-0.6404999999999999
 31
2.0685
  0
CIRCLE
  5
64071
330
458D6
100
AcDbEntity
  8
0
100
AcDbCircle
 10
1.571210349999998
 20
0.4255
 30
0.316
 40
0.086
  0
POLYLINE
  5
64072
330
458D6
100
AcDbEntity
  8
0
100
AcDb3dPolyline
 66
     1
 10
0.0
 20
0.0
 30
0.0
 70
     8
  0
VERTEX
  5
64073
330
64072
100
AcDbEntity
  8
0
100
AcDbVertex
100
AcDb3dPolylineVertex
 10
0.550543683333332
 20
0.5215000000000001
 30
0.187
 70
    32
  0
VERTEX
  5
64074
330
64072
100
AcDbEntity
  8
0
100
AcDbVertex
100
AcDb3dPolylineVertex
 10
0.550543683333332
 20
0.6564999999999999
 30
0.187
 70
    32
  0
VERTEX
  5
64075
330
64072
100
AcDbEntity
  8
0
100
AcDbVertex
100
AcDb3dPolylineVertex
 10
0.3398770166666662
 20
0.6564999999999999
 30
0.187
 70
    32
  0
VERTEX
  5
64076
330
64072
100
AcDbEntity
  8
0
100
AcDbVertex
100
AcDb3dPolylineVertex
 10
0.3398770166666662
 20
0.5215000000000001
 30
0.187
 70
    32
  0
SEQEND
  5
64077
330
64072
100
AcDbEntity
  8
0
  0
POLYLINE
  5
64078
330
458D6
100
AcDbEntity
  8
0
100
AcDb3dPolyline
 66
     1
 10
0.0
 20
0.0
 30
0.0
 70
     8
  0
VERTEX
  5
64079
330
64078
100
AcDbEntity
  8
0
100
AcDbVertex
100
AcDb3dPolylineVertex
 10
0.2778770166666659
 20
0.5215000000000001
 30
0.187
 70
    32
  0
VERTEX
  5
6407A
330
64078
100
AcDbEntity
  8
0
100
AcDbVertex
100
AcDb3dPolylineVertex
 10
0.2778770166666659
 20
0.6564999999999999
 30
0.187
 70
    32
  0
VERTEX
  5
6407B
330
64078
100
AcDbEntity
  8
0
100
AcDbVertex
100
AcDb3dPolylineVertex
 10
0.0672103500000003
 20
0.6564999999999999
 30
0.187
 70
    32
  0
VERTEX
  5
6407C
330
64078
100
AcDbEntity
  8
0
100
AcDbVertex
100
AcDb3dPolylineVertex
 10
0.0672103500000003
 20
0.5215000000000001
 30
0.187
 70
    32
  0
SEQEND
  5
6407D
330
64078
100
AcDbEntity
  8
0
  0
POLYLINE
  5
6407E
330
458D6
100
AcDbEntity
  8
0
100
AcDb3dPolyline
 66
     1
 10
0.0
 20
0.0
 30
0.0
 70
     8
  0
VERTEX
  5
6407F
330
6407E
100
AcDbEntity
  8
0
100
AcDbVertex
100
AcDb3dPolylineVertex
 10
0.8232103499999979
 20
0.5215000000000001
 30
0.187
 70
    32
  0
VERTEX
  5
64080
330
6407E
100
AcDbEntity
  8
0
100
AcDbVertex
100
AcDb3dPolylineVertex
 10
0.8232103499999979
 20
0.6564999999999999
 30
0.187
 70
    32
  0
VERTEX
  5
64081
330
6407E
100
AcDbEntity
  8
0
100
AcDbVertex
100
AcDb3dPolylineVertex
 10
0.6125436833333322
 20
0.6564999999999999
 30
0.187
 70
    32
  0
VERTEX
  5
64082
330
6407E
100
AcDbEntity
  8
0
100
AcDbVertex
100
AcDb3dPolylineVertex
 10
0.6125436833333322
 20
0.5215000000000001
 30
0.187
 70
    32
  0
SEQEND
  5
64083
330
6407E
100
AcDbEntity
  8
0
  0
POLYLINE
  5
64084
330
458D6
100
AcDbEntity
  8
0
100
AcDb3dPolyline
 66
     1
 10
0.0
 20
0.0
 30
0.0
 70
     8
  0
VERTEX
  5
64085
330
64084
100
AcDbEntity
  8
0
100
AcDbVertex
100
AcDb3dPolylineVertex
 10
1.492543683333333
 20
-1.9685
 30
0.187
 70
    32
  0
VERTEX
  5
64086
330
64084
100
AcDbEntity
  8
0
100
AcDbVertex
100
AcDb3dPolylineVertex
 10
1.492543683333333
 20
-2.103499999999999
 30
0.187
 70
    32
  0
VERTEX
  5
64087
330
64084
100
AcDbEntity
  8
0
100
AcDbVertex
100
AcDb3dPolylineVertex
 10
1.703210349999998
 20
-2.103499999999999
 30
0.187
 70
    32
  0
VERTEX
  5
64088
330
64084
100
AcDbEntity
  8
0
100
AcDbVertex
100
AcDb3dPolylineVertex
 10
1.703210349999998
 20
-1.9685
 30
0.187
 70
    32
  0
SEQEND
  5
64089
330
64084
100
AcDbEntity
  8
0
  0
POLYLINE
  5
6408A
330
458D6
100
AcDbEntity
  8
0
100
AcDb3dPolyline
 66
     1
 10
0.0
 20
0.0
 30
0.0
 70
     8
  0
VERTEX
  5
6408B
330
6408A
100
AcDbEntity
  8
0
100
AcDbVertex
100
AcDb3dPolylineVertex
 10
1.219877016666667
 20
-1.9685
 30
0.187
 70
    32
  0
VERTEX
  5
6408C
330
6408A
100
AcDbEntity
  8
0
100
AcDbVertex
100
AcDb3dPolylineVertex
 10
1.219877016666667
 20
-2.103499999999999
 30
0.187
 70
    32
  0
VERTEX
  5
6408D
330
6408A
100
AcDbEntity
  8
0
100
AcDbVertex
100
AcDb3dPolylineVertex
 10
1.430543683333332
 20
-2.103499999999999
 30
0.187
 70
    32
  0
VERTEX
  5
6408E
330
6408A
100
AcDbEntity
  8
0
100
AcDbVertex
100
AcDb3dPolylineVertex
 10
1.430543683333332
 20
-1.9685
 30
0.187
 70
    32
  0
SEQEND
  5
6408F
330
6408A
100
AcDbEntity
  8
0
  0
POLYLINE
  5
64090
330
458D6
100
AcDbEntity
  8
0
100
AcDb3dPolyline
 66
     1
 10
0.0
 20
0.0
 30
0.0
 70
     8
  0
VERTEX
  5
64091
330
64090
100
AcDbEntity
  8
0
100
AcDbVertex
100
AcDb3dPolylineVertex
 10
0.947210350000002
 20
-1.9685
 30
0.187
 70
    32
  0
VERTEX
  5
64092
330
64090
100
AcDbEntity
  8
0
100
AcDbVertex
100
AcDb3dPolylineVertex
 10
0.947210350000002
 20
-2.103499999999999
 30
0.187
 70
    32
  0
VERTEX
  5
64093
330
64090
100
AcDbEntity
  8
0
100
AcDbVertex
100
AcDb3dPolylineVertex
 10
1.157877016666666
 20
-2.103499999999999
 30
0.187
 70
    32
  0
VERTEX
  5
64094
330
64090
100
AcDbEntity
  8
0
100
AcDbVertex
100
AcDb3dPolylineVertex
 10
1.157877016666666
 20
-1.9685
 30
0.187
 70
    32
  0
SEQEND
  5
64095
330
64090
100
AcDbEntity
  8
0
  0
CIRCLE
  5
64096
330
458D6
100
AcDbEntity
  8
0
100
AcDbCircle
 10
0.1912103500000008
 20
-1.934499999999999
 30
0.316
 40
0.086
  0
INSERT
  5
64097
330
458D6
100
AcDbEntity
  8
0
 62
     1
100
AcDbBlockReference
  2
AVE_RENDER
 10
-6.627499309116598
 20
-2.735105295632668
 30
0.0
1001
AVE_RENDER
1002
{
1070
     2
1000
Pref
1070
    30
1070
    20
1070
     0
1070
     0
1000

1070
    10
1070
     0
1070
    30
1040
1.0
1070
     1
1040
0.3
1040
0.4
1040
0.76
1040
1.538461538461538
1010
-1.0
1020
-1.0
1030
-1.0
1040
0.3
1070
    49
1002
}
  0
INSERT
  5
64098
330
458D6
100
AcDbEntity
  8
0
 62
     3
100
AcDbBlockReference
  2
AVE_RENDER
 10
-6.627499309116598
 20
-2.735105295632668
 30
0.0
1001
AVE_RENDER
1002
{
1070
     0
1000
Full Opt
1070
     0
1070
     1
1070
     1
1070
     1
1070
     0
1070
     0
1070
     0
1070
     1
1070
     1
1040
0.0001
1040
0.0001
1002
}
  0
INSERT
  5
64099
330
458D6
100
AcDbEntity
  8
0
 62
     4
100
AcDbBlockReference
  2
AVE_RENDER
 10
-6.627499309116598
 20
-2.735105295632668
 30
0.0
1001
AVE_RENDER
1002
{
1070
     0
1000
Quick Opt
1070
     0
1070
     1
1070
     1
1070
     1
1070
     0
1070
     0
1070
     1
1002
}
  0
CIRCLE
  5
6409A
330
458D6
100
AcDbEntity
  8
0
100
AcDbCircle
 10
0.1912103499999999
 20
-1.934499999999999
 30
0.0
 40
0.086
  0
CIRCLE
  5
6409B
330
458D6
100
AcDbEntity
  8
0
100
AcDbCircle
 10
1.571210349999998
 20
0.4255
 30
0.0
 40
0.086
  0
POLYLINE
  5
6409C
330
458D6
100
AcDbEntity
  8
0
100
AcDb3dPolyline
 66
     1
 10
0.0
 20
0.0
 30
0.0
 70
     8
  0
VERTEX
  5
6409D
330
6409C
100
AcDbEntity
  8
0
100
AcDbVertex
100
AcDb3dPolylineVertex
 10
0.947210350000002
 20
-1.9685
 30
-0.0000000000000001
 70
    32
  0
VERTEX
  5
6409E
330
6409C
100
AcDbEntity
  8
0
100
AcDbVertex
100
AcDb3dPolylineVertex
 10
0.947210350000002
 20
-2.103499999999999
 30
0.0
 70
    32
  0
VERTEX
  5
6409F
330
6409C
100
AcDbEntity
  8
0
100
AcDbVertex
100
AcDb3dPolylineVertex
 10
1.157877016666666
 20
-2.103499999999999
 30
0.0
 70
    32
  0
VERTEX
  5
640A0
330
6409C
100
AcDbEntity
  8
0
100
AcDbVertex
100
AcDb3dPolylineVertex
 10
1.157877016666666
 20
-1.9685
 30
-0.0000000000000001
 70
    32
  0
SEQEND
  5
640A1
330
6409C
100
AcDbEntity
  8
0
  0
POLYLINE
  5
640A2
330
458D6
100
AcDbEntity
  8
0
100
AcDb3dPolyline
 66
     1
 10
0.0
 20
0.0
 30
0.0
 70
     8
  0
VERTEX
  5
640A3
330
640A2
100
AcDbEntity
  8
0
100
AcDbVertex
100
AcDb3dPolylineVertex
 10
1.219877016666667
 20
-1.9685
 30
-0.0000000000000001
 70
    32
  0
VERTEX
  5
640A4
330
640A2
100
AcDbEntity
  8
0
100
AcDbVertex
100
AcDb3dPolylineVertex
 10
1.219877016666667
 20
-2.103499999999999
 30
0.0
 70
    32
  0
VERTEX
  5
640A5
330
640A2
100
AcDbEntity
  8
0
100
AcDbVertex
100
AcDb3dPolylineVertex
 10
1.430543683333332
 20
-2.103499999999999
 30
0.0
 70
    32
  0
VERTEX
  5
640A6
330
640A2
100
AcDbEntity
  8
0
100
AcDbVertex
100
AcDb3dPolylineVertex
 10
1.430543683333332
 20
-1.9685
 30
-0.0000000000000001
 70
    32
  0
SEQEND
  5
640A7
330
640A2
100
AcDbEntity
  8
0
  0
POLYLINE
  5
640A8
330
458D6
100
AcDbEntity
  8
0
100
AcDb3dPolyline
 66
     1
 10
0.0
 20
0.0
 30
0.0
 70
     8
  0
VERTEX
  5
640A9
330
640A8
100
AcDbEntity
  8
0
100
AcDbVertex
100
AcDb3dPolylineVertex
 10
1.492543683333333
 20
-1.9685
 30
-0.0000000000000001
 70
    32
  0
VERTEX
  5
640AA
330
640A8
100
AcDbEntity
  8
0
100
AcDbVertex
100
AcDb3dPolylineVertex
 10
1.492543683333333
 20
-2.103499999999999
 30
0.0
 70
    32
  0
VERTEX
  5
640AB
330
640A8
100
AcDbEntity
  8
0
100
AcDbVertex
100
AcDb3dPolylineVertex
 10
1.703210349999998
 20
-2.103499999999999
 30
0.0
 70
    32
  0
VERTEX
  5
640AC
330
640A8
100
AcDbEntity
  8
0
100
AcDbVertex
100
AcDb3dPolylineVertex
 10
1.703210349999998
 20
-1.9685
 30
-0.0000000000000001
 70
    32
  0
SEQEND
  5
640AD
330
640A8
100
AcDbEntity
  8
0
  0
POLYLINE
  5
640AE
330
458D6
100
AcDbEntity
  8
0
100
AcDb3dPolyline
 66
     1
 10
0.0
 20
0.0
 30
0.0
 70
     8
  0
VERTEX
  5
640AF
330
640AE
100
AcDbEntity
  8
0
100
AcDbVertex
100
AcDb3dPolylineVertex
 10
0.8232103499999979
 20
0.5215000000000001
 30
-0.0000000000000001
 70
    32
  0
VERTEX
  5
640B0
330
640AE
100
AcDbEntity
  8
0
100
AcDbVertex
100
AcDb3dPolylineVertex
 10
0.8232103499999979
 20
0.6564999999999999
 30
0.0
 70
    32
  0
VERTEX
  5
640B1
330
640AE
100
AcDbEntity
  8
0
100
AcDbVertex
100
AcDb3dPolylineVertex
 10
0.6125436833333322
 20
0.6564999999999999
 30
0.0
 70
    32
  0
VERTEX
  5
640B2
330
640AE
100
AcDbEntity
  8
0
100
AcDbVertex
100
AcDb3dPolylineVertex
 10
0.6125436833333322
 20
0.5215000000000001
 30
-0.0000000000000001
 70
    32
  0
SEQEND
  5
640B3
330
640AE
100
AcDbEntity
  8
0
  0
POLYLINE
  5
640B4
330
458D6
100
AcDbEntity
  8
0
100
AcDb3dPolyline
 66
     1
 10
0.0
 20
0.0
 30
0.0
 70
     8
  0
VERTEX
  5
640B5
330
640B4
100
AcDbEntity
  8
0
100
AcDbVertex
100
AcDb3dPolylineVertex
 10
0.550543683333332
 20
0.5215000000000001
 30
-0.0000000000000001
 70
    32
  0
VERTEX
  5
640B6
330
640B4
100
AcDbEntity
  8
0
100
AcDbVertex
100
AcDb3dPolylineVertex
 10
0.550543683333332
 20
0.6564999999999999
 30
0.0
 70
    32
  0
VERTEX
  5
640B7
330
640B4
100
AcDbEntity
  8
0
100
AcDbVertex
100
AcDb3dPolylineVertex
 10
0.3398770166666662
 20
0.6564999999999999
 30
0.0
 70
    32
  0
VERTEX
  5
640B8
330
640B4
100
AcDbEntity
  8
0
100
AcDbVertex
100
AcDb3dPolylineVertex
 10
0.3398770166666662
 20
0.5215000000000001
 30
-0.0000000000000001
 70
    32
  0
SEQEND
  5
640B9
330
640B4
100
AcDbEntity
  8
0
  0
POLYLINE
  5
640BA
330
458D6
100
AcDbEntity
  8
0
100
AcDb3dPolyline
 66
     1
 10
0.0
 20
0.0
 30
0.0
 70
     8
  0
VERTEX
  5
640BB
330
640BA
100
AcDbEntity
  8
0
100
AcDbVertex
100
AcDb3dPolylineVertex
 10
0.2778770166666659
 20
0.5215000000000001
 30
-0.0000000000000001
 70
    32
  0
VERTEX
  5
640BC
330
640BA
100
AcDbEntity
  8
0
100
AcDbVertex
100
AcDb3dPolylineVertex
 10
0.2778770166666659
 20
0.6564999999999999
 30
0.0
 70
    32
  0
VERTEX
  5
640BD
330
640BA
100
AcDbEntity
  8
0
100
AcDbVertex
100
AcDb3dPolylineVertex
 10
0.0672103500000003
 20
0.6564999999999999
 30
0.0
 70
    32
  0
VERTEX
  5
640BE
330
640BA
100
AcDbEntity
  8
0
100
AcDbVertex
100
AcDb3dPolylineVertex
 10
0.0672103500000003
 20
0.5215000000000001
 30
-0.0000000000000001
 70
    32
  0
SEQEND
  5
640BF
330
640BA
100
AcDbEntity
  8
0
  0
LINE
  5
640C0
330
458D6
100
AcDbEntity
  8
0
100
AcDbLine
 10
1.703210349999998
 20
-1.9685
 30
-0.0000000000000001
 11
1.492543683333333
 21
-1.9685
 31
-0.0000000000000001
  0
LINE
  5
640C1
330
458D6
100
AcDbEntity
  8
0
100
AcDbLine
 10
1.430543683333332
 20
-1.9685
 30
-0.0000000000000001
 11
1.219877016666667
 21
-1.9685
 31
-0.0000000000000001
  0
LINE
  5
640C2
330
458D6
100
AcDbEntity
  8
0
100
AcDbLine
 10
1.157877016666666
 20
-1.9685
 30
-0.0000000000000001
 11
0.947210350000002
 21
-1.9685
 31
-0.0000000000000001
  0
LINE
  5
640C3
330
458D6
100
AcDbEntity
  8
0
100
AcDbLine
 10
0.8232103499999979
 20
0.5215000000000001
 30
-0.0000000000000001
 11
0.6125436833333322
 21
0.5215000000000001
 31
-0.0000000000000001
  0
LINE
  5
640C4
330
458D6
100
AcDbEntity
  8
0
100
AcDbLine
 10
0.550543683333332
 20
0.5215000000000001
 30
-0.0000000000000001
 11
0.3398770166666662
 21
0.5215000000000001
 31
-0.0000000000000001
  0
LINE
  5
640C5
330
458D6
100
AcDbEntity
  8
0
100
AcDbLine
 10
0.2778770166666659
 20
0.5215000000000001
 30
-0.0000000000000001
 11
0.0672103500000003
 21
0.5215000000000001
 31
-0.0000000000000001
  0
POLYLINE
  5
640C6
330
458D6
100
AcDbEntity
  8
0
100
AcDbPolygonMesh
 66
     1
 10
0.0
 20
0.0
 30
0.0
 70
    16
 71
     6
 72
     3
  0
VERTEX
  5
640C7
330
640C6
100
AcDbEntity
  8
0
100
AcDbVertex
100
AcDbPolygonMeshVertex
 10
0.90571035
 20
-1.985499999999999
 30
2.929
 70
    64
  0
VERTEX
  5
640C8
330
640C6
100
AcDbEntity
  8
0
100
AcDbVertex
100
AcDbPolygonMeshVertex
 10
0.90571035
 20
-1.985499999999999
 30
2.319
 70
    64
  0
VERTEX
  5
640C9
330
640C6
100
AcDbEntity
  8
0
100
AcDbVertex
100
AcDbPolygonMeshVertex
 10
0.90571035
 20
-1.985499999999999
 30
2.319
 70
    64
  0
VERTEX
  5
640CA
330
640C6
100
AcDbEntity
  8
0
100
AcDbVertex
100
AcDbPolygonMeshVertex
 10
0.8597103499999999
 20
-1.985499999999999
 30
2.929
 70
    64
  0
VERTEX
  5
640CB
330
640C6
100
AcDbEntity
  8
0
100
AcDbVertex
100
AcDbPolygonMeshVertex
 10
0.8597103499999999
 20
-1.985499999999999
 30
2.319
 70
    64
  0
VERTEX
  5
640CC
330
640C6
100
AcDbEntity
  8
0
100
AcDbVertex
100
AcDbPolygonMeshVertex
 10
0.8597103499999999
 20
-1.985499999999999
 30
2.319
 70
    64
  0
VERTEX
  5
640CD
330
640C6
100
AcDbEntity
  8
0
100
AcDbVertex
100
AcDbPolygonMeshVertex
 10
0.8597103499999999
 20
-1.845499999999999
 30
2.929
 70
    64
  0
VERTEX
  5
640CE
330
640C6
100
AcDbEntity
  8
0
100
AcDbVertex
100
AcDbPolygonMeshVertex
 10
0.8597103499999999
 20
-1.845499999999999
 30
2.319
 70
    64
  0
VERTEX
  5
640CF
330
640C6
100
AcDbEntity
  8
0
100
AcDbVertex
100
AcDbPolygonMeshVertex
 10
0.8597103499999999
 20
-1.985499999999999
 30
2.319
 70
    64
  0
VERTEX
  5
640D0
330
640C6
100
AcDbEntity
  8
0
100
AcDbVertex
100
AcDbPolygonMeshVertex
 10
0.90571035
 20
-1.845499999999999
 30
2.929
 70
    64
  0
VERTEX
  5
640D1
330
640C6
100
AcDbEntity
  8
0
100
AcDbVertex
100
AcDbPolygonMeshVertex
 10
0.90571035
 20
-1.845499999999999
 30
2.319
 70
    64
  0
VERTEX
  5
640D2
330
640C6
100
AcDbEntity
  8
0
100
AcDbVertex
100
AcDbPolygonMeshVertex
 10
0.90571035
 20
-1.985499999999999
 30
2.319
 70
    64
  0
VERTEX
  5
640D3
330
640C6
100
AcDbEntity
  8
0
100
AcDbVertex
100
AcDbPolygonMeshVertex
 10
0.90571035
 20
-1.845499999999999
 30
2.929
 70
    64
  0
VERTEX
  5
640D4
330
640C6
100
AcDbEntity
  8
0
100
AcDbVertex
100
AcDbPolygonMeshVertex
 10
0.90571035
 20
-1.845499999999999
 30
2.929
 70
    64
  0
VERTEX
  5
640D5
330
640C6
100
AcDbEntity
  8
0
100
AcDbVertex
100
AcDbPolygonMeshVertex
 10
0.90571035
 20
-1.985499999999999
 30
2.929
 70
    64
  0
VERTEX
  5
640D6
330
640C6
100
AcDbEntity
  8
0
100
AcDbVertex
100
AcDbPolygonMeshVertex
 10
0.8597103499999999
 20
-1.845499999999999
 30
2.929
 70
    64
  0
VERTEX
  5
640D7
330
640C6
100
AcDbEntity
  8
0
100
AcDbVertex
100
AcDbPolygonMeshVertex
 10
0.8597103499999999
 20
-1.845499999999999
 30
2.929
 70
    64
  0
VERTEX
  5
640D8
330
640C6
100
AcDbEntity
  8
0
100
AcDbVertex
100
AcDbPolygonMeshVertex
 10
0.8597103499999999
 20
-1.985499999999999
 30
2.929
 70
    64
  0
SEQEND
  5
640D9
330
640C6
100
AcDbEntity
  8
0
  0
POLYLINE
  5
640DA
330
458D6
100
AcDbEntity
  8
0
100
AcDbPolygonMesh
 66
     1
 10
0.0
 20
0.0
 30
0.0
 70
    16
 71
     6
 72
     3
  0
VERTEX
  5
640DB
330
640DA
100
AcDbEntity
  8
0
100
AcDbVertex
100
AcDbPolygonMeshVertex
 10
1.335460349999999
 20
-1.985499999999999
 30
2.929
 70
    64
  0
VERTEX
  5
640DC
330
640DA
100
AcDbEntity
  8
0
100
AcDbVertex
100
AcDbPolygonMeshVertex
 10
1.335460349999999
 20
-1.985499999999999
 30
2.319
 70
    64
  0
VERTEX
  5
640DD
330
640DA
100
AcDbEntity
  8
0
100
AcDbVertex
100
AcDbPolygonMeshVertex
 10
1.335460349999999
 20
-1.985499999999999
 30
2.319
 70
    64
  0
VERTEX
  5
640DE
330
640DA
100
AcDbEntity
  8
0
100
AcDbVertex
100
AcDbPolygonMeshVertex
 10
1.28946035
 20
-1.985499999999999
 30
2.929
 70
    64
  0
VERTEX
  5
640DF
330
640DA
100
AcDbEntity
  8
0
100
AcDbVertex
100
AcDbPolygonMeshVertex
 10
1.28946035
 20
-1.985499999999999
 30
2.319
 70
    64
  0
VERTEX
  5
640E0
330
640DA
100
AcDbEntity
  8
0
100
AcDbVertex
100
AcDbPolygonMeshVertex
 10
1.28946035
 20
-1.985499999999999
 30
2.319
 70
    64
  0
VERTEX
  5
640E1
330
640DA
100
AcDbEntity
  8
0
100
AcDbVertex
100
AcDbPolygonMeshVertex
 10
1.28946035
 20
-1.845499999999999
 30
2.929
 70
    64
  0
VERTEX
  5
640E2
330
640DA
100
AcDbEntity
  8
0
100
AcDbVertex
100
AcDbPolygonMeshVertex
 10
1.28946035
 20
-1.845499999999999
 30
2.319
 70
    64
  0
VERTEX
  5
640E3
330
640DA
100
AcDbEntity
  8
0
100
AcDbVertex
100
AcDbPolygonMeshVertex
 10
1.28946035
 20
-1.985499999999999
 30
2.319
 70
    64
  0
VERTEX
  5
640E4
330
640DA
100
AcDbEntity
  8
0
100
AcDbVertex
100
AcDbPolygonMeshVertex
 10
1.335460349999999
 20
-1.845499999999999
 30
2.929
 70
    64
  0
VERTEX
  5
640E5
330
640DA
100
AcDbEntity
  8
0
100
AcDbVertex
100
AcDbPolygonMeshVertex
 10
1.335460349999999
 20
-1.845499999999999
 30
2.319
 70
    64
  0
VERTEX
  5
640E6
330
640DA
100
AcDbEntity
  8
0
100
AcDbVertex
100
AcDbPolygonMeshVertex
 10
1.335460349999999
 20
-1.985499999999999
 30
2.319
 70
    64
  0
VERTEX
  5
640E7
330
640DA
100
AcDbEntity
  8
0
100
AcDbVertex
100
AcDbPolygonMeshVertex
 10
1.335460349999999
 20
-1.845499999999999
 30
2.929
 70
    64
  0
VERTEX
  5
640E8
330
640DA
100
AcDbEntity
  8
0
100
AcDbVertex
100
AcDbPolygonMeshVertex
 10
1.335460349999999
 20
-1.845499999999999
 30
2.929
 70
    64
  0
VERTEX
  5
640E9
330
640DA
100
AcDbEntity
  8
0
100
AcDbVertex
100
AcDbPolygonMeshVertex
 10
1.335460349999999
 20
-1.985499999999999
 30
2.929
 70
    64
  0
VERTEX
  5
640EA
330
640DA
100
AcDbEntity
  8
0
100
AcDbVertex
100
AcDbPolygonMeshVertex
 10
1.28946035
 20
-1.845499999999999
 30
2.929
 70
    64
  0
VERTEX
  5
640EB
330
640DA
100
AcDbEntity
  8
0
100
AcDbVertex
100
AcDbPolygonMeshVertex
 10
1.28946035
 20
-1.845499999999999
 30
2.929
 70
    64
  0
VERTEX
  5
640EC
330
640DA
100
AcDbEntity
  8
0
100
AcDbVertex
100
AcDbPolygonMeshVertex
 10
1.28946035
 20
-1.985499999999999
 30
2.929
 70
    64
  0
SEQEND
  5
640ED
330
640DA
100
AcDbEntity
  8
0
  0
POLYLINE
  5
640EE
330
458D6
100
AcDbEntity
  8
0
100
AcDbPolygonMesh
 66
     1
 10
0.0
 20
0.0
 30
0.0
 70
    16
 71
     6
 72
     3
  0
VERTEX
  5
640EF
330
640EE
100
AcDbEntity
  8
0
100
AcDbVertex
100
AcDbPolygonMeshVertex
 10
1.719210349999999
 20
-2.057499999999999
 30
2.319
 70
    64
  0
VERTEX
  5
640F0
330
640EE
100
AcDbEntity
  8
0
100
AcDbVertex
100
AcDbPolygonMeshVertex
 10
1.719210349999999
 20
-2.057499999999999
 30
2.06
 70
    64
  0
VERTEX
  5
640F1
330
640EE
100
AcDbEntity
  8
0
100
AcDbVertex
100
AcDbPolygonMeshVertex
 10
1.719210349999999
 20
-2.057499999999999
 30
2.06
 70
    64
  0
VERTEX
  5
640F2
330
640EE
100
AcDbEntity
  8
0
100
AcDbVertex
100
AcDbPolygonMeshVertex
 10
0.0462103499999999
 20
-2.057499999999999
 30
2.319
 70
    64
  0
VERTEX
  5
640F3
330
640EE
100
AcDbEntity
  8
0
100
AcDbVertex
100
AcDbPolygonMeshVertex
 10
0.0462103499999999
 20
-2.057499999999999
 30
2.06
 70
    64
  0
VERTEX
  5
640F4
330
640EE
100
AcDbEntity
  8
0
100
AcDbVertex
100
AcDbPolygonMeshVertex
 10
0.0462103499999999
 20
-2.057499999999999
 30
2.06
 70
    64
  0
VERTEX
  5
640F5
330
640EE
100
AcDbEntity
  8
0
100
AcDbVertex
100
AcDbPolygonMeshVertex
 10
0.0462103499999999
 20
-1.845499999999999
 30
2.319
 70
    64
  0
VERTEX
  5
640F6
330
640EE
100
AcDbEntity
  8
0
100
AcDbVertex
100
AcDbPolygonMeshVertex
 10
0.0462103499999999
 20
-1.845499999999999
 30
2.06
 70
    64
  0
VERTEX
  5
640F7
330
640EE
100
AcDbEntity
  8
0
100
AcDbVertex
100
AcDbPolygonMeshVertex
 10
0.0462103499999999
 20
-2.057499999999999
 30
2.06
 70
    64
  0
VERTEX
  5
640F8
330
640EE
100
AcDbEntity
  8
0
100
AcDbVertex
100
AcDbPolygonMeshVertex
 10
1.719210349999999
 20
-1.845499999999999
 30
2.319
 70
    64
  0
VERTEX
  5
640F9
330
640EE
100
AcDbEntity
  8
0
100
AcDbVertex
100
AcDbPolygonMeshVertex
 10
1.719210349999999
 20
-1.845499999999999
 30
2.06
 70
    64
  0
VERTEX
  5
640FA
330
640EE
100
AcDbEntity
  8
0
100
AcDbVertex
100
AcDbPolygonMeshVertex
 10
1.719210349999999
 20
-2.057499999999999
 30
2.06
 70
    64
  0
VERTEX
  5
640FB
330
640EE
100
AcDbEntity
  8
0
100
AcDbVertex
100
AcDbPolygonMeshVertex
 10
1.719210349999999
 20
-1.845499999999999
 30
2.319
 70
    64
  0
VERTEX
  5
640FC
330
640EE
100
AcDbEntity
  8
0
100
AcDbVertex
100
AcDbPolygonMeshVertex
 10
1.719210349999999
 20
-1.845499999999999
 30
2.319
 70
    64
  0
VERTEX
  5
640FD
330
640EE
100
AcDbEntity
  8
0
100
AcDbVertex
100
AcDbPolygonMeshVertex
 10
1.719210349999999
 20
-2.057499999999999
 30
2.319
 70
    64
  0
VERTEX
  5
640FE
330
640EE
100
AcDbEntity
  8
0
100
AcDbVertex
100
AcDbPolygonMeshVertex
 10
0.0462103499999999
 20
-1.845499999999999
 30
2.319
 70
    64
  0
VERTEX
  5
640FF
330
640EE
100
AcDbEntity
  8
0
100
AcDbVertex
100
AcDbPolygonMeshVertex
 10
0.0462103499999999
 20
-1.845499999999999
 30
2.319
 70
    64
  0
VERTEX
  5
64100
330
640EE
100
AcDbEntity
  8
0
100
AcDbVertex
100
AcDbPolygonMeshVertex
 10
0.0462103499999999
 20
-2.057499999999999
 30
2.319
 70
    64
  0
SEQEND
  5
64101
330
640EE
100
AcDbEntity
  8
0
  0
POLYLINE
  5
64102
330
458D6
100
AcDbEntity
  8
0
100
AcDbPolygonMesh
 66
     1
 10
0.0
 20
0.0
 30
0.0
 70
    16
 71
     6
 72
     3
  0
VERTEX
  5
64103
330
64102
100
AcDbEntity
  8
0
100
AcDbVertex
100
AcDbPolygonMeshVertex
 10
1.765210349999999
 20
-1.9685
 30
2.06
 70
    64
  0
VERTEX
  5
64104
330
64102
100
AcDbEntity
  8
0
100
AcDbVertex
100
AcDbPolygonMeshVertex
 10
1.765210349999999
 20
-1.9685
 30
1.318
 70
    64
  0
VERTEX
  5
64105
330
64102
100
AcDbEntity
  8
0
100
AcDbVertex
100
AcDbPolygonMeshVertex
 10
1.765210349999999
 20
-1.9685
 30
1.318
 70
    64
  0
VERTEX
  5
64106
330
64102
100
AcDbEntity
  8
0
100
AcDbVertex
100
AcDbPolygonMeshVertex
 10
0.0002103500000001
 20
-1.9685
 30
2.06
 70
    64
  0
VERTEX
  5
64107
330
64102
100
AcDbEntity
  8
0
100
AcDbVertex
100
AcDbPolygonMeshVertex
 10
0.0002103500000001
 20
-1.9685
 30
1.318
 70
    64
  0
VERTEX
  5
64108
330
64102
100
AcDbEntity
  8
0
100
AcDbVertex
100
AcDbPolygonMeshVertex
 10
0.0002103500000001
 20
-1.9685
 30
1.318
 70
    64
  0
VERTEX
  5
64109
330
64102
100
AcDbEntity
  8
0
100
AcDbVertex
100
AcDbPolygonMeshVertex
 10
0.0002103500000001
 20
0.5215000000000001
 30
2.06
 70
    64
  0
VERTEX
  5
6410A
330
64102
100
AcDbEntity
  8
0
100
AcDbVertex
100
AcDbPolygonMeshVertex
 10
0.0002103500000001
 20
0.5215000000000001
 30
1.318
 70
    64
  0
VERTEX
  5
6410B
330
64102
100
AcDbEntity
  8
0
100
AcDbVertex
100
AcDbPolygonMeshVertex
 10
0.0002103500000001
 20
-1.9685
 30
1.318
 70
    64
  0
VERTEX
  5
6410C
330
64102
100
AcDbEntity
  8
0
100
AcDbVertex
100
AcDbPolygonMeshVertex
 10
1.765210349999999
 20
0.5215000000000001
 30
2.06
 70
    64
  0
VERTEX
  5
6410D
330
64102
100
AcDbEntity
  8
0
100
AcDbVertex
100
AcDbPolygonMeshVertex
 10
1.765210349999999
 20
0.5215000000000001
 30
1.318
 70
    64
  0
VERTEX
  5
6410E
330
64102
100
AcDbEntity
  8
0
100
AcDbVertex
100
AcDbPolygonMeshVertex
 10
1.765210349999999
 20
-1.9685
 30
1.318
 70
    64
  0
VERTEX
  5
6410F
330
64102
100
AcDbEntity
  8
0
100
AcDbVertex
100
AcDbPolygonMeshVertex
 10
1.765210349999999
 20
0.5215000000000001
 30
2.06
 70
    64
  0
VERTEX
  5
64110
330
64102
100
AcDbEntity
  8
0
100
AcDbVertex
100
AcDbPolygonMeshVertex
 10
1.765210349999999
 20
0.5215000000000001
 30
2.06
 70
    64
  0
VERTEX
  5
64111
330
64102
100
AcDbEntity
  8
0
100
AcDbVertex
100
AcDbPolygonMeshVertex
 10
1.765210349999999
 20
-1.9685
 30
2.06
 70
    64
  0
VERTEX
  5
64112
330
64102
100
AcDbEntity
  8
0
100
AcDbVertex
100
AcDbPolygonMeshVertex
 10
0.0002103500000001
 20
0.5215000000000001
 30
2.06
 70
    64
  0
VERTEX
  5
64113
330
64102
100
AcDbEntity
  8
0
100
AcDbVertex
100
AcDbPolygonMeshVertex
 10
0.0002103500000001
 20
0.5215000000000001
 30
2.06
 70
    64
  0
VERTEX
  5
64114
330
64102
100
AcDbEntity
  8
0
100
AcDbVertex
100
AcDbPolygonMeshVertex
 10
0.0002103500000001
 20
-1.9685
 30
2.06
 70
    64
  0
SEQEND
  5
64115
330
64102
100
AcDbEntity
  8
0
  0
POLYLINE
  5
64116
330
458D6
100
AcDbEntity
  8
0
100
AcDbPolygonMesh
 66
     1
 10
0.0
 20
0.0
 30
0.0
 70
    16
 71
     6
 72
     3
  0
VERTEX
  5
64117
330
64116
100
AcDbEntity
  8
0
100
AcDbVertex
100
AcDbPolygonMeshVertex
 10
0.4299603499999999
 20
-1.985499999999999
 30
2.929
 70
    64
  0
VERTEX
  5
64118
330
64116
100
AcDbEntity
  8
0
100
AcDbVertex
100
AcDbPolygonMeshVertex
 10
0.4299603499999999
 20
-1.985499999999999
 30
2.319
 70
    64
  0
VERTEX
  5
64119
330
64116
100
AcDbEntity
  8
0
100
AcDbVertex
100
AcDbPolygonMeshVertex
 10
0.4299603499999999
 20
-1.985499999999999
 30
2.319
 70
    64
  0
VERTEX
  5
6411A
330
64116
100
AcDbEntity
  8
0
100
AcDbVertex
100
AcDbPolygonMeshVertex
 10
0.4759603499999998
 20
-1.985499999999999
 30
2.929
 70
    64
  0
VERTEX
  5
6411B
330
64116
100
AcDbEntity
  8
0
100
AcDbVertex
100
AcDbPolygonMeshVertex
 10
0.4759603499999998
 20
-1.985499999999999
 30
2.319
 70
    64
  0
VERTEX
  5
6411C
330
64116
100
AcDbEntity
  8
0
100
AcDbVertex
100
AcDbPolygonMeshVertex
 10
0.4759603499999998
 20
-1.985499999999999
 30
2.319
 70
    64
  0
VERTEX
  5
6411D
330
64116
100
AcDbEntity
  8
0
100
AcDbVertex
100
AcDbPolygonMeshVertex
 10
0.4759603499999998
 20
-1.845499999999999
 30
2.929
 70
    64
  0
VERTEX
  5
6411E
330
64116
100
AcDbEntity
  8
0
100
AcDbVertex
100
AcDbPolygonMeshVertex
 10
0.4759603499999998
 20
-1.845499999999999
 30
2.319
 70
    64
  0
VERTEX
  5
6411F
330
64116
100
AcDbEntity
  8
0
100
AcDbVertex
100
AcDbPolygonMeshVertex
 10
0.4759603499999998
 20
-1.985499999999999
 30
2.319
 70
    64
  0
VERTEX
  5
64120
330
64116
100
AcDbEntity
  8
0
100
AcDbVertex
100
AcDbPolygonMeshVertex
 10
0.4299603499999999
 20
-1.845499999999999
 30
2.929
 70
    64
  0
VERTEX
  5
64121
330
64116
100
AcDbEntity
  8
0
100
AcDbVertex
100
AcDbPolygonMeshVertex
 10
0.4299603499999999
 20
-1.845499999999999
 30
2.319
 70
    64
  0
VERTEX
  5
64122
330
64116
100
AcDbEntity
  8
0
100
AcDbVertex
100
AcDbPolygonMeshVertex
 10
0.4299603499999999
 20
-1.985499999999999
 30
2.319
 70
    64
  0
VERTEX
  5
64123
330
64116
100
AcDbEntity
  8
0
100
AcDbVertex
100
AcDbPolygonMeshVertex
 10
0.4299603499999999
 20
-1.845499999999999
 30
2.929
 70
    64
  0
VERTEX
  5
64124
330
64116
100
AcDbEntity
  8
0
100
AcDbVertex
100
AcDbPolygonMeshVertex
 10
0.4299603499999999
 20
-1.845499999999999
 30
2.929
 70
    64
  0
VERTEX
  5
64125
330
64116
100
AcDbEntity
  8
0
100
AcDbVertex
100
AcDbPolygonMeshVertex
 10
0.4299603499999999
 20
-1.985499999999999
 30
2.929
 70
    64
  0
VERTEX
  5
64126
330
64116
100
AcDbEntity
  8
0
100
AcDbVertex
100
AcDbPolygonMeshVertex
 10
0.4759603499999998
 20
-1.845499999999999
 30
2.929
 70
    64
  0
VERTEX
  5
64127
330
64116
100
AcDbEntity
  8
0
100
AcDbVertex
100
AcDbPolygonMeshVertex
 10
0.4759603499999998
 20
-1.845499999999999
 30
2.929
 70
    64
  0
VERTEX
  5
64128
330
64116
100
AcDbEntity
  8
0
100
AcDbVertex
100
AcDbPolygonMeshVertex
 10
0.4759603499999998
 20
-1.985499999999999
 30
2.929
 70
    64
  0
SEQEND
  5
64129
330
64116
100
AcDbEntity
  8
0
  0
LINE
  5
6412A
330
458D6
100
AcDbEntity
  8
0
100
AcDbLine
 10
0.90571035
 20
-1.845499999999999
 30
2.646
 11
1.28946035
 21
-1.845499999999999
 31
2.646
  0
LINE
  5
6412B
330
458D6
100
AcDbEntity
  8
0
100
AcDbLine
 10
1.335460349999999
 20
-1.845499999999999
 30
2.646
 11
1.719210349999999
 21
-1.845499999999999
 31
2.646
  0
LINE
  5
6412C
330
458D6
100
AcDbEntity
  8
0
100
AcDbLine
 10
0.4759603499999998
 20
-1.845499999999999
 30
2.646
 11
0.8597103499999999
 21
-1.845499999999999
 31
2.646
  0
LINE
  5
6412D
330
458D6
100
AcDbEntity
  8
0
100
AcDbLine
 10
0.0462103500000004
 20
-1.845499999999999
 30
2.646
 11
0.4299603499999999
 21
-1.845499999999999
 31
2.646
  0
POLYLINE
  5
6412E
330
458D6
100
AcDbEntity
  8
0
100
AcDbPolygonMesh
 66
     1
 10
0.0
 20
0.0
 30
0.0
 70
    16
 71
     6
 72
     3
  0
VERTEX
  5
6412F
330
6412E
100
AcDbEntity
  8
0
100
AcDbVertex
100
AcDbPolygonMeshVertex
 10
0.0462103499999999
 20
-1.985499999999999
 30
2.929
 70
    64
  0
VERTEX
  5
64130
330
6412E
100
AcDbEntity
  8
0
100
AcDbVertex
100
AcDbPolygonMeshVertex
 10
0.0462103499999999
 20
-1.985499999999999
 30
2.06
 70
    64
  0
VERTEX
  5
64131
330
6412E
100
AcDbEntity
  8
0
100
AcDbVertex
100
AcDbPolygonMeshVertex
 10
0.0462103499999999
 20
-1.985499999999999
 30
2.06
 70
    64
  0
VERTEX
  5
64132
330
6412E
100
AcDbEntity
  8
0
100
AcDbVertex
100
AcDbPolygonMeshVertex
 10
0.0002103500000001
 20
-1.985499999999999
 30
2.929
 70
    64
  0
VERTEX
  5
64133
330
6412E
100
AcDbEntity
  8
0
100
AcDbVertex
100
AcDbPolygonMeshVertex
 10
0.0002103500000001
 20
-1.985499999999999
 30
2.06
 70
    64
  0
VERTEX
  5
64134
330
6412E
100
AcDbEntity
  8
0
100
AcDbVertex
100
AcDbPolygonMeshVertex
 10
0.0002103500000001
 20
-1.985499999999999
 30
2.06
 70
    64
  0
VERTEX
  5
64135
330
6412E
100
AcDbEntity
  8
0
100
AcDbVertex
100
AcDbPolygonMeshVertex
 10
0.0002103500000001
 20
-1.845499999999999
 30
2.929
 70
    64
  0
VERTEX
  5
64136
330
6412E
100
AcDbEntity
  8
0
100
AcDbVertex
100
AcDbPolygonMeshVertex
 10
0.0002103500000001
 20
-1.845499999999999
 30
2.06
 70
    64
  0
VERTEX
  5
64137
330
6412E
100
AcDbEntity
  8
0
100
AcDbVertex
100
AcDbPolygonMeshVertex
 10
0.0002103500000001
 20
-1.985499999999999
 30
2.06
 70
    64
  0
VERTEX
  5
64138
330
6412E
100
AcDbEntity
  8
0
100
AcDbVertex
100
AcDbPolygonMeshVertex
 10
0.0462103499999999
 20
-1.845499999999999
 30
2.929
 70
    64
  0
VERTEX
  5
64139
330
6412E
100
AcDbEntity
  8
0
100
AcDbVertex
100
AcDbPolygonMeshVertex
 10
0.0462103499999999
 20
-1.845499999999999
 30
2.06
 70
    64
  0
VERTEX
  5
6413A
330
6412E
100
AcDbEntity
  8
0
100
AcDbVertex
100
AcDbPolygonMeshVertex
 10
0.0462103499999999
 20
-1.985499999999999
 30
2.06
 70
    64
  0
VERTEX
  5
6413B
330
6412E
100
AcDbEntity
  8
0
100
AcDbVertex
100
AcDbPolygonMeshVertex
 10
0.0462103499999999
 20
-1.845499999999999
 30
2.929
 70
    64
  0
VERTEX
  5
6413C
330
6412E
100
AcDbEntity
  8
0
100
AcDbVertex
100
AcDbPolygonMeshVertex
 10
0.0462103499999999
 20
-1.845499999999999
 30
2.929
 70
    64
  0
VERTEX
  5
6413D
330
6412E
100
AcDbEntity
  8
0
100
AcDbVertex
100
AcDbPolygonMeshVertex
 10
0.0462103499999999
 20
-1.985499999999999
 30
2.929
 70
    64
  0
VERTEX
  5
6413E
330
6412E
100
AcDbEntity
  8
0
100
AcDbVertex
100
AcDbPolygonMeshVertex
 10
0.0002103500000001
 20
-1.845499999999999
 30
2.929
 70
    64
  0
VERTEX
  5
6413F
330
6412E
100
AcDbEntity
  8
0
100
AcDbVertex
100
AcDbPolygonMeshVertex
 10
0.0002103500000001
 20
-1.845499999999999
 30
2.929
 70
    64
  0
VERTEX
  5
64140
330
6412E
100
AcDbEntity
  8
0
100
AcDbVertex
100
AcDbPolygonMeshVertex
 10
0.0002103500000001
 20
-1.985499999999999
 30
2.929
 70
    64
  0
SEQEND
  5
64141
330
6412E
100
AcDbEntity
  8
0
  0
POLYLINE
  5
64142
330
458D6
100
AcDbEntity
  8
0
100
AcDbPolygonMesh
 66
     1
 10
0.0
 20
0.0
 30
0.0
 70
    16
 71
     6
 72
     3
  0
VERTEX
  5
64143
330
64142
100
AcDbEntity
  8
0
100
AcDbVertex
100
AcDbPolygonMeshVertex
 10
1.765210349999999
 20
-1.985499999999999
 30
2.929
 70
    64
  0
VERTEX
  5
64144
330
64142
100
AcDbEntity
  8
0
100
AcDbVertex
100
AcDbPolygonMeshVertex
 10
1.765210349999999
 20
-1.985499999999999
 30
2.06
 70
    64
  0
VERTEX
  5
64145
330
64142
100
AcDbEntity
  8
0
100
AcDbVertex
100
AcDbPolygonMeshVertex
 10
1.765210349999999
 20
-1.985499999999999
 30
2.06
 70
    64
  0
VERTEX
  5
64146
330
64142
100
AcDbEntity
  8
0
100
AcDbVertex
100
AcDbPolygonMeshVertex
 10
1.719210349999999
 20
-1.985499999999999
 30
2.929
 70
    64
  0
VERTEX
  5
64147
330
64142
100
AcDbEntity
  8
0
100
AcDbVertex
100
AcDbPolygonMeshVertex
 10
1.719210349999999
 20
-1.985499999999999
 30
2.06
 70
    64
  0
VERTEX
  5
64148
330
64142
100
AcDbEntity
  8
0
100
AcDbVertex
100
AcDbPolygonMeshVertex
 10
1.719210349999999
 20
-1.985499999999999
 30
2.06
 70
    64
  0
VERTEX
  5
64149
330
64142
100
AcDbEntity
  8
0
100
AcDbVertex
100
AcDbPolygonMeshVertex
 10
1.719210349999999
 20
-1.845499999999999
 30
2.929
 70
    64
  0
VERTEX
  5
6414A
330
64142
100
AcDbEntity
  8
0
100
AcDbVertex
100
AcDbPolygonMeshVertex
 10
1.719210349999999
 20
-1.845499999999999
 30
2.06
 70
    64
  0
VERTEX
  5
6414B
330
64142
100
AcDbEntity
  8
0
100
AcDbVertex
100
AcDbPolygonMeshVertex
 10
1.719210349999999
 20
-1.985499999999999
 30
2.06
 70
    64
  0
VERTEX
  5
6414C
330
64142
100
AcDbEntity
  8
0
100
AcDbVertex
100
AcDbPolygonMeshVertex
 10
1.765210349999999
 20
-1.845499999999999
 30
2.929
 70
    64
  0
VERTEX
  5
6414D
330
64142
100
AcDbEntity
  8
0
100
AcDbVertex
100
AcDbPolygonMeshVertex
 10
1.765210349999999
 20
-1.845499999999999
 30
2.06
 70
    64
  0
VERTEX
  5
6414E
330
64142
100
AcDbEntity
  8
0
100
AcDbVertex
100
AcDbPolygonMeshVertex
 10
1.765210349999999
 20
-1.985499999999999
 30
2.06
 70
    64
  0
VERTEX
  5
6414F
330
64142
100
AcDbEntity
  8
0
100
AcDbVertex
100
AcDbPolygonMeshVertex
 10
1.765210349999999
 20
-1.845499999999999
 30
2.929
 70
    64
  0
VERTEX
  5
64150
330
64142
100
AcDbEntity
  8
0
100
AcDbVertex
100
AcDbPolygonMeshVertex
 10
1.765210349999999
 20
-1.845499999999999
 30
2.929
 70
    64
  0
VERTEX
  5
64151
330
64142
100
AcDbEntity
  8
0
100
AcDbVertex
100
AcDbPolygonMeshVertex
 10
1.765210349999999
 20
-1.985499999999999
 30
2.929
 70
    64
  0
VERTEX
  5
64152
330
64142
100
AcDbEntity
  8
0
100
AcDbVertex
100
AcDbPolygonMeshVertex
 10
1.719210349999999
 20
-1.845499999999999
 30
2.929
 70
    64
  0
VERTEX
  5
64153
330
64142
100
AcDbEntity
  8
0
100
AcDbVertex
100
AcDbPolygonMeshVertex
 10
1.719210349999999
 20
-1.845499999999999
 30
2.929
 70
    64
  0
VERTEX
  5
64154
330
64142
100
AcDbEntity
  8
0
100
AcDbVertex
100
AcDbPolygonMeshVertex
 10
1.719210349999999
 20
-1.985499999999999
 30
2.929
 70
    64
  0
SEQEND
  5
64155
330
64142
100
AcDbEntity
  8
0
  0
POLYLINE
  5
64156
330
458D6
100
AcDbEntity
  8
0
100
AcDbPolygonMesh
 66
     1
 10
0.0
 20
0.0
 30
0.0
 70
    16
 71
     6
 72
     3
  0
VERTEX
  5
64157
330
64156
100
AcDbEntity
  8
0
100
AcDbVertex
100
AcDbPolygonMeshVertex
 10
1.765210349999999
 20
0.5384999999999996
 30
2.929
 70
    64
  0
VERTEX
  5
64158
330
64156
100
AcDbEntity
  8
0
100
AcDbVertex
100
AcDbPolygonMeshVertex
 10
1.765210349999999
 20
0.5384999999999996
 30
2.06
 70
    64
  0
VERTEX
  5
64159
330
64156
100
AcDbEntity
  8
0
100
AcDbVertex
100
AcDbPolygonMeshVertex
 10
1.765210349999999
 20
0.5384999999999996
 30
2.06
 70
    64
  0
VERTEX
  5
6415A
330
64156
100
AcDbEntity
  8
0
100
AcDbVertex
100
AcDbPolygonMeshVertex
 10
1.719210349999999
 20
0.5384999999999996
 30
2.929
 70
    64
  0
VERTEX
  5
6415B
330
64156
100
AcDbEntity
  8
0
100
AcDbVertex
100
AcDbPolygonMeshVertex
 10
1.719210349999999
 20
0.5384999999999996
 30
2.06
 70
    64
  0
VERTEX
  5
6415C
330
64156
100
AcDbEntity
  8
0
100
AcDbVertex
100
AcDbPolygonMeshVertex
 10
1.719210349999999
 20
0.5384999999999996
 30
2.06
 70
    64
  0
VERTEX
  5
6415D
330
64156
100
AcDbEntity
  8
0
100
AcDbVertex
100
AcDbPolygonMeshVertex
 10
1.719210349999999
 20
0.3984999999999994
 30
2.929
 70
    64
  0
VERTEX
  5
6415E
330
64156
100
AcDbEntity
  8
0
100
AcDbVertex
100
AcDbPolygonMeshVertex
 10
1.719210349999999
 20
0.3984999999999994
 30
2.06
 70
    64
  0
VERTEX
  5
6415F
330
64156
100
AcDbEntity
  8
0
100
AcDbVertex
100
AcDbPolygonMeshVertex
 10
1.719210349999999
 20
0.5384999999999996
 30
2.06
 70
    64
  0
VERTEX
  5
64160
330
64156
100
AcDbEntity
  8
0
100
AcDbVertex
100
AcDbPolygonMeshVertex
 10
1.765210349999999
 20
0.3984999999999994
 30
2.929
 70
    64
  0
VERTEX
  5
64161
330
64156
100
AcDbEntity
  8
0
100
AcDbVertex
100
AcDbPolygonMeshVertex
 10
1.765210349999999
 20
0.3984999999999994
 30
2.06
 70
    64
  0
VERTEX
  5
64162
330
64156
100
AcDbEntity
  8
0
100
AcDbVertex
100
AcDbPolygonMeshVertex
 10
1.765210349999999
 20
0.5384999999999996
 30
2.06
 70
    64
  0
VERTEX
  5
64163
330
64156
100
AcDbEntity
  8
0
100
AcDbVertex
100
AcDbPolygonMeshVertex
 10
1.765210349999999
 20
0.3984999999999994
 30
2.929
 70
    64
  0
VERTEX
  5
64164
330
64156
100
AcDbEntity
  8
0
100
AcDbVertex
100
AcDbPolygonMeshVertex
 10
1.765210349999999
 20
0.3984999999999994
 30
2.929
 70
    64
  0
VERTEX
  5
64165
330
64156
100
AcDbEntity
  8
0
100
AcDbVertex
100
AcDbPolygonMeshVertex
 10
1.765210349999999
 20
0.5384999999999996
 30
2.929
 70
    64
  0
VERTEX
  5
64166
330
64156
100
AcDbEntity
  8
0
100
AcDbVertex
100
AcDbPolygonMeshVertex
 10
1.719210349999999
 20
0.3984999999999994
 30
2.929
 70
    64
  0
VERTEX
  5
64167
330
64156
100
AcDbEntity
  8
0
100
AcDbVertex
100
AcDbPolygonMeshVertex
 10
1.719210349999999
 20
0.3984999999999994
 30
2.929
 70
    64
  0
VERTEX
  5
64168
330
64156
100
AcDbEntity
  8
0
100
AcDbVertex
100
AcDbPolygonMeshVertex
 10
1.719210349999999
 20
0.5384999999999996
 30
2.929
 70
    64
  0
SEQEND
  5
64169
330
64156
100
AcDbEntity
  8
0
  0
LINE
  5
6416A
330
458D6
100
AcDbEntity
  8
0
100
AcDbLine
 10
1.335460349999999
 20
0.3984999999999994
 30
2.646
 11
1.719210349999999
 21
0.3984999999999994
 31
2.646
  0
POLYLINE
  5
6416B
330
458D6
100
AcDbEntity
  8
0
100
AcDbPolygonMesh
 66
     1
 10
0.0
 20
0.0
 30
0.0
 70
    16
 71
     6
 72
     3
  0
VERTEX
  5
6416C
330
6416B
100
AcDbEntity
  8
0
100
AcDbVertex
100
AcDbPolygonMeshVertex
 10
1.335460349999999
 20
0.5384999999999996
 30
2.929
 70
    64
  0
VERTEX
  5
6416D
330
6416B
100
AcDbEntity
  8
0
100
AcDbVertex
100
AcDbPolygonMeshVertex
 10
1.335460349999999
 20
0.5384999999999996
 30
2.319
 70
    64
  0
VERTEX
  5
6416E
330
6416B
100
AcDbEntity
  8
0
100
AcDbVertex
100
AcDbPolygonMeshVertex
 10
1.335460349999999
 20
0.5384999999999996
 30
2.319
 70
    64
  0
VERTEX
  5
6416F
330
6416B
100
AcDbEntity
  8
0
100
AcDbVertex
100
AcDbPolygonMeshVertex
 10
1.28946035
 20
0.5384999999999996
 30
2.929
 70
    64
  0
VERTEX
  5
64170
330
6416B
100
AcDbEntity
  8
0
100
AcDbVertex
100
AcDbPolygonMeshVertex
 10
1.28946035
 20
0.5384999999999996
 30
2.319
 70
    64
  0
VERTEX
  5
64171
330
6416B
100
AcDbEntity
  8
0
100
AcDbVertex
100
AcDbPolygonMeshVertex
 10
1.28946035
 20
0.5384999999999996
 30
2.319
 70
    64
  0
VERTEX
  5
64172
330
6416B
100
AcDbEntity
  8
0
100
AcDbVertex
100
AcDbPolygonMeshVertex
 10
1.28946035
 20
0.3984999999999994
 30
2.929
 70
    64
  0
VERTEX
  5
64173
330
6416B
100
AcDbEntity
  8
0
100
AcDbVertex
100
AcDbPolygonMeshVertex
 10
1.28946035
 20
0.3984999999999994
 30
2.319
 70
    64
  0
VERTEX
  5
64174
330
6416B
100
AcDbEntity
  8
0
100
AcDbVertex
100
AcDbPolygonMeshVertex
 10
1.28946035
 20
0.5384999999999996
 30
2.319
 70
    64
  0
VERTEX
  5
64175
330
6416B
100
AcDbEntity
  8
0
100
AcDbVertex
100
AcDbPolygonMeshVertex
 10
1.335460349999999
 20
0.3984999999999994
 30
2.929
 70
    64
  0
VERTEX
  5
64176
330
6416B
100
AcDbEntity
  8
0
100
AcDbVertex
100
AcDbPolygonMeshVertex
 10
1.335460349999999
 20
0.3984999999999994
 30
2.319
 70
    64
  0
VERTEX
  5
64177
330
6416B
100
AcDbEntity
  8
0
100
AcDbVertex
100
AcDbPolygonMeshVertex
 10
1.335460349999999
 20
0.5384999999999996
 30
2.319
 70
    64
  0
VERTEX
  5
64178
330
6416B
100
AcDbEntity
  8
0
100
AcDbVertex
100
AcDbPolygonMeshVertex
 10
1.335460349999999
 20
0.3984999999999994
 30
2.929
 70
    64
  0
VERTEX
  5
64179
330
6416B
100
AcDbEntity
  8
0
100
AcDbVertex
100
AcDbPolygonMeshVertex
 10
1.335460349999999
 20
0.3984999999999994
 30
2.929
 70
    64
  0
VERTEX
  5
6417A
330
6416B
100
AcDbEntity
  8
0
100
AcDbVertex
100
AcDbPolygonMeshVertex
 10
1.335460349999999
 20
0.5384999999999996
 30
2.929
 70
    64
  0
VERTEX
  5
6417B
330
6416B
100
AcDbEntity
  8
0
100
AcDbVertex
100
AcDbPolygonMeshVertex
 10
1.28946035
 20
0.3984999999999994
 30
2.929
 70
    64
  0
VERTEX
  5
6417C
330
6416B
100
AcDbEntity
  8
0
100
AcDbVertex
100
AcDbPolygonMeshVertex
 10
1.28946035
 20
0.3984999999999994
 30
2.929
 70
    64
  0
VERTEX
  5
6417D
330
6416B
100
AcDbEntity
  8
0
100
AcDbVertex
100
AcDbPolygonMeshVertex
 10
1.28946035
 20
0.5384999999999996
 30
2.929
 70
    64
  0
SEQEND
  5
6417E
330
6416B
100
AcDbEntity
  8
0
  0
LINE
  5
6417F
330
458D6
100
AcDbEntity
  8
0
100
AcDbLine
 10
0.90571035
 20
0.3984999999999994
 30
2.646
 11
1.28946035
 21
0.3984999999999994
 31
2.646
  0
POLYLINE
  5
64180
330
458D6
100
AcDbEntity
  8
0
100
AcDbPolygonMesh
 66
     1
 10
0.0
 20
0.0
 30
0.0
 70
    16
 71
     6
 72
     3
  0
VERTEX
  5
64181
330
64180
100
AcDbEntity
  8
0
100
AcDbVertex
100
AcDbPolygonMeshVertex
 10
0.90571035
 20
0.5384999999999996
 30
2.929
 70
    64
  0
VERTEX
  5
64182
330
64180
100
AcDbEntity
  8
0
100
AcDbVertex
100
AcDbPolygonMeshVertex
 10
0.90571035
 20
0.5384999999999996
 30
2.319
 70
    64
  0
VERTEX
  5
64183
330
64180
100
AcDbEntity
  8
0
100
AcDbVertex
100
AcDbPolygonMeshVertex
 10
0.90571035
 20
0.5384999999999996
 30
2.319
 70
    64
  0
VERTEX
  5
64184
330
64180
100
AcDbEntity
  8
0
100
AcDbVertex
100
AcDbPolygonMeshVertex
 10
0.8597103499999999
 20
0.5384999999999996
 30
2.929
 70
    64
  0
VERTEX
  5
64185
330
64180
100
AcDbEntity
  8
0
100
AcDbVertex
100
AcDbPolygonMeshVertex
 10
0.8597103499999999
 20
0.5384999999999996
 30
2.319
 70
    64
  0
VERTEX
  5
64186
330
64180
100
AcDbEntity
  8
0
100
AcDbVertex
100
AcDbPolygonMeshVertex
 10
0.8597103499999999
 20
0.5384999999999996
 30
2.319
 70
    64
  0
VERTEX
  5
64187
330
64180
100
AcDbEntity
  8
0
100
AcDbVertex
100
AcDbPolygonMeshVertex
 10
0.8597103499999999
 20
0.3984999999999994
 30
2.929
 70
    64
  0
VERTEX
  5
64188
330
64180
100
AcDbEntity
  8
0
100
AcDbVertex
100
AcDbPolygonMeshVertex
 10
0.8597103499999999
 20
0.3984999999999994
 30
2.319
 70
    64
  0
VERTEX
  5
64189
330
64180
100
AcDbEntity
  8
0
100
AcDbVertex
100
AcDbPolygonMeshVertex
 10
0.8597103499999999
 20
0.5384999999999996
 30
2.319
 70
    64
  0
VERTEX
  5
6418A
330
64180
100
AcDbEntity
  8
0
100
AcDbVertex
100
AcDbPolygonMeshVertex
 10
0.90571035
 20
0.3984999999999994
 30
2.929
 70
    64
  0
VERTEX
  5
6418B
330
64180
100
AcDbEntity
  8
0
100
AcDbVertex
100
AcDbPolygonMeshVertex
 10
0.90571035
 20
0.3984999999999994
 30
2.319
 70
    64
  0
VERTEX
  5
6418C
330
64180
100
AcDbEntity
  8
0
100
AcDbVertex
100
AcDbPolygonMeshVertex
 10
0.90571035
 20
0.5384999999999996
 30
2.319
 70
    64
  0
VERTEX
  5
6418D
330
64180
100
AcDbEntity
  8
0
100
AcDbVertex
100
AcDbPolygonMeshVertex
 10
0.90571035
 20
0.3984999999999994
 30
2.929
 70
    64
  0
VERTEX
  5
6418E
330
64180
100
AcDbEntity
  8
0
100
AcDbVertex
100
AcDbPolygonMeshVertex
 10
0.90571035
 20
0.3984999999999994
 30
2.929
 70
    64
  0
VERTEX
  5
6418F
330
64180
100
AcDbEntity
  8
0
100
AcDbVertex
100
AcDbPolygonMeshVertex
 10
0.90571035
 20
0.5384999999999996
 30
2.929
 70
    64
  0
VERTEX
  5
64190
330
64180
100
AcDbEntity
  8
0
100
AcDbVertex
100
AcDbPolygonMeshVertex
 10
0.8597103499999999
 20
0.3984999999999994
 30
2.929
 70
    64
  0
VERTEX
  5
64191
330
64180
100
AcDbEntity
  8
0
100
AcDbVertex
100
AcDbPolygonMeshVertex
 10
0.8597103499999999
 20
0.3984999999999994
 30
2.929
 70
    64
  0
VERTEX
  5
64192
330
64180
100
AcDbEntity
  8
0
100
AcDbVertex
100
AcDbPolygonMeshVertex
 10
0.8597103499999999
 20
0.5384999999999996
 30
2.929
 70
    64
  0
SEQEND
  5
64193
330
64180
100
AcDbEntity
  8
0
  0
POLYLINE
  5
64194
330
458D6
100
AcDbEntity
  8
0
100
AcDbPolygonMesh
 66
     1
 10
0.0
 20
0.0
 30
0.0
 70
    16
 71
     6
 72
     3
  0
VERTEX
  5
64195
330
64194
100
AcDbEntity
  8
0
100
AcDbVertex
100
AcDbPolygonMeshVertex
 10
0.4299603499999999
 20
0.5384999999999996
 30
2.929
 70
    64
  0
VERTEX
  5
64196
330
64194
100
AcDbEntity
  8
0
100
AcDbVertex
100
AcDbPolygonMeshVertex
 10
0.4299603499999999
 20
0.5384999999999996
 30
2.319
 70
    64
  0
VERTEX
  5
64197
330
64194
100
AcDbEntity
  8
0
100
AcDbVertex
100
AcDbPolygonMeshVertex
 10
0.4299603499999999
 20
0.5384999999999996
 30
2.319
 70
    64
  0
VERTEX
  5
64198
330
64194
100
AcDbEntity
  8
0
100
AcDbVertex
100
AcDbPolygonMeshVertex
 10
0.4759603499999998
 20
0.5384999999999996
 30
2.929
 70
    64
  0
VERTEX
  5
64199
330
64194
100
AcDbEntity
  8
0
100
AcDbVertex
100
AcDbPolygonMeshVertex
 10
0.4759603499999998
 20
0.5384999999999996
 30
2.319
 70
    64
  0
VERTEX
  5
6419A
330
64194
100
AcDbEntity
  8
0
100
AcDbVertex
100
AcDbPolygonMeshVertex
 10
0.4759603499999998
 20
0.5384999999999996
 30
2.319
 70
    64
  0
VERTEX
  5
6419B
330
64194
100
AcDbEntity
  8
0
100
AcDbVertex
100
AcDbPolygonMeshVertex
 10
0.4759603499999998
 20
0.3984999999999994
 30
2.929
 70
    64
  0
VERTEX
  5
6419C
330
64194
100
AcDbEntity
  8
0
100
AcDbVertex
100
AcDbPolygonMeshVertex
 10
0.4759603499999998
 20
0.3984999999999994
 30
2.319
 70
    64
  0
VERTEX
  5
6419D
330
64194
100
AcDbEntity
  8
0
100
AcDbVertex
100
AcDbPolygonMeshVertex
 10
0.4759603499999998
 20
0.5384999999999996
 30
2.319
 70
    64
  0
VERTEX
  5
6419E
330
64194
100
AcDbEntity
  8
0
100
AcDbVertex
100
AcDbPolygonMeshVertex
 10
0.4299603499999999
 20
0.3984999999999994
 30
2.929
 70
    64
  0
VERTEX
  5
6419F
330
64194
100
AcDbEntity
  8
0
100
AcDbVertex
100
AcDbPolygonMeshVertex
 10
0.4299603499999999
 20
0.3984999999999994
 30
2.319
 70
    64
  0
VERTEX
  5
641A0
330
64194
100
AcDbEntity
  8
0
100
AcDbVertex
100
AcDbPolygonMeshVertex
 10
0.4299603499999999
 20
0.5384999999999996
 30
2.319
 70
    64
  0
VERTEX
  5
641A1
330
64194
100
AcDbEntity
  8
0
100
AcDbVertex
100
AcDbPolygonMeshVertex
 10
0.4299603499999999
 20
0.3984999999999994
 30
2.929
 70
    64
  0
VERTEX
  5
641A2
330
64194
100
AcDbEntity
  8
0
100
AcDbVertex
100
AcDbPolygonMeshVertex
 10
0.4299603499999999
 20
0.3984999999999994
 30
2.929
 70
    64
  0
VERTEX
  5
641A3
330
64194
100
AcDbEntity
  8
0
100
AcDbVertex
100
AcDbPolygonMeshVertex
 10
0.4299603499999999
 20
0.5384999999999996
 30
2.929
 70
    64
  0
VERTEX
  5
641A4
330
64194
100
AcDbEntity
  8
0
100
AcDbVertex
100
AcDbPolygonMeshVertex
 10
0.4759603499999998
 20
0.3984999999999994
 30
2.929
 70
    64
  0
VERTEX
  5
641A5
330
64194
100
AcDbEntity
  8
0
100
AcDbVertex
100
AcDbPolygonMeshVertex
 10
0.4759603499999998
 20
0.3984999999999994
 30
2.929
 70
    64
  0
VERTEX
  5
641A6
330
64194
100
AcDbEntity
  8
0
100
AcDbVertex
100
AcDbPolygonMeshVertex
 10
0.4759603499999998
 20
0.5384999999999996
 30
2.929
 70
    64
  0
SEQEND
  5
641A7
330
64194
100
AcDbEntity
  8
0
  0
LINE
  5
641A8
330
458D6
100
AcDbEntity
  8
0
100
AcDbLine
 10
0.0462103500000004
 20
0.3984999999999994
 30
2.646
 11
0.4299603499999999
 21
0.3984999999999994
 31
2.646
  0
LINE
  5
641A9
330
458D6
100
AcDbEntity
  8
0
100
AcDbLine
 10
0.4759603499999998
 20
0.3984999999999994
 30
2.646
 11
0.8597103499999999
 21
0.3984999999999994
 31
2.646
  0
POLYLINE
  5
641AA
330
458D6
100
AcDbEntity
  8
0
100
AcDbPolygonMesh
 66
     1
 10
0.0
 20
0.0
 30
0.0
 70
    16
 71
     6
 72
     3
  0
VERTEX
  5
641AB
330
641AA
100
AcDbEntity
  8
0
100
AcDbVertex
100
AcDbPolygonMeshVertex
 10
0.0462103499999999
 20
0.5384999999999996
 30
2.929
 70
    64
  0
VERTEX
  5
641AC
330
641AA
100
AcDbEntity
  8
0
100
AcDbVertex
100
AcDbPolygonMeshVertex
 10
0.0462103499999999
 20
0.5384999999999996
 30
2.06
 70
    64
  0
VERTEX
  5
641AD
330
641AA
100
AcDbEntity
  8
0
100
AcDbVertex
100
AcDbPolygonMeshVertex
 10
0.0462103499999999
 20
0.5384999999999996
 30
2.06
 70
    64
  0
VERTEX
  5
641AE
330
641AA
100
AcDbEntity
  8
0
100
AcDbVertex
100
AcDbPolygonMeshVertex
 10
0.0002103500000001
 20
0.5384999999999996
 30
2.929
 70
    64
  0
VERTEX
  5
641AF
330
641AA
100
AcDbEntity
  8
0
100
AcDbVertex
100
AcDbPolygonMeshVertex
 10
0.0002103500000001
 20
0.5384999999999996
 30
2.06
 70
    64
  0
VERTEX
  5
641B0
330
641AA
100
AcDbEntity
  8
0
100
AcDbVertex
100
AcDbPolygonMeshVertex
 10
0.0002103500000001
 20
0.5384999999999996
 30
2.06
 70
    64
  0
VERTEX
  5
641B1
330
641AA
100
AcDbEntity
  8
0
100
AcDbVertex
100
AcDbPolygonMeshVertex
 10
0.0002103500000001
 20
0.3984999999999994
 30
2.929
 70
    64
  0
VERTEX
  5
641B2
330
641AA
100
AcDbEntity
  8
0
100
AcDbVertex
100
AcDbPolygonMeshVertex
 10
0.0002103500000001
 20
0.3984999999999994
 30
2.06
 70
    64
  0
VERTEX
  5
641B3
330
641AA
100
AcDbEntity
  8
0
100
AcDbVertex
100
AcDbPolygonMeshVertex
 10
0.0002103500000001
 20
0.5384999999999996
 30
2.06
 70
    64
  0
VERTEX
  5
641B4
330
641AA
100
AcDbEntity
  8
0
100
AcDbVertex
100
AcDbPolygonMeshVertex
 10
0.0462103499999999
 20
0.3984999999999994
 30
2.929
 70
    64
  0
VERTEX
  5
641B5
330
641AA
100
AcDbEntity
  8
0
100
AcDbVertex
100
AcDbPolygonMeshVertex
 10
0.0462103499999999
 20
0.3984999999999994
 30
2.06
 70
    64
  0
VERTEX
  5
641B6
330
641AA
100
AcDbEntity
  8
0
100
AcDbVertex
100
AcDbPolygonMeshVertex
 10
0.0462103499999999
 20
0.5384999999999996
 30
2.06
 70
    64
  0
VERTEX
  5
641B7
330
641AA
100
AcDbEntity
  8
0
100
AcDbVertex
100
AcDbPolygonMeshVertex
 10
0.0462103499999999
 20
0.3984999999999994
 30
2.929
 70
    64
  0
VERTEX
  5
641B8
330
641AA
100
AcDbEntity
  8
0
100
AcDbVertex
100
AcDbPolygonMeshVertex
 10
0.0462103499999999
 20
0.3984999999999994
 30
2.929
 70
    64
  0
VERTEX
  5
641B9
330
641AA
100
AcDbEntity
  8
0
100
AcDbVertex
100
AcDbPolygonMeshVertex
 10
0.0462103499999999
 20
0.5384999999999996
 30
2.929
 70
    64
  0
VERTEX
  5
641BA
330
641AA
100
AcDbEntity
  8
0
100
AcDbVertex
100
AcDbPolygonMeshVertex
 10
0.0002103500000001
 20
0.3984999999999994
 30
2.929
 70
    64
  0
VERTEX
  5
641BB
330
641AA
100
AcDbEntity
  8
0
100
AcDbVertex
100
AcDbPolygonMeshVertex
 10
0.0002103500000001
 20
0.3984999999999994
 30
2.929
 70
    64
  0
VERTEX
  5
641BC
330
641AA
100
AcDbEntity
  8
0
100
AcDbVertex
100
AcDbPolygonMeshVertex
 10
0.0002103500000001
 20
0.5384999999999996
 30
2.929
 70
    64
  0
SEQEND
  5
641BD
330
641AA
100
AcDbEntity
  8
0
  0
POLYLINE
  5
641BE
330
458D6
100
AcDbEntity
  8
0
100
AcDbPolygonMesh
 66
     1
 10
0.0
 20
0.0
 30
0.0
 70
    16
 71
     6
 72
     3
  0
VERTEX
  5
641BF
330
641BE
100
AcDbEntity
  8
0
100
AcDbVertex
100
AcDbPolygonMeshVertex
 10
1.719210349999999
 20
0.6104999999999992
 30
2.319
 70
    64
  0
VERTEX
  5
641C0
330
641BE
100
AcDbEntity
  8
0
100
AcDbVertex
100
AcDbPolygonMeshVertex
 10
1.719210349999999
 20
0.6104999999999992
 30
2.06
 70
    64
  0
VERTEX
  5
641C1
330
641BE
100
AcDbEntity
  8
0
100
AcDbVertex
100
AcDbPolygonMeshVertex
 10
1.719210349999999
 20
0.6104999999999992
 30
2.06
 70
    64
  0
VERTEX
  5
641C2
330
641BE
100
AcDbEntity
  8
0
100
AcDbVertex
100
AcDbPolygonMeshVertex
 10
0.0462103499999999
 20
0.6104999999999992
 30
2.319
 70
    64
  0
VERTEX
  5
641C3
330
641BE
100
AcDbEntity
  8
0
100
AcDbVertex
100
AcDbPolygonMeshVertex
 10
0.0462103499999999
 20
0.6104999999999992
 30
2.06
 70
    64
  0
VERTEX
  5
641C4
330
641BE
100
AcDbEntity
  8
0
100
AcDbVertex
100
AcDbPolygonMeshVertex
 10
0.0462103499999999
 20
0.6104999999999992
 30
2.06
 70
    64
  0
VERTEX
  5
641C5
330
641BE
100
AcDbEntity
  8
0
100
AcDbVertex
100
AcDbPolygonMeshVertex
 10
0.0462103499999999
 20
0.3984999999999994
 30
2.319
 70
    64
  0
VERTEX
  5
641C6
330
641BE
100
AcDbEntity
  8
0
100
AcDbVertex
100
AcDbPolygonMeshVertex
 10
0.0462103499999999
 20
0.3984999999999994
 30
2.06
 70
    64
  0
VERTEX
  5
641C7
330
641BE
100
AcDbEntity
  8
0
100
AcDbVertex
100
AcDbPolygonMeshVertex
 10
0.0462103499999999
 20
0.6104999999999992
 30
2.06
 70
    64
  0
VERTEX
  5
641C8
330
641BE
100
AcDbEntity
  8
0
100
AcDbVertex
100
AcDbPolygonMeshVertex
 10
1.719210349999999
 20
0.3984999999999994
 30
2.319
 70
    64
  0
VERTEX
  5
641C9
330
641BE
100
AcDbEntity
  8
0
100
AcDbVertex
100
AcDbPolygonMeshVertex
 10
1.719210349999999
 20
0.3984999999999994
 30
2.06
 70
    64
  0
VERTEX
  5
641CA
330
641BE
100
AcDbEntity
  8
0
100
AcDbVertex
100
AcDbPolygonMeshVertex
 10
1.719210349999999
 20
0.6104999999999992
 30
2.06
 70
    64
  0
VERTEX
  5
641CB
330
641BE
100
AcDbEntity
  8
0
100
AcDbVertex
100
AcDbPolygonMeshVertex
 10
1.719210349999999
 20
0.3984999999999994
 30
2.319
 70
    64
  0
VERTEX
  5
641CC
330
641BE
100
AcDbEntity
  8
0
100
AcDbVertex
100
AcDbPolygonMeshVertex
 10
1.719210349999999
 20
0.3984999999999994
 30
2.319
 70
    64
  0
VERTEX
  5
641CD
330
641BE
100
AcDbEntity
  8
0
100
AcDbVertex
100
AcDbPolygonMeshVertex
 10
1.719210349999999
 20
0.6104999999999992
 30
2.319
 70
    64
  0
VERTEX
  5
641CE
330
641BE
100
AcDbEntity
  8
0
100
AcDbVertex
100
AcDbPolygonMeshVertex
 10
0.0462103499999999
 20
0.3984999999999994
 30
2.319
 70
    64
  0
VERTEX
  5
641CF
330
641BE
100
AcDbEntity
  8
0
100
AcDbVertex
100
AcDbPolygonMeshVertex
 10
0.0462103499999999
 20
0.3984999999999994
 30
2.319
 70
    64
  0
VERTEX
  5
641D0
330
641BE
100
AcDbEntity
  8
0
100
AcDbVertex
100
AcDbPolygonMeshVertex
 10
0.0462103499999999
 20
0.6104999999999992
 30
2.319
 70
    64
  0
SEQEND
  5
641D1
330
641BE
100
AcDbEntity
  8
0
  0
TEXT
  5
641D2
330
458D6
100
AcDbEntity
  8
0
100
AcDbText
 39
0.0000001
 10
0.3648474264473056
 20
0.8545823768176784
 30
2.06
 40
0.0834654981097751
  1
A1
100
AcDbText
  0
TEXT
  5
641D3
330
458D6
100
AcDbEntity
  8
0
100
AcDbText
 39
0.0000001
 10
1.285827712457554
 20
0.8537405107118321
 30
2.06
 40
0.0834654981097751
  1
A2
100
AcDbText
  0
LINE
  5
641D4
330
458D6
100
AcDbEntity
  8
0
100
AcDbLine
 10
0.652933741696637
 20
-1.9685
 30
-0.0000000000000003
 11
0.8636004083633036
 21
-1.9685
 31
-0.0000000000000003
  0
POLYLINE
  5
641D5
330
458D6
100
AcDbEntity
  8
0
100
AcDb3dPolyline
 66
     1
 10
0.0
 20
0.0
 30
0.0
 70
     8
  0
VERTEX
  5
641D6
330
641D5
100
AcDbEntity
  8
0
100
AcDbVertex
100
AcDb3dPolylineVertex
 10
0.652933741696637
 20
-1.9685
 30
-0.0000000000000003
 70
    32
  0
VERTEX
  5
641D7
330
641D5
100
AcDbEntity
  8
0
100
AcDbVertex
100
AcDb3dPolylineVertex
 10
0.652933741696637
 20
-2.103499999999999
 30
-0.0000000000000002
 70
    32
  0
VERTEX
  5
641D8
330
641D5
100
AcDbEntity
  8
0
100
AcDbVertex
100
AcDb3dPolylineVertex
 10
0.8636004083633036
 20
-2.103499999999999
 30
-0.0000000000000002
 70
    32
  0
VERTEX
  5
641D9
330
641D5
100
AcDbEntity
  8
0
100
AcDbVertex
100
AcDb3dPolylineVertex
 10
0.8636004083633036
 20
-1.9685
 30
-0.0000000000000003
 70
    32
  0
SEQEND
  5
641DA
330
641D5
100
AcDbEntity
  8
0
  0
POLYLINE
  5
641DB
330
458D6
100
AcDbEntity
  8
0
100
AcDb3dPolyline
 66
     1
 10
0.0
 20
0.0
 30
0.0
 70
     8
  0
VERTEX
  5
641DC
330
641DB
100
AcDbEntity
  8
0
100
AcDbVertex
100
AcDb3dPolylineVertex
 10
0.5811430580663411
 20
-1.9685
 30
0.1869999999999998
 70
    32
  0
VERTEX
  5
641DD
330
641DB
100
AcDbEntity
  8
0
100
AcDbVertex
100
AcDb3dPolylineVertex
 10
0.5811430580663411
 20
-2.103499999999999
 30
0.1869999999999998
 70
    32
  0
VERTEX
  5
641DE
330
641DB
100
AcDbEntity
  8
0
100
AcDbVertex
100
AcDb3dPolylineVertex
 10
0.7918097247330076
 20
-2.103499999999999
 30
0.1869999999999998
 70
    32
  0
VERTEX
  5
641DF
330
641DB
100
AcDbEntity
  8
0
100
AcDbVertex
100
AcDb3dPolylineVertex
 10
0.7918097247330076
 20
-1.9685
 30
0.1869999999999998
 70
    32
  0
SEQEND
  5
641E0
330
641DB
100
AcDbEntity
  8
0
  0
POLYLINE
  5
641E1
330
458D6
100
AcDbEntity
  8
0
100
AcDbPolygonMesh
 66
     1
 10
0.0
 20
0.0
 30
0.0
 70
    16
 71
     6
 72
     3
  0
VERTEX
  5
641E2
330
641E1
100
AcDbEntity
  8
0
100
AcDbVertex
100
AcDbPolygonMeshVertex
 10
0.8538097247330069
 20
-2.1655
 30
0.1869999999999998
 70
    64
  0
VERTEX
  5
641E3
330
641E1
100
AcDbEntity
  8
0
100
AcDbVertex
100
AcDbPolygonMeshVertex
 10
0.8538097247330069
 20
-2.1655
 30
0.0
 70
    64
  0
VERTEX
  5
641E4
330
641E1
100
AcDbEntity
  8
0
100
AcDbVertex
100
AcDbPolygonMeshVertex
 10
0.8538097247330069
 20
-2.1655
 30
0.0
 70
    64
  0
VERTEX
  5
641E5
330
641E1
100
AcDbEntity
  8
0
100
AcDbVertex
100
AcDbPolygonMeshVertex
 10
0.2464763913996739
 20
-2.1655
 30
0.1869999999999998
 70
    64
  0
VERTEX
  5
641E6
330
641E1
100
AcDbEntity
  8
0
100
AcDbVertex
100
AcDbPolygonMeshVertex
 10
0.2464763913996739
 20
-2.1655
 30
0.0
 70
    64
  0
VERTEX
  5
641E7
330
641E1
100
AcDbEntity
  8
0
100
AcDbVertex
100
AcDbPolygonMeshVertex
 10
0.2464763913996739
 20
-2.1655
 30
0.0
 70
    64
  0
VERTEX
  5
641E8
330
641E1
100
AcDbEntity
  8
0
100
AcDbVertex
100
AcDbPolygonMeshVertex
 10
0.2464763913996739
 20
-2.103499999999999
 30
0.1869999999999998
 70
    64
  0
VERTEX
  5
641E9
330
641E1
100
AcDbEntity
  8
0
100
AcDbVertex
100
AcDbPolygonMeshVertex
 10
0.2464763913996739
 20
-2.103499999999999
 30
0.0
 70
    64
  0
VERTEX
  5
641EA
330
641E1
100
AcDbEntity
  8
0
100
AcDbVertex
100
AcDbPolygonMeshVertex
 10
0.2464763913996739
 20
-2.1655
 30
0.0
 70
    64
  0
VERTEX
  5
641EB
330
641E1
100
AcDbEntity
  8
0
100
AcDbVertex
100
AcDbPolygonMeshVertex
 10
0.8538097247330069
 20
-2.103499999999999
 30
0.1869999999999998
 70
    64
  0
VERTEX
  5
641EC
330
641E1
100
AcDbEntity
  8
0
100
AcDbVertex
100
AcDbPolygonMeshVertex
 10
0.8538097247330069
 20
-2.103499999999999
 30
0.0
 70
    64
  0
VERTEX
  5
641ED
330
641E1
100
AcDbEntity
  8
0
100
AcDbVertex
100
AcDbPolygonMeshVertex
 10
0.8538097247330069
 20
-2.1655
 30
0.0
 70
    64
  0
VERTEX
  5
641EE
330
641E1
100
AcDbEntity
  8
0
100
AcDbVertex
100
AcDbPolygonMeshVertex
 10
0.8538097247330069
 20
-2.103499999999999
 30
0.1869999999999998
 70
    64
  0
VERTEX
  5
641EF
330
641E1
100
AcDbEntity
  8
0
100
AcDbVertex
100
AcDbPolygonMeshVertex
 10
0.8538097247330069
 20
-2.103499999999999
 30
0.1869999999999998
 70
    64
  0
VERTEX
  5
641F0
330
641E1
100
AcDbEntity
  8
0
100
AcDbVertex
100
AcDbPolygonMeshVertex
 10
0.8538097247330069
 20
-2.1655
 30
0.1869999999999998
 70
    64
  0
VERTEX
  5
641F1
330
641E1
100
AcDbEntity
  8
0
100
AcDbVertex
100
AcDbPolygonMeshVertex
 10
0.2464763913996739
 20
-2.103499999999999
 30
0.1869999999999998
 70
    64
  0
VERTEX
  5
641F2
330
641E1
100
AcDbEntity
  8
0
100
AcDbVertex
100
AcDbPolygonMeshVertex
 10
0.2464763913996739
 20
-2.103499999999999
 30
0.1869999999999998
 70
    64
  0
VERTEX
  5
641F3
330
641E1
100
AcDbEntity
  8
0
100
AcDbVertex
100
AcDbPolygonMeshVertex
 10
0.2464763913996739
 20
-2.1655
 30
0.1869999999999998
 70
    64
  0
SEQEND
  5
641F4
330
641E1
100
AcDbEntity
  8
0
  0
POLYLINE
  5
641F5
330
458D6
100
AcDbEntity
  8
0
100
AcDbPolygonMesh
 66
     1
 10
0.0
 20
0.0
 30
0.0
 70
    16
 71
     6
 72
     3
  0
VERTEX
  5
641F6
330
641F5
100
AcDbEntity
  8
0
100
AcDbVertex
100
AcDbPolygonMeshVertex
 10
0.8538097247330069
 20
-2.103499999999999
 30
0.1869999999999998
 70
    64
  0
VERTEX
  5
641F7
330
641F5
100
AcDbEntity
  8
0
100
AcDbVertex
100
AcDbPolygonMeshVertex
 10
0.8538097247330069
 20
-2.103499999999999
 30
0.0
 70
    64
  0
VERTEX
  5
641F8
330
641F5
100
AcDbEntity
  8
0
100
AcDbVertex
100
AcDbPolygonMeshVertex
 10
0.8538097247330069
 20
-2.103499999999999
 30
0.0
 70
    64
  0
VERTEX
  5
641F9
330
641F5
100
AcDbEntity
  8
0
100
AcDbVertex
100
AcDbPolygonMeshVertex
 10
0.5191430580663417
 20
-2.103499999999999
 30
0.1869999999999998
 70
    64
  0
VERTEX
  5
641FA
330
641F5
100
AcDbEntity
  8
0
100
AcDbVertex
100
AcDbPolygonMeshVertex
 10
0.5191430580663417
 20
-2.103499999999999
 30
0.0
 70
    64
  0
VERTEX
  5
641FB
330
641F5
100
AcDbEntity
  8
0
100
AcDbVertex
100
AcDbPolygonMeshVertex
 10
0.5191430580663417
 20
-2.103499999999999
 30
0.0
 70
    64
  0
VERTEX
  5
641FC
330
641F5
100
AcDbEntity
  8
0
100
AcDbVertex
100
AcDbPolygonMeshVertex
 10
0.5191430580663417
 20
-1.9065
 30
0.1869999999999998
 70
    64
  0
VERTEX
  5
641FD
330
641F5
100
AcDbEntity
  8
0
100
AcDbVertex
100
AcDbPolygonMeshVertex
 10
0.5191430580663417
 20
-1.9065
 30
0.0
 70
    64
  0
VERTEX
  5
641FE
330
641F5
100
AcDbEntity
  8
0
100
AcDbVertex
100
AcDbPolygonMeshVertex
 10
0.5191430580663417
 20
-2.103499999999999
 30
0.0
 70
    64
  0
VERTEX
  5
641FF
330
641F5
100
AcDbEntity
  8
0
100
AcDbVertex
100
AcDbPolygonMeshVertex
 10
0.8538097247330069
 20
-1.9065
 30
0.1869999999999998
 70
    64
  0
VERTEX
  5
64200
330
641F5
100
AcDbEntity
  8
0
100
AcDbVertex
100
AcDbPolygonMeshVertex
 10
0.8538097247330069
 20
-1.9065
 30
0.0
 70
    64
  0
VERTEX
  5
64201
330
641F5
100
AcDbEntity
  8
0
100
AcDbVertex
100
AcDbPolygonMeshVertex
 10
0.8538097247330069
 20
-2.103499999999999
 30
0.0
 70
    64
  0
VERTEX
  5
64202
330
641F5
100
AcDbEntity
  8
0
100
AcDbVertex
100
AcDbPolygonMeshVertex
 10
0.8538097247330069
 20
-1.9065
 30
0.1869999999999998
 70
    64
  0
VERTEX
  5
64203
330
641F5
100
AcDbEntity
  8
0
100
AcDbVertex
100
AcDbPolygonMeshVertex
 10
0.8538097247330069
 20
-1.9065
 30
0.1869999999999998
 70
    64
  0
VERTEX
  5
64204
330
641F5
100
AcDbEntity
  8
0
100
AcDbVertex
100
AcDbPolygonMeshVertex
 10
0.8538097247330069
 20
-2.103499999999999
 30
0.1869999999999998
 70
    64
  0
VERTEX
  5
64205
330
641F5
100
AcDbEntity
  8
0
100
AcDbVertex
100
AcDbPolygonMeshVertex
 10
0.5191430580663417
 20
-1.9065
 30
0.1869999999999998
 70
    64
  0
VERTEX
  5
64206
330
641F5
100
AcDbEntity
  8
0
100
AcDbVertex
100
AcDbPolygonMeshVertex
 10
0.5191430580663417
 20
-1.9065
 30
0.1869999999999998
 70
    64
  0
VERTEX
  5
64207
330
641F5
100
AcDbEntity
  8
0
100
AcDbVertex
100
AcDbPolygonMeshVertex
 10
0.5191430580663417
 20
-2.103499999999999
 30
0.1869999999999998
 70
    64
  0
SEQEND
  5
64208
330
641F5
100
AcDbEntity
  8
0
  0
LINE
  5
64209
330
458D6
100
AcDbEntity
  8
0
100
AcDbLine
 10
0.652933741696637
 20
-1.9685
 30
0.1869999999999998
 11
0.8636004083633036
 21
-1.9685
 31
0.1869999999999998
  0
POLYLINE
  5
6420A
330
458D6
100
AcDbEntity
  8
0
100
AcDbPolygonMesh
 66
     1
 10
0.0
 20
0.0
 30
0.0
 70
    16
 71
     6
 72
     3
  0
VERTEX
  5
6420B
330
6420A
100
AcDbEntity
  8
0
100
AcDbVertex
100
AcDbPolygonMeshVertex
 10
1.765210349999999
 20
-1.685499999999999
 30
0.187
 70
    64
  0
VERTEX
  5
6420C
330
6420A
100
AcDbEntity
  8
0
100
AcDbVertex
100
AcDbPolygonMeshVertex
 10
1.765210349999999
 20
-1.685499999999999
 30
0.0
 70
    64
  0
VERTEX
  5
6420D
330
6420A
100
AcDbEntity
  8
0
100
AcDbVertex
100
AcDbPolygonMeshVertex
 10
1.765210349999999
 20
-1.685499999999999
 30
0.0
 70
    64
  0
VERTEX
  5
6420E
330
6420A
100
AcDbEntity
  8
0
100
AcDbVertex
100
AcDbPolygonMeshVertex
 10
0.00521035
 20
-1.685499999999999
 30
0.187
 70
    64
  0
VERTEX
  5
6420F
330
6420A
100
AcDbEntity
  8
0
100
AcDbVertex
100
AcDbPolygonMeshVertex
 10
0.00521035
 20
-1.685499999999999
 30
0.0
 70
    64
  0
VERTEX
  5
64210
330
6420A
100
AcDbEntity
  8
0
100
AcDbVertex
100
AcDbPolygonMeshVertex
 10
0.00521035
 20
-1.685499999999999
 30
0.0
 70
    64
  0
VERTEX
  5
64211
330
6420A
100
AcDbEntity
  8
0
100
AcDbVertex
100
AcDbPolygonMeshVertex
 10
0.00521035
 20
-1.480999999999999
 30
0.187
 70
    64
  0
VERTEX
  5
64212
330
6420A
100
AcDbEntity
  8
0
100
AcDbVertex
100
AcDbPolygonMeshVertex
 10
0.00521035
 20
-1.480999999999999
 30
0.0
 70
    64
  0
VERTEX
  5
64213
330
6420A
100
AcDbEntity
  8
0
100
AcDbVertex
100
AcDbPolygonMeshVertex
 10
0.00521035
 20
-1.685499999999999
 30
0.0
 70
    64
  0
VERTEX
  5
64214
330
6420A
100
AcDbEntity
  8
0
100
AcDbVertex
100
AcDbPolygonMeshVertex
 10
1.765210349999999
 20
-1.480999999999999
 30
0.187
 70
    64
  0
VERTEX
  5
64215
330
6420A
100
AcDbEntity
  8
0
100
AcDbVertex
100
AcDbPolygonMeshVertex
 10
1.765210349999999
 20
-1.480999999999999
 30
0.0
 70
    64
  0
VERTEX
  5
64216
330
6420A
100
AcDbEntity
  8
0
100
AcDbVertex
100
AcDbPolygonMeshVertex
 10
1.765210349999999
 20
-1.685499999999999
 30
0.0
 70
    64
  0
VERTEX
  5
64217
330
6420A
100
AcDbEntity
  8
0
100
AcDbVertex
100
AcDbPolygonMeshVertex
 10
1.765210349999999
 20
-1.480999999999999
 30
0.187
 70
    64
  0
VERTEX
  5
64218
330
6420A
100
AcDbEntity
  8
0
100
AcDbVertex
100
AcDbPolygonMeshVertex
 10
1.765210349999999
 20
-1.480999999999999
 30
0.187
 70
    64
  0
VERTEX
  5
64219
330
6420A
100
AcDbEntity
  8
0
100
AcDbVertex
100
AcDbPolygonMeshVertex
 10
1.765210349999999
 20
-1.685499999999999
 30
0.187
 70
    64
  0
VERTEX
  5
6421A
330
6420A
100
AcDbEntity
  8
0
100
AcDbVertex
100
AcDbPolygonMeshVertex
 10
0.00521035
 20
-1.480999999999999
 30
0.187
 70
    64
  0
VERTEX
  5
6421B
330
6420A
100
AcDbEntity
  8
0
100
AcDbVertex
100
AcDbPolygonMeshVertex
 10
0.00521035
 20
-1.480999999999999
 30
0.187
 70
    64
  0
VERTEX
  5
6421C
330
6420A
100
AcDbEntity
  8
0
100
AcDbVertex
100
AcDbPolygonMeshVertex
 10
0.00521035
 20
-1.685499999999999
 30
0.187
 70
    64
  0
SEQEND
  5
6421D
330
6420A
100
AcDbEntity
  8
0
  0
POLYLINE
  5
6421E
330
458D6
100
AcDbEntity
  8
0
100
AcDbPolygonMesh
 66
     1
 10
0.0
 20
0.0
 30
0.0
 70
    16
 71
     6
 72
     3
  0
VERTEX
  5
6421F
330
6421E
100
AcDbEntity
  8
0
100
AcDbVertex
100
AcDbPolygonMeshVertex
 10
1.765210349999999
 20
0.2044999999999999
 30
0.187
 70
    64
  0
VERTEX
  5
64220
330
6421E
100
AcDbEntity
  8
0
100
AcDbVertex
100
AcDbPolygonMeshVertex
 10
1.765210349999999
 20
0.2044999999999999
 30
0.0
 70
    64
  0
VERTEX
  5
64221
330
6421E
100
AcDbEntity
  8
0
100
AcDbVertex
100
AcDbPolygonMeshVertex
 10
1.765210349999999
 20
0.2044999999999999
 30
0.0
 70
    64
  0
VERTEX
  5
64222
330
6421E
100
AcDbEntity
  8
0
100
AcDbVertex
100
AcDbPolygonMeshVertex
 10
0.00521035
 20
0.2044999999999999
 30
0.187
 70
    64
  0
VERTEX
  5
64223
330
6421E
100
AcDbEntity
  8
0
100
AcDbVertex
100
AcDbPolygonMeshVertex
 10
0.00521035
 20
0.2044999999999999
 30
0.0
 70
    64
  0
VERTEX
  5
64224
330
6421E
100
AcDbEntity
  8
0
100
AcDbVertex
100
AcDbPolygonMeshVertex
 10
0.00521035
 20
0.2044999999999999
 30
0.0
 70
    64
  0
VERTEX
  5
64225
330
6421E
100
AcDbEntity
  8
0
100
AcDbVertex
100
AcDbPolygonMeshVertex
 10
0.00521035
 20
0.0
 30
0.187
 70
    64
  0
VERTEX
  5
64226
330
6421E
100
AcDbEntity
  8
0
100
AcDbVertex
100
AcDbPolygonMeshVertex
 10
0.00521035
 20
0.0
 30
0.0
 70
    64
  0
VERTEX
  5
64227
330
6421E
100
AcDbEntity
  8
0
100
AcDbVertex
100
AcDbPolygonMeshVertex
 10
0.00521035
 20
0.2044999999999999
 30
0.0
 70
    64
  0
VERTEX
  5
64228
330
6421E
100
AcDbEntity
  8
0
100
AcDbVertex
100
AcDbPolygonMeshVertex
 10
1.765210349999999
 20
0.0
 30
0.187
 70
    64
  0
VERTEX
  5
64229
330
6421E
100
AcDbEntity
  8
0
100
AcDbVertex
100
AcDbPolygonMeshVertex
 10
1.765210349999999
 20
0.0
 30
0.0
 70
    64
  0
VERTEX
  5
6422A
330
6421E
100
AcDbEntity
  8
0
100
AcDbVertex
100
AcDbPolygonMeshVertex
 10
1.765210349999999
 20
0.2044999999999999
 30
0.0
 70
    64
  0
VERTEX
  5
6422B
330
6421E
100
AcDbEntity
  8
0
100
AcDbVertex
100
AcDbPolygonMeshVertex
 10
1.765210349999999
 20
0.0
 30
0.187
 70
    64
  0
VERTEX
  5
6422C
330
6421E
100
AcDbEntity
  8
0
100
AcDbVertex
100
AcDbPolygonMeshVertex
 10
1.765210349999999
 20
0.0
 30
0.187
 70
    64
  0
VERTEX
  5
6422D
330
6421E
100
AcDbEntity
  8
0
100
AcDbVertex
100
AcDbPolygonMeshVertex
 10
1.765210349999999
 20
0.2044999999999999
 30
0.187
 70
    64
  0
VERTEX
  5
6422E
330
6421E
100
AcDbEntity
  8
0
100
AcDbVertex
100
AcDbPolygonMeshVertex
 10
0.00521035
 20
0.0
 30
0.187
 70
    64
  0
VERTEX
  5
6422F
330
6421E
100
AcDbEntity
  8
0
100
AcDbVertex
100
AcDbPolygonMeshVertex
 10
0.00521035
 20
0.0
 30
0.187
 70
    64
  0
VERTEX
  5
64230
330
6421E
100
AcDbEntity
  8
0
100
AcDbVertex
100
AcDbPolygonMeshVertex
 10
0.00521035
 20
0.2044999999999999
 30
0.187
 70
    64
  0
SEQEND
  5
64231
330
6421E
100
AcDbEntity
  8
0
  0
POLYLINE
  5
64232
330
458D6
100
AcDbEntity
  8
0
100
AcDbPolygonMesh
 66
     1
 10
0.0
 20
0.0
 30
0.0
 70
    16
 71
     6
 72
     3
  0
VERTEX
  5
64233
330
64232
100
AcDbEntity
  8
0
100
AcDbVertex
100
AcDbPolygonMeshVertex
 10
0.39621035
 20
-2.081499999999999
 30
0.316
 70
    64
  0
VERTEX
  5
64234
330
64232
100
AcDbEntity
  8
0
100
AcDbVertex
100
AcDbPolygonMeshVertex
 10
0.39621035
 20
-2.081499999999999
 30
0.0
 70
    64
  0
VERTEX
  5
64235
330
64232
100
AcDbEntity
  8
0
100
AcDbVertex
100
AcDbPolygonMeshVertex
 10
0.39621035
 20
-2.081499999999999
 30
0.0
 70
    64
  0
VERTEX
  5
64236
330
64232
100
AcDbEntity
  8
0
100
AcDbVertex
100
AcDbPolygonMeshVertex
 10
0.00521035
 20
-2.081499999999999
 30
0.316
 70
    64
  0
VERTEX
  5
64237
330
64232
100
AcDbEntity
  8
0
100
AcDbVertex
100
AcDbPolygonMeshVertex
 10
0.00521035
 20
-2.081499999999999
 30
0.0
 70
    64
  0
VERTEX
  5
64238
330
64232
100
AcDbEntity
  8
0
100
AcDbVertex
100
AcDbPolygonMeshVertex
 10
0.00521035
 20
-2.081499999999999
 30
0.0
 70
    64
  0
VERTEX
  5
64239
330
64232
100
AcDbEntity
  8
0
100
AcDbVertex
100
AcDbPolygonMeshVertex
 10
0.00521035
 20
-1.685499999999999
 30
0.316
 70
    64
  0
VERTEX
  5
6423A
330
64232
100
AcDbEntity
  8
0
100
AcDbVertex
100
AcDbPolygonMeshVertex
 10
0.00521035
 20
-1.685499999999999
 30
0.0
 70
    64
  0
VERTEX
  5
6423B
330
64232
100
AcDbEntity
  8
0
100
AcDbVertex
100
AcDbPolygonMeshVertex
 10
0.00521035
 20
-2.081499999999999
 30
0.0
 70
    64
  0
VERTEX
  5
6423C
330
64232
100
AcDbEntity
  8
0
100
AcDbVertex
100
AcDbPolygonMeshVertex
 10
0.39621035
 20
-1.685499999999999
 30
0.316
 70
    64
  0
VERTEX
  5
6423D
330
64232
100
AcDbEntity
  8
0
100
AcDbVertex
100
AcDbPolygonMeshVertex
 10
0.39621035
 20
-1.685499999999999
 30
0.0
 70
    64
  0
VERTEX
  5
6423E
330
64232
100
AcDbEntity
  8
0
100
AcDbVertex
100
AcDbPolygonMeshVertex
 10
0.39621035
 20
-2.081499999999999
 30
0.0
 70
    64
  0
VERTEX
  5
6423F
330
64232
100
AcDbEntity
  8
0
100
AcDbVertex
100
AcDbPolygonMeshVertex
 10
0.39621035
 20
-1.685499999999999
 30
0.316
 70
    64
  0
VERTEX
  5
64240
330
64232
100
AcDbEntity
  8
0
100
AcDbVertex
100
AcDbPolygonMeshVertex
 10
0.39621035
 20
-1.685499999999999
 30
0.316
 70
    64
  0
VERTEX
  5
64241
330
64232
100
AcDbEntity
  8
0
100
AcDbVertex
100
AcDbPolygonMeshVertex
 10
0.39621035
 20
-2.081499999999999
 30
0.316
 70
    64
  0
VERTEX
  5
64242
330
64232
100
AcDbEntity
  8
0
100
AcDbVertex
100
AcDbPolygonMeshVertex
 10
0.00521035
 20
-1.685499999999999
 30
0.316
 70
    64
  0
VERTEX
  5
64243
330
64232
100
AcDbEntity
  8
0
100
AcDbVertex
100
AcDbPolygonMeshVertex
 10
0.00521035
 20
-1.685499999999999
 30
0.316
 70
    64
  0
VERTEX
  5
64244
330
64232
100
AcDbEntity
  8
0
100
AcDbVertex
100
AcDbPolygonMeshVertex
 10
0.00521035
 20
-2.081499999999999
 30
0.316
 70
    64
  0
SEQEND
  5
64245
330
64232
100
AcDbEntity
  8
0
  0
POINT
  5
64246
330
458D6
100
AcDbEntity
  8
SNAP_POINTS
100
AcDbPoint
 10
0.0
 20
0.0
 30
0.0
  0
3DFACE
  5
64247
330
458D6
100
AcDbEntity
  8
0
100
AcDbFace
 10
1.765210349999999
 20
-1.845499999999999
 30
2.06
 11
1.765210349999999
 21
-1.845499999999999
 31
2.06
 12
0.0002103500000001
 22
-1.845499999999999
 32
2.06
 13
0.0002103500000001
 23
-1.845499999999999
 33
2.06
  0
3DFACE
  5
64248
330
458D6
100
AcDbEntity
  8
0
100
AcDbFace
 10
0.0002103500000001
 20
-1.845499999999999
 30
2.06
 11
0.0002103500000001
 21
-1.845499999999999
 31
2.06
 12
0.0002103500000001
 22
-1.845499999999999
 32
2.06
 13
0.0002103500000001
 23
0.3984999999999994
 33
2.06
  0
3DFACE
  5
64249
330
458D6
100
AcDbEntity
  8
0
100
AcDbFace
 10
0.0002103500000001
 20
0.3984999999999994
 30
2.06
 11
0.0002103500000001
 21
-1.845499999999999
 31
2.06
 12
1.765210349999999
 22
-1.845499999999999
 32
2.06
 13
1.765210349999999
 23
0.3984999999999994
 33
2.06
  0
POLYLINE
  5
6424A
330
458D6
100
AcDbEntity
  8
0
  6
Continuous
100
AcDb3dPolyline
 66
     1
 10
0.0
 20
0.0
 30
0.0
 70
     8
  0
VERTEX
  5
6424B
330
6424A
100
AcDbEntity
  8
0
  6
Continuous
100
AcDbVertex
100
AcDb3dPolylineVertex
 10
1.765210349999999
 20
0.3984999999999994
 30
2.06
 70
    32
1001
ACAD
1000
R13OBJECT
1002
{
1005
6424A
1002
}
  0
VERTEX
  5
6424C
330
6424A
100
AcDbEntity
  8
0
  6
Continuous
100
AcDbVertex
100
AcDb3dPolylineVertex
 10
1.765210349999999
 20
-1.845500000000001
 30
2.06
 70
    32
1001
ACAD
1000
R13OBJECT
1002
{
1005
6424A
1002
}
  0
SEQEND
  5
6424D
330
6424A
100
AcDbEntity
  8
0
  6
Continuous
  0
POLYLINE
  5
6424E
330
458D6
100
AcDbEntity
  8
0
  6
Continuous
100
AcDb3dPolyline
 66
     1
 10
0.0
 20
0.0
 30
0.0
 70
     8
1001
ACAD
1000
R13OBJECT
1002
{
1005
6424A
1002
}
  0
VERTEX
  5
6424F
330
6424E
100
AcDbEntity
  8
0
  6
Continuous
100
AcDbVertex
100
AcDb3dPolylineVertex
 10
1.765210349999999
 20
-1.845500000000001
 30
2.06
 70
    32
1001
ACAD
1000
R13OBJECT
1002
{
1005
6424A
1002
}
  0
VERTEX
  5
64250
330
6424E
100
AcDbEntity
  8
0
  6
Continuous
100
AcDbVertex
100
AcDb3dPolylineVertex
 10
0.0002103500000001
 20
-1.845500000000001
 30
2.06
 70
    32
1001
ACAD
1000
R13OBJECT
1002
{
1005
6424A
1002
}
  0
SEQEND
  5
64251
330
6424E
100
AcDbEntity
  8
0
  6
Continuous
  0
POLYLINE
  5
64252
330
458D6
100
AcDbEntity
  8
0
  6
Continuous
100
AcDb3dPolyline
 66
     1
 10
0.0
 20
0.0
 30
0.0
 70
     8
1001
ACAD
1000
R13OBJECT
1002
{
1005
6424A
1002
}
  0
VERTEX
  5
64253
330
64252
100
AcDbEntity
  8
0
  6
Continuous
100
AcDbVertex
100
AcDb3dPolylineVertex
 10
0.0002103500000001
 20
-1.845500000000001
 30
2.06
 70
    32
1001
ACAD
1000
R13OBJECT
1002
{
1005
6424A
1002
}
  0
VERTEX
  5
64254
330
64252
100
AcDbEntity
  8
0
  6
Continuous
100
AcDbVertex
100
AcDb3dPolylineVertex
 10
0.0002103500000001
 20
0.3984999999999994
 30
2.06
 70
    32
1001
ACAD
1000
R13OBJECT
1002
{
1005
6424A
1002
}
  0
SEQEND
  5
64255
330
64252
100
AcDbEntity
  8
0
  6
Continuous
  0
POLYLINE
  5
64256
330
458D6
100
AcDbEntity
  8
0
  6
Continuous
100
AcDb3dPolyline
 66
     1
 10
0.0
 20
0.0
 30
0.0
 70
     8
1001
ACAD
1000
R13OBJECT
1002
{
1005
6424A
1002
}
  0
VERTEX
  5
64257
330
64256
100
AcDbEntity
  8
0
  6
Continuous
100
AcDbVertex
100
AcDb3dPolylineVertex
 10
0.0002103500000001
 20
0.3984999999999994
 30
2.06
 70
    32
1001
ACAD
1000
R13OBJECT
1002
{
1005
6424A
1002
}
  0
VERTEX
  5
64258
330
64256
100
AcDbEntity
  8
0
  6
Continuous
100
AcDbVertex
100
AcDb3dPolylineVertex
 10
1.765210349999999
 20
0.3984999999999994
 30
2.06
 70
    32
1001
ACAD
1000
R13OBJECT
1002
{
1005
6424A
1002
}
  0
SEQEND
  5
64259
330
64256
100
AcDbEntity
  8
0
  6
Continuous
  0
POLYLINE
  5
6425A
330
458D6
100
AcDbEntity
  8
0
  6
Continuous
100
AcDb3dPolyline
 66
     1
 10
0.0
 20
0.0
 30
0.0
 70
     8
  0
VERTEX
  5
6425B
330
6425A
100
AcDbEntity
  8
0
  6
Continuous
100
AcDbVertex
100
AcDb3dPolylineVertex
 10
0.0002103500000001
 20
-1.845500000000001
 30
3.082
 70
    32
1001
ACAD
1000
R13OBJECT
1002
{
1005
6425A
1002
}
  0
VERTEX
  5
6425C
330
6425A
100
AcDbEntity
  8
0
  6
Continuous
100
AcDbVertex
100
AcDb3dPolylineVertex
 10
0.0002103500000001
 20
-1.845500000000001
 30
2.06
 70
    32
1001
ACAD
1000
R13OBJECT
1002
{
1005
6425A
1002
}
  0
SEQEND
  5
6425D
330
6425A
100
AcDbEntity
  8
0
  6
Continuous
  0
POLYLINE
  5
6425E
330
458D6
100
AcDbEntity
  8
0
  6
Continuous
100
AcDb3dPolyline
 66
     1
 10
0.0
 20
0.0
 30
0.0
 70
     8
1001
ACAD
1000
R13OBJECT
1002
{
1005
6425A
1002
}
  0
VERTEX
  5
6425F
330
6425E
100
AcDbEntity
  8
0
  6
Continuous
100
AcDbVertex
100
AcDb3dPolylineVertex
 10
1.765210349999999
 20
-1.845500000000001
 30
2.06
 70
    32
1001
ACAD
1000
R13OBJECT
1002
{
1005
6425A
1002
}
  0
VERTEX
  5
64260
330
6425E
100
AcDbEntity
  8
0
  6
Continuous
100
AcDbVertex
100
AcDb3dPolylineVertex
 10
0.0002103500000001
 20
-1.845500000000001
 30
2.06
 70
    32
1001
ACAD
1000
R13OBJECT
1002
{
1005
6425A
1002
}
  0
SEQEND
  5
64261
330
6425E
100
AcDbEntity
  8
0
  6
Continuous
  0
POLYLINE
  5
64262
330
458D6
100
AcDbEntity
  8
0
  6
Continuous
100
AcDb3dPolyline
 66
     1
 10
0.0
 20
0.0
 30
0.0
 70
     8
1001
ACAD
1000
R13OBJECT
1002
{
1005
6425A
1002
}
  0
VERTEX
  5
64263
330
64262
100
AcDbEntity
  8
0
  6
Continuous
100
AcDbVertex
100
AcDb3dPolylineVertex
 10
1.765210349999999
 20
-1.845500000000001
 30
3.082
 70
    32
1001
ACAD
1000
R13OBJECT
1002
{
1005
6425A
1002
}
  0
VERTEX
  5
64264
330
64262
100
AcDbEntity
  8
0
  6
Continuous
100
AcDbVertex
100
AcDb3dPolylineVertex
 10
1.765210349999999
 20
-1.845500000000001
 30
2.06
 70
    32
1001
ACAD
1000
R13OBJECT
1002
{
1005
6425A
1002
}
  0
SEQEND
  5
64265
330
64262
100
AcDbEntity
  8
0
  6
Continuous
  0
POLYLINE
  5
64266
330
458D6
100
AcDbEntity
  8
0
  6
Continuous
100
AcDb3dPolyline
 66
     1
 10
0.0
 20
0.0
 30
0.0
 70
     8
1001
ACAD
1000
R13OBJECT
1002
{
1005
6425A
1002
}
  0
VERTEX
  5
64267
330
64266
100
AcDbEntity
  8
0
  6
Continuous
100
AcDbVertex
100
AcDb3dPolylineVertex
 10
0.0002103500000001
 20
-1.845500000000001
 30
3.082
 70
    32
1001
ACAD
1000
R13OBJECT
1002
{
1005
6425A
1002
}
  0
VERTEX
  5
64268
330
64266
100
AcDbEntity
  8
0
  6
Continuous
100
AcDbVertex
100
AcDb3dPolylineVertex
 10
1.765210349999999
 20
-1.845500000000001
 30
3.082
 70
    32
1001
ACAD
1000
R13OBJECT
1002
{
1005
6425A
1002
}
  0
SEQEND
  5
64269
330
64266
100
AcDbEntity
  8
0
  6
Continuous
  0
POLYLINE
  5
6426A
330
458D6
100
AcDbEntity
  8
0
  6
Continuous
100
AcDb3dPolyline
 66
     1
 10
0.0
 20
0.0
 30
0.0
 70
     8
  0
VERTEX
  5
6426B
330
6426A
100
AcDbEntity
  8
0
  6
Continuous
100
AcDbVertex
100
AcDb3dPolylineVertex
 10
1.765210349999999
 20
0.3984999999999994
 30
3.082
 70
    32
1001
ACAD
1000
R13OBJECT
1002
{
1005
6426A
1002
}
  0
VERTEX
  5
6426C
330
6426A
100
AcDbEntity
  8
0
  6
Continuous
100
AcDbVertex
100
AcDb3dPolylineVertex
 10
1.765210349999999
 20
0.3984999999999994
 30
2.06
 70
    32
1001
ACAD
1000
R13OBJECT
1002
{
1005
6426A
1002
}
  0
SEQEND
  5
6426D
330
6426A
100
AcDbEntity
  8
0
  6
Continuous
  0
POLYLINE
  5
6426E
330
458D6
100
AcDbEntity
  8
0
  6
Continuous
100
AcDb3dPolyline
 66
     1
 10
0.0
 20
0.0
 30
0.0
 70
     8
1001
ACAD
1000
R13OBJECT
1002
{
1005
6426A
1002
}
  0
VERTEX
  5
6426F
330
6426E
100
AcDbEntity
  8
0
  6
Continuous
100
AcDbVertex
100
AcDb3dPolylineVertex
 10
0.0002103500000001
 20
0.3984999999999994
 30
2.06
 70
    32
1001
ACAD
1000
R13OBJECT
1002
{
1005
6426A
1002
}
  0
VERTEX
  5
64270
330
6426E
100
AcDbEntity
  8
0
  6
Continuous
100
AcDbVertex
100
AcDb3dPolylineVertex
 10
1.765210349999999
 20
0.3984999999999994
 30
2.06
 70
    32
1001
ACAD
1000
R13OBJECT
1002
{
1005
6426A
1002
}
  0
SEQEND
  5
64271
330
6426E
100
AcDbEntity
  8
0
  6
Continuous
  0
POLYLINE
  5
64272
330
458D6
100
AcDbEntity
  8
0
  6
Continuous
100
AcDb3dPolyline
 66
     1
 10
0.0
 20
0.0
 30
0.0
 70
     8
1001
ACAD
1000
R13OBJECT
1002
{
1005
6426A
1002
}
  0
VERTEX
  5
64273
330
64272
100
AcDbEntity
  8
0
  6
Continuous
100
AcDbVertex
100
AcDb3dPolylineVertex
 10
0.0002103500000001
 20
0.3984999999999994
 30
3.082
 70
    32
1001
ACAD
1000
R13OBJECT
1002
{
1005
6426A
1002
}
  0
VERTEX
  5
64274
330
64272
100
AcDbEntity
  8
0
  6
Continuous
100
AcDbVertex
100
AcDb3dPolylineVertex
 10
0.0002103500000001
 20
0.3984999999999994
 30
2.06
 70
    32
1001
ACAD
1000
R13OBJECT
1002
{
1005
6426A
1002
}
  0
SEQEND
  5
64275
330
64272
100
AcDbEntity
  8
0
  6
Continuous
  0
POLYLINE
  5
64276
330
458D6
100
AcDbEntity
  8
0
  6
Continuous
100
AcDb3dPolyline
 66
     1
 10
0.0
 20
0.0
 30
0.0
 70
     8
1001
ACAD
1000
R13OBJECT
1002
{
1005
6426A
1002
}
  0
VERTEX
  5
64277
330
64276
100
AcDbEntity
  8
0
  6
Continuous
100
AcDbVertex
100
AcDb3dPolylineVertex
 10
1.765210349999999
 20
0.3984999999999994
 30
3.082
 70
    32
1001
ACAD
1000
R13OBJECT
1002
{
1005
6426A
1002
}
  0
VERTEX
  5
64278
330
64276
100
AcDbEntity
  8
0
  6
Continuous
100
AcDbVertex
100
AcDb3dPolylineVertex
 10
0.0002103500000001
 20
0.3984999999999994
 30
3.082
 70
    32
1001
ACAD
1000
R13OBJECT
1002
{
1005
6426A
1002
}
  0
SEQEND
  5
64279
330
64276
100
AcDbEntity
  8
0
  6
Continuous
  0
POLYLINE
  5
6427A
330
458D6
100
AcDbEntity
  8
0
  6
Continuous
100
AcDb3dPolyline
 66
     1
 10
0.0
 20
0.0
 30
0.0
 70
     8
  0
VERTEX
  5
6427B
330
6427A
100
AcDbEntity
  8
0
  6
Continuous
100
AcDbVertex
100
AcDb3dPolylineVertex
 10
1.765210349999999
 20
-1.845500000000001
 30
3.082
 70
    32
1001
ACAD
1000
R13OBJECT
1002
{
1005
6427A
1002
}
  0
VERTEX
  5
6427C
330
6427A
100
AcDbEntity
  8
0
  6
Continuous
100
AcDbVertex
100
AcDb3dPolylineVertex
 10
1.765210349999999
 20
-1.845500000000001
 30
2.06
 70
    32
1001
ACAD
1000
R13OBJECT
1002
{
1005
6427A
1002
}
  0
SEQEND
  5
6427D
330
6427A
100
AcDbEntity
  8
0
  6
Continuous
  0
POLYLINE
  5
6427E
330
458D6
100
AcDbEntity
  8
0
  6
Continuous
100
AcDb3dPolyline
 66
     1
 10
0.0
 20
0.0
 30
0.0
 70
     8
1001
ACAD
1000
R13OBJECT
1002
{
1005
6427A
1002
}
  0
VERTEX
  5
6427F
330
6427E
100
AcDbEntity
  8
0
  6
Continuous
100
AcDbVertex
100
AcDb3dPolylineVertex
 10
1.765210349999999
 20
0.3984999999999994
 30
2.06
 70
    32
1001
ACAD
1000
R13OBJECT
1002
{
1005
6427A
1002
}
  0
VERTEX
  5
64280
330
6427E
100
AcDbEntity
  8
0
  6
Continuous
100
AcDbVertex
100
AcDb3dPolylineVertex
 10
1.765210349999999
 20
-1.845500000000001
 30
2.06
 70
    32
1001
ACAD
1000
R13OBJECT
1002
{
1005
6427A
1002
}
  0
SEQEND
  5
64281
330
6427E
100
AcDbEntity
  8
0
  6
Continuous
  0
POLYLINE
  5
64282
330
458D6
100
AcDbEntity
  8
0
  6
Continuous
100
AcDb3dPolyline
 66
     1
 10
0.0
 20
0.0
 30
0.0
 70
     8
1001
ACAD
1000
R13OBJECT
1002
{
1005
6427A
1002
}
  0
VERTEX
  5
64283
330
64282
100
AcDbEntity
  8
0
  6
Continuous
100
AcDbVertex
100
AcDb3dPolylineVertex
 10
1.765210349999999
 20
0.3984999999999994
 30
3.082
 70
    32
1001
ACAD
1000
R13OBJECT
1002
{
1005
6427A
1002
}
  0
VERTEX
  5
64284
330
64282
100
AcDbEntity
  8
0
  6
Continuous
100
AcDbVertex
100
AcDb3dPolylineVertex
 10
1.765210349999999
 20
0.3984999999999994
 30
2.06
 70
    32
1001
ACAD
1000
R13OBJECT
1002
{
1005
6427A
1002
}
  0
SEQEND
  5
64285
330
64282
100
AcDbEntity
  8
0
  6
Continuous
  0
POLYLINE
  5
64286
330
458D6
100
AcDbEntity
  8
0
  6
Continuous
100
AcDb3dPolyline
 66
     1
 10
0.0
 20
0.0
 30
0.0
 70
     8
1001
ACAD
1000
R13OBJECT
1002
{
1005
6427A
1002
}
  0
VERTEX
  5
64287
330
64286
100
AcDbEntity
  8
0
  6
Continuous
100
AcDbVertex
100
AcDb3dPolylineVertex
 10
1.765210349999999
 20
-1.845500000000001
 30
3.082
 70
    32
1001
ACAD
1000
R13OBJECT
1002
{
1005
6427A
1002
}
  0
VERTEX
  5
64288
330
64286
100
AcDbEntity
  8
0
  6
Continuous
100
AcDbVertex
100
AcDb3dPolylineVertex
 10
1.765210349999999
 20
0.3984999999999994
 30
3.082
 70
    32
1001
ACAD
1000
R13OBJECT
1002
{
1005
6427A
1002
}
  0
SEQEND
  5
64289
330
64286
100
AcDbEntity
  8
0
  6
Continuous
  0
LINE
  5
6428A
330
458D6
100
AcDbEntity
  8
0
100
AcDbLine
 10
0.0002103500000001
 20
0.3984999999999994
 30
3.082
 11
0.0002103500000001
 21
0.3984999999999994
 31
2.06
210
-1.0
220
0.0
230
0.0
  0
LINE
  5
6428B
330
458D6
100
AcDbEntity
  8
0
100
AcDbLine
 10
0.0002103500000001
 20
0.3984999999999994
 30
3.082
 11
0.0002103500000001
 21
-1.845500000000001
 31
3.082
210
-1.0
220
0.0
230
0.0
  0
LINE
  5
6428C
330
458D6
100
AcDbEntity
  8
0
100
AcDbLine
 10
0.0002103500000001
 20
-1.845500000000001
 30
3.082
 11
0.0002103500000001
 21
-1.845500000000001
 31
2.06
210
-1.0
220
0.0
230
0.0
  0
3DFACE
  5
6428D
330
458D6
100
AcDbEntity
  8
0
100
AcDbFace
 10
1.765210349999999
 20
0.3984999999999981
 30
3.082
 11
1.765210349999999
 21
-1.845500000000001
 31
3.082
 12
0.0002103500000001
 22
-1.845500000000001
 32
3.082
 13
0.0002103500000001
 23
0.3984999999999981
 33
3.082
  0
POLYLINE
  5
6428E
330
458D6
100
AcDbEntity
  8
0
100
AcDbPolygonMesh
 66
     1
 10
0.0
 20
0.0
 30
0.0
 70
    16
 71
     6
 72
     3
  0
VERTEX
  5
6428F
330
6428E
100
AcDbEntity
  8
0
100
AcDbVertex
100
AcDbPolygonMeshVertex
 10
1.250710349999998
 20
-0.4394862069696881
 30
3.293
 70
    64
  0
VERTEX
  5
64290
330
6428E
100
AcDbEntity
  8
0
100
AcDbVertex
100
AcDbPolygonMeshVertex
 10
1.250710349999998
 20
-0.4394862069696881
 30
3.116
 70
    64
  0
VERTEX
  5
64291
330
6428E
100
AcDbEntity
  8
0
100
AcDbVertex
100
AcDbPolygonMeshVertex
 10
1.250710349999998
 20
-0.4394862069696881
 30
3.116
 70
    64
  0
VERTEX
  5
64292
330
6428E
100
AcDbEntity
  8
0
100
AcDbVertex
100
AcDbPolygonMeshVertex
 10
1.081210349999998
 20
-0.4394862069696881
 30
3.293
 70
    64
  0
VERTEX
  5
64293
330
6428E
100
AcDbEntity
  8
0
100
AcDbVertex
100
AcDbPolygonMeshVertex
 10
1.081210349999998
 20
-0.4394862069696881
 30
3.116
 70
    64
  0
VERTEX
  5
64294
330
6428E
100
AcDbEntity
  8
0
100
AcDbVertex
100
AcDbPolygonMeshVertex
 10
1.081210349999998
 20
-0.4394862069696881
 30
3.116
 70
    64
  0
VERTEX
  5
64295
330
6428E
100
AcDbEntity
  8
0
100
AcDbVertex
100
AcDbPolygonMeshVertex
 10
1.081210349999998
 20
-0.0864862069696884
 30
3.293
 70
    64
  0
VERTEX
  5
64296
330
6428E
100
AcDbEntity
  8
0
100
AcDbVertex
100
AcDbPolygonMeshVertex
 10
1.081210349999998
 20
-0.0864862069696884
 30
3.116
 70
    64
  0
VERTEX
  5
64297
330
6428E
100
AcDbEntity
  8
0
100
AcDbVertex
100
AcDbPolygonMeshVertex
 10
1.081210349999998
 20
-0.4394862069696881
 30
3.116
 70
    64
  0
VERTEX
  5
64298
330
6428E
100
AcDbEntity
  8
0
100
AcDbVertex
100
AcDbPolygonMeshVertex
 10
1.250710349999998
 20
-0.0864862069696884
 30
3.293
 70
    64
  0
VERTEX
  5
64299
330
6428E
100
AcDbEntity
  8
0
100
AcDbVertex
100
AcDbPolygonMeshVertex
 10
1.250710349999998
 20
-0.0864862069696884
 30
3.116
 70
    64
  0
VERTEX
  5
6429A
330
6428E
100
AcDbEntity
  8
0
100
AcDbVertex
100
AcDbPolygonMeshVertex
 10
1.250710349999998
 20
-0.4394862069696881
 30
3.116
 70
    64
  0
VERTEX
  5
6429B
330
6428E
100
AcDbEntity
  8
0
100
AcDbVertex
100
AcDbPolygonMeshVertex
 10
1.250710349999998
 20
-0.0864862069696884
 30
3.293
 70
    64
  0
VERTEX
  5
6429C
330
6428E
100
AcDbEntity
  8
0
100
AcDbVertex
100
AcDbPolygonMeshVertex
 10
1.250710349999998
 20
-0.0864862069696884
 30
3.293
 70
    64
  0
VERTEX
  5
6429D
330
6428E
100
AcDbEntity
  8
0
100
AcDbVertex
100
AcDbPolygonMeshVertex
 10
1.250710349999998
 20
-0.4394862069696881
 30
3.293
 70
    64
  0
VERTEX
  5
6429E
330
6428E
100
AcDbEntity
  8
0
100
AcDbVertex
100
AcDbPolygonMeshVertex
 10
1.081210349999998
 20
-0.0864862069696884
 30
3.293
 70
    64
  0
VERTEX
  5
6429F
330
6428E
100
AcDbEntity
  8
0
100
AcDbVertex
100
AcDbPolygonMeshVertex
 10
1.081210349999998
 20
-0.0864862069696884
 30
3.293
 70
    64
  0
VERTEX
  5
642A0
330
6428E
100
AcDbEntity
  8
0
100
AcDbVertex
100
AcDbPolygonMeshVertex
 10
1.081210349999998
 20
-0.4394862069696881
 30
3.293
 70
    64
  0
SEQEND
  5
642A1
330
6428E
100
AcDbEntity
  8
0
  0
POLYLINE
  5
642A2
330
458D6
100
AcDbEntity
  8
0
100
AcDbPolygonMesh
 66
     1
 10
0.0
 20
0.0
 30
0.0
 70
    16
 71
     6
 72
     3
  0
VERTEX
  5
642A3
330
642A2
100
AcDbEntity
  8
0
100
AcDbVertex
100
AcDbPolygonMeshVertex
 10
1.122710349999998
 20
-0.8944862069696878
 30
3.332000000000001
 70
    64
  0
VERTEX
  5
642A4
330
642A2
100
AcDbEntity
  8
0
100
AcDbVertex
100
AcDbPolygonMeshVertex
 10
1.122710349999998
 20
-0.8944862069696878
 30
3.116
 70
    64
  0
VERTEX
  5
642A5
330
642A2
100
AcDbEntity
  8
0
100
AcDbVertex
100
AcDbPolygonMeshVertex
 10
1.122710349999998
 20
-0.8944862069696878
 30
3.116
 70
    64
  0
VERTEX
  5
642A6
330
642A2
100
AcDbEntity
  8
0
100
AcDbVertex
100
AcDbPolygonMeshVertex
 10
0.9877103499999989
 20
-0.8944862069696878
 30
3.332000000000001
 70
    64
  0
VERTEX
  5
642A7
330
642A2
100
AcDbEntity
  8
0
100
AcDbVertex
100
AcDbPolygonMeshVertex
 10
0.9877103499999989
 20
-0.8944862069696878
 30
3.116
 70
    64
  0
VERTEX
  5
642A8
330
642A2
100
AcDbEntity
  8
0
100
AcDbVertex
100
AcDbPolygonMeshVertex
 10
0.9877103499999989
 20
-0.8944862069696878
 30
3.116
 70
    64
  0
VERTEX
  5
642A9
330
642A2
100
AcDbEntity
  8
0
100
AcDbVertex
100
AcDbPolygonMeshVertex
 10
0.9877103499999989
 20
-0.5494862069696876
 30
3.332000000000001
 70
    64
  0
VERTEX
  5
642AA
330
642A2
100
AcDbEntity
  8
0
100
AcDbVertex
100
AcDbPolygonMeshVertex
 10
0.9877103499999989
 20
-0.5494862069696876
 30
3.116
 70
    64
  0
VERTEX
  5
642AB
330
642A2
100
AcDbEntity
  8
0
100
AcDbVertex
100
AcDbPolygonMeshVertex
 10
0.9877103499999989
 20
-0.8944862069696878
 30
3.116
 70
    64
  0
VERTEX
  5
642AC
330
642A2
100
AcDbEntity
  8
0
100
AcDbVertex
100
AcDbPolygonMeshVertex
 10
1.122710349999998
 20
-0.5494862069696876
 30
3.332000000000001
 70
    64
  0
VERTEX
  5
642AD
330
642A2
100
AcDbEntity
  8
0
100
AcDbVertex
100
AcDbPolygonMeshVertex
 10
1.122710349999998
 20
-0.5494862069696876
 30
3.116
 70
    64
  0
VERTEX
  5
642AE
330
642A2
100
AcDbEntity
  8
0
100
AcDbVertex
100
AcDbPolygonMeshVertex
 10
1.122710349999998
 20
-0.8944862069696878
 30
3.116
 70
    64
  0
VERTEX
  5
642AF
330
642A2
100
AcDbEntity
  8
0
100
AcDbVertex
100
AcDbPolygonMeshVertex
 10
1.122710349999998
 20
-0.5494862069696876
 30
3.332000000000001
 70
    64
  0
VERTEX
  5
642B0
330
642A2
100
AcDbEntity
  8
0
100
AcDbVertex
100
AcDbPolygonMeshVertex
 10
1.122710349999998
 20
-0.5494862069696876
 30
3.332000000000001
 70
    64
  0
VERTEX
  5
642B1
330
642A2
100
AcDbEntity
  8
0
100
AcDbVertex
100
AcDbPolygonMeshVertex
 10
1.122710349999998
 20
-0.8944862069696878
 30
3.332000000000001
 70
    64
  0
VERTEX
  5
642B2
330
642A2
100
AcDbEntity
  8
0
100
AcDbVertex
100
AcDbPolygonMeshVertex
 10
0.9877103499999989
 20
-0.5494862069696876
 30
3.332000000000001
 70
    64
  0
VERTEX
  5
642B3
330
642A2
100
AcDbEntity
  8
0
100
AcDbVertex
100
AcDbPolygonMeshVertex
 10
0.9877103499999989
 20
-0.5494862069696876
 30
3.332000000000001
 70
    64
  0
VERTEX
  5
642B4
330
642A2
100
AcDbEntity
  8
0
100
AcDbVertex
100
AcDbPolygonMeshVertex
 10
0.9877103499999989
 20
-0.8944862069696878
 30
3.332000000000001
 70
    64
  0
SEQEND
  5
642B5
330
642A2
100
AcDbEntity
  8
0
  0
3DFACE
  5
642B6
330
458D6
100
AcDbEntity
  8
0
100
AcDbFace
 10
1.765210349999999
 20
0.3984999999999981
 30
3.082
 11
1.765210349999999
 21
0.3984999999999981
 31
3.082
 12
0.0002103500000001
 22
0.3984999999999981
 32
3.082
 13
0.0002103500000001
 23
0.3984999999999981
 33
3.082
  0
TEXT
  5
642B7
330
458D6
100
AcDbEntity
  8
0
100
AcDbText
 10
0.0726275393171534
 20
0.301596169847989
 30
3.082
 40
0.0834654981097751
  1
1
100
AcDbText
  0
TEXT
  5
642B8
330
458D6
100
AcDbEntity
  8
0
100
AcDbText
 10
1.169576520998377
 20
0.304735651778393
 30
3.082
 40
0.0834654981097751
  1
L3
100
AcDbText
  0
TEXT
  5
642B9
330
458D6
100
AcDbEntity
  8
0
100
AcDbText
 10
0.7630294693613373
 20
0.3013239366769129
 30
3.082
 40
0.0834654981097751
  1
L2
100
AcDbText
  0
TEXT
  5
642BA
330
458D6
100
AcDbEntity
  8
0
100
AcDbText
 10
0.3364056597455404
 20
0.3007543037421425
 30
3.082
 40
0.0834654981097751
  1
L1
100
AcDbText
  0
TEXT
  5
642BB
330
458D6
100
AcDbEntity
  8
0
100
AcDbText
 10
0.5233787887662298
 20
0.299912437636296
 30
3.082
 40
0.0834654981097751
  1
3
100
AcDbText
  0
TEXT
  5
642BC
330
458D6
100
AcDbEntity
  8
0
100
AcDbText
 10
0.9649127043462657
 20
0.3027354357175302
 30
3.082
 40
0.0834654981097751
  1
5
100
AcDbText
  0
TEXT
  5
642BD
330
458D6
100
AcDbEntity
  8
0
100
AcDbText
 10
1.599326520998376
 20
0.304735651778393
 30
3.082
 40
0.0834654981097751
  1
NC
100
AcDbText
  0
TEXT
  5
642BE
330
458D6
100
AcDbEntity
  8
0
100
AcDbText
 10
1.370118397435937
 20
0.3027354357175302
 30
3.082
 40
0.0834654981097751
  1
21
100
AcDbText
  0
POLYLINE
  5
642BF
330
458D6
100
AcDbEntity
  8
0
100
AcDbPolygonMesh
 66
     1
 10
0.0
 20
0.0
 30
0.0
 70
    16
 71
     6
 72
     3
  0
VERTEX
  5
642C0
330
642BF
100
AcDbEntity
  8
0
100
AcDbVertex
100
AcDbPolygonMeshVertex
 10
1.27071035
 20
-1.376486206969687
 30
3.282
 70
    64
  0
VERTEX
  5
642C1
330
642BF
100
AcDbEntity
  8
0
100
AcDbVertex
100
AcDbPolygonMeshVertex
 10
1.27071035
 20
-1.376486206969687
 30
3.082
 70
    64
  0
VERTEX
  5
642C2
330
642BF
100
AcDbEntity
  8
0
100
AcDbVertex
100
AcDbPolygonMeshVertex
 10
1.27071035
 20
-1.376486206969687
 30
3.082
 70
    64
  0
VERTEX
  5
642C3
330
642BF
100
AcDbEntity
  8
0
100
AcDbVertex
100
AcDbPolygonMeshVertex
 10
0.4997103499999995
 20
-1.376486206969687
 30
3.282
 70
    64
  0
VERTEX
  5
642C4
330
642BF
100
AcDbEntity
  8
0
100
AcDbVertex
100
AcDbPolygonMeshVertex
 10
0.4997103499999995
 20
-1.376486206969687
 30
3.082
 70
    64
  0
VERTEX
  5
642C5
330
642BF
100
AcDbEntity
  8
0
100
AcDbVertex
100
AcDbPolygonMeshVertex
 10
0.4997103499999995
 20
-1.376486206969687
 30
3.082
 70
    64
  0
VERTEX
  5
642C6
330
642BF
100
AcDbEntity
  8
0
100
AcDbVertex
100
AcDbPolygonMeshVertex
 10
0.4997103499999995
 20
-1.094486206969687
 30
3.282
 70
    64
  0
VERTEX
  5
642C7
330
642BF
100
AcDbEntity
  8
0
100
AcDbVertex
100
AcDbPolygonMeshVertex
 10
0.4997103499999995
 20
-1.094486206969687
 30
3.082
 70
    64
  0
VERTEX
  5
642C8
330
642BF
100
AcDbEntity
  8
0
100
AcDbVertex
100
AcDbPolygonMeshVertex
 10
0.4997103499999995
 20
-1.376486206969687
 30
3.082
 70
    64
  0
VERTEX
  5
642C9
330
642BF
100
AcDbEntity
  8
0
100
AcDbVertex
100
AcDbPolygonMeshVertex
 10
1.27071035
 20
-1.094486206969687
 30
3.282
 70
    64
  0
VERTEX
  5
642CA
330
642BF
100
AcDbEntity
  8
0
100
AcDbVertex
100
AcDbPolygonMeshVertex
 10
1.27071035
 20
-1.094486206969687
 30
3.082
 70
    64
  0
VERTEX
  5
642CB
330
642BF
100
AcDbEntity
  8
0
100
AcDbVertex
100
AcDbPolygonMeshVertex
 10
1.27071035
 20
-1.376486206969687
 30
3.082
 70
    64
  0
VERTEX
  5
642CC
330
642BF
100
AcDbEntity
  8
0
100
AcDbVertex
100
AcDbPolygonMeshVertex
 10
1.27071035
 20
-1.094486206969687
 30
3.282
 70
    64
  0
VERTEX
  5
642CD
330
642BF
100
AcDbEntity
  8
0
100
AcDbVertex
100
AcDbPolygonMeshVertex
 10
1.27071035
 20
-1.094486206969687
 30
3.282
 70
    64
  0
VERTEX
  5
642CE
330
642BF
100
AcDbEntity
  8
0
100
AcDbVertex
100
AcDbPolygonMeshVertex
 10
1.27071035
 20
-1.376486206969687
 30
3.282
 70
    64
  0
VERTEX
  5
642CF
330
642BF
100
AcDbEntity
  8
0
100
AcDbVertex
100
AcDbPolygonMeshVertex
 10
0.4997103499999995
 20
-1.094486206969687
 30
3.282
 70
    64
  0
VERTEX
  5
642D0
330
642BF
100
AcDbEntity
  8
0
100
AcDbVertex
100
AcDbPolygonMeshVertex
 10
0.4997103499999995
 20
-1.094486206969687
 30
3.282
 70
    64
  0
VERTEX
  5
642D1
330
642BF
100
AcDbEntity
  8
0
100
AcDbVertex
100
AcDbPolygonMeshVertex
 10
0.4997103499999995
 20
-1.376486206969687
 30
3.282
 70
    64
  0
SEQEND
  5
642D2
330
642BF
100
AcDbEntity
  8
0
  0
POLYLINE
  5
642D3
330
458D6
100
AcDbEntity
  8
0
100
AcDbPolygonMesh
 66
     1
 10
0.0
 20
0.0
 30
0.0
 70
    16
 71
     6
 72
     3
  0
VERTEX
  5
642D4
330
642D3
100
AcDbEntity
  8
0
100
AcDbVertex
100
AcDbPolygonMeshVertex
 10
1.250710349999998
 20
-0.4394862069696881
 30
3.116
 70
    64
  0
VERTEX
  5
642D5
330
642D3
100
AcDbEntity
  8
0
100
AcDbVertex
100
AcDbPolygonMeshVertex
 10
1.250710349999998
 20
-0.4394862069696881
 30
3.082
 70
    64
  0
VERTEX
  5
642D6
330
642D3
100
AcDbEntity
  8
0
100
AcDbVertex
100
AcDbPolygonMeshVertex
 10
1.250710349999998
 20
-0.4394862069696881
 30
3.082
 70
    64
  0
VERTEX
  5
642D7
330
642D3
100
AcDbEntity
  8
0
100
AcDbVertex
100
AcDbPolygonMeshVertex
 10
0.5197103499999991
 20
-0.4394862069696881
 30
3.116
 70
    64
  0
VERTEX
  5
642D8
330
642D3
100
AcDbEntity
  8
0
100
AcDbVertex
100
AcDbPolygonMeshVertex
 10
0.5197103499999991
 20
-0.4394862069696881
 30
3.082
 70
    64
  0
VERTEX
  5
642D9
330
642D3
100
AcDbEntity
  8
0
100
AcDbVertex
100
AcDbPolygonMeshVertex
 10
0.5197103499999991
 20
-0.4394862069696881
 30
3.082
 70
    64
  0
VERTEX
  5
642DA
330
642D3
100
AcDbEntity
  8
0
100
AcDbVertex
100
AcDbPolygonMeshVertex
 10
0.5197103499999991
 20
-0.0864862069696884
 30
3.116
 70
    64
  0
VERTEX
  5
642DB
330
642D3
100
AcDbEntity
  8
0
100
AcDbVertex
100
AcDbPolygonMeshVertex
 10
0.5197103499999991
 20
-0.0864862069696884
 30
3.082
 70
    64
  0
VERTEX
  5
642DC
330
642D3
100
AcDbEntity
  8
0
100
AcDbVertex
100
AcDbPolygonMeshVertex
 10
0.5197103499999991
 20
-0.4394862069696881
 30
3.082
 70
    64
  0
VERTEX
  5
642DD
330
642D3
100
AcDbEntity
  8
0
100
AcDbVertex
100
AcDbPolygonMeshVertex
 10
1.250710349999998
 20
-0.0864862069696884
 30
3.116
 70
    64
  0
VERTEX
  5
642DE
330
642D3
100
AcDbEntity
  8
0
100
AcDbVertex
100
AcDbPolygonMeshVertex
 10
1.250710349999998
 20
-0.0864862069696884
 30
3.082
 70
    64
  0
VERTEX
  5
642DF
330
642D3
100
AcDbEntity
  8
0
100
AcDbVertex
100
AcDbPolygonMeshVertex
 10
1.250710349999998
 20
-0.4394862069696881
 30
3.082
 70
    64
  0
VERTEX
  5
642E0
330
642D3
100
AcDbEntity
  8
0
100
AcDbVertex
100
AcDbPolygonMeshVertex
 10
1.250710349999998
 20
-0.0864862069696884
 30
3.116
 70
    64
  0
VERTEX
  5
642E1
330
642D3
100
AcDbEntity
  8
0
100
AcDbVertex
100
AcDbPolygonMeshVertex
 10
1.250710349999998
 20
-0.0864862069696884
 30
3.116
 70
    64
  0
VERTEX
  5
642E2
330
642D3
100
AcDbEntity
  8
0
100
AcDbVertex
100
AcDbPolygonMeshVertex
 10
1.250710349999998
 20
-0.4394862069696881
 30
3.116
 70
    64
  0
VERTEX
  5
642E3
330
642D3
100
AcDbEntity
  8
0
100
AcDbVertex
100
AcDbPolygonMeshVertex
 10
0.5197103499999991
 20
-0.0864862069696884
 30
3.116
 70
    64
  0
VERTEX
  5
642E4
330
642D3
100
AcDbEntity
  8
0
100
AcDbVertex
100
AcDbPolygonMeshVertex
 10
0.5197103499999991
 20
-0.0864862069696884
 30
3.116
 70
    64
  0
VERTEX
  5
642E5
330
642D3
100
AcDbEntity
  8
0
100
AcDbVertex
100
AcDbPolygonMeshVertex
 10
0.5197103499999991
 20
-0.4394862069696881
 30
3.116
 70
    64
  0
SEQEND
  5
642E6
330
642D3
100
AcDbEntity
  8
0
  0
POLYLINE
  5
642E7
330
458D6
100
AcDbEntity
  8
0
100
AcDbPolygonMesh
 66
     1
 10
0.0
 20
0.0
 30
0.0
 70
    16
 71
     6
 72
     3
  0
VERTEX
  5
642E8
330
642E7
100
AcDbEntity
  8
0
100
AcDbVertex
100
AcDbPolygonMeshVertex
 10
0.6892103499999993
 20
-0.4394862069696881
 30
3.293
 70
    64
  0
VERTEX
  5
642E9
330
642E7
100
AcDbEntity
  8
0
100
AcDbVertex
100
AcDbPolygonMeshVertex
 10
0.6892103499999993
 20
-0.4394862069696881
 30
3.116
 70
    64
  0
VERTEX
  5
642EA
330
642E7
100
AcDbEntity
  8
0
100
AcDbVertex
100
AcDbPolygonMeshVertex
 10
0.6892103499999993
 20
-0.4394862069696881
 30
3.116
 70
    64
  0
VERTEX
  5
642EB
330
642E7
100
AcDbEntity
  8
0
100
AcDbVertex
100
AcDbPolygonMeshVertex
 10
0.5197103499999991
 20
-0.4394862069696881
 30
3.293
 70
    64
  0
VERTEX
  5
642EC
330
642E7
100
AcDbEntity
  8
0
100
AcDbVertex
100
AcDbPolygonMeshVertex
 10
0.5197103499999991
 20
-0.4394862069696881
 30
3.116
 70
    64
  0
VERTEX
  5
642ED
330
642E7
100
AcDbEntity
  8
0
100
AcDbVertex
100
AcDbPolygonMeshVertex
 10
0.5197103499999991
 20
-0.4394862069696881
 30
3.116
 70
    64
  0
VERTEX
  5
642EE
330
642E7
100
AcDbEntity
  8
0
100
AcDbVertex
100
AcDbPolygonMeshVertex
 10
0.5197103499999991
 20
-0.0864862069696884
 30
3.293
 70
    64
  0
VERTEX
  5
642EF
330
642E7
100
AcDbEntity
  8
0
100
AcDbVertex
100
AcDbPolygonMeshVertex
 10
0.5197103499999991
 20
-0.0864862069696884
 30
3.116
 70
    64
  0
VERTEX
  5
642F0
330
642E7
100
AcDbEntity
  8
0
100
AcDbVertex
100
AcDbPolygonMeshVertex
 10
0.5197103499999991
 20
-0.4394862069696881
 30
3.116
 70
    64
  0
VERTEX
  5
642F1
330
642E7
100
AcDbEntity
  8
0
100
AcDbVertex
100
AcDbPolygonMeshVertex
 10
0.6892103499999993
 20
-0.0864862069696884
 30
3.293
 70
    64
  0
VERTEX
  5
642F2
330
642E7
100
AcDbEntity
  8
0
100
AcDbVertex
100
AcDbPolygonMeshVertex
 10
0.6892103499999993
 20
-0.0864862069696884
 30
3.116
 70
    64
  0
VERTEX
  5
642F3
330
642E7
100
AcDbEntity
  8
0
100
AcDbVertex
100
AcDbPolygonMeshVertex
 10
0.6892103499999993
 20
-0.4394862069696881
 30
3.116
 70
    64
  0
VERTEX
  5
642F4
330
642E7
100
AcDbEntity
  8
0
100
AcDbVertex
100
AcDbPolygonMeshVertex
 10
0.6892103499999993
 20
-0.0864862069696884
 30
3.293
 70
    64
  0
VERTEX
  5
642F5
330
642E7
100
AcDbEntity
  8
0
100
AcDbVertex
100
AcDbPolygonMeshVertex
 10
0.6892103499999993
 20
-0.0864862069696884
 30
3.293
 70
    64
  0
VERTEX
  5
642F6
330
642E7
100
AcDbEntity
  8
0
100
AcDbVertex
100
AcDbPolygonMeshVertex
 10
0.6892103499999993
 20
-0.4394862069696881
 30
3.293
 70
    64
  0
VERTEX
  5
642F7
330
642E7
100
AcDbEntity
  8
0
100
AcDbVertex
100
AcDbPolygonMeshVertex
 10
0.5197103499999991
 20
-0.0864862069696884
 30
3.293
 70
    64
  0
VERTEX
  5
642F8
330
642E7
100
AcDbEntity
  8
0
100
AcDbVertex
100
AcDbPolygonMeshVertex
 10
0.5197103499999991
 20
-0.0864862069696884
 30
3.293
 70
    64
  0
VERTEX
  5
642F9
330
642E7
100
AcDbEntity
  8
0
100
AcDbVertex
100
AcDbPolygonMeshVertex
 10
0.5197103499999991
 20
-0.4394862069696881
 30
3.293
 70
    64
  0
SEQEND
  5
642FA
330
642E7
100
AcDbEntity
  8
0
  0
POLYLINE
  5
642FB
330
458D6
100
AcDbEntity
  8
0
100
AcDbPolygonMesh
 66
     1
 10
0.0
 20
0.0
 30
0.0
 70
    16
 71
     6
 72
     3
  0
VERTEX
  5
642FC
330
642FB
100
AcDbEntity
  8
0
100
AcDbVertex
100
AcDbPolygonMeshVertex
 10
0.782710349999999
 20
-0.8944862069696878
 30
3.332000000000001
 70
    64
  0
VERTEX
  5
642FD
330
642FB
100
AcDbEntity
  8
0
100
AcDbVertex
100
AcDbPolygonMeshVertex
 10
0.782710349999999
 20
-0.8944862069696878
 30
3.116
 70
    64
  0
VERTEX
  5
642FE
330
642FB
100
AcDbEntity
  8
0
100
AcDbVertex
100
AcDbPolygonMeshVertex
 10
0.782710349999999
 20
-0.8944862069696878
 30
3.116
 70
    64
  0
VERTEX
  5
642FF
330
642FB
100
AcDbEntity
  8
0
100
AcDbVertex
100
AcDbPolygonMeshVertex
 10
0.6477103499999993
 20
-0.8944862069696878
 30
3.332000000000001
 70
    64
  0
VERTEX
  5
64300
330
642FB
100
AcDbEntity
  8
0
100
AcDbVertex
100
AcDbPolygonMeshVertex
 10
0.6477103499999993
 20
-0.8944862069696878
 30
3.116
 70
    64
  0
VERTEX
  5
64301
330
642FB
100
AcDbEntity
  8
0
100
AcDbVertex
100
AcDbPolygonMeshVertex
 10
0.6477103499999993
 20
-0.8944862069696878
 30
3.116
 70
    64
  0
VERTEX
  5
64302
330
642FB
100
AcDbEntity
  8
0
100
AcDbVertex
100
AcDbPolygonMeshVertex
 10
0.6477103499999993
 20
-0.5494862069696876
 30
3.332000000000001
 70
    64
  0
VERTEX
  5
64303
330
642FB
100
AcDbEntity
  8
0
100
AcDbVertex
100
AcDbPolygonMeshVertex
 10
0.6477103499999993
 20
-0.5494862069696876
 30
3.116
 70
    64
  0
VERTEX
  5
64304
330
642FB
100
AcDbEntity
  8
0
100
AcDbVertex
100
AcDbPolygonMeshVertex
 10
0.6477103499999993
 20
-0.8944862069696878
 30
3.116
 70
    64
  0
VERTEX
  5
64305
330
642FB
100
AcDbEntity
  8
0
100
AcDbVertex
100
AcDbPolygonMeshVertex
 10
0.782710349999999
 20
-0.5494862069696876
 30
3.332000000000001
 70
    64
  0
VERTEX
  5
64306
330
642FB
100
AcDbEntity
  8
0
100
AcDbVertex
100
AcDbPolygonMeshVertex
 10
0.782710349999999
 20
-0.5494862069696876
 30
3.116
 70
    64
  0
VERTEX
  5
64307
330
642FB
100
AcDbEntity
  8
0
100
AcDbVertex
100
AcDbPolygonMeshVertex
 10
0.782710349999999
 20
-0.8944862069696878
 30
3.116
 70
    64
  0
VERTEX
  5
64308
330
642FB
100
AcDbEntity
  8
0
100
AcDbVertex
100
AcDbPolygonMeshVertex
 10
0.782710349999999
 20
-0.5494862069696876
 30
3.332000000000001
 70
    64
  0
VERTEX
  5
64309
330
642FB
100
AcDbEntity
  8
0
100
AcDbVertex
100
AcDbPolygonMeshVertex
 10
0.782710349999999
 20
-0.5494862069696876
 30
3.332000000000001
 70
    64
  0
VERTEX
  5
6430A
330
642FB
100
AcDbEntity
  8
0
100
AcDbVertex
100
AcDbPolygonMeshVertex
 10
0.782710349999999
 20
-0.8944862069696878
 30
3.332000000000001
 70
    64
  0
VERTEX
  5
6430B
330
642FB
100
AcDbEntity
  8
0
100
AcDbVertex
100
AcDbPolygonMeshVertex
 10
0.6477103499999993
 20
-0.5494862069696876
 30
3.332000000000001
 70
    64
  0
VERTEX
  5
6430C
330
642FB
100
AcDbEntity
  8
0
100
AcDbVertex
100
AcDbPolygonMeshVertex
 10
0.6477103499999993
 20
-0.5494862069696876
 30
3.332000000000001
 70
    64
  0
VERTEX
  5
6430D
330
642FB
100
AcDbEntity
  8
0
100
AcDbVertex
100
AcDbPolygonMeshVertex
 10
0.6477103499999993
 20
-0.8944862069696878
 30
3.332000000000001
 70
    64
  0
SEQEND
  5
6430E
330
642FB
100
AcDbEntity
  8
0
  0
CIRCLE
  5
6430F
330
458D6
100
AcDbEntity
  8
0
100
AcDbCircle
 10
0.6678353499999999
 20
-1.587879991879503
 30
3.082
 40
0.138
  0
TEXT
  5
64310
330
458D6
100
AcDbEntity
  8
0
100
AcDbText
 10
0.7497317561352759
 20
-1.81957131621648
 30
3.082
 40
0.0834654981097751
  1
T2
100
AcDbText
  0
TEXT
  5
64311
330
458D6
100
AcDbEntity
  8
0
100
AcDbText
 10
0.9687825070885658
 20
-1.820413182322326
 30
3.082
 40
0.0834654981097751
  1
6
100
AcDbText
  0
CIRCLE
  5
64312
330
458D6
100
AcDbEntity
  8
0
100
AcDbCircle
 10
1.097585349999999
 20
-1.587879991879503
 30
3.082
 40
0.138
  0
POLYLINE
  5
64313
330
458D6
100
AcDbEntity
  8
0
100
AcDbPolygonMesh
 66
     1
 10
0.0
 20
0.0
 30
0.0
 70
    16
 71
     6
 72
     3
  0
VERTEX
  5
64314
330
64313
100
AcDbEntity
  8
0
100
AcDbVertex
100
AcDbPolygonMeshVertex
 10
1.122710349999998
 20
-0.8944862069696878
 30
3.116
 70
    64
  0
VERTEX
  5
64315
330
64313
100
AcDbEntity
  8
0
100
AcDbVertex
100
AcDbPolygonMeshVertex
 10
1.122710349999998
 20
-0.8944862069696878
 30
3.082
 70
    64
  0
VERTEX
  5
64316
330
64313
100
AcDbEntity
  8
0
100
AcDbVertex
100
AcDbPolygonMeshVertex
 10
1.122710349999998
 20
-0.8944862069696878
 30
3.082
 70
    64
  0
VERTEX
  5
64317
330
64313
100
AcDbEntity
  8
0
100
AcDbVertex
100
AcDbPolygonMeshVertex
 10
0.6477103499999993
 20
-0.8944862069696878
 30
3.116
 70
    64
  0
VERTEX
  5
64318
330
64313
100
AcDbEntity
  8
0
100
AcDbVertex
100
AcDbPolygonMeshVertex
 10
0.6477103499999993
 20
-0.8944862069696878
 30
3.082
 70
    64
  0
VERTEX
  5
64319
330
64313
100
AcDbEntity
  8
0
100
AcDbVertex
100
AcDbPolygonMeshVertex
 10
0.6477103499999993
 20
-0.8944862069696878
 30
3.082
 70
    64
  0
VERTEX
  5
6431A
330
64313
100
AcDbEntity
  8
0
100
AcDbVertex
100
AcDbPolygonMeshVertex
 10
0.6477103499999993
 20
-0.5494862069696876
 30
3.116
 70
    64
  0
VERTEX
  5
6431B
330
64313
100
AcDbEntity
  8
0
100
AcDbVertex
100
AcDbPolygonMeshVertex
 10
0.6477103499999993
 20
-0.5494862069696876
 30
3.082
 70
    64
  0
VERTEX
  5
6431C
330
64313
100
AcDbEntity
  8
0
100
AcDbVertex
100
AcDbPolygonMeshVertex
 10
0.6477103499999993
 20
-0.8944862069696878
 30
3.082
 70
    64
  0
VERTEX
  5
6431D
330
64313
100
AcDbEntity
  8
0
100
AcDbVertex
100
AcDbPolygonMeshVertex
 10
1.122710349999998
 20
-0.5494862069696876
 30
3.116
 70
    64
  0
VERTEX
  5
6431E
330
64313
100
AcDbEntity
  8
0
100
AcDbVertex
100
AcDbPolygonMeshVertex
 10
1.122710349999998
 20
-0.5494862069696876
 30
3.082
 70
    64
  0
VERTEX
  5
6431F
330
64313
100
AcDbEntity
  8
0
100
AcDbVertex
100
AcDbPolygonMeshVertex
 10
1.122710349999998
 20
-0.8944862069696878
 30
3.082
 70
    64
  0
VERTEX
  5
64320
330
64313
100
AcDbEntity
  8
0
100
AcDbVertex
100
AcDbPolygonMeshVertex
 10
1.122710349999998
 20
-0.5494862069696876
 30
3.116
 70
    64
  0
VERTEX
  5
64321
330
64313
100
AcDbEntity
  8
0
100
AcDbVertex
100
AcDbPolygonMeshVertex
 10
1.122710349999998
 20
-0.5494862069696876
 30
3.116
 70
    64
  0
VERTEX
  5
64322
330
64313
100
AcDbEntity
  8
0
100
AcDbVertex
100
AcDbPolygonMeshVertex
 10
1.122710349999998
 20
-0.8944862069696878
 30
3.116
 70
    64
  0
VERTEX
  5
64323
330
64313
100
AcDbEntity
  8
0
100
AcDbVertex
100
AcDbPolygonMeshVertex
 10
0.6477103499999993
 20
-0.5494862069696876
 30
3.116
 70
    64
  0
VERTEX
  5
64324
330
64313
100
AcDbEntity
  8
0
100
AcDbVertex
100
AcDbPolygonMeshVertex
 10
0.6477103499999993
 20
-0.5494862069696876
 30
3.116
 70
    64
  0
VERTEX
  5
64325
330
64313
100
AcDbEntity
  8
0
100
AcDbVertex
100
AcDbPolygonMeshVertex
 10
0.6477103499999993
 20
-0.8944862069696878
 30
3.116
 70
    64
  0
SEQEND
  5
64326
330
64313
100
AcDbEntity
  8
0
  0
TEXT
  5
64327
330
458D6
100
AcDbEntity
  8
0
100
AcDbText
 10
1.168754526302742
 20
-1.81900168328171
 30
3.082
 40
0.0834654981097751
  1
T3
100
AcDbText
  0
TEXT
  5
64328
330
458D6
100
AcDbEntity
  8
0
100
AcDbText
 10
0.3250220558396814
 20
-1.817524560975508
 30
3.082
 40
0.0834654981097751
  1
T1
100
AcDbText
  0
CIRCLE
  5
64329
330
458D6
100
AcDbEntity
  8
0
100
AcDbCircle
 10
0.2380853499999995
 20
-1.587879991879503
 30
3.082
 40
0.138
  0
TEXT
  5
6432A
330
458D6
100
AcDbEntity
  8
0
100
AcDbText
 10
0.080568931031785
 20
-1.821552448191868
 30
3.082
 40
0.0834654981097751
  1
2
100
AcDbText
  0
TEXT
  5
6432B
330
458D6
100
AcDbEntity
  8
0
100
AcDbText
 10
1.598504526302742
 20
-1.81900168328171
 30
3.082
 40
0.0834654981097751
  1
NC
100
AcDbText
  0
TEXT
  5
6432C
330
458D6
100
AcDbEntity
  8
0
100
AcDbText
 10
1.398532507088566
 20
-1.820413182322326
 30
3.082
 40
0.0834654981097751
  1
22
100
AcDbText
  0
CIRCLE
  5
6432D
330
458D6
100
AcDbEntity
  8
0
100
AcDbCircle
 10
1.527335349999999
 20
-1.587879991879503
 30
3.082
 40
0.138
  0
LWPOLYLINE
  5
6432E
330
458D6
100
AcDbEntity
  8
0
100
AcDbPolyline
 90
        2
 70
     0
 43
0.0
 38
2.06
 10
0.0002103500000001
 20
-1.845500000000001
 10
0.0002103500000001
 20
0.3984999999999994
  0
POLYLINE
  5
6432F
330
458D6
100
AcDbEntity
  8
0
100
AcDbPolygonMesh
 66
     1
 10
0.0
 20
0.0
 30
0.0
 70
    16
 71
     6
 72
     3
  0
VERTEX
  5
64330
330
6432F
100
AcDbEntity
  8
0
100
AcDbVertex
100
AcDbPolygonMeshVertex
 10
1.765210349999999
 20
-1.845499999999999
 30
3.082
 70
    64
  0
VERTEX
  5
64331
330
6432F
100
AcDbEntity
  8
0
100
AcDbVertex
100
AcDbPolygonMeshVertex
 10
1.765210349999999
 20
-1.845499999999999
 30
2.06
 70
    64
  0
VERTEX
  5
64332
330
6432F
100
AcDbEntity
  8
0
100
AcDbVertex
100
AcDbPolygonMeshVertex
 10
1.765210349999999
 20
-1.845499999999999
 30
2.06
 70
    64
  0
VERTEX
  5
64333
330
6432F
100
AcDbEntity
  8
0
100
AcDbVertex
100
AcDbPolygonMeshVertex
 10
0.0002103500000001
 20
-1.845500000000001
 30
3.082
 70
    64
  0
VERTEX
  5
64334
330
6432F
100
AcDbEntity
  8
0
100
AcDbVertex
100
AcDbPolygonMeshVertex
 10
0.0002103500000001
 20
-1.845500000000001
 30
2.06
 70
    64
  0
VERTEX
  5
64335
330
6432F
100
AcDbEntity
  8
0
100
AcDbVertex
100
AcDbPolygonMeshVertex
 10
0.0002103500000001
 20
-1.845500000000001
 30
2.06
 70
    64
  0
VERTEX
  5
64336
330
6432F
100
AcDbEntity
  8
0
100
AcDbVertex
100
AcDbPolygonMeshVertex
 10
0.0002103499999984
 20
0.3984999999999994
 30
3.082
 70
    64
  0
VERTEX
  5
64337
330
6432F
100
AcDbEntity
  8
0
100
AcDbVertex
100
AcDbPolygonMeshVertex
 10
0.0002103499999984
 20
0.3984999999999994
 30
2.06
 70
    64
  0
VERTEX
  5
64338
330
6432F
100
AcDbEntity
  8
0
100
AcDbVertex
100
AcDbPolygonMeshVertex
 10
0.0002103500000001
 20
-1.845500000000001
 30
2.06
 70
    64
  0
VERTEX
  5
64339
330
6432F
100
AcDbEntity
  8
0
100
AcDbVertex
100
AcDbPolygonMeshVertex
 10
1.765210349999998
 20
0.3985000000000007
 30
3.082
 70
    64
  0
VERTEX
  5
6433A
330
6432F
100
AcDbEntity
  8
0
100
AcDbVertex
100
AcDbPolygonMeshVertex
 10
1.765210349999998
 20
0.3985000000000007
 30
2.06
 70
    64
  0
VERTEX
  5
6433B
330
6432F
100
AcDbEntity
  8
0
100
AcDbVertex
100
AcDbPolygonMeshVertex
 10
1.765210349999999
 20
-1.845499999999999
 30
2.06
 70
    64
  0
VERTEX
  5
6433C
330
6432F
100
AcDbEntity
  8
0
100
AcDbVertex
100
AcDbPolygonMeshVertex
 10
1.765210349999998
 20
0.3985000000000007
 30
3.082
 70
    64
  0
VERTEX
  5
6433D
330
6432F
100
AcDbEntity
  8
0
100
AcDbVertex
100
AcDbPolygonMeshVertex
 10
1.765210349999998
 20
0.3985000000000007
 30
3.082
 70
    64
  0
VERTEX
  5
6433E
330
6432F
100
AcDbEntity
  8
0
100
AcDbVertex
100
AcDbPolygonMeshVertex
 10
1.765210349999999
 20
-1.845499999999999
 30
3.082
 70
    64
  0
VERTEX
  5
6433F
330
6432F
100
AcDbEntity
  8
0
100
AcDbVertex
100
AcDbPolygonMeshVertex
 10
0.0002103499999984
 20
0.3984999999999994
 30
3.082
 70
    64
  0
VERTEX
  5
64340
330
6432F
100
AcDbEntity
  8
0
100
AcDbVertex
100
AcDbPolygonMeshVertex
 10
0.0002103499999984
 20
0.3984999999999994
 30
3.082
 70
    64
  0
VERTEX
  5
64341
330
6432F
100
AcDbEntity
  8
0
100
AcDbVertex
100
AcDbPolygonMeshVertex
 10
0.0002103500000001
 20
-1.845500000000001
 30
3.082
 70
    64
  0
SEQEND
  5
64342
330
6432F
100
AcDbEntity
  8
0
  0
POLYLINE
  5
64343
330
458D6
100
AcDbEntity
  8
0
100
AcDb3dPolyline
 66
     1
 10
0.0
 20
0.0
 30
0.0
 70
     8
  0
VERTEX
  5
64344
330
64343
100
AcDbEntity
  8
0
100
AcDbVertex
100
AcDb3dPolylineVertex
 10
1.765420699403541
 20
-0.6404999999999999
 30
1.592
 70
    32
  0
VERTEX
  5
64345
330
64343
100
AcDbEntity
  8
0
100
AcDbVertex
100
AcDb3dPolylineVertex
 10
1.765420699403541
 20
-0.6404999999999999
 30
2.165
 70
    32
  0
VERTEX
  5
64346
330
64343
100
AcDbEntity
  8
0
100
AcDbVertex
100
AcDb3dPolylineVertex
 10
1.765420699403541
 20
-0.8064999999999997
 30
2.165
 70
    32
  0
VERTEX
  5
64347
330
64343
100
AcDbEntity
  8
0
100
AcDbVertex
100
AcDb3dPolylineVertex
 10
1.765420699403541
 20
-0.8065000000000001
 30
1.592
 70
    32
  0
VERTEX
  5
64348
330
64343
100
AcDbEntity
  8
0
100
AcDbVertex
100
AcDb3dPolylineVertex
 10
1.765420699403541
 20
-0.6404999999999999
 30
1.592
 70
    32
  0
SEQEND
  5
64349
330
64343
100
AcDbEntity
  8
0
  0
LINE
  5
6434A
330
458D6
100
AcDbEntity
  8
0
100
AcDbLine
 10
1.765420699403541
 20
-0.8065000000000001
 30
1.8785
 11
1.765420699403541
 21
-0.6404999999999999
 31
1.8785
  0
LINE
  5
6434B
330
458D6
100
AcDbEntity
  8
0
100
AcDbLine
 10
1.765420699403541
 20
-0.8065000000000001
 30
2.0685
 11
1.765420699403541
 21
-0.6404999999999999
 31
2.0685
  0
POINT
  5
6434C
330
458D6
100
AcDbEntity
  8
SNAP_POINTS
100
AcDbPoint
 10
0.8852103499999991
 20
-0.7219862069696877
 30
3.116
  0
POINT
  5
6434D
330
458D6
100
AcDbEntity
  8
SNAP_POINTS
100
AcDbPoint
 10
0.0000000005964589
 20
-0.7735000000000002
 30
2.0685
  0
POINT
  5
6434E
330
458D6
100
AcDbEntity
  8
SNAP_POINTS
100
AcDbPoint
 10
1.765420699403541
 20
-0.6734999999999996
 30
2.0685
  0
LINE
  5
6434F
330
458D6
100
AcDbEntity
  8
0
100
AcDbLine
 10
0.3877103499999985
 20
0.9585000000000004
 30
1.839
 11
0.3877103499999985
 21
0.9585000000000004
 31
1.639
  0
LINE
  5
64350
330
458D6
100
AcDbEntity
  8
0
100
AcDbLine
 10
0.7047103499999987
 20
0.9585000000000004
 30
1.639
 11
0.3877103499999985
 21
0.9585000000000004
 31
1.639
  0
POINT
  5
64351
330
458D6
100
AcDbEntity
  8
SNAP_POINTS
100
AcDbPoint
 10
0.7047103499999987
 20
0.9585000000000004
 30
1.639
  0
LINE
  5
64352
330
458D6
100
AcDbEntity
  8
0
100
AcDbLine
 10
0.7047103499999987
 20
0.9585000000000004
 30
1.839
 11
0.7047103499999987
 21
0.9585000000000004
 31
1.639
  0
LINE
  5
64353
330
458D6
100
AcDbEntity
  8
0
100
AcDbLine
 10
1.065710349999999
 20
0.9585000000000004
 30
1.639
 11
1.382710349999999
 21
0.9585000000000004
 31
1.639
  0
LINE
  5
64354
330
458D6
100
AcDbEntity
  8
0
100
AcDbLine
 10
1.382710349999999
 20
0.9585000000000004
 30
1.839
 11
1.382710349999999
 21
0.9585000000000004
 31
1.639
  0
LINE
  5
64355
330
458D6
100
AcDbEntity
  8
0
100
AcDbLine
 10
1.065710349999999
 20
0.9585000000000004
 30
1.839
 11
1.382710349999999
 21
0.9585000000000004
 31
1.839
  0
LINE
  5
64356
330
458D6
100
AcDbEntity
  8
0
100
AcDbLine
 10
1.065710349999999
 20
0.9585000000000004
 30
1.839
 11
1.065710349999999
 21
0.9585000000000004
 31
1.639
  0
LINE
  5
64357
330
458D6
100
AcDbEntity
  8
0
100
AcDbLine
 10
0.7047103499999987
 20
0.9585000000000004
 30
1.839
 11
0.3877103499999985
 21
0.9585000000000004
 31
1.839
  0
POINT
  5
64358
330
458D6
100
AcDbEntity
  8
DIMS-MTG-HOLES
100
AcDbPoint
 10
0.1912103499999991
 20
-1.934499999999999
 30
0.0
  0
POINT
  5
64359
330
458D6
100
AcDbEntity
  8
DIMS-MTG-HOLES
100
AcDbPoint
 10
1.571210349999998
 20
0.4255
 30
0.0
  0
LWPOLYLINE
  5
6435A
330
458D6
100
AcDbEntity
  8
0
100
AcDbPolyline
 90
        6
 70
     0
 43
0.0
 38
3.082
 10
0.2580853499999995
 20
-1.451336958369916
 10
0.2580853499999995
 20
-1.567879991879503
 10
0.3180853499999995
 20
-1.567879991879504
 10
0.3180853499999994
 20
-1.607879991879503
 10
0.2580853499999995
 20
-1.607879991879503
 10
0.2580853499999995
 20
-1.724423025389089
  0
LWPOLYLINE
  5
6435B
330
458D6
100
AcDbEntity
  8
0
100
AcDbPolyline
 90
        6
 70
     0
 43
0.0
 38
3.082
 10
0.2180853499999995
 20
-1.451336958369916
 10
0.2180853499999995
 20
-1.567879991879503
 10
0.1580853499999995
 20
-1.567879991879504
 10
0.1580853499999996
 20
-1.607879991879503
 10
0.2180853499999995
 20
-1.607879991879503
 10
0.2180853499999995
 20
-1.724423025389089
  0
LWPOLYLINE
  5
6435C
330
458D6
100
AcDbEntity
  8
0
100
AcDbPolyline
 90
        6
 70
     0
 43
0.0
 38
3.082
 10
0.6878353499999999
 20
-1.451336958369916
 10
0.6878353499999999
 20
-1.567879991879503
 10
0.7478353499999998
 20
-1.567879991879504
 10
0.7478353499999998
 20
-1.607879991879503
 10
0.6878353499999999
 20
-1.607879991879503
 10
0.6878353499999999
 20
-1.724423025389089
  0
LWPOLYLINE
  5
6435D
330
458D6
100
AcDbEntity
  8
0
100
AcDbPolyline
 90
        6
 70
     0
 43
0.0
 38
3.082
 10
0.6478353499999998
 20
-1.451336958369916
 10
0.6478353499999998
 20
-1.567879991879503
 10
0.5878353499999998
 20
-1.567879991879504
 10
0.5878353499999999
 20
-1.607879991879503
 10
0.6478353499999998
 20
-1.607879991879503
 10
0.6478353499999998
 20
-1.724423025389089
  0
LWPOLYLINE
  5
6435E
330
458D6
100
AcDbEntity
  8
0
100
AcDbPolyline
 90
        6
 70
     0
 43
0.0
 38
3.082
 10
1.117585349999999
 20
-1.451336958369916
 10
1.117585349999999
 20
-1.567879991879503
 10
1.177585349999999
 20
-1.567879991879504
 10
1.177585349999999
 20
-1.607879991879503
 10
1.117585349999999
 20
-1.607879991879503
 10
1.117585349999999
 20
-1.724423025389089
  0
LWPOLYLINE
  5
6435F
330
458D6
100
AcDbEntity
  8
0
100
AcDbPolyline
 90
        6
 70
     0
 43
0.0
 38
3.082
 10
1.077585349999999
 20
-1.451336958369916
 10
1.077585349999999
 20
-1.567879991879503
 10
1.017585349999999
 20
-1.567879991879504
 10
1.017585349999999
 20
-1.607879991879503
 10
1.077585349999999
 20
-1.607879991879503
 10
1.077585349999999
 20
-1.724423025389089
  0
LWPOLYLINE
  5
64360
330
458D6
100
AcDbEntity
  8
0
100
AcDbPolyline
 90
        6
 70
     0
 43
0.0
 38
3.082
 10
1.547335349999999
 20
-1.451336958369916
 10
1.547335349999999
 20
-1.567879991879503
 10
1.60733535
 20
-1.567879991879504
 10
1.607335349999999
 20
-1.607879991879503
 10
1.547335349999999
 20
-1.607879991879503
 10
1.547335349999999
 20
-1.724423025389089
  0
LWPOLYLINE
  5
64361
330
458D6
100
AcDbEntity
  8
0
100
AcDbPolyline
 90
        6
 70
     0
 43
0.0
 38
3.082
 10
1.507335349999999
 20
-1.451336958369916
 10
1.507335349999999
 20
-1.567879991879503
 10
1.447335349999999
 20
-1.567879991879504
 10
1.447335349999999
 20
-1.607879991879503
 10
1.507335349999999
 20
-1.607879991879503
 10
1.507335349999999
 20
-1.724423025389089
  0
CIRCLE
  5
64362
330
458D6
100
AcDbEntity
  8
0
100
AcDbCircle
 10
1.527335349999999
 20
0.1549075779401257
 30
3.082
 40
0.138
  0
CIRCLE
  5
64363
330
458D6
100
AcDbEntity
  8
0
100
AcDbCircle
 10
0.6678353499999999
 20
0.1549075779401257
 30
3.082
 40
0.138
  0
LWPOLYLINE
  5
64364
330
458D6
100
AcDbEntity
  8
0
100
AcDbPolyline
 90
        6
 70
     0
 43
0.0
 38
3.082
 10
0.6478353499999998
 20
0.2914506114497133
 10
0.6478353499999998
 20
0.1749075779401257
 10
0.5878353499999998
 20
0.1749075779401255
 10
0.5878353499999999
 20
0.1349075779401259
 10
0.6478353499999998
 20
0.1349075779401259
 10
0.6478353499999998
 20
0.0183645444305398
  0
LWPOLYLINE
  5
64365
330
458D6
100
AcDbEntity
  8
0
100
AcDbPolyline
 90
        6
 70
     0
 43
0.0
 38
3.082
 10
0.6878353499999999
 20
0.2914506114497133
 10
0.6878353499999999
 20
0.1749075779401257
 10
0.7478353499999998
 20
0.1749075779401255
 10
0.7478353499999998
 20
0.1349075779401259
 10
0.6878353499999999
 20
0.1349075779401259
 10
0.6878353499999999
 20
0.0183645444305398
  0
LWPOLYLINE
  5
64366
330
458D6
100
AcDbEntity
  8
0
100
AcDbPolyline
 90
        6
 70
     0
 43
0.0
 38
3.082
 10
1.077585349999999
 20
0.2914506114497133
 10
1.077585349999999
 20
0.1749075779401257
 10
1.017585349999999
 20
0.1749075779401255
 10
1.017585349999999
 20
0.1349075779401259
 10
1.077585349999999
 20
0.1349075779401259
 10
1.077585349999999
 20
0.0183645444305398
  0
CIRCLE
  5
64367
330
458D6
100
AcDbEntity
  8
0
100
AcDbCircle
 10
1.097585349999999
 20
0.1549075779401257
 30
3.082
 40
0.138
  0
LWPOLYLINE
  5
64368
330
458D6
100
AcDbEntity
  8
0
100
AcDbPolyline
 90
        6
 70
     0
 43
0.0
 38
3.082
 10
1.117585349999999
 20
0.2914506114497133
 10
1.117585349999999
 20
0.1749075779401257
 10
1.177585349999999
 20
0.1749075779401255
 10
1.177585349999999
 20
0.1349075779401259
 10
1.117585349999999
 20
0.1349075779401259
 10
1.117585349999999
 20
0.0183645444305398
  0
LWPOLYLINE
  5
64369
330
458D6
100
AcDbEntity
  8
0
100
AcDbPolyline
 90
        6
 70
     0
 43
0.0
 38
3.082
 10
1.507335349999999
 20
0.2914506114497133
 10
1.507335349999999
 20
0.1749075779401257
 10
1.447335349999999
 20
0.1749075779401255
 10
1.447335349999999
 20
0.1349075779401259
 10
1.507335349999999
 20
0.1349075779401259
 10
1.507335349999999
 20
0.0183645444305398
  0
LWPOLYLINE
  5
6436A
330
458D6
100
AcDbEntity
  8
0
100
AcDbPolyline
 90
        6
 70
     0
 43
0.0
 38
3.082
 10
1.547335349999999
 20
0.2914506114497133
 10
1.547335349999999
 20
0.1749075779401257
 10
1.60733535
 20
0.1749075779401255
 10
1.607335349999999
 20
0.1349075779401259
 10
1.547335349999999
 20
0.1349075779401259
 10
1.547335349999999
 20
0.0183645444305398
  0
LWPOLYLINE
  5
6436B
330
458D6
100
AcDbEntity
  8
0
100
AcDbPolyline
 90
        6
 70
     0
 43
0.0
 38
3.082
 10
0.2580853499999995
 20
0.2914506114497133
 10
0.2580853499999995
 20
0.1749075779401257
 10
0.3180853499999995
 20
0.1749075779401255
 10
0.3180853499999994
 20
0.1349075779401259
 10
0.2580853499999995
 20
0.1349075779401259
 10
0.2580853499999995
 20
0.0183645444305398
  0
CIRCLE
  5
6436C
330
458D6
100
AcDbEntity
  8
0
100
AcDbCircle
 10
0.2380853499999995
 20
0.1549075779401257
 30
3.082
 40
0.138
  0
LWPOLYLINE
  5
6436D
330
458D6
100
AcDbEntity
  8
0
100
AcDbPolyline
 90
        6
 70
     0
 43
0.0
 38
3.082
 10
0.2180853499999995
 20
0.2914506114497133
 10
0.2180853499999995
 20
0.1749075779401257
 10
0.1580853499999995
 20
0.1749075779401255
 10
0.1580853499999996
 20
0.1349075779401259
 10
0.2180853499999995
 20
0.1349075779401259
 10
0.2180853499999995
 20
0.0183645444305398
  0
LWPOLYLINE
  5
6436E
330
458D6
100
AcDbEntity
  8
0
100
AcDbPolyline
 90
        6
 70
     0
 43
0.0
 38
2.06
 10
0.5662103499999969
 20
0.8583215956619961
 10
0.5662103499999969
 20
0.7599999999999998
 10
0.6262103499999969
 20
0.7599999999999996
 10
0.6262103499999967
 20
0.72
 10
0.5662103499999969
 20
0.72
 10
0.5662103499999969
 20
0.6216784043380116
  0
LWPOLYLINE
  5
6436F
330
458D6
100
AcDbEntity
  8
0
100
AcDbPolyline
 90
        6
 70
     0
 43
0.0
 38
2.06
 10
0.5262103499999969
 20
0.8583215956619879
 10
0.5262103499999969
 20
0.7599999999999998
 10
0.4662103499999968
 20
0.7599999999999996
 10
0.4662103499999969
 20
0.72
 10
0.5262103499999969
 20
0.72
 10
0.5262103499999969
 20
0.6216784043380034
  0
LWPOLYLINE
  5
64370
330
458D6
100
AcDbEntity
  8
0
100
AcDbPolyline
 90
        6
 70
     0
 43
0.0
 38
2.06
 10
1.204210350000001
 20
0.8583215956619879
 10
1.204210350000001
 20
0.7599999999999998
 10
1.144210350000001
 20
0.7599999999999996
 10
1.144210350000001
 20
0.72
 10
1.204210350000001
 20
0.72
 10
1.204210350000001
 20
0.6216784043380034
  0
LWPOLYLINE
  5
64371
330
458D6
100
AcDbEntity
  8
0
100
AcDbPolyline
 90
        6
 70
     0
 43
0.0
 38
2.06
 10
1.244210350000001
 20
0.8583215956619961
 10
1.244210350000001
 20
0.7599999999999998
 10
1.304210350000001
 20
0.7599999999999996
 10
1.304210350000001
 20
0.72
 10
1.244210350000001
 20
0.72
 10
1.244210350000001
 20
0.6216784043380116
  0
TEXT
  5
64372
330
458D6
100
AcDbEntity
  8
0
100
AcDbText
 10
0.4931697828845435
 20
-1.821552448191869
 30
3.082
 40
0.0834654981097751
  1
4
100
AcDbText
  0
DIMENSION
  5
64373
330
458D6
100
AcDbEntity
  8
AREA1
100
AcDbDimension
  2
*D1
 10
-0.4777798596506883
 20
-2.221499999999999
 30
0.0
 11
-0.477779859650688
 21
-0.6766202102284336
 31
0.0
 70
   160
 71
     5
 42
-1.0
 73
     0
 74
     0
 75
     0
  3
ABECAD_3D
100
AcDbAlignedDimension
 13
0.3327103499999988
 23
0.9585000000000004
 33
1.386
 14
0.6997103499999997
 24
-2.221499999999999
 34
1.386
 50
90.0
100
AcDbRotatedDimension
  0
DIMENSION
  5
64381
330
458D6
100
AcDbEntity
  8
AREA1
100
AcDbDimension
  2
*D2
 10
1.765210349999999
 20
1.303368561562292
 30
0.0
 11
0.8775764082350047
 21
1.693210906828538
 31
0.0
 70
   160
 71
     5
 42
-1.0
 73
     0
 74
     0
 75
     0
  3
ABECAD_3D
100
AcDbAlignedDimension
 13
0.00521035
 23
0.7185000000000002
 33
0.0
 14
1.765210349999999
 24
0.5745
 34
0.0
100
AcDbRotatedDimension
  0
LWPOLYLINE
  5
643A6
330
458D6
100
AcDbEntity
  8
SCALE
100
AcDbPolyline
 90
        4
 70
     1
 43
0.0
 10
0.3472566199070148
 20
-2.286789667744664
 10
1.482885439448987
 20
-2.286789667744664
 10
1.482885439448987
 20
-3.128399234522679
 10
0.3472566199070148
 20
-3.128399234522679
  0
LINE
  5
643A7
330
458D6
100
AcDbEntity
  8
SCALE
100
AcDbLine
 10
0.4052552841337769
 20
-2.666867986448879
 30
0.0
 11
1.405255284133776
 21
-2.666867986448879
 31
0.0
  0
LINE
  5
643A8
330
458D6
100
AcDbEntity
  8
SCALE
100
AcDbLine
 10
0.4052552841337769
 20
-2.966867986448879
 30
0.0
 11
0.7989552841337768
 21
-2.966867986448879
 31
0.0
  0
LINE
  5
643A9
330
458D6
100
AcDbEntity
  8
SCALE
100
AcDbLine
 10
0.4052552841337769
 20
-2.76686798644888
 30
0.0
 11
0.4052552841337769
 21
-2.566867986448879
 31
0.0
  0
TEXT
  5
643AA
330
458D6
100
AcDbEntity
  8
SCALE
100
AcDbText
 10
0.4612312660642517
 20
-2.919182896686037
 30
0.0
 40
0.0625
  1
[10mm]
100
AcDbText
  0
LINE
  5
643AB
330
458D6
100
AcDbEntity
  8
SCALE
100
AcDbLine
 10
0.4052552841337769
 20
-3.066867986448879
 30
0.0
 11
0.4052552841337769
 21
-2.866867986448879
 31
0.0
  0
TEXT
  5
643AC
330
458D6
100
AcDbEntity
  8
SCALE
100
AcDbText
 10
0.4067855493803028
 20
-2.391990865175266
 30
0.0
 40
0.0625
  1
SCALE:
100
AcDbText
  0
LINE
  5
643AD
330
458D6
100
AcDbEntity
  8
SCALE
100
AcDbLine
 10
0.7989552841337768
 20
-3.066867986448879
 30
0.0
 11
0.7989552841337768
 21
-2.866867986448879
 31
0.0
  0
TEXT
  5
643AE
330
458D6
100
AcDbEntity
  8
SCALE
100
AcDbText
 10
0.7685382726176866
 20
-2.597819291075678
 30
0.0
 40
0.0625
  1
1 Inch
100
AcDbText
  0
LINE
  5
643AF
330
458D6
100
AcDbEntity
  8
SCALE
100
AcDbLine
 10
1.405255284133776
 20
-2.666867986448879
 30
0.0
 11
1.405255284133776
 21
-2.76686798644888
 31
0.0
  0
LINE
  5
643B0
330
458D6
100
AcDbEntity
  8
SCALE
100
AcDbLine
 10
1.405255284133776
 20
-2.76686798644888
 30
0.0
 11
1.405255284133776
 21
-2.566867986448879
 31
0.0
  0
VIEWPORT
  5
5677D
330
458D3
100
AcDbEntity
 67
     1
  8
0
100
AcDbViewport
 10
5.249999639556163
 20
3.999999883606677
 30
0.0
 40
16.38686186943767
 41
8.992999745766947
 68
     1
 69
     1
 12
5.249999639556163
 22
3.999999883606677
 13
0.0
 23
0.0
 14
0.5
 24
0.5
 15
0.5
 25
0.5
 16
0.0
 26
0.0
 36
1.0
 17
0.0
 27
0.0
 37
0.0
 42
50.0
 43
0.0
 44
0.0
 45
8.992999745766947
 50
0.0
 51
0.0
 72
 20000
 90
    32800
  1

281
     0
 71
     1
 74
     0
110
0.0
120
0.0
130
0.0
111
1.0
121
0.0
131
0.0
112
0.0
122
1.0
132
0.0
 79
     0
146
0.0
170
     0
 61
     5
348
64458
292
     1
282
     1
141
0.0
142
0.0
 63
   250
421
  3355443
  0
VIEWPORT
  5
5677F
330
458D3
100
AcDbEntity
 67
     1
  8
AREA1
100
AcDbViewport
 10
5.24999976158142
 20
3.99999976158142
 30
0.0
 40
8.399999618530271
 41
6.399999618530272
 68
     2
 69
     2
 12
-1.017175299537903
 22
0.747812767808223
 13
0.0
 23
0.0
 14
0.25
 24
0.25
 15
0.25
 25
0.25
 16
0.0
 26
0.0
 36
1.0
 17
0.5634438949382106
 27
-0.8801371703728531
 37
1.68649307151727
 42
50.0
 43
0.0
 44
0.0
 45
4.58291448918931
 50
0.0
 51
0.0
 72
 20000
 90
    32800
  1

281
     1
 71
     1
 74
     0
110
0.0
120
0.0
130
0.0
111
1.0
121
0.0
131
0.0
112
0.0
122
1.0
132
0.0
 79
     1
146
0.0
170
     0
 61
     5
348
64459
292
     1
282
     1
141
0.0
142
0.0
 63
   250
421
  3355443
  0
ENDSEC
  0
SECTION
  2
OBJECTS
  0
DICTIONARY
  5
458CB
330
0
100
AcDbDictionary
281
     1
  3
ACAD_BACKGROUND
350
64468
  3
ACAD_COLOR
350
64463
  3
ACAD_GROUP
350
458CC
  3
ACAD_LAYOUT
350
458FB
  3
ACAD_MATERIAL
350
6444E
  3
ACAD_MLINESTYLE
350
458D9
  3
ACAD_PLOTSETTINGS
350
458FC
  3
ACAD_PLOTSTYLENAME
350
458F9
  3
ACAD_TABLESTYLE
350
64464
  3
ACAD_VISUALSTYLE
350
64452
  3
ACADE_WIRETYPE
350
6447D
  3
ACDBVARIABLEDICTIONARY
350
458E1
  3
ASE_INDEX_DICTIONARY
350
64470
  0
DICTIONARY
  5
6446D
330
6446C
100
AcDbDictionary
280
     1
281
     1
  3
ACADE_WIRETYPE
360
6446E
  0
DICTIONARY
  5
4592C
330
458D6
100
AcDbDictionary
280
     1
281
     1
  3
ACAD_LAYOUTSELFREF
360
64442
  0
DICTIONARY
  5
4592A
330
458D3
100
AcDbDictionary
280
     1
281
     1
  3
ACAD_LAYOUTSELFREF
360
64441
  0
DICTIONARY
  5
64468
102
{ACAD_REACTORS
330
458CB
102
}
330
458CB
100
AcDbDictionary
281
     1
  0
DICTIONARY
  5
64463
102
{ACAD_REACTORS
330
458CB
102
}
330
458CB
100
AcDbDictionary
281
     1
  0
DICTIONARY
  5
458CC
102
{ACAD_REACTORS
330
458CB
102
}
330
458CB
100
AcDbDictionary
281
     1
  0
DICTIONARY
  5
458FB
102
{ACAD_REACTORS
330
458CB
102
}
330
458CB
100
AcDbDictionary
281
     1
  3
Layout1
350
458FE
  3
Model
350
458FD
  0
DICTIONARY
  5
6444E
102
{ACAD_REACTORS
330
458CB
102
}
330
458CB
100
AcDbDictionary
281
     1
  3
ByBlock
350
64450
  3
ByLayer
350
6444F
  3
Global
350
64451
  0
DICTIONARY
  5
458D9
102
{ACAD_REACTORS
330
458CB
102
}
330
458CB
100
AcDbDictionary
281
     1
  3
STANDARD
350
458DA
  0
DICTIONARY
  5
458FC
102
{ACAD_REACTORS
330
458CB
102
}
330
458CB
100
AcDbDictionary
281
     1
  0
ACDBDICTIONARYWDFLT
  5
458F9
102
{ACAD_REACTORS
330
458CB
102
}
330
458CB
100
AcDbDictionary
281
     1
  3
Normal
350
458FA
100
AcDbDictionaryWithDefault
340
458FA
  0
DICTIONARY
  5
64464
102
{ACAD_REACTORS
330
458CB
102
}
330
458CB
100
AcDbDictionary
281
     1
  3
Standard
350
64465
  0
DICTIONARY
  5
64452
102
{ACAD_REACTORS
330
458CB
102
}
330
458CB
100
AcDbDictionary
281
     1
  3
2dWireframe
350
64458
  3
3D Hidden
350
6445A
  3
3dWireframe
350
64459
  3
Basic
350
64457
  3
Brighten
350
6445E
  3
ColorChange
350
64462
  3
Conceptual
350
6445B
  3
Dim
350
6445D
  3
Facepattern
350
64461
  3
Flat
350
64453
  3
FlatWithEdges
350
64454
  3
Gouraud
350
64455
  3
GouraudWithEdges
350
64456
  3
Linepattern
350
64460
  3
Realistic
350
6445C
  3
Thicken
350
6445F
  0
DICTIONARY
  5
6447D
102
{ACAD_REACTORS
330
458CB
102
}
330
458CB
100
AcDbDictionary
281
     1
  3
CURRENT_WIRELAY
350
6447E
  0
DICTIONARY
  5
458E1
102
{ACAD_REACTORS
330
458CB
102
}
330
458CB
100
AcDbDictionary
281
     1
  3
CTABLESTYLE
350
64473
  3
DIMADEC
350
458E2
  0
DICTIONARY
  5
64470
102
{ACAD_REACTORS
330
458CB
102
}
330
458CB
100
AcDbDictionary
281
     1
  3
ASEBlockHierarchyIndexRecord
350
64472
1001
DCO15
1040
1582951589.794
  0
XRECORD
  5
6446E
102
{ACAD_REACTORS
330
6446D
102
}
330
6446D
100
AcDbXrecord
280
     1
  1

  2

  3
WIRE
 90
        0
  0
XRECORD
  5
64442
102
{ACAD_REACTORS
330
4592C
102
}
330
4592C
100
AcDbXrecord
280
     1
340
458D6
  0
XRECORD
  5
64441
102
{ACAD_REACTORS
330
4592A
102
}
330
4592A
100
AcDbXrecord
280
     1
340
458D3
  0
LAYOUT
  5
458FE
102
{ACAD_REACTORS
330
458FB
102
}
330
458FB
100
AcDbPlotSettings
  1

  2
none_device
  4
Letter_(8.50_x_11.00_Inches)
  6

 40
6.349999904632568
 41
6.349999904632568
 42
6.350006103515625
 43
6.350006103515625
 44
215.8999938964844
 45
279.3999938964844
 46
0.0
 47
0.0
 48
0.0
 49
0.0
140
0.0
141
0.0
142
1.0
143
1.0
 70
   688
 72
     0
 73
     1
 74
     5
  7
Default R14 pen assignments.ctb
 75
    16
147
1.0
 76
     0
 77
     2
 78
   300
148
0.0
149
0.0
100
AcDbLayout
  1
Layout1
 70
     1
 71
     1
 10
-0.2500002402958907
 20
-0.2499999962453767
 11
10.74999951940821
 21
8.249999763458731
 12
0.0
 22
0.0
 32
0.0
 14
1.049999952316284
 24
0.7999999523162842
 34
0.0
 15
9.449999570846555
 25
7.199999570846556
 35
0.0
146
0.0
 13
0.0
 23
0.0
 33
0.0
 16
1.0
 26
0.0
 36
0.0
 17
0.0
 27
1.0
 37
0.0
 76
     0
330
458D3
331
5677D
  0
LAYOUT
  5
458FD
102
{ACAD_REACTORS
330
458FB
102
}
330
458FB
100
AcDbPlotSettings
  1

  2
HP LaserJet 5000 Series PCL 6
  4

  6

 40
0.0
 41
0.0
 42
0.0
 43
0.0
 44
0.0
 45
0.0
 46
0.0
 47
0.0
 48
0.0
 49
0.0
140
0.0
141
0.0
142
1.0
143
1.0
 70
  1712
 72
     0
 73
     0
 74
     0
  7
Default R14 pen assignments.ctb
 75
     0
147
1.0
 76
     0
 77
     2
 78
   300
148
0.0
149
0.0
100
AcDbLayout
  1
Model
 70
     1
 71
     0
 10
0.0
 20
0.0
 11
12.0
 21
9.0
 12
0.0
 22
0.0
 32
0.0
 14
0.0
 24
0.0
 34
0.0
 15
0.0
 25
0.0
 35
0.0
146
0.0
 13
0.0
 23
0.0
 33
0.0
 16
1.0
 26
0.0
 36
0.0
 17
0.0
 27
1.0
 37
0.0
 76
     0
330
458D6
331
6441B
  0
MATERIAL
  5
64450
102
{ACAD_REACTORS
330
6444E
102
}
330
6444E
100
AcDbMaterial
  1
ByBlock
  0
MATERIAL
  5
6444F
102
{ACAD_REACTORS
330
6444E
102
}
330
6444E
100
AcDbMaterial
  1
ByLayer
  0
MATERIAL
  5
64451
102
{ACAD_REACTORS
330
6444E
102
}
330
6444E
100
AcDbMaterial
  1
Global
  0
MLINESTYLE
  5
458DA
102
{ACAD_REACTORS
330
458D9
102
}
330
458D9
100
AcDbMlineStyle
  2
STANDARD
 70
     0
  3

 62
   256
 51
90.0
 52
90.0
 71
     2
 49
0.5
 62
   256
  6
BYLAYER
 49
-0.5
 62
   256
  6
BYLAYER
  0
ACDBPLACEHOLDER
  5
458FA
102
{ACAD_REACTORS
330
458F9
102
}
330
458F9
  0
TABLESTYLE
  5
64465
102
{ACAD_REACTORS
330
64464
102
}
330
64464
100
AcDbTableStyle
  3
Standard
 70
     0
 71
     0
 40
0.06
 41
0.06
280
     0
281
     0
  7
STANDARD
140
0.18
170
     2
 62
     0
 63
     7
283
     0
 90
      512
 91
        0
  1

274
    -2
284
     1
 64
     0
275
    -2
285
     1
 65
     0
276
    -2
286
     1
 66
     0
277
    -2
287
     1
 67
     0
278
    -2
288
     1
 68
     0
279
    -2
289
     1
 69
     0
  7
STANDARD
140
0.25
170
     5
 62
     0
 63
     7
283
     0
 90
      512
 91
        0
  1

274
    -2
284
     1
 64
     0
275
    -2
285
     1
 65
     0
276
    -2
286
     1
 66
     0
277
    -2
287
     1
 67
     0
278
    -2
288
     1
 68
     0
279
    -2
289
     1
 69
     0
  7
STANDARD
140
0.18
170
     5
 62
     0
 63
     7
283
     0
 90
      512
 91
        0
  1

274
    -2
284
     1
 64
     0
275
    -2
285
     1
 65
     0
276
    -2
286
     1
 66
     0
277
    -2
287
     1
 67
     0
278
    -2
288
     1
 68
     0
279
    -2
289
     1
 69
     0
  0
VISUALSTYLE
  5
64458
102
{ACAD_REACTORS
330
64452
102
}
330
64452
100
AcDbVisualStyle
  2
2dWireframe
 70
     4
 71
     0
 72
     2
 73
     0
 90
        0
 40
-0.6
 41
-30.0
 62
     5
 63
     7
421
 16777215
 74
     1
 91
        4
 64
     7
 65
   257
 75
     1
175
     1
 42
1.0
 92
        0
 66
   257
 43
1.0
 76
     1
 77
     6
 78
     2
 67
     7
 79
     5
170
     0
171
     0
290
     0
174
     0
 93
        1
 44
0.0
173
     0
291
     0
 45
0.0
  0
VISUALSTYLE
  5
6445A
102
{ACAD_REACTORS
330
64452
102
}
330
64452
100
AcDbVisualStyle
  2
3D Hidden
 70
     6
 71
     1
 72
     2
 73
     2
 90
        0
 40
-0.6
 41
-30.0
 62
     5
 63
     7
421
 16777215
 74
     2
 91
        2
 64
     7
 65
   257
 75
     2
175
     1
 42
40.0
 92
        0
 66
   257
 43
1.0
 76
     1
 77
     6
 78
     2
 67
     7
 79
     3
170
     0
171
     0
290
     0
174
     0
 93
        1
 44
0.0
173
     0
291
     0
 45
0.0
  0
VISUALSTYLE
  5
64459
102
{ACAD_REACTORS
330
64452
102
}
330
64452
100
AcDbVisualStyle
  2
3dWireframe
 70
     5
 71
     0
 72
     2
 73
     0
 90
        0
 40
-0.6
 41
-30.0
 62
     5
 63
     7
421
 16777215
 74
     1
 91
        4
 64
     7
 65
   257
 75
     1
175
     1
 42
1.0
 92
        0
 66
   257
 43
1.0
 76
     1
 77
     6
 78
     2
 67
     7
 79
     5
170
     0
171
     0
290
     0
174
     0
 93
        1
 44
0.0
173
     0
291
     0
 45
0.0
  0
VISUALSTYLE
  5
64457
102
{ACAD_REACTORS
330
64452
102
}
330
64452
100
AcDbVisualStyle
  2
Basic
 70
     7
 71
     1
 72
     0
 73
     1
 90
        0
 40
-0.6
 41
-30.0
 62
     5
 63
     7
421
 16777215
 74
     0
 91
        4
 64
     7
 65
   257
 75
     1
175
     1
 42
1.0
 92
        8
 66
     7
 43
1.0
 76
     1
 77
     6
 78
     2
 67
     7
 79
     5
170
     0
171
     0
290
     0
174
     0
 93
        1
 44
0.0
173
     0
291
     1
 45
0.0
  0
VISUALSTYLE
  5
6445E
102
{ACAD_REACTORS
330
64452
102
}
330
64452
100
AcDbVisualStyle
  2
Brighten
 70
    12
 71
     2
 72
     2
 73
     0
 90
        0
 40
-0.6
 41
-30.0
 62
     5
 63
     7
421
 16777215
 74
     1
 91
        4
 64
     7
 65
   257
 75
     1
175
     1
 42
1.0
 92
        8
 66
     7
 43
1.0
 76
     1
 77
     6
 78
     2
 67
     7
 79
     5
170
     0
171
     0
290
     0
174
     0
 93
        1
 44
50.0
173
     0
291
     1
 45
0.0
  0
VISUALSTYLE
  5
64462
102
{ACAD_REACTORS
330
64452
102
}
330
64452
100
AcDbVisualStyle
  2
ColorChange
 70
    16
 71
     2
 72
     2
 73
     3
 90
        0
 40
-0.6
 41
-30.0
 62
     5
 63
     8
421
  8421504
 74
     1
 91
        4
 64
     7
 65
   257
 75
     1
175
     1
 42
1.0
 92
        8
 66
     8
424
  8421504
 43
1.0
 76
     1
 77
     6
 78
     2
 67
     7
 79
     5
170
     0
171
     0
290
     0
174
     0
 93
        1
 44
0.0
173
     0
291
     1
 45
0.0
  0
VISUALSTYLE
  5
6445B
102
{ACAD_REACTORS
330
64452
102
}
330
64452
100
AcDbVisualStyle
  2
Conceptual
 70
     9
 71
     3
 72
     2
 73
     0
 90
        0
 40
-0.6
 41
-30.0
 62
     5
 63
     7
421
 16777215
 74
     2
 91
        2
 64
     7
 65
   257
 75
     1
175
     1
 42
40.0
 92
        8
 66
     7
 43
1.0
 76
     1
 77
     6
 78
     2
 67
     7
 79
     3
170
     0
171
     0
290
     0
174
     0
 93
        1
 44
0.0
173
     0
291
     0
 45
0.0
  0
VISUALSTYLE
  5
6445D
102
{ACAD_REACTORS
330
64452
102
}
330
64452
100
AcDbVisualStyle
  2
Dim
 70
    11
 71
     2
 72
     2
 73
     0
 90
        0
 40
-0.6
 41
-30.0
 62
     5
 63
     7
421
 16777215
 74
     1
 91
        4
 64
     7
 65
   257
 75
     1
175
     1
 42
1.0
 92
        8
 66
     7
 43
1.0
 76
     1
 77
     6
 78
     2
 67
     7
 79
     5
170
     0
171
     0
290
     0
174
     0
 93
        1
 44
-50.0
173
     0
291
     1
 45
0.0
  0
VISUALSTYLE
  5
64461
102
{ACAD_REACTORS
330
64452
102
}
330
64452
100
AcDbVisualStyle
  2
Facepattern
 70
    15
 71
     2
 72
     2
 73
     0
 90
        0
 40
-0.6
 41
-30.0
 62
     5
 63
     7
421
 16777215
 74
     1
 91
        4
 64
     7
 65
   257
 75
     1
175
     1
 42
1.0
 92
        8
 66
     7
 43
1.0
 76
     1
 77
     6
 78
     2
 67
     7
 79
     5
170
     0
171
     0
290
     0
174
     0
 93
        1
 44
0.0
173
     0
291
     1
 45
0.0
  0
VISUALSTYLE
  5
64453
102
{ACAD_REACTORS
330
64452
102
}
330
64452
100
AcDbVisualStyle
  2
Flat
 70
     0
 71
     2
 72
     1
 73
     1
 90
        2
 40
-0.6
 41
30.0
 62
     5
 63
     7
421
 16777215
 74
     0
 91
        4
 64
     7
 65
   257
 75
     1
175
     1
 42
1.0
 92
        8
 66
     7
 43
1.0
 76
     1
 77
     6
 78
     2
 67
     7
 79
     5
170
     0
171
     0
290
     0
174
     0
 93
       13
 44
0.0
173
     0
291
     1
 45
0.0
  0
VISUALSTYLE
  5
64454
102
{ACAD_REACTORS
330
64452
102
}
330
64452
100
AcDbVisualStyle
  2
FlatWithEdges
 70
     1
 71
     2
 72
     1
 73
     1
 90
        2
 40
-0.6
 41
30.0
 62
     5
 63
     7
421
 16777215
 74
     1
 91
        4
 64
     7
 65
   257
 75
     1
175
     1
 42
1.0
 92
        0
 66
   257
 43
1.0
 76
     1
 77
     6
 78
     2
 67
     7
 79
     5
170
     0
171
     0
290
     0
174
     0
 93
       13
 44
0.0
173
     0
291
     1
 45
0.0
  0
VISUALSTYLE
  5
64455
102
{ACAD_REACTORS
330
64452
102
}
330
64452
100
AcDbVisualStyle
  2
Gouraud
 70
     2
 71
     2
 72
     2
 73
     1
 90
        2
 40
-0.6
 41
30.0
 62
     5
 63
     7
421
 16777215
 74
     0
 91
        4
 64
     7
 65
   257
 75
     1
175
     1
 42
1.0
 92
        0
 66
     7
 43
1.0
 76
     1
 77
     6
 78
     2
 67
     7
 79
     5
170
     0
171
     0
290
     0
174
     0
 93
       13
 44
0.0
173
     0
291
     1
 45
0.0
  0
VISUALSTYLE
  5
64456
102
{ACAD_REACTORS
330
64452
102
}
330
64452
100
AcDbVisualStyle
  2
GouraudWithEdges
 70
     3
 71
     2
 72
     2
 73
     1
 90
        2
 40
-0.6
 41
30.0
 62
     5
 63
     7
421
 16777215
 74
     1
 91
        4
 64
     7
 65
   257
 75
     1
175
     1
 42
1.0
 92
        0
 66
   257
 43
1.0
 76
     1
 77
     6
 78
     2
 67
     7
 79
     5
170
     0
171
     0
290
     0
174
     0
 93
       13
 44
0.0
173
     0
291
     1
 45
0.0
  0
VISUALSTYLE
  5
64460
102
{ACAD_REACTORS
330
64452
102
}
330
64452
100
AcDbVisualStyle
  2
Linepattern
 70
    14
 71
     2
 72
     2
 73
     0
 90
        0
 40
-0.6
 41
-30.0
 62
     5
 63
     7
421
 16777215
 74
     1
 91
        4
 64
     7
 65
   257
 75
     7
175
     7
 42
1.0
 92
        8
 66
     7
 43
1.0
 76
     1
 77
     6
 78
     2
 67
     7
 79
     5
170
     0
171
     0
290
     0
174
     0
 93
        1
 44
0.0
173
     0
291
     1
 45
0.0
  0
VISUALSTYLE
  5
6445C
102
{ACAD_REACTORS
330
64452
102
}
330
64452
100
AcDbVisualStyle
  2
Realistic
 70
     8
 71
     2
 72
     2
 73
     0
 90
        0
 40
-0.6
 41
-30.0
 62
     5
 63
     7
421
 16777215
 74
     1
 91
        0
 64
     7
 65
   257
 75
     1
175
     1
 42
1.0
 92
        8
 66
     8
424
  7895160
 43
1.0
 76
     1
 77
     6
 78
     2
 67
     7
 79
     5
170
     0
171
     0
290
     0
174
     0
 93
       13
 44
0.0
173
     0
291
     0
 45
0.0
  0
VISUALSTYLE
  5
6445F
102
{ACAD_REACTORS
330
64452
102
}
330
64452
100
AcDbVisualStyle
  2
Thicken
 70
    13
 71
     2
 72
     2
 73
     0
 90
        0
 40
-0.6
 41
-30.0
 62
     5
 63
     7
421
 16777215
 74
     1
 91
        4
 64
     7
 65
   257
 75
     1
175
     1
 42
1.0
 92
       12
 66
     7
 43
1.0
 76
     1
 77
     6
 78
     2
 67
     7
 79
     5
170
     0
171
     0
290
     0
174
     0
 93
        1
 44
0.0
173
     0
291
     1
 45
0.0
  0
XRECORD
  5
6447E
102
{ACAD_REACTORS
330
6447D
102
}
330
6447D
100
AcDbXrecord
280
     1
  1
WIRES
  1
WIRES
  1

290
     0
  0
DICTIONARYVAR
  5
64473
102
{ACAD_REACTORS
330
458E1
102
}
330
458E1
100
DictionaryVariables
280
     0
  1
STANDARD
  0
DICTIONARYVAR
  5
458E2
102
{ACAD_REACTORS
330
458E1
102
}
330
458E1
100
DictionaryVariables
280
     0
  1
0
  0
XRECORD
  5
64472
102
{ACAD_REACTORS
330
64470
102
}
330
64470
100
AcDbXrecord
280
     1
330
64097
330
64098
330
64099
  0
ENDSEC
  0
EOF
