  0
SECTION
  2
HEADER
  9
$ACADVER
  1
AC1021
  9
$ACADMAINTVER
 70
     1
  9
$DWGCODEPAGE
  3
ANSI_1252
  9
$LASTSAVEDBY
  1
gdseiver
  9
$INSBASE
 10
0.0
 20
0.0
 30
0.0
  9
$EXTMIN
 10
-0.5875000000000006
 20
-0.5875000000000059
 30
-0.0000000000000001
  9
$EXTMAX
 10
0.5875000000000004
 20
1.321499999999995
 30
0.0680000000000001
  9
$LIMMIN
 10
0.0
 20
0.0
  9
$LIMMAX
 10
12.0
 20
9.0
  9
$ORTHOMODE
 70
     0
  9
$REGENMODE
 70
     1
  9
$FILLMODE
 70
     1
  9
$QTEXTMODE
 70
     0
  9
$MIRRTEXT
 70
     1
  9
$LTSCALE
 40
1.0
  9
$ATTMODE
 70
     1
  9
$TEXTSIZE
 40
0.12
  9
$TRACEWID
 40
0.05
  9
$TEXTSTYLE
  7
STANDARD
  9
$CLAYER
  8
0
  9
$CELTYPE
  6
BYLAYER
  9
$CECOLOR
 62
   256
  9
$CELTSCALE
 40
1.0
  9
$DISPSILH
 70
     0
  9
$DIMSCALE
 40
1.0
  9
$DIMASZ
 40
0.09
  9
$DIMEXO
 40
0.0625
  9
$DIMDLI
 40
0.375
  9
$DIMRND
 40
0.0
  9
$DIMDLE
 40
0.0
  9
$DIMEXE
 40
0.03
  9
$DIMTP
 40
0.0
  9
$DIMTM
 40
0.0
  9
$DIMTXT
 40
0.09
  9
$DIMCEN
 40
0.09
  9
$DIMTSZ
 40
0.0
  9
$DIMTOL
 70
     0
  9
$DIMLIM
 70
     0
  9
$DIMTIH
 70
     0
  9
$DIMTOH
 70
     1
  9
$DIMSE1
 70
     0
  9
$DIMSE2
 70
     0
  9
$DIMTAD
 70
     0
  9
$DIMZIN
 70
     4
  9
$DIMBLK
  1

  9
$DIMASO
 70
     1
  9
$DIMSHO
 70
     1
  9
$DIMPOST
  1

  9
$DIMAPOST
  1

  9
$DIMALT
 70
     1
  9
$DIMALTD
 70
     2
  9
$DIMALTF
 40
25.4
  9
$DIMLFAC
 40
1.0
  9
$DIMTOFL
 70
     0
  9
$DIMTVP
 40
0.0
  9
$DIMTIX
 70
     0
  9
$DIMSOXD
 70
     0
  9
$DIMSAH
 70
     0
  9
$DIMBLK1
  1

  9
$DIMBLK2
  1

  9
$DIMSTYLE
  2
ABECAD_3D
  9
$DIMCLRD
 70
     0
  9
$DIMCLRE
 70
     0
  9
$DIMCLRT
 70
     0
  9
$DIMTFAC
 40
1.5
  9
$DIMGAP
 40
0.09
  9
$DIMJUST
 70
     0
  9
$DIMSD1
 70
     0
  9
$DIMSD2
 70
     0
  9
$DIMTOLJ
 70
     1
  9
$DIMTZIN
 70
     4
  9
$DIMALTZ
 70
     4
  9
$DIMALTTZ
 70
     4
  9
$DIMUPT
 70
     1
  9
$DIMDEC
 70
     6
  9
$DIMTDEC
 70
     6
  9
$DIMALTU
 70
     2
  9
$DIMALTTD
 70
     2
  9
$DIMTXSTY
  7
STANDARD
  9
$DIMAUNIT
 70
     0
  9
$DIMADEC
 70
     0
  9
$DIMALTRND
 40
0.0
  9
$DIMAZIN
 70
     0
  9
$DIMDSEP
 70
    46
  9
$DIMATFIT
 70
     2
  9
$DIMFRAC
 70
     2
  9
$DIMLDRBLK
  1

  9
$DIMLUNIT
 70
     5
  9
$DIMLWD
 70
    -2
  9
$DIMLWE
 70
    -2
  9
$DIMTMOVE
 70
     2
  9
$DIMFXL
 40
1.0
  9
$DIMFXLON
 70
     0
  9
$DIMJOGANG
 40
0.7853981633974483
  9
$DIMTFILL
 70
     0
  9
$DIMTFILLCLR
 70
     0
  9
$DIMARCSYM
 70
     0
  9
$DIMLTYPE
  6

  9
$DIMLTEX1
  6

  9
$DIMLTEX2
  6

  9
$LUNITS
 70
     2
  9
$LUPREC
 70
     4
  9
$SKETCHINC
 40
0.1
  9
$FILLETRAD
 40
0.0
  9
$AUNITS
 70
     0
  9
$AUPREC
 70
     0
  9
$MENU
  1
ACAD
  9
$ELEVATION
 40
0.0
  9
$PELEVATION
 40
0.0
  9
$THICKNESS
 40
0.0
  9
$LIMCHECK
 70
     0
  9
$CHAMFERA
 40
0.0
  9
$CHAMFERB
 40
0.0
  9
$CHAMFERC
 40
0.0
  9
$CHAMFERD
 40
0.0
  9
$SKPOLY
 70
     0
  9
$TDCREATE
 40
2451726.480055787
  9
$TDUCREATE
 40
2451726.688389120
  9
$TDUPDATE
 40
2454229.410994884
  9
$TDUUPDATE
 40
2454229.619328218
  9
$TDINDWG
 40
0.0448729977
  9
$TDUSRTIMER
 40
0.0448729977
  9
$USRTIMER
 70
     1
  9
$ANGBASE
 50
0.0
  9
$ANGDIR
 70
     0
  9
$PDMODE
 70
     3
  9
$PDSIZE
 40
0.09
  9
$PLINEWID
 40
0.0
  9
$SPLFRAME
 70
     1
  9
$SPLINETYPE
 70
     6
  9
$SPLINESEGS
 70
     8
  9
$HANDSEED
  5
460E0
  9
$SURFTAB1
 70
     6
  9
$SURFTAB2
 70
     6
  9
$SURFTYPE
 70
     6
  9
$SURFU
 70
     6
  9
$SURFV
 70
     6
  9
$UCSBASE
  2

  9
$UCSNAME
  2

  9
$UCSORG
 10
0.0
 20
0.0
 30
0.0
  9
$UCSXDIR
 10
1.0
 20
0.0
 30
0.0
  9
$UCSYDIR
 10
0.0
 20
1.0
 30
0.0
  9
$UCSORTHOREF
  2

  9
$UCSORTHOVIEW
 70
     1
  9
$UCSORGTOP
 10
0.0
 20
0.0
 30
0.0
  9
$UCSORGBOTTOM
 10
0.0
 20
0.0
 30
0.0
  9
$UCSORGLEFT
 10
0.0
 20
0.0
 30
0.0
  9
$UCSORGRIGHT
 10
0.0
 20
0.0
 30
0.0
  9
$UCSORGFRONT
 10
0.0
 20
0.0
 30
0.0
  9
$UCSORGBACK
 10
0.0
 20
0.0
 30
0.0
  9
$PUCSBASE
  2

  9
$PUCSNAME
  2

  9
$PUCSORG
 10
0.0
 20
0.0
 30
0.0
  9
$PUCSXDIR
 10
1.0
 20
0.0
 30
0.0
  9
$PUCSYDIR
 10
0.0
 20
1.0
 30
0.0
  9
$PUCSORTHOREF
  2

  9
$PUCSORTHOVIEW
 70
     0
  9
$PUCSORGTOP
 10
0.0
 20
0.0
 30
0.0
  9
$PUCSORGBOTTOM
 10
0.0
 20
0.0
 30
0.0
  9
$PUCSORGLEFT
 10
0.0
 20
0.0
 30
0.0
  9
$PUCSORGRIGHT
 10
0.0
 20
0.0
 30
0.0
  9
$PUCSORGFRONT
 10
0.0
 20
0.0
 30
0.0
  9
$PUCSORGBACK
 10
0.0
 20
0.0
 30
0.0
  9
$USERI1
 70
     0
  9
$USERI2
 70
     0
  9
$USERI3
 70
     0
  9
$USERI4
 70
     0
  9
$USERI5
 70
     0
  9
$USERR1
 40
0.0
  9
$USERR2
 40
0.0
  9
$USERR3
 40
0.0
  9
$USERR4
 40
0.0
  9
$USERR5
 40
0.0
  9
$WORLDVIEW
 70
     1
  9
$SHADEDGE
 70
     3
  9
$SHADEDIF
 70
    70
  9
$TILEMODE
 70
     1
  9
$MAXACTVP
 70
    16
  9
$PINSBASE
 10
0.0
 20
0.0
 30
0.0
  9
$PLIMCHECK
 70
     0
  9
$PEXTMIN
 10
1.000000000000000E+20
 20
1.000000000000000E+20
 30
1.000000000000000E+20
  9
$PEXTMAX
 10
-1.000000000000000E+20
 20
-1.000000000000000E+20
 30
-1.000000000000000E+20
  9
$PLIMMIN
 10
0.0
 20
0.0
  9
$PLIMMAX
 10
12.0
 20
9.0
  9
$UNITMODE
 70
     0
  9
$VISRETAIN
 70
     0
  9
$PLINEGEN
 70
     0
  9
$PSLTSCALE
 70
     1
  9
$TREEDEPTH
 70
  3020
  9
$CMLSTYLE
  2
STANDARD
  9
$CMLJUST
 70
     0
  9
$CMLSCALE
 40
1.0
  9
$PROXYGRAPHICS
 70
     1
  9
$MEASUREMENT
 70
     0
  9
$CELWEIGHT
370
    -1
  9
$ENDCAPS
280
     0
  9
$JOINSTYLE
280
     0
  9
$LWDISPLAY
290
     0
  9
$INSUNITS
 70
     0
  9
$HYPERLINKBASE
  1

  9
$STYLESHEET
  1

  9
$XEDIT
290
     1
  9
$CEPSNTYPE
380
     0
  9
$PSTYLEMODE
290
     1
  9
$FINGERPRINTGUID
  2
{6E0CF4B8-225E-11D4-A150-00A0CC3303EC}
  9
$VERSIONGUID
  2
{0253F611-858F-4EFD-B8C5-B79F183CFECD}
  9
$EXTNAMES
290
     1
  9
$PSVPSCALE
 40
0.0
  9
$OLESTARTUP
290
     0
  9
$SORTENTS
280
   127
  9
$INDEXCTL
280
     0
  9
$HIDETEXT
280
     0
  9
$XCLIPFRAME
290
     0
  9
$HALOGAP
280
     0
  9
$OBSCOLOR
 70
   257
  9
$OBSLTYPE
280
     0
  9
$INTERSECTIONDISPLAY
280
     0
  9
$INTERSECTIONCOLOR
 70
   257
  9
$DIMASSOC
280
     1
  9
$PROJECTNAME
  1

  9
$CAMERADISPLAY
290
     0
  9
$LENSLENGTH
 40
50.0
  9
$CAMERAHEIGHT
 40
0.0
  9
$STEPSPERSEC
 40
2.0
  9
$STEPSIZE
 40
6.0
  9
$3DDWFPREC
 40
2.0
  9
$PSOLWIDTH
 40
0.25
  9
$PSOLHEIGHT
 40
4.0
  9
$LOFTANG1
 40
1.570796326794896
  9
$LOFTANG2
 40
1.570796326794896
  9
$LOFTMAG1
 40
0.0
  9
$LOFTMAG2
 40
0.0
  9
$LOFTPARAM
 70
     7
  9
$LOFTNORMALS
280
     1
  9
$LATITUDE
 40
37.795
  9
$LONGITUDE
 40
-122.394
  9
$NORTHDIRECTION
 40
0.0
  9
$TIMEZONE
 70
 -8000
  9
$LIGHTGLYPHDISPLAY
280
     1
  9
$TILEMODELIGHTSYNCH
280
     1
  9
$CMATERIAL
347
460A1
  9
$SOLIDHIST
280
     1
  9
$SHOWHIST
280
     1
  9
$DWFFRAME
280
     2
  9
$DGNFRAME
280
     0
  9
$REALWORLDSCALE
290
     1
  9
$INTERFERECOLOR
 62
     1
  9
$INTERFEREOBJVS
345
460AE
  9
$INTERFEREVPVS
346
460AB
  9
$CSHADOW
280
     0
  9
$SHADOWPLANELOCATION
 40
0.0
  0
ENDSEC
  0
SECTION
  2
CLASSES
  0
CLASS
  1
DICTIONARYVAR
  2
AcDbDictionaryVar
  3
ObjectDBX Classes
 90
        0
 91
        4
280
     0
281
     0
  0
CLASS
  1
ACDBDICTIONARYWDFLT
  2
AcDbDictionaryWithDefault
  3
ObjectDBX Classes
 90
        0
 91
        1
280
     0
281
     0
  0
CLASS
  1
MATERIAL
  2
AcDbMaterial
  3
ObjectDBX Classes
 90
     1024
 91
        3
280
     0
281
     0
  0
CLASS
  1
VISUALSTYLE
  2
AcDbVisualStyle
  3
ObjectDBX Classes
 90
     4095
 91
       16
280
     0
281
     0
  0
CLASS
  1
TABLESTYLE
  2
AcDbTableStyle
  3
ObjectDBX Classes
 90
     4095
 91
        1
280
     0
281
     0
  0
ENDSEC
  0
SECTION
  2
TABLES
  0
TABLE
  2
VPORT
  5
458C7
102
{ACAD_XDICTIONARY
360
460BE
102
}
330
0
100
AcDbSymbolTable
 70
     1
  0
VPORT
  5
4606A
330
458C7
100
AcDbSymbolTableRecord
100
AcDbViewportTableRecord
  2
*Active
 70
     0
 10
0.0
 20
0.0
 11
1.0
 21
1.0
 12
0.0002667441854634
 22
0.3668757326601889
 13
0.0
 23
0.0
 14
0.25
 24
0.25
 15
0.25
 25
0.25
 16
0.0
 26
0.0
 36
1.0
 17
0.0
 27
0.0
 37
0.0
 40
1.924203934495762
 41
1.421818181818181
 42
50.0
 43
0.0
 44
0.0
 50
0.0
 51
0.0
 71
     0
 72
 20000
 73
     1
 74
     1
 75
     0
 76
     0
 77
     0
 78
     0
281
     0
 65
     1
110
0.0
120
0.0
130
0.0
111
1.0
121
0.0
131
0.0
112
0.0
122
1.0
132
0.0
 79
     0
146
0.0
348
460AA
 60
     3
 61
     5
292
     1
282
     1
141
0.0
142
0.0
 63
   250
421
  3355443
  0
ENDTAB
  0
TABLE
  2
LTYPE
  5
458C4
330
0
100
AcDbSymbolTable
 70
     1
  0
LTYPE
  5
458D0
330
458C4
100
AcDbSymbolTableRecord
100
AcDbLinetypeTableRecord
  2
BYBLOCK
 70
     0
  3

 72
    65
 73
     0
 40
0.0
  0
LTYPE
  5
458D1
330
458C4
100
AcDbSymbolTableRecord
100
AcDbLinetypeTableRecord
  2
BYLAYER
 70
     0
  3

 72
    65
 73
     0
 40
0.0
  0
LTYPE
  5
458D2
330
458C4
100
AcDbSymbolTableRecord
100
AcDbLinetypeTableRecord
  2
CONTINUOUS
 70
     0
  3
Solid line
 72
    65
 73
     0
 40
0.0
  0
ENDTAB
  0
TABLE
  2
LAYER
  5
458C1
330
0
100
AcDbSymbolTable
 70
     9
  0
LAYER
  5
458CD
330
458C1
100
AcDbSymbolTableRecord
100
AcDbLayerTableRecord
  2
0
 70
     0
 62
     7
  6
CONTINUOUS
370
    -3
390
458FA
347
460A3
  0
LAYER
  5
458EA
330
458C1
100
AcDbSymbolTableRecord
100
AcDbLayerTableRecord
  2
DIMS-MTG-HOLES
 70
     0
 62
     1
  6
CONTINUOUS
370
    -3
390
458FA
347
460A3
  0
LAYER
  5
458EB
330
458C1
100
AcDbSymbolTableRecord
100
AcDbLayerTableRecord
  2
ATTRIBUTES
 70
     0
 62
     7
  6
CONTINUOUS
370
    -3
390
458FA
347
460A3
  0
LAYER
  5
4593B
330
458C1
100
AcDbSymbolTableRecord
100
AcDbLayerTableRecord
  2
AREA1
 70
     1
 62
     7
  6
CONTINUOUS
290
     0
370
    -3
390
458FA
347
460A3
  0
LAYER
  5
45940
330
458C1
100
AcDbSymbolTableRecord
100
AcDbLayerTableRecord
  2
Defpoints
 70
     1
 62
     7
  6
CONTINUOUS
290
     0
370
    -3
390
458FA
347
460A3
  0
LAYER
  5
45954
330
458C1
100
AcDbSymbolTableRecord
100
AcDbLayerTableRecord
  2
SCALE
 70
     1
 62
     7
  6
CONTINUOUS
370
    -3
390
458FA
347
460A3
  0
LAYER
  5
459CD
330
458C1
100
AcDbSymbolTableRecord
100
AcDbLayerTableRecord
  2
AREA2
 70
     1
 62
     7
  6
CONTINUOUS
290
     0
370
    -3
390
458FA
347
460A3
  0
LAYER
  5
459CE
330
458C1
100
AcDbSymbolTableRecord
100
AcDbLayerTableRecord
  2
SNAP_POINTS
 70
     1
 62
     1
  6
CONTINUOUS
290
     0
370
    -3
390
458FA
347
460A3
  0
LAYER
  5
460B9
102
{ACAD_XDICTIONARY
360
460BA
102
}
330
458C1
100
AcDbSymbolTableRecord
100
AcDbLayerTableRecord
  2
WIRES
 70
     0
 62
     7
  6
CONTINUOUS
370
    -3
390
458FA
347
460A3
  0
ENDTAB
  0
TABLE
  2
STYLE
  5
458C2
330
0
100
AcDbSymbolTable
 70
     1
  0
STYLE
  5
458CE
330
458C2
100
AcDbSymbolTableRecord
100
AcDbTextStyleTableRecord
  2
STANDARD
 70
     0
 40
0.0
 41
1.0
 50
0.0
 71
     0
 42
0.12
  3
txt
  4

  0
ENDTAB
  0
TABLE
  2
VIEW
  5
458C5
330
0
100
AcDbSymbolTable
 70
     0
  0
ENDTAB
  0
TABLE
  2
UCS
  5
458C6
330
0
100
AcDbSymbolTable
 70
     0
  0
ENDTAB
  0
TABLE
  2
APPID
  5
458C8
330
0
100
AcDbSymbolTable
 70
     3
  0
APPID
  5
458CF
330
458C8
100
AcDbSymbolTableRecord
100
AcDbRegAppTableRecord
  2
ACAD
 70
     0
  0
APPID
  5
45ABF
330
458C8
100
AcDbSymbolTableRecord
100
AcDbRegAppTableRecord
  2
AVE_RENDER
 70
     0
  0
APPID
  5
46023
330
458C8
100
AcDbSymbolTableRecord
100
AcDbRegAppTableRecord
  2
DCO15
 70
     0
  0
ENDTAB
  0
TABLE
  2
DIMSTYLE
  5
458C9
330
0
100
AcDbSymbolTable
 70
     1
100
AcDbDimStyleTable
 71
     0
  0
DIMSTYLE
105
458F6
102
{ACAD_REACTORS
330
45F35
330
45F36
102
}
330
458C9
100
AcDbSymbolTableRecord
100
AcDbDimStyleTableRecord
  2
ABECAD_3D
 70
     0
 41
0.09
 43
0.375
 44
0.03
 73
     0
 78
     4
140
0.09
146
1.5
170
     1
271
     6
272
     6
276
     2
277
     5
279
     2
284
     4
285
     4
286
     4
288
     1
289
     2
340
458CE
  0
ENDTAB
  0
TABLE
  2
BLOCK_RECORD
  5
458C0
330
0
100
AcDbSymbolTable
 70
     3
  0
BLOCK_RECORD
  5
458D6
102
{ACAD_XDICTIONARY
360
4592C
102
}
330
458C0
100
AcDbSymbolTableRecord
100
AcDbBlockTableRecord
  2
*MODEL_SPACE
340
458FD
 70
     0
280
     1
281
     0
  0
BLOCK_RECORD
  5
458D3
102
{ACAD_XDICTIONARY
360
4592A
102
}
330
458C0
100
AcDbSymbolTableRecord
100
AcDbBlockTableRecord
  2
*PAPER_SPACE
340
458FE
 70
     0
280
     1
281
     0
  0
BLOCK_RECORD
  5
45941
330
458C0
100
AcDbSymbolTableRecord
100
AcDbBlockTableRecord
  2
scale
340
0
 70
     0
280
     1
281
     0
  0
BLOCK_RECORD
  5
45F43
330
458C0
100
AcDbSymbolTableRecord
100
AcDbBlockTableRecord
  2
*D1
340
0
 70
     0
280
     1
281
     0
  0
BLOCK_RECORD
  5
45F50
330
458C0
100
AcDbSymbolTableRecord
100
AcDbBlockTableRecord
  2
*D2
340
0
 70
     0
280
     1
281
     0
  0
ENDTAB
  0
ENDSEC
  0
SECTION
  2
BLOCKS
  0
BLOCK
  5
458DF
330
458D6
100
AcDbEntity
  8
0
100
AcDbBlockBegin
  2
*MODEL_SPACE
 70
     0
 10
0.0
 20
0.0
 30
0.0
  3
*MODEL_SPACE
  1

  0
ENDBLK
  5
458E0
330
458D6
100
AcDbEntity
  8
0
100
AcDbBlockEnd
  0
BLOCK
  5
458DD
330
458D3
100
AcDbEntity
 67
     1
  8
0
100
AcDbBlockBegin
  2
*PAPER_SPACE
 70
     0
 10
0.0
 20
0.0
 30
0.0
  3
*PAPER_SPACE
  1

  0
ENDBLK
  5
458DE
330
458D3
100
AcDbEntity
 67
     1
  8
0
100
AcDbBlockEnd
  0
BLOCK
  5
4594D
330
45941
100
AcDbEntity
  8
0
100
AcDbBlockBegin
  2
scale
 70
     0
 10
0.0
 20
0.0
 30
0.0
  3
scale
  1

  0
LINE
  5
45942
330
45941
100
AcDbEntity
  8
ATTRIBUTES
100
AcDbLine
 10
0.0514584964703371
 20
-2.442796195755966
 30
0.0
 11
1.051458496470337
 21
-2.442796195755966
 31
0.0
  0
LINE
  5
45943
330
45941
100
AcDbEntity
  8
ATTRIBUTES
100
AcDbLine
 10
1.051458496470337
 20
-2.442796195755966
 30
0.0
 11
1.051458496470337
 21
-2.542796195755967
 31
0.0
  0
LINE
  5
45944
330
45941
100
AcDbEntity
  8
ATTRIBUTES
100
AcDbLine
 10
1.051458496470337
 20
-2.542796195755967
 30
0.0
 11
1.051458496470337
 21
-2.342796195755966
 31
0.0
  0
LINE
  5
45945
330
45941
100
AcDbEntity
  8
ATTRIBUTES
100
AcDbLine
 10
0.0514584964703371
 20
-2.542796195755967
 30
0.0
 11
0.0514584964703371
 21
-2.342796195755966
 31
0.0
  0
LINE
  5
45946
330
45941
100
AcDbEntity
  8
ATTRIBUTES
100
AcDbLine
 10
0.0514584964703371
 20
-2.842796195755966
 30
0.0
 11
0.0514584964703371
 21
-2.642796195755967
 31
0.0
  0
LINE
  5
45947
330
45941
100
AcDbEntity
  8
ATTRIBUTES
100
AcDbLine
 10
0.445158496470337
 20
-2.842796195755966
 30
0.0
 11
0.445158496470337
 21
-2.642796195755967
 31
0.0
  0
LINE
  5
45948
330
45941
100
AcDbEntity
  8
ATTRIBUTES
100
AcDbLine
 10
0.0514584964703371
 20
-2.742796195755966
 30
0.0
 11
0.445158496470337
 21
-2.742796195755966
 31
0.0
  0
TEXT
  5
45949
330
45941
100
AcDbEntity
  8
ATTRIBUTES
100
AcDbText
 10
0.1108806516189142
 20
-2.697056550481852
 30
0.0
 40
0.0625
  1
[10mm]
100
AcDbText
  0
TEXT
  5
4594A
330
45941
100
AcDbEntity
  8
ATTRIBUTES
100
AcDbText
 10
0.4147414849542468
 20
-2.373747500382765
 30
0.0
 40
0.0625
  1
1 Inch
100
AcDbText
  0
TEXT
  5
4594B
330
45941
100
AcDbEntity
  8
ATTRIBUTES
100
AcDbText
 10
0.052988761716863
 20
-2.167919074482353
 30
0.0
 40
0.0625
  1
SCALE:
100
AcDbText
  0
LWPOLYLINE
  5
4594C
330
45941
100
AcDbEntity
  8
ATTRIBUTES
100
AcDbPolyline
 90
        4
 70
     1
 43
0.0
 10
-0.006540167756425
 20
-2.062717877051751
 10
1.129088651785547
 20
-2.062717877051751
 10
1.129088651785547
 20
-2.904327443829766
 10
-0.006540167756425
 20
-2.904327443829766
  0
ENDBLK
  5
4594E
330
45941
100
AcDbEntity
  8
0
100
AcDbBlockEnd
  0
BLOCK
  5
45F4E
330
45F43
100
AcDbEntity
  8
0
100
AcDbBlockBegin
  2
*D1
 70
     1
 10
0.0
 20
0.0
 30
0.0
  3
*D1
  1

  0
LINE
  5
46017
330
45F43
100
AcDbEntity
  8
AREA1
 62
     0
370
    -2
100
AcDbLine
 10
0.6500000000000008
 20
1.321500000000002
 30
0.0
 11
0.957891123428009
 21
1.321500000000002
 31
0.0
  0
LINE
  5
46018
330
45F43
100
AcDbEntity
  8
AREA1
 62
     0
370
    -2
100
AcDbLine
 10
0.0624999999999996
 20
-0.5874999999999988
 30
0.0
 11
0.9578911234280084
 21
-0.5874999999999992
 31
0.0
  0
LINE
  5
46019
330
45F43
100
AcDbEntity
  8
AREA1
 62
     0
370
    -2
100
AcDbLine
 10
0.9278911234280087
 20
1.231500000000002
 30
0.0
 11
0.9278911234280087
 21
1.052906964829393
 31
0.0
  0
LINE
  5
4601A
330
45F43
100
AcDbEntity
  8
AREA1
 62
     0
370
    -2
100
AcDbLine
 10
0.9278911234280084
 20
-0.4974999999999992
 30
0.0
 11
0.9278911234280084
 21
-0.2970930351706068
 31
0.0
  0
MTEXT
  5
4601B
330
45F43
100
AcDbEntity
  8
AREA1
 62
     0
100
AcDbMText
 10
0.9278911234280082
 20
0.3779069648293933
 30
0.0
 40
0.09
 41
0.0
 46
0.0
 71
     5
 72
     1
  1
\A1;1 29/32 [48.49]
 11
0.0000000000000001
 21
1.0
 31
0.0
 73
     1
 44
1.0
  0
SOLID
  5
4601C
330
45F43
100
AcDbEntity
  8
AREA1
 62
     0
100
AcDbTrace
 10
0.9128911234280089
 20
1.231500000000002
 30
0.0
 11
0.9428911234280088
 21
1.231500000000002
 31
0.0
 12
0.9278911234280089
 22
1.321500000000002
 32
0.0
 13
0.9278911234280089
 23
1.321500000000002
 33
0.0
  0
SOLID
  5
4601D
330
45F43
100
AcDbEntity
  8
AREA1
 62
     0
100
AcDbTrace
 10
0.9128911234280085
 20
-0.4974999999999992
 30
0.0
 11
0.9428911234280084
 21
-0.4974999999999992
 31
0.0
 12
0.9278911234280084
 22
-0.5874999999999992
 32
0.0
 13
0.9278911234280084
 23
-0.5874999999999992
 33
0.0
  0
POINT
  5
4601E
330
45F43
100
AcDbEntity
  8
Defpoints
 62
     0
100
AcDbPoint
 10
0.5875000000000008
 20
1.321500000000002
 30
0.0
  0
POINT
  5
4601F
330
45F43
100
AcDbEntity
  8
Defpoints
 62
     0
100
AcDbPoint
 10
-0.0000000000000004
 20
-0.5874999999999988
 30
0.0
  0
POINT
  5
46020
330
45F43
100
AcDbEntity
  8
Defpoints
 62
     0
100
AcDbPoint
 10
0.9278911234280084
 20
-0.5874999999999992
 30
0.0
  0
ENDBLK
  5
45F4F
330
45F43
100
AcDbEntity
  8
0
100
AcDbBlockEnd
  0
BLOCK
  5
45F5A
330
45F50
100
AcDbEntity
  8
0
100
AcDbBlockBegin
  2
*D2
 70
     1
 10
0.0
 20
0.0
 30
0.0
  3
*D2
  1

  0
LINE
  5
4600E
330
45F50
100
AcDbEntity
  8
AREA1
 62
     0
370
    -2
100
AcDbLine
 10
-0.5875
 20
1.384000000000002
 30
0.0
 11
-0.5875
 21
1.636758506441534
 31
0.0
  0
LINE
  5
4600F
330
45F50
100
AcDbEntity
  8
AREA1
 62
     0
370
    -2
100
AcDbLine
 10
0.5875000000000008
 20
1.384000000000001
 30
0.0
 11
0.5875000000000008
 21
1.636758506441534
 31
0.0
  0
LINE
  5
46010
330
45F50
100
AcDbEntity
  8
AREA1
 62
     0
370
    -2
100
AcDbLine
 10
-0.4975
 20
1.606758506441534
 30
0.0
 11
0.4975000000000009
 21
1.606758506441534
 31
0.0
  0
MTEXT
  5
46011
330
45F50
100
AcDbEntity
  8
AREA1
 62
     0
100
AcDbMText
 10
0.0073858575915402
 20
1.735194217246583
 30
0.0
 40
0.09
 41
0.0
 46
0.0
 71
     5
 72
     1
  1
\A1;1 11/64 [29.85]
 73
     1
 44
1.0
  0
SOLID
  5
46012
330
45F50
100
AcDbEntity
  8
AREA1
 62
     0
100
AcDbTrace
 10
-0.4975
 20
1.621758506441534
 30
0.0
 11
-0.4975
 21
1.591758506441534
 31
0.0
 12
-0.5875
 22
1.606758506441534
 32
0.0
 13
-0.5875
 23
1.606758506441534
 33
0.0
  0
SOLID
  5
46013
330
45F50
100
AcDbEntity
  8
AREA1
 62
     0
100
AcDbTrace
 10
0.4975000000000009
 20
1.621758506441534
 30
0.0
 11
0.4975000000000009
 21
1.591758506441534
 31
0.0
 12
0.5875000000000008
 22
1.606758506441534
 32
0.0
 13
0.5875000000000008
 23
1.606758506441534
 33
0.0
  0
POINT
  5
46014
330
45F50
100
AcDbEntity
  8
Defpoints
 62
     0
100
AcDbPoint
 10
-0.5875
 20
1.321500000000002
 30
0.0
  0
POINT
  5
46015
330
45F50
100
AcDbEntity
  8
Defpoints
 62
     0
100
AcDbPoint
 10
0.5875000000000008
 20
1.321500000000001
 30
0.0
  0
POINT
  5
46016
330
45F50
100
AcDbEntity
  8
Defpoints
 62
     0
100
AcDbPoint
 10
0.5875000000000008
 20
1.606758506441534
 30
0.0
  0
ENDBLK
  5
45F5B
330
45F50
100
AcDbEntity
  8
0
100
AcDbBlockEnd
  0
ENDSEC
  0
SECTION
  2
ENTITIES
  0
ATTDEF
  5
45F2C
330
458D6
100
AcDbEntity
  8
ATTRIBUTES
100
AcDbText
 10
-0.5299959607932783
 20
1.236015873743269
 30
0.0
 40
0.0347967844402571
  1
SPRECHER+SCHUH
100
AcDbAttributeDefinition
  3
MANUFACTURER NAME?
  2
AC_VND_LABEL
 70
     0
280
     0
  0
ATTDEF
  5
45F2D
330
458D6
100
AcDbEntity
  8
ATTRIBUTES
100
AcDbText
 10
-0.5299959607932783
 20
1.163522572826066
 30
0.0
 40
0.0347967844402571
  1
D7-35_
100
AcDbAttributeDefinition
  3
CATALOG NUMBER?
  2
AC_PART_NO
 70
     0
280
     0
  0
ATTDEF
  5
45F2E
330
458D6
100
AcDbEntity
  8
ATTRIBUTES
100
AcDbText
 10
-0.5299959607932783
 20
1.091029271908864
 30
0.0
 40
0.0347967844402571
  1
30x50 ONE PIECE LEGEND PLATE
100
AcDbAttributeDefinition
  3
PART DESCRIPTION?
  2
AC_DESCRIPTION
 70
     0
280
     0
  0
ATTDEF
  5
45F2F
330
458D6
100
AcDbEntity
  8
ATTRIBUTES
100
AcDbText
 10
-0.5299959607932783
 20
1.018535970991662
 30
0.0
 40
0.0347967844402571
  1

100
AcDbAttributeDefinition
  3
DEVICE ID?
  2
DEVICE_ID
 70
     0
280
     0
  0
ATTDEF
  5
45F30
330
458D6
100
AcDbEntity
  8
ATTRIBUTES
100
AcDbText
 10
-0.5299959607932783
 20
0.94604267007446
 30
0.0
 40
0.0347967844402571
  1

100
AcDbAttributeDefinition
  3
CUSTOMER PART NUMBER?
  2
AC_CPART_NO
 70
     0
280
     0
  0
ATTDEF
  5
45F31
330
458D6
100
AcDbEntity
  8
ATTRIBUTES
100
AcDbText
 10
-0.5299959607932783
 20
0.8735493691572575
 30
0.0
 40
0.0347967844402571
  1

100
AcDbAttributeDefinition
  3
CUSTOMER NOTE?
  2
AC_NOTE
 70
     0
280
     0
  0
ATTDEF
  5
45F32
330
458D6
100
AcDbEntity
  8
ATTRIBUTES
100
AcDbText
 10
-0.5299959607932783
 20
0.8010560682400551
 30
0.0
 40
0.0347967844402571
  1

100
AcDbAttributeDefinition
  3
FASTENER DATA?
  2
FASTENER
 70
     0
280
     0
  0
ATTDEF
  5
45F33
330
458D6
100
AcDbEntity
  8
ATTRIBUTES
100
AcDbText
 10
-0.5299959607932783
 20
0.7285627673228527
 30
0.0
 40
0.0347967844402571
  1

100
AcDbAttributeDefinition
  3
UNIT OF SCALE?
  2
AC_SCALE_UNIT
 70
     0
280
     0
  0
ATTDEF
  5
45F34
330
458D6
100
AcDbEntity
  8
ATTRIBUTES
100
AcDbText
 10
-0.5299959607932783
 20
0.6560694664056504
 30
0.0
 40
0.0347967844402571
  1

100
AcDbAttributeDefinition
  3
VIEW CODE?
  2
AC_VIEW_CODE
 70
     0
280
     0
  0
DIMENSION
  5
45F35
330
458D6
100
AcDbEntity
  8
AREA1
100
AcDbDimension
  2
*D1
 10
0.9278911234280084
 20
-0.5874999999999992
 30
0.0
 11
0.9278911234280082
 21
0.3779069648293933
 31
0.0
 70
   160
 71
     5
 42
-1.0
 73
     0
 74
     0
 75
     0
  3
ABECAD_3D
100
AcDbAlignedDimension
 13
0.5875000000000008
 23
1.321500000000002
 33
0.0
 14
-0.0000000000000004
 24
-0.5874999999999988
 34
0.0
 50
90.0
100
AcDbRotatedDimension
  0
DIMENSION
  5
45F36
330
458D6
100
AcDbEntity
  8
AREA1
100
AcDbDimension
  2
*D2
 10
0.5875000000000008
 20
1.606758506441534
 30
0.0
 11
0.0073858575915402
 21
1.735194217246583
 31
0.0
 70
   160
 71
     5
 42
-1.0
 73
     0
 74
     0
 75
     0
  3
ABECAD_3D
100
AcDbAlignedDimension
 13
-0.5875
 23
1.321500000000002
 33
0.0
 14
0.5875000000000008
 24
1.321500000000001
 34
0.0
100
AcDbRotatedDimension
  0
LWPOLYLINE
  5
45F37
330
458D6
100
AcDbEntity
  8
SCALE
100
AcDbPolyline
 90
        4
 70
     1
 43
0.0
 10
-2.006920248400273
 20
1.515920822053257
 10
-0.8712914288583014
 20
1.515920822053257
 10
-0.8712914288583014
 20
0.6743112552752426
 10
-2.006920248400273
 20
0.6743112552752426
  0
LINE
  5
45F38
330
458D6
100
AcDbEntity
  8
SCALE
100
AcDbLine
 10
-1.948921584173511
 20
1.135842503349042
 30
0.0
 11
-0.948921584173512
 21
1.135842503349042
 31
0.0
  0
LINE
  5
45F39
330
458D6
100
AcDbEntity
  8
SCALE
100
AcDbLine
 10
-1.948921584173511
 20
0.8358425033490423
 30
0.0
 11
-1.555221584173511
 21
0.8358425033490423
 31
0.0
  0
LINE
  5
45F3A
330
458D6
100
AcDbEntity
  8
SCALE
100
AcDbLine
 10
-1.948921584173511
 20
1.035842503349041
 30
0.0
 11
-1.948921584173511
 21
1.235842503349042
 31
0.0
  0
TEXT
  5
45F3B
330
458D6
100
AcDbEntity
  8
SCALE
100
AcDbText
 10
-1.892945602243037
 20
0.8835275931118843
 30
0.0
 40
0.0625
  1
[10mm]
100
AcDbText
  0
LINE
  5
45F3C
330
458D6
100
AcDbEntity
  8
SCALE
100
AcDbLine
 10
-1.948921584173511
 20
0.7358425033490428
 30
0.0
 11
-1.948921584173511
 21
0.9358425033490419
 31
0.0
  0
TEXT
  5
45F3D
330
458D6
100
AcDbEntity
  8
SCALE
100
AcDbText
 10
-1.947391318926985
 20
1.410719624622655
 30
0.0
 40
0.0625
  1
SCALE:
100
AcDbText
  0
LINE
  5
45F3E
330
458D6
100
AcDbEntity
  8
SCALE
100
AcDbLine
 10
-1.555221584173511
 20
0.7358425033490428
 30
0.0
 11
-1.555221584173511
 21
0.9358425033490419
 31
0.0
  0
TEXT
  5
45F3F
330
458D6
100
AcDbEntity
  8
SCALE
100
AcDbText
 10
-1.585638595689602
 20
1.204891198722243
 30
0.0
 40
0.0625
  1
1 Inch
100
AcDbText
  0
LINE
  5
45F40
330
458D6
100
AcDbEntity
  8
SCALE
100
AcDbLine
 10
-0.948921584173512
 20
1.135842503349042
 30
0.0
 11
-0.948921584173512
 21
1.035842503349041
 31
0.0
  0
LINE
  5
45F41
330
458D6
100
AcDbEntity
  8
SCALE
100
AcDbLine
 10
-0.948921584173512
 20
1.035842503349041
 30
0.0
 11
-0.948921584173512
 21
1.235842503349042
 31
0.0
  0
POINT
  5
45F42
330
458D6
100
AcDbEntity
  8
SNAP_POINTS
100
AcDbPoint
 10
0.0
 20
0.0
 30
0.0
  0
3DSOLID
  5
46050
330
458D6
100
AcDbEntity
  8
0
100
AcDbModelerGeometry
 70
     1
  1
mnmoo nik m mi         
  1
ni ^ *+0;:,4 ^ *+0\^ [ ng ^ LR nmqoqoqjgmm QK o  
  1
mjqlffffffffffffff fqfffffffffffffffj:rooh n:rono 
  1
>,27:>;:- {rn rn _nm mnmqoqoqjgmm |
  1
=0;& {rn rn {rn {m {rn {rn |
  1
3*2/ {rn rn {rn {rn {l {n |
  1
,7:33 {rn rn {rn {rn {rn {k {rn {m |
  1
9><: {rn rn {rn {j {i {l {rn {h 90-(>-; ,6183: |
  1
9><: {rn rn {rn {g {f {l {rn {no -:):-,:; ,6183: |
  1
300/ {rn rn {rn {rn {nn {k |
  1
/3>1:r,*-9><: {rn rn {rn roqjghjoooooooooooli nqlmnkffffffffffjm o o n o o o n 90-(>-;@) V V V V |
  1
9><: {rn rn {rn {nm {nl {l {rn {nk -:):-,:; ,6183: |
  1
300/ {rn rn {rn {rn {nj {j |
  1
/3>1:r,*-9><: {rn rn {rn roqoimjoooooooooooggg oqkfnjoooooooooommh rjqjjnnnjnmlnmjhgmh:ronh o n o o o n 90-(>-;@) V V V V |
  1
<0:;8: {rn rn {rn {ni {nh {ng {nf -:):-,:; {i {rn |
  1
9><: {rn rn {rn {mo {mn {l {rn {mm -:):-,:; ,6183: |
  1
300/ {rn rn {rn {rn {ml {g |
  1
/3>1:r,*-9><: {rn rn {rn oqoimj oqkfnjoooooooooommh rjqjjnnnjnmlnmjhgmh:ronh n o o o o rn 90-(>-;@) V V V V |
  1
<0:;8: {rn rn {rn {mk {mj {mi {mh -:):-,:; {f {rn |
  1
<0:;8: {rn rn {rn {mg {nn {mf {lo -:):-,:; {i {rn |
  1
<0:;8: {rn rn {rn {nn {mg {ln {lm -:):-,:; {i {rn |
  1
<0:;8: {rn rn {rn {ll {lk {nn {nf 90-(>-; {lj {rn |
  1
:;8: {rn rn {rn {li roqoigoooooooooooooi {lh o {ng {lg 90-(>-; _h *1410(1 |
  1
9><: {rn rn {rn {lf {ko {l {rn {kn -:):-,:; ,6183: |
  1
300/ {rn rn {rn {rn {km {nm |
  1
<01:r,*-9><: {rn rn {rn o o rjqjjnnnjnmlnmjhgmh:ronh o o n jqfigjjgfgolgkgnnk:roni roqkkgoooooooooooof o n V V o n oqkkgoooooooooooof 90-(>-; V V V V |
  1
<0:;8: {rn rn {rn {kl {kk {kj {ki -:):-,:; {nl {rn |
  1
<0:;8: {rn rn {rn {kh {nj {kg {kf -:):-,:; {f {rn |
  1
<0:;8: {rn rn {rn {nj {kh {kl {jo 90-(>-; {f {rn |
  1
<0:;8: {rn rn {rn {kj {jn {nj {mh 90-(>-; {jm {rn |
  1
:;8: {rn rn {rn {jl roqolnmjooooooooooggg {jk oqoflhj {mi {jj 90-(>-; _h *1410(1 |
  1
<0:;8: {rn rn {rn {nh {ni {ji {jh -:):-,:; {i {rn |
  1
<0:;8: {rn rn {rn {jg {jf {ni {lo 90-(>-; {io {rn |
  1
:;8: {rn rn {rn {in rnqnhjooooooooooooh {li o {mf {im 90-(>-; _h *1410(1 |
  1
<0:;8: {rn rn {rn {il {ik {nh {lm 90-(>-; {ij {rn |
  1
:;8: {rn rn {rn {lh o {ii nqnhjooooooooooooh {ln {ih 90-(>-; _h *1410(1 |
  1
<0:;8: {rn rn {rn {ig {ng {ik {if -:):-,:; {lj {rn |
  1
<0:;8: {rn rn {rn {ng {ig {jg {ho 90-(>-; {lj {rn |
  1
300/ {rn rn {rn {rn {lk {hn |
  1
):-+:' {rn rn {rn {ho m {hm |
  1
):-+:' {rn rn {rn {if m {hl |
  1
,+->687+r<*-): {rn rn {rn roqjghjoooooooooooli nqlmnkffffffffffjm o o o rn V V |
  1
9><: {rn rn {rn {hk {hj {l {rn {hi 90-(>-; ,6183: |
  1
300/ {rn rn {rn {rn {hh {mo |
  1
/3>1:r,*-9><: {rn rn {rn roqoimjoooooooooooggg oqkklingfmklolmgnjk rjqjjnnnjnmlnmjhgmh:ronh rn o o o o n 90-(>-;@) V V V V |
  1
<0:;8: {rn rn {rn {hg {hf {go {gn -:):-,:; {mn {rn |
  1
<0:;8: {rn rn {rn {gm {ml {mj {jo -:):-,:; {nl {rn |
  1
<0:;8: {rn rn {rn {ml {gm {hg {gl 90-(>-; {nl {rn |
  1
<0:;8: {rn rn {rn {go {mi {ml {ki 90-(>-; {jm {rn |
  1
:;8: {rn rn {rn {jk roqnofjnhkjkikoilhgf {gk roqoinililhgfklfnhlg {kj {gj 90-(>-; _h *1410(1 |
  1
<0:;8: {rn rn {rn {mj {mk {gi {gh -:):-,:; {f {rn |
  1
<0:;8: {rn rn {rn {hh {gg {mk {kf 90-(>-; {ko {rn |
  1
:;8: {rn rn {rn {gf o {jl oqoigoooooooooooooi {mk {fo 90-(>-; _h *1410(1 |
  1
:;8: {rn rn {rn {fn o {jk oqoigoooooooooooooi {kl {fm 90-(>-; _h *1410(1 |
  1
<0:;8: {rn rn {rn {mi {go {hh {fl 90-(>-; {jm {rn |
  1
300/ {rn rn {rn {io {mi {fk |
  1
):-+:' {rn rn {rn {mh m {fj |
  1
):-+:' {rn rn {rn {mh m {fi |
  1
,+->687+r<*-): {rn rn {rn roqolnmj oqkfnjoooooooooommh oqoigoooooooooooooi n o o V V |
  1
<0:;8: {rn rn {rn {fh {fg {mg {jh 90-(>-; {hj {rn |
  1
:;8: {rn rn {rn {ii o {in oqoigoooooooooooooi {ji {ff 90-(>-; _h *1410(1 |
  1
<0:;8: {rn rn {rn {noo {mf {lk {ho -:):-,:; {io {rn |
  1
<0:;8: {rn rn {rn {mf {noo {fh {non -:):-,:; {io {rn |
  1
300/ {rn rn {rn {rn {jg {fk |
  1
):-+:' {rn rn {rn {non m {nom |
  1
,+->687+r<*-): {rn rn {rn roqjghjoooooooooooli nqlmnkffffffffffjm oqoigoooooooooooooi rn o o V V |
  1
<0:;8: {rn rn {rn {nol {ln {fg {nok 90-(>-; {ij {rn |
  1
<0:;8: {rn rn {rn {ln {nol {ll {if 90-(>-; {ij {rn |
  1
300/ {rn rn {rn {rn {ik {noj |
  1
):-+:' {rn rn {rn {nok m {noi |
  1
,+->687+r<*-): {rn rn {rn roqjghjoooooooooooli nqlmnkffffffffffjm o n o o V V |
  1
<0:;8: {rn rn {rn {lk {ll {noh {nog 90-(>-; {lj {rn |
  1
:;8: {rn rn {rn {nof o {lh nqlmnjooooooooooog {ik {nno 90-(>-; _h *1410(1 |
  1
:;8: {rn rn {rn {nnn roqfmhgnohnhgfomhlh {li oqlfligfmgmnofhmhof {lk {nnm 90-(>-; _h *1410(1 |
  1
9><: {rn rn {rn {fk {lj {l {rn {nnl 90-(>-; ,6183: |
  1
/061+ {rn rn {rn roqjghjoooooooooooli nqlmnkffffffffffjm oqoigoooooooooooooi |
  1
/061+ {rn rn {rn roqjghjoooooooooooli nqlmnkffffffffffjm o |
  1
9><: {rn rn {rn {hn {nnk {l {rn {nnj 90-(>-; ,6183: |
  1
300/ {rn rn {rn {rn {fh {lf |
  1
/3>1:r,*-9><: {rn rn {rn oqjghjoooooooooooli oqfmhgnohnhgfomignk o n o o o o rn 90-(>-;@) V V V V |
  1
<0:;8: {rn rn {rn {nni {kg {jn {fl -:):-,:; {ko {rn |
  1
<0:;8: {rn rn {rn {nnh {km {kk {gl -:):-,:; {mn {rn |
  1
<0:;8: {rn rn {rn {km {nnh {nni {nng 90-(>-; {mn {rn |
  1
<0:;8: {rn rn {rn {jn {kj {km {gn 90-(>-; {jm {rn |
  1
:;8: {rn rn {rn {gk rlqoonimhnhhlionkii {nnf lqoonimhnhhlionkhj {go {nmo 90-(>-; _h *1410(1 |
  1
<0:;8: {rn rn {rn {kk {kl {nmn {nmm -:):-,:; {nl {rn |
  1
:;8: {rn rn {rn {nml o {gk oqoigoooooooooooooi {hg {nmk 90-(>-; _h *1410(1 |
  1
):-+:' {rn rn {rn {ki m {nmj |
  1
,+->687+r<*-): {rn rn {rn oqoimj oqlgnfgmjkjljfliklg oqoigoooooooooooooi o rn o V V |
  1
<0:;8: {rn rn {rn {nmi {nmn {kh {gh 90-(>-; {nmh {rn |
  1
:;8: {rn rn {rn {fn roqoflhj {gf oqolnmjooooooooooggg {gi {nmg 90-(>-; _h *1410(1 |
  1
<0:;8: {rn rn {rn {kg {nni {nmi {nmf -:):-,:; {ko {rn |
  1
):-+:' {rn rn {rn {gh m {nlo |
  1
,+->687+r<*-): {rn rn {rn roqoimjoooooooooooggg oqkfnjoooooooooommh rjqjjnnnjnmlnmjhgmh:ronh o o n V V |
  1
):-+:' {rn rn {rn {gh m {nln |
  1
,+->687+r<*-): {rn rn {rn oqoimj oqkfnjoooooooooommh rjqjjnnnjnmlnmjhgmh:ronh o o n V V |
  1
:;8: {rn rn {rn {nnf oqogjjhifnihfmmhhknl {jl oqnllkjhffmkggffgnj {jn {nlm 90-(>-; _h *1410(1 |
  1
9><: {rn rn {rn {noj {jm {l {rn {nll 90-(>-; ,6183: |
  1
/061+ {rn rn {rn roqoimjoooooooooooggg oqkfnjoooooooooommh oqoigooooooooooooooj |
  1
/061+ {rn rn {rn oqoimj oqkfnjoooooooooommh oqoigooooooooooooooj |
  1
<0:;8: {rn rn {rn {nlk {ji {jf {non 90-(>-; {hj {rn |
  1
<0:;8: {rn rn {rn {ji {nlk {il {nok -:):-,:; {hj {rn |
  1
,+->687+r<*-): {rn rn {rn oqjghjoooooooooooli nqlmnkffffffffffjm o o o n V V |
  1
<0:;8: {rn rn {rn {jf {jg {nlj {nli -:):-,:; {io {rn |
  1
:;8: {rn rn {rn {in roqlfligfmgmnofhmhof {nlh oqfmhgnohnhgfomhlh {fh {nlg 90-(>-; _h *1410(1 |
  1
/061+ {rn rn {rn oqjghjoooooooooooli nqlmnkffffffffffjm oqoigoooooooooooooi |
  1
<0:;8: {rn rn {rn {ik {il {nlf {nko 90-(>-; {ij {rn |
  1
:;8: {rn rn {rn {ii roqlfligfmgmnofhmhof {nkn oqfmhgnohnhgfomhlh {il {nkm 90-(>-; _h *1410(1 |
  1
9><: {rn rn {rn {rn {nmh {l {rn {nkl -:):-,:; ,6183: |
  1
/061+ {rn rn {rn oqjghjoooooooooooli nqlmnkffffffffffjm o |
  1
<0:;8: {rn rn {rn {nlf {nlj {ig {nog -:):-,:; {nnk {rn |
  1
:;8: {rn rn {rn {nof o {nnn oqoigoooooooooooooi {ig {nkk 90-(>-; _h +>18:1+ |
  1
):-+:' {rn rn {rn {if m {nkj |
  1
,+->687+r<*-): {rn rn {rn roqjghjoooooooooooli rjqkfjiolfhngfkjmkf:ronj o o n o V V |
  1
):-+:' {rn rn {rn {nog m {nki |
  1
,+->687+r<*-): {rn rn {rn roqjghjoooooooooooli oqfmhgnohnhgfomignk oqoigoooooooooooooi o n o V V |
  1
/3>1:r,*-9><: {rn rn {rn roqjghjoooooooooooli rjqkfjiolfhngfkjmkf:ronj o rn o o o o n 90-(>-;@) V V V V |
  1
300/ {rn rn {rn {rn {nlj {hk |
  1
<01:r,*-9><: {rn rn {rn o rjqlgkjgniifklmoofm:ronj o o o n o roqjghjoooooooooooli o n V V o n oqjghjoooooooooooli 90-(>-; V V V V |
  1
<0:;8: {rn rn {rn {gg {hh {hf {nng -:):-,:; {ko {rn |
  1
<0:;8: {rn rn {rn {hf {hg {nkh {nkg -:):-,:; {mn {rn |
  1
:;8: {rn rn {rn {nkf o {nnf oqoigoooooooooooooi {nni {njo 90-(>-; _h *1410(1 |
  1
):-+:' {rn rn {rn {gn m {njn |
  1
:336/,:r<*-): {rn rn {rn o o oqoigoooooooooooooi o o rn jqfigjjgfgolgkgnnk:roni roqkkgoooooooooooof o n V V |
  1
<0:;8: {rn rn {rn {gi {nkh {gm {nmm 90-(>-; {nmh {rn |
  1
:;8: {rn rn {rn {nml oqoinililhgfklfnhlg {fn oqnofjnhkjkikoilhgf {nmn {njm 90-(>-; _h *1410(1 |
  1
):-+:' {rn rn {rn {nmm m {njl |
  1
,+->687+r<*-): {rn rn {rn oqoimj oqkklingfmklolmgnhi rjqjjnnnjnmlnmjhgmh:ronh o o n V V |
  1
/061+ {rn rn {rn oqoimj oqkklingfmklolmgnhi oqoigooooooooooooooj |
  1
<0:;8: {rn rn {rn {nkh {gi {gg {nmf 90-(>-; {nmh {rn |
  1
300/ {rn rn {rn {ij {gi {noj |
  1
,+->687+r<*-): {rn rn {rn roqolnmj oqkfnjoooooooooommh o rn o o V V |
  1
:;8: {rn rn {rn {gf roqnllkjhffmkggffgnj {nkf roqogjjhifnihfmmhhknl {nmi {njk 90-(>-; _h *1410(1 |
  1
/061+ {rn rn {rn roqoimjoooooooooooggg oqkfnjoooooooooommh rjqjjnnnjnmlnmjhgmh:ronh |
  1
/061+ {rn rn {rn oqoimj oqkfnjoooooooooommh rjqjjnnnjnmlnmjhgmh:ronh |
  1
,+->687+r<*-): {rn rn {rn roqoimjoooooooooooggg oqljgokmoohjnnooknm oqoigoooooooooooooi o n o V V |
  1
/3>1:r,*-9><: {rn rn {rn kqkkogfmofgjooimim:roni oqmhmkijofohnghmihn oqoigoooooooooooooi o o n n o o 90-(>-;@) V V V V |
  1
<0:;8: {rn rn {rn {fg {fh {njj {nji -:):-,:; {hj {rn |
  1
<0:;8: {rn rn {rn {noh {njj {noo {nli 90-(>-; {nnk {rn |
  1
:;8: {rn rn {rn {nlh rnqjhohfilmihfkgfil {nnn nqjhohfilmihfkgfil {nlj {njh 90-(>-; _h *1410(1 |
  1
):-+:' {rn rn {rn {nji m {njg |
  1
,+->687+r<*-): {rn rn {rn oqjghjoooooooooooli oqfmhgnohnhgfomignk oqoigoooooooooooooi o rn o V V |
  1
<0:;8: {rn rn {rn {njj {noh {nol {nko -:):-,:; {nnk {rn |
  1
:;8: {rn rn {rn {nkn rnqjhohfilmihfkgfil {nof nqjhohfilmihfkgfil {nol {njf 90-(>-; _h *1410(1 |
  1
):-+:' {rn rn {rn {nok m {nio |
  1
,+->687+r<*-): {rn rn {rn oqjghjoooooooooooli oqfmhgnohnhgfomignk o o rn o V V |
  1
/3>1:r,*-9><: {rn rn {rn kqkkogfmofgjooimim:roni oqmhmkijofohnghmihn o o o n n o o 90-(>-;@) V V V V |
  1
,+->687+r<*-): {rn rn {rn roqjghjoooooooooooli rjqkfjiolfhngfkjmkf:ronj o o o n V V |
  1
/061+ {rn rn {rn roqjghjoooooooooooli rjqkfjiolfhngfkjmkf:ronj o |
  1
/061+ {rn rn {rn roqjghjoooooooooooli rjqkfjiolfhngfkjmkf:ronj oqoigoooooooooooooi |
  1
<0:;8: {rn rn {rn {nmn {nmi {nnh {nkg 90-(>-; {nmh {rn |
  1
:;8: {rn rn {rn {nkf rlqoonimhnhhlionkhj {nml lqoonimhnhhlionkii {nkh {nin 90-(>-; _h *1410(1 |
  1
):-+:' {rn rn {rn {nkg m {nim |
  1
,+->687+r<*-): {rn rn {rn roqoimjoooooooooooggg oqkklingfmklolmgnjk rjqjjnnnjnmlnmjhgmh:ronh o o n V V |
  1
/061+ {rn rn {rn roqoimjoooooooooooggg oqkklingfmklolmgnjk oqoigooooooooooooooj |
  1
,+->687+r<*-): {rn rn {rn oqoimj oqlgnfgmjkjljfliklg o o n o V V |
  1
/061+ {rn rn {rn oqoimj oqkklingfmklolmgnhi rjqjjnnnjnmlnmjhgmh:ronh |
  1
,+->687+r<*-): {rn rn {rn roqoimjoooooooooooggg oqljgokmoohjnnooknm o o rn o V V |
  1
<0:;8: {rn rn {rn {nlj {nlf {nlk {nji 90-(>-; {nnk {rn |
  1
:;8: {rn rn {rn {nkn o {nlh oqoigoooooooooooooi {njj {nil 90-(>-; _h +>18:1+ |
  1
:336/,:r<*-): {rn rn {rn o rjqlgkjgniifklmoofm:ronj oqoigoooooooooooooi o o rn o roqjghjoooooooooooli o n V V |
  1
/061+ {rn rn {rn oqjghjoooooooooooli rjqkfjiolfhngfkjmkf:ronj oqoigoooooooooooooi |
  1
:336/,:r<*-): {rn rn {rn o rjqlgkjgniifklmoofm:ronj o o o rn o roqjghjoooooooooooli o n V V |
  1
/061+ {rn rn {rn oqjghjoooooooooooli rjqkfjiolfhngfkjmkf:ronj o |
  1
:336/,:r<*-): {rn rn {rn o o o o o n jqfigjjgfgolgkgnnk:roni roqkkgoooooooooooof o n V V |
  1
/061+ {rn rn {rn roqoimjoooooooooooggg oqkklingfmklolmgnjk rjqjjnnnjnmlnmjhgmh:ronh |
  1
,+->687+r<*-): {rn rn {rn oqjghjoooooooooooli rjqkfjiolfhngfkjmkf:ronj o o o n V V |
100
AcDb3dSolid
350
0
  0
ENDSEC
  0
SECTION
  2
OBJECTS
  0
DICTIONARY
  5
458CB
330
0
100
AcDbDictionary
281
     1
  3
ACAD_COLOR
350
46001
  3
ACAD_GROUP
350
458CC
  3
ACAD_LAYOUT
350
458FB
  3
ACAD_MATERIAL
350
46000
  3
ACAD_MLINESTYLE
350
458D9
  3
ACAD_PLOTSETTINGS
350
458FC
  3
ACAD_PLOTSTYLENAME
350
458F9
  3
ACAD_TABLESTYLE
350
460B5
  3
ACAD_VISUALSTYLE
350
460A4
  3
ACADE_WIRETYPE
350
460DE
  3
ACDBVARIABLEDICTIONARY
350
458E1
  3
ASE_INDEX_DICTIONARY
350
460BC
  0
DICTIONARY
  5
460BE
330
458C7
100
AcDbDictionary
280
     1
281
     1
  0
DICTIONARY
  5
460BA
330
460B9
100
AcDbDictionary
280
     1
281
     1
  3
ACADE_WIRETYPE
360
460BB
  0
DICTIONARY
  5
4592C
330
458D6
100
AcDbDictionary
280
     1
281
     1
  3
ACAD_LAYOUTSELFREF
360
46093
  0
DICTIONARY
  5
4592A
330
458D3
100
AcDbDictionary
280
     1
281
     1
  3
ACAD_LAYOUTSELFREF
360
46092
  0
DICTIONARY
  5
46001
102
{ACAD_REACTORS
330
458CB
102
}
330
458CB
100
AcDbDictionary
281
     1
  0
DICTIONARY
  5
458CC
102
{ACAD_REACTORS
330
458CB
102
}
330
458CB
100
AcDbDictionary
281
     1
  0
DICTIONARY
  5
458FB
102
{ACAD_REACTORS
330
458CB
102
}
330
458CB
100
AcDbDictionary
281
     1
  3
Layout1
350
458FE
  3
Model
350
458FD
  0
DICTIONARY
  5
46000
102
{ACAD_REACTORS
330
458CB
102
}
330
458CB
100
AcDbDictionary
281
     1
  3
ByBlock
350
460A2
  3
ByLayer
350
460A1
  3
Global
350
460A3
  0
DICTIONARY
  5
458D9
102
{ACAD_REACTORS
330
458CB
102
}
330
458CB
100
AcDbDictionary
281
     1
  3
STANDARD
350
458DA
  0
DICTIONARY
  5
458FC
102
{ACAD_REACTORS
330
458CB
102
}
330
458CB
100
AcDbDictionary
281
     1
  0
ACDBDICTIONARYWDFLT
  5
458F9
102
{ACAD_REACTORS
330
458CB
102
}
330
458CB
100
AcDbDictionary
281
     1
  3
Normal
350
458FA
100
AcDbDictionaryWithDefault
340
458FA
  0
DICTIONARY
  5
460B5
102
{ACAD_REACTORS
330
458CB
102
}
330
458CB
100
AcDbDictionary
281
     1
  3
Standard
350
460B6
  0
DICTIONARY
  5
460A4
102
{ACAD_REACTORS
330
458CB
102
}
330
458CB
100
AcDbDictionary
281
     1
  3
2dWireframe
350
460AA
  3
3D Hidden
350
460AC
  3
3dWireframe
350
460AB
  3
Basic
350
460A9
  3
Brighten
350
460B0
  3
ColorChange
350
460B4
  3
Conceptual
350
460AD
  3
Dim
350
460AF
  3
Facepattern
350
460B3
  3
Flat
350
460A5
  3
FlatWithEdges
350
460A6
  3
Gouraud
350
460A7
  3
GouraudWithEdges
350
460A8
  3
Linepattern
350
460B2
  3
Realistic
350
460AE
  3
Thicken
350
460B1
  0
DICTIONARY
  5
460DE
102
{ACAD_REACTORS
330
458CB
102
}
330
458CB
100
AcDbDictionary
281
     1
  3
CURRENT_WIRELAY
350
460DF
  0
DICTIONARY
  5
458E1
102
{ACAD_REACTORS
330
458CB
102
}
330
458CB
100
AcDbDictionary
281
     1
  3
CTABLESTYLE
350
460D9
  3
DIMADEC
350
458E2
  3
DIMASSOC
350
46045
  3
PROJECTNAME
350
46046
  0
DICTIONARY
  5
460BC
102
{ACAD_REACTORS
330
458CB
102
}
330
458CB
100
AcDbDictionary
281
     1
  3
ASEBlockHierarchyIndexRecord
350
460BD
1001
DCO15
1040
1590467115.934
  0
XRECORD
  5
460BB
102
{ACAD_REACTORS
330
460BA
102
}
330
460BA
100
AcDbXrecord
280
     1
  1

  2

  3
WIRE
 90
        0
  0
XRECORD
  5
46093
102
{ACAD_REACTORS
330
4592C
102
}
330
4592C
100
AcDbXrecord
280
     1
340
458D6
  0
XRECORD
  5
46092
102
{ACAD_REACTORS
330
4592A
102
}
330
4592A
100
AcDbXrecord
280
     1
340
458D3
  0
LAYOUT
  5
458FE
102
{ACAD_REACTORS
330
458FB
102
}
330
458FB
100
AcDbPlotSettings
  1

  2
HP LaserJet 5000 Series PCL 6
  4

  6

 40
0.0
 41
0.0
 42
0.0
 43
0.0
 44
0.0
 45
0.0
 46
0.0
 47
0.0
 48
0.0
 49
0.0
140
0.0
141
0.0
142
1.0
143
1.0
 70
   688
 72
     0
 73
     0
 74
     5
  7
Default R14 pen assignments.ctb
 75
    16
147
1.0
 76
     0
 77
     2
 78
   300
148
0.0
149
0.0
100
AcDbLayout
  1
Layout1
 70
     1
 71
     1
 10
0.0
 20
0.0
 11
12.0
 21
9.0
 12
0.0
 22
0.0
 32
0.0
 14
1.000000000000000E+20
 24
1.000000000000000E+20
 34
1.000000000000000E+20
 15
-1.000000000000000E+20
 25
-1.000000000000000E+20
 35
-1.000000000000000E+20
146
0.0
 13
0.0
 23
0.0
 33
0.0
 16
1.0
 26
0.0
 36
0.0
 17
0.0
 27
1.0
 37
0.0
 76
     0
330
458D3
  0
LAYOUT
  5
458FD
102
{ACAD_REACTORS
330
458FB
102
}
330
458FB
100
AcDbPlotSettings
  1

  2
HP LaserJet 5000 Series PCL 6
  4

  6

 40
0.0
 41
0.0
 42
0.0
 43
0.0
 44
0.0
 45
0.0
 46
0.0
 47
0.0
 48
0.0
 49
0.0
140
0.0
141
0.0
142
1.0
143
1.0
 70
  1712
 72
     0
 73
     0
 74
     0
  7
Default R14 pen assignments.ctb
 75
     0
147
1.0
 76
     0
 77
     2
 78
   300
148
0.0
149
0.0
100
AcDbLayout
  1
Model
 70
     1
 71
     0
 10
0.0
 20
0.0
 11
12.0
 21
9.0
 12
0.0
 22
0.0
 32
0.0
 14
0.0
 24
0.0
 34
0.0
 15
0.0
 25
0.0
 35
0.0
146
0.0
 13
0.0
 23
0.0
 33
0.0
 16
1.0
 26
0.0
 36
0.0
 17
0.0
 27
1.0
 37
0.0
 76
     0
330
458D6
331
4606A
  0
MATERIAL
  5
460A2
102
{ACAD_REACTORS
330
46000
102
}
330
46000
100
AcDbMaterial
  1
ByBlock
  0
MATERIAL
  5
460A1
102
{ACAD_REACTORS
330
46000
102
}
330
46000
100
AcDbMaterial
  1
ByLayer
  0
MATERIAL
  5
460A3
102
{ACAD_REACTORS
330
46000
102
}
330
46000
100
AcDbMaterial
  1
Global
  0
MLINESTYLE
  5
458DA
102
{ACAD_REACTORS
330
458D9
102
}
330
458D9
100
AcDbMlineStyle
  2
STANDARD
 70
     0
  3

 62
   256
 51
90.0
 52
90.0
 71
     2
 49
0.5
 62
   256
  6
BYLAYER
 49
-0.5
 62
   256
  6
BYLAYER
  0
ACDBPLACEHOLDER
  5
458FA
102
{ACAD_REACTORS
330
458F9
102
}
330
458F9
  0
TABLESTYLE
  5
460B6
102
{ACAD_REACTORS
330
460B5
102
}
330
460B5
100
AcDbTableStyle
  3
Standard
 70
     0
 71
     0
 40
0.06
 41
0.06
280
     0
281
     0
  7
STANDARD
140
0.18
170
     2
 62
     0
 63
     7
283
     0
 90
      512
 91
        0
  1

274
    -2
284
     1
 64
     0
275
    -2
285
     1
 65
     0
276
    -2
286
     1
 66
     0
277
    -2
287
     1
 67
     0
278
    -2
288
     1
 68
     0
279
    -2
289
     1
 69
     0
  7
STANDARD
140
0.25
170
     5
 62
     0
 63
     7
283
     0
 90
      512
 91
        0
  1

274
    -2
284
     1
 64
     0
275
    -2
285
     1
 65
     0
276
    -2
286
     1
 66
     0
277
    -2
287
     1
 67
     0
278
    -2
288
     1
 68
     0
279
    -2
289
     1
 69
     0
  7
STANDARD
140
0.18
170
     5
 62
     0
 63
     7
283
     0
 90
      512
 91
        0
  1

274
    -2
284
     1
 64
     0
275
    -2
285
     1
 65
     0
276
    -2
286
     1
 66
     0
277
    -2
287
     1
 67
     0
278
    -2
288
     1
 68
     0
279
    -2
289
     1
 69
     0
  0
VISUALSTYLE
  5
460AA
102
{ACAD_REACTORS
330
460A4
102
}
330
460A4
100
AcDbVisualStyle
  2
2dWireframe
 70
     4
 71
     0
 72
     2
 73
     0
 90
        0
 40
-0.6
 41
-30.0
 62
     5
 63
     7
421
 16777215
 74
     1
 91
        4
 64
     7
 65
   257
 75
     1
175
     1
 42
1.0
 92
        0
 66
   257
 43
1.0
 76
     1
 77
     6
 78
     2
 67
     7
 79
     5
170
     0
171
     0
290
     0
174
     0
 93
        1
 44
0.0
173
     0
291
     0
 45
0.0
  0
VISUALSTYLE
  5
460AC
102
{ACAD_REACTORS
330
460A4
102
}
330
460A4
100
AcDbVisualStyle
  2
3D Hidden
 70
     6
 71
     1
 72
     2
 73
     2
 90
        0
 40
-0.6
 41
-30.0
 62
     5
 63
     7
421
 16777215
 74
     2
 91
        2
 64
     7
 65
   257
 75
     2
175
     1
 42
40.0
 92
        0
 66
   257
 43
1.0
 76
     1
 77
     6
 78
     2
 67
     7
 79
     3
170
     0
171
     0
290
     0
174
     0
 93
        1
 44
0.0
173
     0
291
     0
 45
0.0
  0
VISUALSTYLE
  5
460AB
102
{ACAD_REACTORS
330
460A4
102
}
330
460A4
100
AcDbVisualStyle
  2
3dWireframe
 70
     5
 71
     0
 72
     2
 73
     0
 90
        0
 40
-0.6
 41
-30.0
 62
     5
 63
     7
421
 16777215
 74
     1
 91
        4
 64
     7
 65
   257
 75
     1
175
     1
 42
1.0
 92
        0
 66
   257
 43
1.0
 76
     1
 77
     6
 78
     2
 67
     7
 79
     5
170
     0
171
     0
290
     0
174
     0
 93
        1
 44
0.0
173
     0
291
     0
 45
0.0
  0
VISUALSTYLE
  5
460A9
102
{ACAD_REACTORS
330
460A4
102
}
330
460A4
100
AcDbVisualStyle
  2
Basic
 70
     7
 71
     1
 72
     0
 73
     1
 90
        0
 40
-0.6
 41
-30.0
 62
     5
 63
     7
421
 16777215
 74
     0
 91
        4
 64
     7
 65
   257
 75
     1
175
     1
 42
1.0
 92
        8
 66
     7
 43
1.0
 76
     1
 77
     6
 78
     2
 67
     7
 79
     5
170
     0
171
     0
290
     0
174
     0
 93
        1
 44
0.0
173
     0
291
     1
 45
0.0
  0
VISUALSTYLE
  5
460B0
102
{ACAD_REACTORS
330
460A4
102
}
330
460A4
100
AcDbVisualStyle
  2
Brighten
 70
    12
 71
     2
 72
     2
 73
     0
 90
        0
 40
-0.6
 41
-30.0
 62
     5
 63
     7
421
 16777215
 74
     1
 91
        4
 64
     7
 65
   257
 75
     1
175
     1
 42
1.0
 92
        8
 66
     7
 43
1.0
 76
     1
 77
     6
 78
     2
 67
     7
 79
     5
170
     0
171
     0
290
     0
174
     0
 93
        1
 44
50.0
173
     0
291
     1
 45
0.0
  0
VISUALSTYLE
  5
460B4
102
{ACAD_REACTORS
330
460A4
102
}
330
460A4
100
AcDbVisualStyle
  2
ColorChange
 70
    16
 71
     2
 72
     2
 73
     3
 90
        0
 40
-0.6
 41
-30.0
 62
     5
 63
     8
421
  8421504
 74
     1
 91
        4
 64
     7
 65
   257
 75
     1
175
     1
 42
1.0
 92
        8
 66
     8
424
  8421504
 43
1.0
 76
     1
 77
     6
 78
     2
 67
     7
 79
     5
170
     0
171
     0
290
     0
174
     0
 93
        1
 44
0.0
173
     0
291
     1
 45
0.0
  0
VISUALSTYLE
  5
460AD
102
{ACAD_REACTORS
330
460A4
102
}
330
460A4
100
AcDbVisualStyle
  2
Conceptual
 70
     9
 71
     3
 72
     2
 73
     0
 90
        0
 40
-0.6
 41
-30.0
 62
     5
 63
     7
421
 16777215
 74
     2
 91
        2
 64
     7
 65
   257
 75
     1
175
     1
 42
40.0
 92
        8
 66
     7
 43
1.0
 76
     1
 77
     6
 78
     2
 67
     7
 79
     3
170
     0
171
     0
290
     0
174
     0
 93
        1
 44
0.0
173
     0
291
     0
 45
0.0
  0
VISUALSTYLE
  5
460AF
102
{ACAD_REACTORS
330
460A4
102
}
330
460A4
100
AcDbVisualStyle
  2
Dim
 70
    11
 71
     2
 72
     2
 73
     0
 90
        0
 40
-0.6
 41
-30.0
 62
     5
 63
     7
421
 16777215
 74
     1
 91
        4
 64
     7
 65
   257
 75
     1
175
     1
 42
1.0
 92
        8
 66
     7
 43
1.0
 76
     1
 77
     6
 78
     2
 67
     7
 79
     5
170
     0
171
     0
290
     0
174
     0
 93
        1
 44
-50.0
173
     0
291
     1
 45
0.0
  0
VISUALSTYLE
  5
460B3
102
{ACAD_REACTORS
330
460A4
102
}
330
460A4
100
AcDbVisualStyle
  2
Facepattern
 70
    15
 71
     2
 72
     2
 73
     0
 90
        0
 40
-0.6
 41
-30.0
 62
     5
 63
     7
421
 16777215
 74
     1
 91
        4
 64
     7
 65
   257
 75
     1
175
     1
 42
1.0
 92
        8
 66
     7
 43
1.0
 76
     1
 77
     6
 78
     2
 67
     7
 79
     5
170
     0
171
     0
290
     0
174
     0
 93
        1
 44
0.0
173
     0
291
     1
 45
0.0
  0
VISUALSTYLE
  5
460A5
102
{ACAD_REACTORS
330
460A4
102
}
330
460A4
100
AcDbVisualStyle
  2
Flat
 70
     0
 71
     2
 72
     1
 73
     1
 90
        2
 40
-0.6
 41
30.0
 62
     5
 63
     7
421
 16777215
 74
     0
 91
        4
 64
     7
 65
   257
 75
     1
175
     1
 42
1.0
 92
        8
 66
     7
 43
1.0
 76
     1
 77
     6
 78
     2
 67
     7
 79
     5
170
     0
171
     0
290
     0
174
     0
 93
       13
 44
0.0
173
     0
291
     1
 45
0.0
  0
VISUALSTYLE
  5
460A6
102
{ACAD_REACTORS
330
460A4
102
}
330
460A4
100
AcDbVisualStyle
  2
FlatWithEdges
 70
     1
 71
     2
 72
     1
 73
     1
 90
        2
 40
-0.6
 41
30.0
 62
     5
 63
     7
421
 16777215
 74
     1
 91
        4
 64
     7
 65
   257
 75
     1
175
     1
 42
1.0
 92
        0
 66
   257
 43
1.0
 76
     1
 77
     6
 78
     2
 67
     7
 79
     5
170
     0
171
     0
290
     0
174
     0
 93
       13
 44
0.0
173
     0
291
     1
 45
0.0
  0
VISUALSTYLE
  5
460A7
102
{ACAD_REACTORS
330
460A4
102
}
330
460A4
100
AcDbVisualStyle
  2
Gouraud
 70
     2
 71
     2
 72
     2
 73
     1
 90
        2
 40
-0.6
 41
30.0
 62
     5
 63
     7
421
 16777215
 74
     0
 91
        4
 64
     7
 65
   257
 75
     1
175
     1
 42
1.0
 92
        0
 66
     7
 43
1.0
 76
     1
 77
     6
 78
     2
 67
     7
 79
     5
170
     0
171
     0
290
     0
174
     0
 93
       13
 44
0.0
173
     0
291
     1
 45
0.0
  0
VISUALSTYLE
  5
460A8
102
{ACAD_REACTORS
330
460A4
102
}
330
460A4
100
AcDbVisualStyle
  2
GouraudWithEdges
 70
     3
 71
     2
 72
     2
 73
     1
 90
        2
 40
-0.6
 41
30.0
 62
     5
 63
     7
421
 16777215
 74
     1
 91
        4
 64
     7
 65
   257
 75
     1
175
     1
 42
1.0
 92
        0
 66
   257
 43
1.0
 76
     1
 77
     6
 78
     2
 67
     7
 79
     5
170
     0
171
     0
290
     0
174
     0
 93
       13
 44
0.0
173
     0
291
     1
 45
0.0
  0
VISUALSTYLE
  5
460B2
102
{ACAD_REACTORS
330
460A4
102
}
330
460A4
100
AcDbVisualStyle
  2
Linepattern
 70
    14
 71
     2
 72
     2
 73
     0
 90
        0
 40
-0.6
 41
-30.0
 62
     5
 63
     7
421
 16777215
 74
     1
 91
        4
 64
     7
 65
   257
 75
     7
175
     7
 42
1.0
 92
        8
 66
     7
 43
1.0
 76
     1
 77
     6
 78
     2
 67
     7
 79
     5
170
     0
171
     0
290
     0
174
     0
 93
        1
 44
0.0
173
     0
291
     1
 45
0.0
  0
VISUALSTYLE
  5
460AE
102
{ACAD_REACTORS
330
460A4
102
}
330
460A4
100
AcDbVisualStyle
  2
Realistic
 70
     8
 71
     2
 72
     2
 73
     0
 90
        0
 40
-0.6
 41
-30.0
 62
     5
 63
     7
421
 16777215
 74
     1
 91
        0
 64
     7
 65
   257
 75
     1
175
     1
 42
1.0
 92
        8
 66
     8
424
  7895160
 43
1.0
 76
     1
 77
     6
 78
     2
 67
     7
 79
     5
170
     0
171
     0
290
     0
174
     0
 93
       13
 44
0.0
173
     0
291
     0
 45
0.0
  0
VISUALSTYLE
  5
460B1
102
{ACAD_REACTORS
330
460A4
102
}
330
460A4
100
AcDbVisualStyle
  2
Thicken
 70
    13
 71
     2
 72
     2
 73
     0
 90
        0
 40
-0.6
 41
-30.0
 62
     5
 63
     7
421
 16777215
 74
     1
 91
        4
 64
     7
 65
   257
 75
     1
175
     1
 42
1.0
 92
       12
 66
     7
 43
1.0
 76
     1
 77
     6
 78
     2
 67
     7
 79
     5
170
     0
171
     0
290
     0
174
     0
 93
        1
 44
0.0
173
     0
291
     1
 45
0.0
  0
XRECORD
  5
460DF
102
{ACAD_REACTORS
330
460DE
102
}
330
460DE
100
AcDbXrecord
280
     1
  1
WIRES
  1
WIRES
  1

290
     0
  0
DICTIONARYVAR
  5
460D9
102
{ACAD_REACTORS
330
458E1
102
}
330
458E1
100
DictionaryVariables
280
     0
  1
STANDARD
  0
DICTIONARYVAR
  5
458E2
102
{ACAD_REACTORS
330
458E1
102
}
330
458E1
100
DictionaryVariables
280
     0
  1
0
  0
DICTIONARYVAR
  5
46045
102
{ACAD_REACTORS
330
458E1
102
}
330
458E1
100
DictionaryVariables
280
     0
  1
1
  0
DICTIONARYVAR
  5
46046
102
{ACAD_REACTORS
330
458E1
102
}
330
458E1
100
DictionaryVariables
280
     0
  1

  0
XRECORD
  5
460BD
102
{ACAD_REACTORS
330
460BC
102
}
330
460BC
100
AcDbXrecord
280
     1
  0
ENDSEC
  0
EOF
