  0
SECTION
  2
HEADER
  9
$ACADVER
  1
AC1024
  9
$ACADMAINTVER
 70
    63
  9
$DWGCODEPAGE
  3
ANSI_1252
  9
$LASTSAVEDBY
  1
ssr9023
  9
$INSBASE
 10
0.0
 20
0.0
 30
0.0
  9
$EXTMIN
 10
199.7553740996575
 20
140.1756161377224
 30
-0.0015258207003583
  9
$EXTMAX
 10
403.7144646230159
 20
287.8861432793231
 30
0.0000000349246037
  9
$LIMMIN
 10
0.0
 20
0.0
  9
$LIMMAX
 10
12.0
 20
9.0
  9
$ORTHOMODE
 70
     1
  9
$REGENMODE
 70
     1
  9
$FILLMODE
 70
     1
  9
$QTEXTMODE
 70
     0
  9
$MIRRTEXT
 70
     0
  9
$LTSCALE
 40
1.0
  9
$ATTMODE
 70
     1
  9
$TEXTSIZE
 40
0.2
  9
$TRACEWID
 40
0.05
  9
$TEXTSTYLE
  7
Standard
  9
$CLAYER
  8
0
  9
$CELTYPE
  6
ByLayer
  9
$CECOLOR
 62
   256
  9
$CELTSCALE
 40
1.0
  9
$DISPSILH
 70
     0
  9
$DIMSCALE
 40
1.0
  9
$DIMASZ
 40
0.18
  9
$DIMEXO
 40
0.0625
  9
$DIMDLI
 40
0.38
  9
$DIMRND
 40
0.0
  9
$DIMDLE
 40
0.0
  9
$DIMEXE
 40
0.18
  9
$DIMTP
 40
0.0
  9
$DIMTM
 40
0.0
  9
$DIMTXT
 40
0.18
  9
$DIMCEN
 40
0.09
  9
$DIMTSZ
 40
0.0
  9
$DIMTOL
 70
     0
  9
$DIMLIM
 70
     0
  9
$DIMTIH
 70
     1
  9
$DIMTOH
 70
     1
  9
$DIMSE1
 70
     0
  9
$DIMSE2
 70
     0
  9
$DIMTAD
 70
     0
  9
$DIMZIN
 70
     0
  9
$DIMBLK
  1

  9
$DIMASO
 70
     1
  9
$DIMSHO
 70
     1
  9
$DIMPOST
  1

  9
$DIMAPOST
  1

  9
$DIMALT
 70
     0
  9
$DIMALTD
 70
     2
  9
$DIMALTF
 40
25.4
  9
$DIMLFAC
 40
1.0
  9
$DIMTOFL
 70
     0
  9
$DIMTVP
 40
0.0
  9
$DIMTIX
 70
     0
  9
$DIMSOXD
 70
     0
  9
$DIMSAH
 70
     0
  9
$DIMBLK1
  1

  9
$DIMBLK2
  1

  9
$DIMSTYLE
  2
Standard
  9
$DIMCLRD
 70
     0
  9
$DIMCLRE
 70
     0
  9
$DIMCLRT
 70
     0
  9
$DIMTFAC
 40
1.0
  9
$DIMGAP
 40
0.09
  9
$DIMJUST
 70
     0
  9
$DIMSD1
 70
     0
  9
$DIMSD2
 70
     0
  9
$DIMTOLJ
 70
     1
  9
$DIMTZIN
 70
     0
  9
$DIMALTZ
 70
     0
  9
$DIMALTTZ
 70
     0
  9
$DIMUPT
 70
     0
  9
$DIMDEC
 70
     4
  9
$DIMTDEC
 70
     4
  9
$DIMALTU
 70
     2
  9
$DIMALTTD
 70
     2
  9
$DIMTXSTY
  7
Standard
  9
$DIMAUNIT
 70
     0
  9
$DIMADEC
 70
     0
  9
$DIMALTRND
 40
0.0
  9
$DIMAZIN
 70
     0
  9
$DIMDSEP
 70
    46
  9
$DIMATFIT
 70
     3
  9
$DIMFRAC
 70
     0
  9
$DIMLDRBLK
  1

  9
$DIMLUNIT
 70
     2
  9
$DIMLWD
 70
    -2
  9
$DIMLWE
 70
    -2
  9
$DIMTMOVE
 70
     0
  9
$DIMFXL
 40
1.0
  9
$DIMFXLON
 70
     0
  9
$DIMJOGANG
 40
0.7853981633974483
  9
$DIMTFILL
 70
     0
  9
$DIMTFILLCLR
 70
     0
  9
$DIMARCSYM
 70
     0
  9
$DIMLTYPE
  6

  9
$DIMLTEX1
  6

  9
$DIMLTEX2
  6

  9
$DIMTXTDIRECTION
 70
     0
  9
$LUNITS
 70
     2
  9
$LUPREC
 70
     4
  9
$SKETCHINC
 40
0.1
  9
$FILLETRAD
 40
0.0
  9
$AUNITS
 70
     0
  9
$AUPREC
 70
     0
  9
$MENU
  1
.
  9
$ELEVATION
 40
0.0
  9
$PELEVATION
 40
0.0
  9
$THICKNESS
 40
0.0
  9
$LIMCHECK
 70
     0
  9
$CHAMFERA
 40
0.0
  9
$CHAMFERB
 40
0.0
  9
$CHAMFERC
 40
0.0
  9
$CHAMFERD
 40
0.0
  9
$SKPOLY
 70
     0
  9
$TDCREATE
 40
2456048.631622847
  9
$TDUCREATE
 40
2456048.798289514
  9
$TDUPDATE
 40
2456048.643314861
  9
$TDUUPDATE
 40
2456048.809981528
  9
$TDINDWG
 40
0.0116921991
  9
$TDUSRTIMER
 40
0.0116920139
  9
$USRTIMER
 70
     1
  9
$ANGBASE
 50
0.0
  9
$ANGDIR
 70
     0
  9
$PDMODE
 70
     0
  9
$PDSIZE
 40
0.0
  9
$PLINEWID
 40
0.0
  9
$SPLFRAME
 70
     0
  9
$SPLINETYPE
 70
     6
  9
$SPLINESEGS
 70
     8
  9
$HANDSEED
  5
CAF
  9
$SURFTAB1
 70
     6
  9
$SURFTAB2
 70
     6
  9
$SURFTYPE
 70
     6
  9
$SURFU
 70
     6
  9
$SURFV
 70
     6
  9
$UCSBASE
  2

  9
$UCSNAME
  2

  9
$UCSORG
 10
0.0
 20
0.0
 30
0.0
  9
$UCSXDIR
 10
1.0
 20
0.0
 30
0.0
  9
$UCSYDIR
 10
0.0
 20
1.0
 30
0.0
  9
$UCSORTHOREF
  2

  9
$UCSORTHOVIEW
 70
     0
  9
$UCSORGTOP
 10
0.0
 20
0.0
 30
0.0
  9
$UCSORGBOTTOM
 10
0.0
 20
0.0
 30
0.0
  9
$UCSORGLEFT
 10
0.0
 20
0.0
 30
0.0
  9
$UCSORGRIGHT
 10
0.0
 20
0.0
 30
0.0
  9
$UCSORGFRONT
 10
0.0
 20
0.0
 30
0.0
  9
$UCSORGBACK
 10
0.0
 20
0.0
 30
0.0
  9
$PUCSBASE
  2

  9
$PUCSNAME
  2

  9
$PUCSORG
 10
0.0
 20
0.0
 30
0.0
  9
$PUCSXDIR
 10
1.0
 20
0.0
 30
0.0
  9
$PUCSYDIR
 10
0.0
 20
1.0
 30
0.0
  9
$PUCSORTHOREF
  2

  9
$PUCSORTHOVIEW
 70
     0
  9
$PUCSORGTOP
 10
0.0
 20
0.0
 30
0.0
  9
$PUCSORGBOTTOM
 10
0.0
 20
0.0
 30
0.0
  9
$PUCSORGLEFT
 10
0.0
 20
0.0
 30
0.0
  9
$PUCSORGRIGHT
 10
0.0
 20
0.0
 30
0.0
  9
$PUCSORGFRONT
 10
0.0
 20
0.0
 30
0.0
  9
$PUCSORGBACK
 10
0.0
 20
0.0
 30
0.0
  9
$USERI1
 70
     0
  9
$USERI2
 70
     0
  9
$USERI3
 70
     0
  9
$USERI4
 70
     0
  9
$USERI5
 70
     0
  9
$USERR1
 40
0.0
  9
$USERR2
 40
0.0
  9
$USERR3
 40
0.0
  9
$USERR4
 40
0.0
  9
$USERR5
 40
0.0
  9
$WORLDVIEW
 70
     1
  9
$SHADEDGE
 70
     3
  9
$SHADEDIF
 70
    70
  9
$TILEMODE
 70
     1
  9
$MAXACTVP
 70
    64
  9
$PINSBASE
 10
0.0
 20
0.0
 30
0.0
  9
$PLIMCHECK
 70
     0
  9
$PEXTMIN
 10
0.0
 20
0.0
 30
0.0
  9
$PEXTMAX
 10
0.0
 20
0.0
 30
0.0
  9
$PLIMMIN
 10
0.0
 20
0.0
  9
$PLIMMAX
 10
12.0
 20
9.0
  9
$UNITMODE
 70
     0
  9
$VISRETAIN
 70
     1
  9
$PLINEGEN
 70
     0
  9
$PSLTSCALE
 70
     1
  9
$TREEDEPTH
 70
  3020
  9
$CMLSTYLE
  2
Standard
  9
$CMLJUST
 70
     0
  9
$CMLSCALE
 40
1.0
  9
$PROXYGRAPHICS
 70
     1
  9
$MEASUREMENT
 70
     0
  9
$CELWEIGHT
370
    -1
  9
$ENDCAPS
280
     0
  9
$JOINSTYLE
280
     0
  9
$LWDISPLAY
290
     0
  9
$INSUNITS
 70
     1
  9
$HYPERLINKBASE
  1

  9
$STYLESHEET
  1

  9
$XEDIT
290
     1
  9
$CEPSNTYPE
380
     0
  9
$PSTYLEMODE
290
     1
  9
$FINGERPRINTGUID
  2
{73B5C443-BE4D-49CF-A076-66BC6BA62F30}
  9
$VERSIONGUID
  2
{4AA62E72-D51A-4BD1-9552-A9A05BF2263F}
  9
$EXTNAMES
290
     1
  9
$PSVPSCALE
 40
0.0
  9
$OLESTARTUP
290
     0
  9
$SORTENTS
280
   127
  9
$INDEXCTL
280
     0
  9
$HIDETEXT
280
     1
  9
$XCLIPFRAME
280
     2
  9
$HALOGAP
280
     0
  9
$OBSCOLOR
 70
   257
  9
$OBSLTYPE
280
     0
  9
$INTERSECTIONDISPLAY
280
     0
  9
$INTERSECTIONCOLOR
 70
   257
  9
$DIMASSOC
280
     2
  9
$PROJECTNAME
  1

  9
$CAMERADISPLAY
290
     0
  9
$LENSLENGTH
 40
50.0
  9
$CAMERAHEIGHT
 40
0.0
  9
$STEPSPERSEC
 40
2.0
  9
$STEPSIZE
 40
6.0
  9
$3DDWFPREC
 40
2.0
  9
$PSOLWIDTH
 40
0.25
  9
$PSOLHEIGHT
 40
4.0
  9
$LOFTANG1
 40
1.570796326794896
  9
$LOFTANG2
 40
1.570796326794896
  9
$LOFTMAG1
 40
0.0
  9
$LOFTMAG2
 40
0.0
  9
$LOFTPARAM
 70
     7
  9
$LOFTNORMALS
280
     1
  9
$LATITUDE
 40
37.795
  9
$LONGITUDE
 40
-122.394
  9
$NORTHDIRECTION
 40
0.0
  9
$TIMEZONE
 70
 -8000
  9
$LIGHTGLYPHDISPLAY
280
     1
  9
$TILEMODELIGHTSYNCH
280
     1
  9
$CMATERIAL
347
96
  9
$SOLIDHIST
280
     0
  9
$SHOWHIST
280
     1
  9
$DWFFRAME
280
     2
  9
$DGNFRAME
280
     0
  9
$REALWORLDSCALE
290
     1
  9
$INTERFERECOLOR
 62
     1
  9
$INTERFEREOBJVS
345
A3
  9
$INTERFEREVPVS
346
A0
  9
$CSHADOW
280
     0
  9
$SHADOWPLANELOCATION
 40
0.0
  0
ENDSEC
  0
SECTION
  2
CLASSES
  0
CLASS
  1
ACDBDICTIONARYWDFLT
  2
AcDbDictionaryWithDefault
  3
ObjectDBX Classes
 90
        0
 91
        1
280
     0
281
     0
  0
CLASS
  1
DICTIONARYVAR
  2
AcDbDictionaryVar
  3
ObjectDBX Classes
 90
        0
 91
        7
280
     0
281
     0
  0
CLASS
  1
TABLESTYLE
  2
AcDbTableStyle
  3
ObjectDBX Classes
 90
     4095
 91
        1
280
     0
281
     0
  0
CLASS
  1
MATERIAL
  2
AcDbMaterial
  3
ObjectDBX Classes
 90
     1153
 91
        3
280
     0
281
     0
  0
CLASS
  1
VISUALSTYLE
  2
AcDbVisualStyle
  3
ObjectDBX Classes
 90
     4095
 91
       24
280
     0
281
     0
  0
CLASS
  1
SCALE
  2
AcDbScale
  3
ObjectDBX Classes
 90
     1153
 91
       33
280
     0
281
     0
  0
CLASS
  1
MLEADERSTYLE
  2
AcDbMLeaderStyle
  3
ACDB_MLEADERSTYLE_CLASS
 90
     4095
 91
        2
280
     0
281
     0
  0
CLASS
  1
CELLSTYLEMAP
  2
AcDbCellStyleMap
  3
ObjectDBX Classes
 90
     1152
 91
        1
280
     0
281
     0
  0
CLASS
  1
EXACXREFPANELOBJECT
  2
ExAcXREFPanelObject
  3
EXAC_ESW
 90
     1025
 91
        1
280
     0
281
     0
  0
CLASS
  1
NPOCOLLECTION
  2
AcDbImpNonPersistentObjectsCollection
  3
ObjectDBX Classes
 90
     1153
 91
        1
280
     0
281
     0
  0
CLASS
  1
LAYER_INDEX
  2
AcDbLayerIndex
  3
ObjectDBX Classes
 90
        0
 91
        0
280
     0
281
     0
  0
CLASS
  1
SPATIAL_INDEX
  2
AcDbSpatialIndex
  3
ObjectDBX Classes
 90
        0
 91
        0
280
     0
281
     0
  0
CLASS
  1
IDBUFFER
  2
AcDbIdBuffer
  3
ObjectDBX Classes
 90
        0
 91
        0
280
     0
281
     0
  0
CLASS
  1
SORTENTSTABLE
  2
AcDbSortentsTable
  3
ObjectDBX Classes
 90
        0
 91
        1
280
     0
281
     0
  0
CLASS
  1
DIMASSOC
  2
AcDbDimAssoc
  3
"AcDbDimAssoc|Product Desc:     AcDim ARX App For Dimension|Company:          Autodesk, Inc.|WEB Address:      www.autodesk.com"
 90
        0
 91
        2
280
     0
281
     0
  0
ENDSEC
  0
SECTION
  2
TABLES
  0
TABLE
  2
VPORT
  5
8
330
0
100
AcDbSymbolTable
 70
     1
  0
VPORT
  5
94
330
8
100
AcDbSymbolTableRecord
100
AcDbViewportTableRecord
  2
*Active
 70
     0
 10
0.0
 20
0.0
 11
1.0
 21
1.0
 12
301.7349193613367
 22
214.0308797085227
 13
0.0
 23
0.0
 14
0.5
 24
0.5
 15
0.5
 25
0.5
 16
0.0
 26
0.0
 36
1.0
 17
0.0
 27
0.0
 37
0.0
 40
148.851798238949
 41
1.474148802017654
 42
50.0
 43
0.0
 44
0.0
 50
0.0
 51
0.0
 71
     0
 72
  1000
 73
     1
 74
     3
 75
     0
 76
     1
 77
     0
 78
     0
281
     0
 65
     1
110
0.0
120
0.0
130
0.0
111
1.0
121
0.0
131
0.0
112
0.0
122
1.0
132
0.0
 79
     0
146
0.0
348
9F
 60
     3
 61
     5
292
     1
282
     1
141
0.0
142
0.0
 63
   250
421
  3355443
1001
ACAD_NAV_VCDISPLAY
1070
     3
  0
ENDTAB
  0
TABLE
  2
LTYPE
  5
5
330
0
100
AcDbSymbolTable
 70
     2
  0
LTYPE
  5
14
330
5
100
AcDbSymbolTableRecord
100
AcDbLinetypeTableRecord
  2
ByBlock
 70
     0
  3

 72
    65
 73
     0
 40
0.0
  0
LTYPE
  5
15
330
5
100
AcDbSymbolTableRecord
100
AcDbLinetypeTableRecord
  2
ByLayer
 70
     0
  3

 72
    65
 73
     0
 40
0.0
  0
LTYPE
  5
16
330
5
100
AcDbSymbolTableRecord
100
AcDbLinetypeTableRecord
  2
Continuous
 70
     0
  3
Solid line
 72
    65
 73
     0
 40
0.0
  0
ENDTAB
  0
TABLE
  2
LAYER
  5
2
102
{ACAD_XDICTIONARY
360
18E
102
}
330
0
100
AcDbSymbolTable
 70
     5
  0
LAYER
  5
10
102
{ACAD_XDICTIONARY
360
E6
102
}
330
2
100
AcDbSymbolTableRecord
100
AcDbLayerTableRecord
  2
0
 70
     0
 62
     7
  6
Continuous
370
    -3
390
F
347
98
  0
LAYER
  5
201
330
2
100
AcDbSymbolTableRecord
100
AcDbLayerTableRecord
  2
Defpoints
 70
     0
 62
    -7
  6
Continuous
290
     0
370
    -3
390
F
347
98
  0
LAYER
  5
202
330
2
100
AcDbSymbolTableRecord
100
AcDbLayerTableRecord
  2
Terminals
 70
     0
 62
    32
  6
Continuous
370
    -3
390
F
347
98
1001
AcAecLayerStandard
1000

1000

  0
LAYER
  5
203
330
2
100
AcDbSymbolTableRecord
100
AcDbLayerTableRecord
  2
COTAS
 70
     0
 62
     1
  6
Continuous
370
    -3
390
F
347
98
  0
LAYER
  5
204
330
2
100
AcDbSymbolTableRecord
100
AcDbLayerTableRecord
  2
Plastico
 70
     0
 62
     7
  6
Continuous
370
    20
390
F
347
98
  0
ENDTAB
  0
TABLE
  2
STYLE
  5
3
330
0
100
AcDbSymbolTable
 70
     4
  0
STYLE
  5
11
330
3
100
AcDbSymbolTableRecord
100
AcDbTextStyleTableRecord
  2
Standard
 70
     0
 40
0.0
 41
1.0
 50
0.0
 71
     0
 42
0.2
  3
ARIAL.TTF
  4

1001
ACAD
1000
Arial
1071
       34
  0
STYLE
  5
DC
330
3
100
AcDbSymbolTableRecord
100
AcDbTextStyleTableRecord
  2
Annotative
 70
     0
 40
0.0
 41
1.0
 50
0.0
 71
     0
 42
0.2
  3
ARIAL.TTF
  4

1001
AcadAnnotative
1000
AnnotativeData
1002
{
1070
     1
1070
     1
1002
}
1001
ACAD
1000
Arial
1071
       34
  0
STYLE
  5
205
330
3
100
AcDbSymbolTableRecord
100
AcDbTextStyleTableRecord
  2
ARIAL
 70
     0
 40
0.0
 41
1.0
 50
0.0
 71
     0
 42
5.0
  3
arial.ttf
  4

1001
ACAD
1000
Arial
1071
       34
  0
STYLE
  5
206
330
3
100
AcDbSymbolTableRecord
100
AcDbTextStyleTableRecord
  2
ROMANS
 70
     0
 40
3.0
 41
1.0
 50
0.0
 71
     0
 42
3.0
  3
romans.shx
  4

  0
ENDTAB
  0
TABLE
  2
VIEW
  5
6
330
0
100
AcDbSymbolTable
 70
     5
  0
ENDTAB
  0
TABLE
  2
UCS
  5
7
330
0
100
AcDbSymbolTable
 70
     0
  0
ENDTAB
  0
TABLE
  2
APPID
  5
9
330
0
100
AcDbSymbolTable
 70
    10
  0
APPID
  5
12
330
9
100
AcDbSymbolTableRecord
100
AcDbRegAppTableRecord
  2
ACAD
 70
     0
  0
APPID
  5
DD
330
9
100
AcDbSymbolTableRecord
100
AcDbRegAppTableRecord
  2
AcadAnnoPO
 70
     0
  0
APPID
  5
DE
330
9
100
AcDbSymbolTableRecord
100
AcDbRegAppTableRecord
  2
AcadAnnotative
 70
     0
  0
APPID
  5
DF
330
9
100
AcDbSymbolTableRecord
100
AcDbRegAppTableRecord
  2
ACAD_DSTYLE_DIMJAG
 70
     0
  0
APPID
  5
E0
330
9
100
AcDbSymbolTableRecord
100
AcDbRegAppTableRecord
  2
ACAD_DSTYLE_DIMTALN
 70
     0
  0
APPID
  5
107
330
9
100
AcDbSymbolTableRecord
100
AcDbRegAppTableRecord
  2
ACAD_MLEADERVER
 70
     0
  0
APPID
  5
1A6
330
9
100
AcDbSymbolTableRecord
100
AcDbRegAppTableRecord
  2
ACAD_NAV_VCDISPLAY
 70
     0
  0
APPID
  5
209
330
9
100
AcDbSymbolTableRecord
100
AcDbRegAppTableRecord
  2
ACAD_PSEXT
 70
     0
  0
APPID
  5
20A
330
9
100
AcDbSymbolTableRecord
100
AcDbRegAppTableRecord
  2
AcAecLayerStandard
 70
     0
  0
APPID
  5
BD9
330
9
100
AcDbSymbolTableRecord
100
AcDbRegAppTableRecord
  2
ACAD_EXEMPT_FROM_CAD_STANDARDS
 70
     0
  0
ENDTAB
  0
TABLE
  2
DIMSTYLE
  5
A
330
0
100
AcDbSymbolTable
 70
     5
100
AcDbDimStyleTable
 71
     2
340
27
340
E1
  0
DIMSTYLE
105
27
330
A
100
AcDbSymbolTableRecord
100
AcDbDimStyleTableRecord
  2
Standard
 70
     0
340
11
  0
DIMSTYLE
105
E1
330
A
100
AcDbSymbolTableRecord
100
AcDbDimStyleTableRecord
  2
Annotative
 70
     0
 40
0.0
340
11
1001
AcadAnnotative
1000
AnnotativeData
1002
{
1070
     1
1070
     1
1002
}
1001
ACAD_DSTYLE_DIMJAG
1070
   388
1040
1.5
1001
ACAD_DSTYLE_DIMTALN
1070
   392
1070
     0
  0
DIMSTYLE
105
207
330
A
100
AcDbSymbolTableRecord
100
AcDbDimStyleTableRecord
  2
ARIAL
 70
     0
 41
6.0
 42
1.0
 43
18.0
 44
2.5
 45
0.5
 73
     0
 74
     0
 77
     1
 78
     8
140
6.0
141
2.5
143
0.0394
147
1.0
171
     4
172
     1
271
     1
272
     1
273
     8
274
     4
277
     6
289
     1
340
205
  0
DIMSTYLE
105
208
102
{ACAD_REACTORS
330
4BA
330
684
330
685
330
686
330
687
330
688
330
93D
330
B07
330
B08
330
B09
330
B0A
330
B0B
102
}
330
A
100
AcDbSymbolTableRecord
100
AcDbDimStyleTableRecord
  2
E11
 70
     0
 40
1.5
 41
2.0
 42
0.9999999999999991
 73
     0
 74
     0
 78
     8
 79
     2
140
2.0
141
0.5
146
0.5
147
0.5
176
   256
177
   256
178
   256
179
     1
271
     2
272
     2
288
     1
340
206
341
1AD
342
1AD
371
    -1
  0
ENDTAB
  0
TABLE
  2
BLOCK_RECORD
  5
1
330
0
100
AcDbSymbolTable
 70
    17
  0
BLOCK_RECORD
  5
1F
102
{ACAD_XDICTIONARY
360
15D
102
}
330
1
100
AcDbSymbolTableRecord
100
AcDbBlockTableRecord
  2
*Model_Space
340
22
 70
     0
280
     1
281
     0
  0
BLOCK_RECORD
  5
58
330
1
100
AcDbSymbolTableRecord
100
AcDbBlockTableRecord
  2
*Paper_Space
340
59
 70
     0
280
     1
281
     0
  0
BLOCK_RECORD
  5
5D
330
1
100
AcDbSymbolTableRecord
100
AcDbBlockTableRecord
  2
*Paper_Space0
340
5E
 70
     0
280
     1
281
     0
  0
BLOCK_RECORD
  5
1AD
330
1
100
AcDbSymbolTableRecord
100
AcDbBlockTableRecord
  2
_ClosedBlank
340
0
102
{BLKREFS
331
1B9
331
1BA
331
1C6
331
1C7
331
1D3
331
1D4
331
1E0
331
1E1
331
1ED
331
1EE
331
1FA
331
1FB
331
C66
331
C67
331
C70
331
C71
331
C7A
331
C7B
331
C84
331
C85
331
C8E
331
C8F
331
C98
331
C99
102
}
 70
     0
280
     1
281
     0
  0
BLOCK_RECORD
  5
1B3
330
1
100
AcDbSymbolTableRecord
100
AcDbBlockTableRecord
  2
*D2
340
0
 70
     0
280
     1
281
     0
  0
BLOCK_RECORD
  5
1C0
330
1
100
AcDbSymbolTableRecord
100
AcDbBlockTableRecord
  2
*D3
340
0
 70
     0
280
     1
281
     0
  0
BLOCK_RECORD
  5
1CD
330
1
100
AcDbSymbolTableRecord
100
AcDbBlockTableRecord
  2
*D4
340
0
 70
     0
280
     1
281
     0
  0
BLOCK_RECORD
  5
1DA
330
1
100
AcDbSymbolTableRecord
100
AcDbBlockTableRecord
  2
*D5
340
0
 70
     0
280
     1
281
     0
  0
BLOCK_RECORD
  5
1E7
330
1
100
AcDbSymbolTableRecord
100
AcDbBlockTableRecord
  2
*D6
340
0
 70
     0
280
     1
281
     0
  0
BLOCK_RECORD
  5
1F4
330
1
100
AcDbSymbolTableRecord
100
AcDbBlockTableRecord
  2
*D7
340
0
 70
     0
280
     1
281
     0
  0
BLOCK_RECORD
  5
B0C
330
1
100
AcDbSymbolTableRecord
100
AcDbBlockTableRecord
  2
*D9
340
0
 70
     0
280
     1
281
     0
  0
BLOCK_RECORD
  5
B19
330
1
100
AcDbSymbolTableRecord
100
AcDbBlockTableRecord
  2
*D10
340
0
 70
     0
280
     1
281
     0
  0
BLOCK_RECORD
  5
B26
330
1
100
AcDbSymbolTableRecord
100
AcDbBlockTableRecord
  2
*D11
340
0
 70
     0
280
     1
281
     0
  0
BLOCK_RECORD
  5
B33
330
1
100
AcDbSymbolTableRecord
100
AcDbBlockTableRecord
  2
*D12
340
0
 70
     0
280
     1
281
     0
  0
BLOCK_RECORD
  5
B40
330
1
100
AcDbSymbolTableRecord
100
AcDbBlockTableRecord
  2
*D13
340
0
 70
     0
280
     1
281
     0
  0
BLOCK_RECORD
  5
B4D
330
1
100
AcDbSymbolTableRecord
100
AcDbBlockTableRecord
  2
*D14
340
0
 70
     0
280
     1
281
     0
  0
BLOCK_RECORD
  5
BFF
330
1
100
AcDbSymbolTableRecord
100
AcDbBlockTableRecord
  2
*D16
340
0
 70
     0
280
     1
281
     0
  0
ENDTAB
  0
ENDSEC
  0
SECTION
  2
BLOCKS
  0
BLOCK
  5
20
330
1F
100
AcDbEntity
  8
0
100
AcDbBlockBegin
  2
*Model_Space
 70
     0
 10
0.0
 20
0.0
 30
0.0
  3
*Model_Space
  1

  0
ENDBLK
  5
21
330
1F
100
AcDbEntity
  8
0
100
AcDbBlockEnd
  0
BLOCK
  5
5A
330
58
100
AcDbEntity
 67
     1
  8
0
100
AcDbBlockBegin
  2
*Paper_Space
 70
     0
 10
0.0
 20
0.0
 30
0.0
  3
*Paper_Space
  1

  0
ENDBLK
  5
5B
330
58
100
AcDbEntity
 67
     1
  8
0
100
AcDbBlockEnd
  0
BLOCK
  5
5F
330
5D
100
AcDbEntity
 67
     1
  8
0
100
AcDbBlockBegin
  2
*Paper_Space0
 70
     0
 10
0.0
 20
0.0
 30
0.0
  3
*Paper_Space0
  1

  0
ENDBLK
  5
60
330
5D
100
AcDbEntity
 67
     1
  8
0
100
AcDbBlockEnd
  0
BLOCK
  5
1AE
330
1AD
100
AcDbEntity
  8
0
100
AcDbBlockBegin
  2
_ClosedBlank
 70
     0
 10
0.0
 20
0.0
 30
0.0
  3
_ClosedBlank
  1

  0
LINE
  5
1AF
330
1AD
100
AcDbEntity
  8
COTAS
 62
     0
370
    -2
100
AcDbLine
 10
-1.0
 20
0.1666666666666666
 30
0.0
 11
0.0
 21
0.0
 31
0.0
  0
LINE
  5
1B0
330
1AD
100
AcDbEntity
  8
COTAS
 62
     0
370
    -2
100
AcDbLine
 10
0.0
 20
0.0
 30
0.0
 11
-1.0
 21
-0.1666666666666666
 31
0.0
  0
LINE
  5
1B1
330
1AD
100
AcDbEntity
  8
COTAS
 62
     0
370
    -2
100
AcDbLine
 10
-1.0
 20
0.1666666666666666
 30
0.0
 11
-1.0
 21
-0.1666666666666666
 31
0.0
  0
ENDBLK
  5
1B2
330
1AD
100
AcDbEntity
  8
0
100
AcDbBlockEnd
  0
BLOCK
  5
1B4
330
1B3
100
AcDbEntity
  8
0
100
AcDbBlockBegin
  2
*D2
 70
     1
 10
0.0
 20
0.0
 30
0.0
  3
*D2
  1

  0
LINE
  5
1B5
330
1B3
100
AcDbEntity
  8
COTAS
  6
ByBlock
440
 16777216
370
    -2
100
AcDbLine
 10
198.7423708255318
 20
100.1784735142239
 30
0.0
 11
198.7423708255318
 21
107.0484735142241
 31
0.0
  0
LINE
  5
1B6
330
1B3
100
AcDbEntity
  8
COTAS
  6
ByBlock
440
 16777216
370
    -2
100
AcDbLine
 10
73.94237082553172
 20
92.77847351421653
 30
0.0
 11
73.94237082553172
 21
107.0484735142241
 31
0.0
  0
LINE
  5
1B7
330
1B3
100
AcDbEntity
  8
COTAS
  6
ByBlock
440
 16777216
100
AcDbLine
 10
195.7423708255318
 20
106.7784735142242
 30
0.0
 11
142.7479575731205
 21
106.7784735142242
 31
0.0
  0
LINE
  5
1B8
330
1B3
100
AcDbEntity
  8
COTAS
  6
ByBlock
440
 16777216
100
AcDbLine
 10
76.94237082553172
 20
106.7784735142242
 30
0.0
 11
129.6765290016919
 21
106.7784735142242
 31
0.0
  0
INSERT
  5
1B9
330
1B3
100
AcDbEntity
  8
COTAS
  6
ByBlock
440
 16777216
100
AcDbBlockReference
  2
_ClosedBlank
 10
198.7423708255318
 20
106.7784735142242
 30
0.0
 41
3.0
 42
3.0
 43
3.0
  0
INSERT
  5
1BA
330
1B3
100
AcDbEntity
  8
COTAS
  6
ByBlock
440
 16777216
100
AcDbBlockReference
  2
_ClosedBlank
 10
73.94237082553172
 20
106.7784735142242
 30
0.0
 41
3.0
 42
3.0
 43
3.0
 50
180.0
  0
MTEXT
  5
1BB
330
1B3
100
AcDbEntity
  8
COTAS
  6
ByBlock
440
 16777216
100
AcDbMText
 10
136.2122432874062
 20
106.7784735142242
 30
0.0
 40
3.0
 41
0.0
 46
0.0
 71
     5
 72
     1
  1
\A1;124.8
  7
ROMANS
 73
     1
 44
1.0
  0
POINT
  5
1BC
330
1B3
100
AcDbEntity
  8
Defpoints
  6
ByBlock
 62
     0
440
 16777216
100
AcDbPoint
 10
198.7423708255318
 20
98.67847351422392
 30
0.0
  0
POINT
  5
1BD
330
1B3
100
AcDbEntity
  8
Defpoints
  6
ByBlock
 62
     0
440
 16777216
100
AcDbPoint
 10
73.94237082553172
 20
91.27847351421655
 30
0.0
  0
POINT
  5
1BE
330
1B3
100
AcDbEntity
  8
Defpoints
  6
ByBlock
 62
     0
440
 16777216
100
AcDbPoint
 10
73.94237082553172
 20
106.7784735142242
 30
0.0
  0
ENDBLK
  5
1BF
330
1B3
100
AcDbEntity
  8
0
100
AcDbBlockEnd
  0
BLOCK
  5
1C1
330
1C0
100
AcDbEntity
  8
0
100
AcDbBlockBegin
  2
*D3
 70
     1
 10
0.0
 20
0.0
 30
0.0
  3
*D3
  1

  0
LINE
  5
1C2
330
1C0
100
AcDbEntity
  8
COTAS
440
 16777216
370
    -2
100
AcDbLine
 10
349.9368294826236
 20
200.1784737236915
 30
0.0
 11
349.9368294826236
 21
207.0484735142242
 31
0.0
  0
LINE
  5
1C3
330
1C0
100
AcDbEntity
  8
COTAS
440
 16777216
370
    -2
100
AcDbLine
 10
364.2368294826237
 20
200.1784737236917
 30
0.0
 11
364.2368294826237
 21
207.0484735142242
 31
0.0
  0
LINE
  5
1C4
330
1C0
100
AcDbEntity
  8
COTAS
440
 16777216
100
AcDbLine
 10
346.9368294826236
 20
206.7784735142242
 30
0.0
 11
343.9368294826236
 21
206.7784735142242
 31
0.0
  0
LINE
  5
1C5
330
1C0
100
AcDbEntity
  8
COTAS
440
 16777216
100
AcDbLine
 10
367.2368294826238
 20
206.7784735142242
 30
0.0
 11
370.2368294826237
 21
206.7784735142242
 31
0.0
  0
INSERT
  5
1C6
330
1C0
100
AcDbEntity
  8
COTAS
440
 16777216
100
AcDbBlockReference
  2
_ClosedBlank
 10
349.9368294826236
 20
206.7784735142242
 30
0.0
 41
3.0
 42
3.0
 43
3.0
  0
INSERT
  5
1C7
330
1C0
100
AcDbEntity
  8
COTAS
440
 16777216
100
AcDbBlockReference
  2
_ClosedBlank
 10
364.2368294826237
 20
206.7784735142242
 30
0.0
 41
3.0
 42
3.0
 43
3.0
 50
180.0
  0
MTEXT
  5
1C8
330
1C0
100
AcDbEntity
  8
COTAS
440
 16777216
100
AcDbMText
 10
356.9368297408157
 20
206.7784735142242
 30
0.0
 40
3.0
 41
0.0
 46
0.0
 71
     5
 72
     1
  1
\A1;14.3
  7
ROMANS
 73
     1
 44
1.0
  0
POINT
  5
1C9
330
1C0
100
AcDbEntity
  8
Defpoints
 62
     0
440
 16777216
100
AcDbPoint
 10
349.9368294826236
 20
198.6784737236915
 30
0.0
  0
POINT
  5
1CA
330
1C0
100
AcDbEntity
  8
Defpoints
 62
     0
440
 16777216
100
AcDbPoint
 10
364.2368294826237
 20
198.6784737236916
 30
0.0
  0
POINT
  5
1CB
330
1C0
100
AcDbEntity
  8
Defpoints
 62
     0
440
 16777216
100
AcDbPoint
 10
364.2368294826237
 20
206.7784735142242
 30
0.0
  0
ENDBLK
  5
1CC
330
1C0
100
AcDbEntity
  8
0
100
AcDbBlockEnd
  0
BLOCK
  5
1CE
330
1CD
100
AcDbEntity
  8
0
100
AcDbBlockBegin
  2
*D4
 70
     1
 10
0.0
 20
0.0
 30
0.0
  3
*D4
  1

  0
LINE
  5
1CF
330
1CD
100
AcDbEntity
  8
COTAS
440
 16777216
370
    -2
100
AcDbLine
 10
365.2368294826236
 20
199.1784737236915
 30
0.0
 11
387.2068297408158
 21
199.1784737236915
 31
0.0
  0
LINE
  5
1D0
330
1CD
100
AcDbEntity
  8
COTAS
440
 16777216
370
    -2
100
AcDbLine
 10
364.9368294826236
 20
165.7784737236921
 30
0.0
 11
387.2068297408158
 21
165.7784737236921
 31
0.0
  0
LINE
  5
1D1
330
1CD
100
AcDbEntity
  8
COTAS
440
 16777216
100
AcDbLine
 10
386.9368297408158
 20
196.1784737236915
 30
0.0
 11
386.9368297408158
 21
189.1713306570812
 31
0.0
  0
LINE
  5
1D2
330
1CD
100
AcDbEntity
  8
COTAS
440
 16777216
100
AcDbLine
 10
386.9368297408158
 20
168.7784737236921
 30
0.0
 11
386.9368297408158
 21
178.385616371367
 31
0.0
  0
INSERT
  5
1D3
330
1CD
100
AcDbEntity
  8
COTAS
440
 16777216
100
AcDbBlockReference
  2
_ClosedBlank
 10
386.9368297408158
 20
199.1784737236915
 30
0.0
 41
3.0
 42
3.0
 43
3.0
 50
90.0
  0
INSERT
  5
1D4
330
1CD
100
AcDbEntity
  8
COTAS
440
 16777216
100
AcDbBlockReference
  2
_ClosedBlank
 10
386.9368297408158
 20
165.7784737236921
 30
0.0
 41
3.0
 42
3.0
 43
3.0
 50
270.0
  0
MTEXT
  5
1D5
330
1CD
100
AcDbEntity
  8
COTAS
440
 16777216
100
AcDbMText
 10
386.9368297408157
 20
183.7784735142242
 30
0.0
 40
3.0
 41
0.0
 46
0.0
 71
     5
 72
     1
  1
\A1;33.4
  7
ROMANS
 11
0.0000000000000001
 21
1.0
 31
0.0
 73
     1
 44
1.0
  0
POINT
  5
1D6
330
1CD
100
AcDbEntity
  8
Defpoints
 62
     0
440
 16777216
100
AcDbPoint
 10
363.7368294826237
 20
199.1784737236915
 30
0.0
  0
POINT
  5
1D7
330
1CD
100
AcDbEntity
  8
Defpoints
 62
     0
440
 16777216
100
AcDbPoint
 10
363.4368294826236
 20
165.7784737236921
 30
0.0
  0
POINT
  5
1D8
330
1CD
100
AcDbEntity
  8
Defpoints
 62
     0
440
 16777216
100
AcDbPoint
 10
386.9368297408158
 20
165.7784737236921
 30
0.0
  0
ENDBLK
  5
1D9
330
1CD
100
AcDbEntity
  8
0
100
AcDbBlockEnd
  0
BLOCK
  5
1DB
330
1DA
100
AcDbEntity
  8
0
100
AcDbBlockBegin
  2
*D5
 70
     1
 10
0.0
 20
0.0
 30
0.0
  3
*D5
  1

  0
LINE
  5
1DC
330
1DA
100
AcDbEntity
  8
COTAS
440
 16777216
370
    -2
100
AcDbLine
 10
365.2368294826236
 20
199.1784737236915
 30
0.0
 11
378.2068297408157
 21
199.1784737236915
 31
0.0
  0
LINE
  5
1DD
330
1DA
100
AcDbEntity
  8
COTAS
440
 16777216
370
    -2
100
AcDbLine
 10
365.2368294826236
 20
173.978473723692
 30
0.0
 11
378.2068297408157
 21
173.978473723692
 31
0.0
  0
LINE
  5
1DE
330
1DA
100
AcDbEntity
  8
COTAS
440
 16777216
100
AcDbLine
 10
377.9368297408158
 20
196.1784737236915
 30
0.0
 11
377.9368297408158
 21
192.0999020856527
 31
0.0
  0
LINE
  5
1DF
330
1DA
100
AcDbEntity
  8
COTAS
440
 16777216
100
AcDbLine
 10
377.9368297408158
 20
176.978473723692
 30
0.0
 11
377.9368297408158
 21
181.4570449427955
 31
0.0
  0
INSERT
  5
1E0
330
1DA
100
AcDbEntity
  8
COTAS
440
 16777216
100
AcDbBlockReference
  2
_ClosedBlank
 10
377.9368297408158
 20
199.1784737236915
 30
0.0
 41
3.0
 42
3.0
 43
3.0
 50
90.0
  0
INSERT
  5
1E1
330
1DA
100
AcDbEntity
  8
COTAS
440
 16777216
100
AcDbBlockReference
  2
_ClosedBlank
 10
377.9368297408158
 20
173.978473723692
 30
0.0
 41
3.0
 42
3.0
 43
3.0
 50
270.0
  0
MTEXT
  5
1E2
330
1DA
100
AcDbEntity
  8
COTAS
440
 16777216
100
AcDbMText
 10
377.9368297408157
 20
186.7784735142242
 30
0.0
 40
3.0
 41
0.0
 46
0.0
 71
     5
 72
     1
  1
\A1;25.2
  7
ROMANS
 11
0.0000000000000001
 21
1.0
 31
0.0
 73
     1
 44
1.0
  0
POINT
  5
1E3
330
1DA
100
AcDbEntity
  8
Defpoints
 62
     0
440
 16777216
100
AcDbPoint
 10
363.7368294826237
 20
199.1784737236915
 30
0.0
  0
POINT
  5
1E4
330
1DA
100
AcDbEntity
  8
Defpoints
 62
     0
440
 16777216
100
AcDbPoint
 10
363.7368294826237
 20
173.978473723692
 30
0.0
  0
POINT
  5
1E5
330
1DA
100
AcDbEntity
  8
Defpoints
 62
     0
440
 16777216
100
AcDbPoint
 10
377.9368297408158
 20
173.978473723692
 30
0.0
  0
ENDBLK
  5
1E6
330
1DA
100
AcDbEntity
  8
0
100
AcDbBlockEnd
  0
BLOCK
  5
1E8
330
1E7
100
AcDbEntity
  8
0
100
AcDbBlockBegin
  2
*D6
 70
     1
 10
0.0
 20
0.0
 30
0.0
  3
*D6
  1

  0
LINE
  5
1E9
330
1E7
100
AcDbEntity
  8
COTAS
440
 16777216
370
    -2
100
AcDbLine
 10
361.1368294826236
 20
164.278473723692
 30
0.0
 11
361.1368294826236
 21
152.5084735142241
 31
0.0
  0
LINE
  5
1EA
330
1E7
100
AcDbEntity
  8
COTAS
440
 16777216
370
    -2
100
AcDbLine
 10
363.4368294826236
 20
164.2784737236921
 30
0.0
 11
363.4368294826236
 21
152.5084735142241
 31
0.0
  0
LINE
  5
1EB
330
1E7
100
AcDbEntity
  8
COTAS
440
 16777216
100
AcDbLine
 10
358.1368294826236
 20
152.7784735142241
 30
0.0
 11
355.1368294826236
 21
152.7784735142241
 31
0.0
  0
LINE
  5
1EC
330
1E7
100
AcDbEntity
  8
COTAS
440
 16777216
100
AcDbLine
 10
366.4368294826236
 20
152.7784735142241
 30
0.0
 11
369.4368294826236
 21
152.7784735142241
 31
0.0
  0
INSERT
  5
1ED
330
1E7
100
AcDbEntity
  8
COTAS
440
 16777216
100
AcDbBlockReference
  2
_ClosedBlank
 10
361.1368294826236
 20
152.7784735142241
 30
0.0
 41
3.0
 42
3.0
 43
3.0
  0
INSERT
  5
1EE
330
1E7
100
AcDbEntity
  8
COTAS
440
 16777216
100
AcDbBlockReference
  2
_ClosedBlank
 10
363.4368294826236
 20
152.7784735142241
 30
0.0
 41
3.0
 42
3.0
 43
3.0
 50
180.0
  0
MTEXT
  5
1EF
330
1E7
100
AcDbEntity
  8
COTAS
440
 16777216
100
AcDbMText
 10
373.3296866254808
 20
152.7784735142241
 30
0.0
 40
3.0
 41
0.0
 46
0.0
 71
     5
 72
     1
  1
\A1;2.3
  7
ROMANS
 73
     1
 44
1.0
  0
POINT
  5
1F0
330
1E7
100
AcDbEntity
  8
Defpoints
 62
     0
440
 16777216
100
AcDbPoint
 10
361.1368294826236
 20
165.778473723692
 30
0.0
  0
POINT
  5
1F1
330
1E7
100
AcDbEntity
  8
Defpoints
 62
     0
440
 16777216
100
AcDbPoint
 10
363.4368294826236
 20
165.7784737236921
 30
0.0
  0
POINT
  5
1F2
330
1E7
100
AcDbEntity
  8
Defpoints
 62
     0
440
 16777216
100
AcDbPoint
 10
363.4368294826236
 20
152.7784735142241
 30
0.0
  0
ENDBLK
  5
1F3
330
1E7
100
AcDbEntity
  8
0
100
AcDbBlockEnd
  0
BLOCK
  5
1F5
330
1F4
100
AcDbEntity
  8
0
100
AcDbBlockBegin
  2
*D7
 70
     1
 10
0.0
 20
0.0
 30
0.0
  3
*D7
  1

  0
LINE
  5
1F6
330
1F4
100
AcDbEntity
  8
COTAS
440
 16777216
370
    -2
100
AcDbLine
 10
360.3368294826235
 20
172.9784737236919
 30
0.0
 11
360.3368294826235
 21
158.5084735142241
 31
0.0
  0
LINE
  5
1F7
330
1F4
100
AcDbEntity
  8
COTAS
440
 16777216
370
    -2
100
AcDbLine
 10
364.2368294826237
 20
172.978473723692
 30
0.0
 11
364.2368294826237
 21
158.5084735142241
 31
0.0
  0
LINE
  5
1F8
330
1F4
100
AcDbEntity
  8
COTAS
440
 16777216
100
AcDbLine
 10
357.3368294826236
 20
158.7784735142242
 30
0.0
 11
354.3368294826235
 21
158.7784735142242
 31
0.0
  0
LINE
  5
1F9
330
1F4
100
AcDbEntity
  8
COTAS
440
 16777216
100
AcDbLine
 10
367.2368294826236
 20
158.7784735142242
 30
0.0
 11
370.2368294826237
 21
158.7784735142242
 31
0.0
  0
INSERT
  5
1FA
330
1F4
100
AcDbEntity
  8
COTAS
440
 16777216
100
AcDbBlockReference
  2
_ClosedBlank
 10
360.3368294826235
 20
158.7784735142242
 30
0.0
 41
3.0
 42
3.0
 43
3.0
  0
INSERT
  5
1FB
330
1F4
100
AcDbEntity
  8
COTAS
440
 16777216
100
AcDbBlockReference
  2
_ClosedBlank
 10
364.2368294826237
 20
158.7784735142242
 30
0.0
 41
3.0
 42
3.0
 43
3.0
 50
180.0
  0
MTEXT
  5
1FC
330
1F4
100
AcDbEntity
  8
COTAS
440
 16777216
100
AcDbMText
 10
374.0582580540522
 20
158.7784735142242
 30
0.0
 40
3.0
 41
0.0
 46
0.0
 71
     5
 72
     1
  1
\A1;3.9
  7
ROMANS
 73
     1
 44
1.0
  0
POINT
  5
1FD
330
1F4
100
AcDbEntity
  8
Defpoints
 62
     0
440
 16777216
100
AcDbPoint
 10
360.3368294826235
 20
174.4784737236919
 30
0.0
  0
POINT
  5
1FE
330
1F4
100
AcDbEntity
  8
Defpoints
 62
     0
440
 16777216
100
AcDbPoint
 10
364.2368294826237
 20
174.478473723692
 30
0.0
  0
POINT
  5
1FF
330
1F4
100
AcDbEntity
  8
Defpoints
 62
     0
440
 16777216
100
AcDbPoint
 10
364.2368294826237
 20
158.7784735142242
 30
0.0
  0
ENDBLK
  5
200
330
1F4
100
AcDbEntity
  8
0
100
AcDbBlockEnd
  0
BLOCK
  5
B0D
330
B0C
100
AcDbEntity
  8
0
100
AcDbBlockBegin
  2
*D9
 70
     1
 10
0.0
 20
0.0
 30
0.0
  3
*D9
  1

  0
LINE
  5
C62
330
B0C
100
AcDbEntity
  8
COTAS
  6
ByBlock
440
 16777216
370
    -2
100
AcDbLine
 10
324.5643467770861
 20
174.5780880974032
 30
0.0
 11
324.5643467770861
 21
181.4480880974034
 31
0.0
  0
LINE
  5
C63
330
B0C
100
AcDbEntity
  8
COTAS
  6
ByBlock
440
 16777216
370
    -2
100
AcDbLine
 10
199.7643467770859
 20
167.1780880973958
 30
0.0
 11
199.7643467770859
 21
181.4480880974034
 31
0.0
  0
LINE
  5
C64
330
B0C
100
AcDbEntity
  8
COTAS
  6
ByBlock
440
 16777216
100
AcDbLine
 10
321.5643467770861
 20
181.1780880974034
 30
0.0
 11
268.5699335246748
 21
181.1780880974034
 31
0.0
  0
LINE
  5
C65
330
B0C
100
AcDbEntity
  8
COTAS
  6
ByBlock
440
 16777216
100
AcDbLine
 10
202.7643467770859
 20
181.1780880974034
 30
0.0
 11
255.4985049532462
 21
181.1780880974034
 31
0.0
  0
INSERT
  5
C66
330
B0C
100
AcDbEntity
  8
COTAS
  6
ByBlock
440
 16777216
100
AcDbBlockReference
  2
_ClosedBlank
 10
324.5643467770861
 20
181.1780880974034
 30
0.0
 41
3.0
 42
3.0
 43
3.0
  0
INSERT
  5
C67
330
B0C
100
AcDbEntity
  8
COTAS
  6
ByBlock
440
 16777216
100
AcDbBlockReference
  2
_ClosedBlank
 10
199.7643467770859
 20
181.1780880974034
 30
0.0
 41
3.0
 42
3.0
 43
3.0
 50
180.0
  0
MTEXT
  5
C68
330
B0C
100
AcDbEntity
  8
COTAS
  6
ByBlock
440
 16777216
100
AcDbMText
 10
262.0342192389605
 20
181.1780880974034
 30
0.0
 40
3.0
 41
0.0
 46
0.0
 71
     5
 72
     1
  1
\A1;124.8
  7
ROMANS
 73
     1
 44
1.0
  0
POINT
  5
C69
330
B0C
100
AcDbEntity
  8
Defpoints
  6
ByBlock
 62
     0
440
 16777216
100
AcDbPoint
 10
324.5643467770861
 20
173.0780880974032
 30
0.0
  0
POINT
  5
C6A
330
B0C
100
AcDbEntity
  8
Defpoints
  6
ByBlock
 62
     0
440
 16777216
100
AcDbPoint
 10
199.7643467770859
 20
165.6780880973958
 30
0.0
  0
POINT
  5
C6B
330
B0C
100
AcDbEntity
  8
Defpoints
  6
ByBlock
 62
     0
440
 16777216
100
AcDbPoint
 10
199.7643467770859
 20
181.1780880974034
 30
0.0
  0
ENDBLK
  5
B0E
330
B0C
100
AcDbEntity
  8
0
100
AcDbBlockEnd
  0
BLOCK
  5
B1A
330
B19
100
AcDbEntity
  8
0
100
AcDbBlockBegin
  2
*D10
 70
     1
 10
0.0
 20
0.0
 30
0.0
  3
*D10
  1

  0
LINE
  5
C6C
330
B19
100
AcDbEntity
  8
COTAS
440
 16777216
370
    -2
100
AcDbLine
 10
365.2061685622672
 20
241.8544211872116
 30
0.0
 11
365.2061685622672
 21
248.7244209777442
 31
0.0
  0
LINE
  5
C6D
330
B19
100
AcDbEntity
  8
COTAS
440
 16777216
370
    -2
100
AcDbLine
 10
379.5061685622674
 20
241.8544211872117
 30
0.0
 11
379.5061685622674
 21
248.7244209777442
 31
0.0
  0
LINE
  5
C6E
330
B19
100
AcDbEntity
  8
COTAS
440
 16777216
100
AcDbLine
 10
362.2061685622672
 20
248.4544209777443
 30
0.0
 11
359.2061685622672
 21
248.4544209777443
 31
0.0
  0
LINE
  5
C6F
330
B19
100
AcDbEntity
  8
COTAS
440
 16777216
100
AcDbLine
 10
382.5061685622674
 20
248.4544209777443
 30
0.0
 11
385.5061685622674
 21
248.4544209777443
 31
0.0
  0
INSERT
  5
C70
330
B19
100
AcDbEntity
  8
COTAS
440
 16777216
100
AcDbBlockReference
  2
_ClosedBlank
 10
365.2061685622672
 20
248.4544209777443
 30
0.0
 41
3.0
 42
3.0
 43
3.0
  0
INSERT
  5
C71
330
B19
100
AcDbEntity
  8
COTAS
440
 16777216
100
AcDbBlockReference
  2
_ClosedBlank
 10
379.5061685622674
 20
248.4544209777443
 30
0.0
 41
3.0
 42
3.0
 43
3.0
 50
180.0
  0
MTEXT
  5
C72
330
B19
100
AcDbEntity
  8
COTAS
440
 16777216
100
AcDbMText
 10
372.2061688204593
 20
248.4544209777443
 30
0.0
 40
3.0
 41
0.0
 46
0.0
 71
     5
 72
     1
  1
\A1;14.3
  7
ROMANS
 73
     1
 44
1.0
  0
POINT
  5
C73
330
B19
100
AcDbEntity
  8
Defpoints
 62
     0
440
 16777216
100
AcDbPoint
 10
365.2061685622672
 20
240.3544211872116
 30
0.0
  0
POINT
  5
C74
330
B19
100
AcDbEntity
  8
Defpoints
 62
     0
440
 16777216
100
AcDbPoint
 10
379.5061685622674
 20
240.3544211872117
 30
0.0
  0
POINT
  5
C75
330
B19
100
AcDbEntity
  8
Defpoints
 62
     0
440
 16777216
100
AcDbPoint
 10
379.5061685622674
 20
248.4544209777443
 30
0.0
  0
ENDBLK
  5
B1B
330
B19
100
AcDbEntity
  8
0
100
AcDbBlockEnd
  0
BLOCK
  5
B27
330
B26
100
AcDbEntity
  8
0
100
AcDbBlockBegin
  2
*D11
 70
     1
 10
0.0
 20
0.0
 30
0.0
  3
*D11
  1

  0
LINE
  5
C76
330
B26
100
AcDbEntity
  8
COTAS
440
 16777216
370
    -2
100
AcDbLine
 10
380.5061685622673
 20
240.8544211872116
 30
0.0
 11
402.4761688204592
 21
240.8544211872116
 31
0.0
  0
LINE
  5
C77
330
B26
100
AcDbEntity
  8
COTAS
440
 16777216
370
    -2
100
AcDbLine
 10
380.2061685622672
 20
207.4544211872122
 30
0.0
 11
402.4761688204592
 21
207.4544211872122
 31
0.0
  0
LINE
  5
C78
330
B26
100
AcDbEntity
  8
COTAS
440
 16777216
100
AcDbLine
 10
402.2061688204592
 20
237.8544211872116
 30
0.0
 11
402.2061688204592
 21
230.8472781206013
 31
0.0
  0
LINE
  5
C79
330
B26
100
AcDbEntity
  8
COTAS
440
 16777216
100
AcDbLine
 10
402.2061688204592
 20
210.4544211872122
 30
0.0
 11
402.2061688204592
 21
220.0615638348871
 31
0.0
  0
INSERT
  5
C7A
330
B26
100
AcDbEntity
  8
COTAS
440
 16777216
100
AcDbBlockReference
  2
_ClosedBlank
 10
402.2061688204592
 20
240.8544211872116
 30
0.0
 41
3.0
 42
3.0
 43
3.0
 50
90.0
  0
INSERT
  5
C7B
330
B26
100
AcDbEntity
  8
COTAS
440
 16777216
100
AcDbBlockReference
  2
_ClosedBlank
 10
402.2061688204592
 20
207.4544211872122
 30
0.0
 41
3.0
 42
3.0
 43
3.0
 50
270.0
  0
MTEXT
  5
C7C
330
B26
100
AcDbEntity
  8
COTAS
440
 16777216
100
AcDbMText
 10
402.2061688204592
 20
225.4544209777442
 30
0.0
 40
3.0
 41
0.0
 46
0.0
 71
     5
 72
     1
  1
\A1;33.4
  7
ROMANS
 11
0.0000000000000001
 21
1.0
 31
0.0
 73
     1
 44
1.0
  0
POINT
  5
C7D
330
B26
100
AcDbEntity
  8
Defpoints
 62
     0
440
 16777216
100
AcDbPoint
 10
379.0061685622672
 20
240.8544211872116
 30
0.0
  0
POINT
  5
C7E
330
B26
100
AcDbEntity
  8
Defpoints
 62
     0
440
 16777216
100
AcDbPoint
 10
378.7061685622672
 20
207.4544211872122
 30
0.0
  0
POINT
  5
C7F
330
B26
100
AcDbEntity
  8
Defpoints
 62
     0
440
 16777216
100
AcDbPoint
 10
402.2061688204592
 20
207.4544211872122
 30
0.0
  0
ENDBLK
  5
B28
330
B26
100
AcDbEntity
  8
0
100
AcDbBlockEnd
  0
BLOCK
  5
B34
330
B33
100
AcDbEntity
  8
0
100
AcDbBlockBegin
  2
*D12
 70
     1
 10
0.0
 20
0.0
 30
0.0
  3
*D12
  1

  0
LINE
  5
C80
330
B33
100
AcDbEntity
  8
COTAS
440
 16777216
370
    -2
100
AcDbLine
 10
380.5061685622673
 20
240.8544211872116
 30
0.0
 11
393.4761688204594
 21
240.8544211872116
 31
0.0
  0
LINE
  5
C81
330
B33
100
AcDbEntity
  8
COTAS
440
 16777216
370
    -2
100
AcDbLine
 10
380.5061685622673
 20
215.654421187212
 30
0.0
 11
393.4761688204594
 21
215.654421187212
 31
0.0
  0
LINE
  5
C82
330
B33
100
AcDbEntity
  8
COTAS
440
 16777216
100
AcDbLine
 10
393.2061688204594
 20
237.8544211872116
 30
0.0
 11
393.2061688204594
 21
233.7758495491728
 31
0.0
  0
LINE
  5
C83
330
B33
100
AcDbEntity
  8
COTAS
440
 16777216
100
AcDbLine
 10
393.2061688204594
 20
218.6544211872121
 30
0.0
 11
393.2061688204594
 21
223.1329924063156
 31
0.0
  0
INSERT
  5
C84
330
B33
100
AcDbEntity
  8
COTAS
440
 16777216
100
AcDbBlockReference
  2
_ClosedBlank
 10
393.2061688204594
 20
240.8544211872116
 30
0.0
 41
3.0
 42
3.0
 43
3.0
 50
90.0
  0
INSERT
  5
C85
330
B33
100
AcDbEntity
  8
COTAS
440
 16777216
100
AcDbBlockReference
  2
_ClosedBlank
 10
393.2061688204594
 20
215.654421187212
 30
0.0
 41
3.0
 42
3.0
 43
3.0
 50
270.0
  0
MTEXT
  5
C86
330
B33
100
AcDbEntity
  8
COTAS
440
 16777216
100
AcDbMText
 10
393.2061688204593
 20
228.4544209777442
 30
0.0
 40
3.0
 41
0.0
 46
0.0
 71
     5
 72
     1
  1
\A1;25.2
  7
ROMANS
 11
0.0000000000000001
 21
1.0
 31
0.0
 73
     1
 44
1.0
  0
POINT
  5
C87
330
B33
100
AcDbEntity
  8
Defpoints
 62
     0
440
 16777216
100
AcDbPoint
 10
379.0061685622672
 20
240.8544211872116
 30
0.0
  0
POINT
  5
C88
330
B33
100
AcDbEntity
  8
Defpoints
 62
     0
440
 16777216
100
AcDbPoint
 10
379.0061685622672
 20
215.654421187212
 30
0.0
  0
POINT
  5
C89
330
B33
100
AcDbEntity
  8
Defpoints
 62
     0
440
 16777216
100
AcDbPoint
 10
393.2061688204594
 20
215.654421187212
 30
0.0
  0
ENDBLK
  5
B35
330
B33
100
AcDbEntity
  8
0
100
AcDbBlockEnd
  0
BLOCK
  5
B41
330
B40
100
AcDbEntity
  8
0
100
AcDbBlockBegin
  2
*D13
 70
     1
 10
0.0
 20
0.0
 30
0.0
  3
*D13
  1

  0
LINE
  5
C8A
330
B40
100
AcDbEntity
  8
COTAS
440
 16777216
370
    -2
100
AcDbLine
 10
376.4061685622672
 20
205.9544211872121
 30
0.0
 11
376.4061685622672
 21
194.1844209777442
 31
0.0
  0
LINE
  5
C8B
330
B40
100
AcDbEntity
  8
COTAS
440
 16777216
370
    -2
100
AcDbLine
 10
378.7061685622672
 20
205.9544211872122
 30
0.0
 11
378.7061685622672
 21
194.1844209777442
 31
0.0
  0
LINE
  5
C8C
330
B40
100
AcDbEntity
  8
COTAS
440
 16777216
100
AcDbLine
 10
373.4061685622672
 20
194.4544209777442
 30
0.0
 11
370.4061685622672
 21
194.4544209777442
 31
0.0
  0
LINE
  5
C8D
330
B40
100
AcDbEntity
  8
COTAS
440
 16777216
100
AcDbLine
 10
381.7061685622672
 20
194.4544209777442
 30
0.0
 11
384.7061685622672
 21
194.4544209777442
 31
0.0
  0
INSERT
  5
C8E
330
B40
100
AcDbEntity
  8
COTAS
440
 16777216
100
AcDbBlockReference
  2
_ClosedBlank
 10
376.4061685622672
 20
194.4544209777442
 30
0.0
 41
3.0
 42
3.0
 43
3.0
  0
INSERT
  5
C8F
330
B40
100
AcDbEntity
  8
COTAS
440
 16777216
100
AcDbBlockReference
  2
_ClosedBlank
 10
378.7061685622672
 20
194.4544209777442
 30
0.0
 41
3.0
 42
3.0
 43
3.0
 50
180.0
  0
MTEXT
  5
C90
330
B40
100
AcDbEntity
  8
COTAS
440
 16777216
100
AcDbMText
 10
388.5990257051243
 20
194.4544209777442
 30
0.0
 40
3.0
 41
0.0
 46
0.0
 71
     5
 72
     1
  1
\A1;2.3
  7
ROMANS
 73
     1
 44
1.0
  0
POINT
  5
C91
330
B40
100
AcDbEntity
  8
Defpoints
 62
     0
440
 16777216
100
AcDbPoint
 10
376.4061685622672
 20
207.4544211872121
 30
0.0
  0
POINT
  5
C92
330
B40
100
AcDbEntity
  8
Defpoints
 62
     0
440
 16777216
100
AcDbPoint
 10
378.7061685622672
 20
207.4544211872122
 30
0.0
  0
POINT
  5
C93
330
B40
100
AcDbEntity
  8
Defpoints
 62
     0
440
 16777216
100
AcDbPoint
 10
378.7061685622672
 20
194.4544209777442
 30
0.0
  0
ENDBLK
  5
B42
330
B40
100
AcDbEntity
  8
0
100
AcDbBlockEnd
  0
BLOCK
  5
B4E
330
B4D
100
AcDbEntity
  8
0
100
AcDbBlockBegin
  2
*D14
 70
     1
 10
0.0
 20
0.0
 30
0.0
  3
*D14
  1

  0
LINE
  5
C94
330
B4D
100
AcDbEntity
  8
COTAS
440
 16777216
370
    -2
100
AcDbLine
 10
375.6061685622672
 20
214.6544211872121
 30
0.0
 11
375.6061685622672
 21
200.1844209777442
 31
0.0
  0
LINE
  5
C95
330
B4D
100
AcDbEntity
  8
COTAS
440
 16777216
370
    -2
100
AcDbLine
 10
379.5061685622672
 20
214.6544211872121
 30
0.0
 11
379.5061685622672
 21
200.1844209777442
 31
0.0
  0
LINE
  5
C96
330
B4D
100
AcDbEntity
  8
COTAS
440
 16777216
100
AcDbLine
 10
372.6061685622672
 20
200.4544209777442
 30
0.0
 11
369.6061685622672
 21
200.4544209777442
 31
0.0
  0
LINE
  5
C97
330
B4D
100
AcDbEntity
  8
COTAS
440
 16777216
100
AcDbLine
 10
382.5061685622673
 20
200.4544209777442
 30
0.0
 11
385.5061685622672
 21
200.4544209777442
 31
0.0
  0
INSERT
  5
C98
330
B4D
100
AcDbEntity
  8
COTAS
440
 16777216
100
AcDbBlockReference
  2
_ClosedBlank
 10
375.6061685622672
 20
200.4544209777442
 30
0.0
 41
3.0
 42
3.0
 43
3.0
  0
INSERT
  5
C99
330
B4D
100
AcDbEntity
  8
COTAS
440
 16777216
100
AcDbBlockReference
  2
_ClosedBlank
 10
379.5061685622672
 20
200.4544209777442
 30
0.0
 41
3.0
 42
3.0
 43
3.0
 50
180.0
  0
MTEXT
  5
C9A
330
B4D
100
AcDbEntity
  8
COTAS
440
 16777216
100
AcDbMText
 10
389.3275971336958
 20
200.4544209777442
 30
0.0
 40
3.0
 41
0.0
 46
0.0
 71
     5
 72
     1
  1
\A1;3.9
  7
ROMANS
 73
     1
 44
1.0
  0
POINT
  5
C9B
330
B4D
100
AcDbEntity
  8
Defpoints
 62
     0
440
 16777216
100
AcDbPoint
 10
375.6061685622672
 20
216.154421187212
 30
0.0
  0
POINT
  5
C9C
330
B4D
100
AcDbEntity
  8
Defpoints
 62
     0
440
 16777216
100
AcDbPoint
 10
379.5061685622672
 20
216.154421187212
 30
0.0
  0
POINT
  5
C9D
330
B4D
100
AcDbEntity
  8
Defpoints
 62
     0
440
 16777216
100
AcDbPoint
 10
379.5061685622672
 20
200.4544209777442
 30
0.0
  0
ENDBLK
  5
B4F
330
B4D
100
AcDbEntity
  8
0
100
AcDbBlockEnd
  0
BLOCK
  5
C00
330
BFF
100
AcDbEntity
  8
0
100
AcDbBlockBegin
  2
*D16
 70
     1
 10
0.0
 20
0.0
 30
0.0
  3
*D16
  1

  0
LINE
  5
C0D
330
BFF
100
AcDbEntity
  8
0
 62
     0
440
 16777216
370
    -2
100
AcDbLine
 10
324.126846777086
 20
153.8544209777439
 30
0.0
 11
332.6227114767744
 21
153.8544209777439
 31
0.0
  0
LINE
  5
C0E
330
BFF
100
AcDbEntity
  8
0
 62
     0
440
 16777216
370
    -2
100
AcDbLine
 10
321.9268467770859
 20
120.4544209777444
 30
0.0
 11
332.6227114767744
 21
120.4544209777444
 31
0.0
  0
LINE
  5
C0F
330
BFF
100
AcDbEntity
  8
0
 62
     0
440
 16777216
370
    -2
100
AcDbLine
 10
332.4427114767744
 20
153.6744209777439
 30
0.0
 11
332.4427114767744
 21
137.3363855070756
 31
0.0
  0
LINE
  5
C10
330
BFF
100
AcDbEntity
  8
0
 62
     0
440
 16777216
370
    -2
100
AcDbLine
 10
332.4427114767744
 20
120.6344209777444
 30
0.0
 11
332.4427114767744
 21
136.9724564484126
 31
0.0
  0
SOLID
  5
C11
330
BFF
100
AcDbEntity
  8
0
 62
     0
440
 16777216
100
AcDbTrace
 10
332.4127114767744
 20
153.6744209777439
 30
0.0
 11
332.4727114767744
 21
153.6744209777439
 31
0.0
 12
332.4427114767744
 22
153.8544209777439
 32
0.0
 13
332.4427114767744
 23
153.8544209777439
 33
0.0
  0
SOLID
  5
C12
330
BFF
100
AcDbEntity
  8
0
 62
     0
440
 16777216
100
AcDbTrace
 10
332.4127114767744
 20
120.6344209777444
 30
0.0
 11
332.4727114767743
 21
120.6344209777444
 31
0.0
 12
332.4427114767744
 22
120.4544209777444
 32
0.0
 13
332.4427114767744
 23
120.4544209777444
 33
0.0
  0
MTEXT
  5
C13
330
BFF
100
AcDbEntity
  8
0
 62
     0
440
 16777216
100
AcDbMText
 10
332.4427114767744
 20
137.1544209777442
 30
0.0
 40
0.18
 41
0.0
 46
0.0
 71
     5
 72
     1
  1
\A1;33.4000
 73
     1
 44
1.0
  0
POINT
  5
C14
330
BFF
100
AcDbEntity
  8
Defpoints
 62
     0
440
 16777216
100
AcDbPoint
 10
324.064346777086
 20
153.8544209777439
 30
0.0
  0
POINT
  5
C15
330
BFF
100
AcDbEntity
  8
Defpoints
 62
     0
440
 16777216
100
AcDbPoint
 10
321.8643467770859
 20
120.4544209777444
 30
0.0
  0
POINT
  5
C16
330
BFF
100
AcDbEntity
  8
Defpoints
 62
     0
440
 16777216
100
AcDbPoint
 10
332.4427114767744
 20
120.4544209777444
 30
0.0
  0
ENDBLK
  5
C01
330
BFF
100
AcDbEntity
  8
0
100
AcDbBlockEnd
  0
ENDSEC
  0
SECTION
  2
ENTITIES
  0
LINE
  5
68F
330
1F
100
AcDbEntity
  8
Plastico
370
    20
100
AcDbLine
 10
255.6893467770863
 20
281.7780880973988
 30
0.0
 11
254.8393467770865
 21
281.7780880973988
 31
0.0
  0
LINE
  5
690
330
1F
100
AcDbEntity
  8
Plastico
370
    20
100
AcDbLine
 10
200.2643467770843
 20
273.5780880974031
 30
0.0
 11
324.564346777086
 21
273.5780880974005
 31
0.0
  0
ARC
  5
691
330
1F
100
AcDbEntity
  8
Plastico
370
    20
100
AcDbCircle
 10
216.7643467770861
 20
287.3780880974019
 30
0.0
 40
0.5
100
AcDbArc
 50
90.0
 51
180.0
  0
ARC
  5
692
330
1F
100
AcDbEntity
  8
Plastico
370
    20
100
AcDbCircle
 10
216.764346777086
 20
284.478088097403
 30
0.0
 40
0.5
100
AcDbArc
 50
180.0
 51
270.0
  0
LINE
  5
693
330
1F
100
AcDbEntity
  8
Plastico
370
    20
100
AcDbLine
 10
216.264346777086
 20
281.978088097403
 30
0.0
 11
220.4643467770858
 21
281.978088097403
 31
0.0
  0
LINE
  5
694
330
1F
100
AcDbEntity
  8
Plastico
370
    20
100
AcDbLine
 10
221.3893467770866
 20
281.7780880973988
 30
0.0
 11
215.4643467770858
 21
281.7780880973989
 31
0.0
  0
LINE
  5
695
330
1F
100
AcDbEntity
  8
Plastico
370
    20
100
AcDbLine
 10
217.6643467770861
 20
287.8780880974026
 30
0.0
 11
214.4621713047055
 21
287.8780880974026
 31
0.0
  0
LINE
  5
696
330
1F
100
AcDbEntity
  8
Plastico
370
    20
100
AcDbLine
 10
207.2893467770865
 20
281.7780880973988
 30
0.0
 11
207.2893467770865
 21
274.0780880974031
 31
0.0
  0
LINE
  5
697
330
1F
100
AcDbEntity
  8
Plastico
370
    20
100
AcDbLine
 10
208.1393467770865
 20
281.7780880973988
 30
0.0
 11
208.1393467770865
 21
274.0780880974031
 31
0.0
  0
LINE
  5
698
330
1F
100
AcDbEntity
  8
Plastico
370
    20
100
AcDbLine
 10
208.9893467770865
 20
281.7780880973988
 30
0.0
 11
208.9893467770865
 21
274.0780880974031
 31
0.0
  0
LINE
  5
699
330
1F
100
AcDbEntity
  8
Plastico
370
    20
100
AcDbLine
 10
209.8393467770865
 20
281.7780880973988
 30
0.0
 11
209.8393467770865
 21
274.0780880974031
 31
0.0
  0
LINE
  5
69A
330
1F
100
AcDbEntity
  8
Plastico
370
    20
100
AcDbLine
 10
210.6893467770863
 20
281.7780880973988
 30
0.0
 11
210.6893467770863
 21
274.0780880974031
 31
0.0
  0
LINE
  5
69B
330
1F
100
AcDbEntity
  8
Plastico
370
    20
100
AcDbLine
 10
211.5393467770863
 20
281.7780880973988
 30
0.0
 11
211.5393467770863
 21
274.0780880974031
 31
0.0
  0
LINE
  5
69C
330
1F
100
AcDbEntity
  8
Plastico
370
    20
100
AcDbLine
 10
212.3893467770863
 20
281.7780880973988
 30
0.0
 11
212.3893467770863
 21
274.0780880974031
 31
0.0
  0
LINE
  5
69D
330
1F
100
AcDbEntity
  8
Plastico
370
    20
100
AcDbLine
 10
213.2393467770863
 20
281.7780880973988
 30
0.0
 11
213.2393467770863
 21
274.0780880974031
 31
0.0
  0
LINE
  5
69E
330
1F
100
AcDbEntity
  8
Plastico
370
    20
100
AcDbLine
 10
214.1643467770875
 20
281.7780880973988
 30
0.0
 11
214.1643467770875
 21
274.0780880974031
 31
0.0
  0
LINE
  5
69F
330
1F
100
AcDbEntity
  8
Plastico
370
    20
100
AcDbLine
 10
215.4643467770858
 20
281.7780880973988
 30
0.0
 11
215.4643467770858
 21
274.0780880974031
 31
0.0
  0
LINE
  5
6A0
330
1F
100
AcDbEntity
  8
Plastico
370
    20
100
AcDbLine
 10
199.7643467770857
 20
281.7780880973988
 30
0.0
 11
199.7643467770857
 21
274.0780880974031
 31
0.0
  0
ARC
  5
6A1
330
1F
100
AcDbEntity
  8
Plastico
370
    20
100
AcDbCircle
 10
200.2643467770843
 20
274.0780880974031
 30
0.0
 40
0.5
100
AcDbArc
 50
180.0
 51
270.0
  0
LINE
  5
6A2
330
1F
100
AcDbEntity
  8
Plastico
370
    20
100
AcDbLine
 10
208.1393467770865
 20
275.5780880974026
 30
0.0
 11
207.2893467770865
 21
275.5780880974026
 31
0.0
  0
LINE
  5
6A3
330
1F
100
AcDbEntity
  8
Plastico
370
    20
100
AcDbLine
 10
208.1393467770865
 20
274.0780880974031
 30
0.0
 11
207.2893467770865
 21
274.0780880974031
 31
0.0
  0
LINE
  5
6A4
330
1F
100
AcDbEntity
  8
Plastico
370
    20
100
AcDbLine
 10
209.8393467770865
 20
274.0780880974031
 30
0.0
 11
208.9893467770865
 21
274.0780880974031
 31
0.0
  0
LINE
  5
6A5
330
1F
100
AcDbEntity
  8
Plastico
370
    20
100
AcDbLine
 10
209.8393467770865
 20
275.5780880974026
 30
0.0
 11
208.9893467770865
 21
275.5780880974026
 31
0.0
  0
LINE
  5
6A6
330
1F
100
AcDbEntity
  8
Plastico
370
    20
100
AcDbLine
 10
211.5393467770863
 20
275.5780880974026
 30
0.0
 11
210.6893467770863
 21
275.5780880974026
 31
0.0
  0
LINE
  5
6A7
330
1F
100
AcDbEntity
  8
Plastico
370
    20
100
AcDbLine
 10
211.5393467770863
 20
274.0780880974031
 30
0.0
 11
210.6893467770863
 21
274.0780880974031
 31
0.0
  0
LINE
  5
6A8
330
1F
100
AcDbEntity
  8
Plastico
370
    20
100
AcDbLine
 10
213.2393467770863
 20
274.0780880974031
 30
0.0
 11
212.3893467770863
 21
274.0780880974031
 31
0.0
  0
LINE
  5
6A9
330
1F
100
AcDbEntity
  8
Plastico
370
    20
100
AcDbLine
 10
213.2393467770863
 20
275.5780880974026
 30
0.0
 11
212.3893467770863
 21
275.5780880974026
 31
0.0
  0
LINE
  5
6AA
330
1F
100
AcDbEntity
  8
Plastico
370
    20
100
AcDbLine
 10
214.1643467770875
 20
275.5780880974025
 30
0.0
 11
215.4643467770858
 21
275.5780880974025
 31
0.0
  0
LINE
  5
6AB
330
1F
100
AcDbEntity
  8
Plastico
370
    20
100
AcDbLine
 10
214.1643467770875
 20
274.0780880974031
 30
0.0
 11
215.4643467770859
 21
274.0780880974031
 31
0.0
  0
LINE
  5
6AC
330
1F
100
AcDbEntity
  8
Plastico
370
    20
100
AcDbLine
 10
207.2893467770864
 20
281.7780880973988
 30
0.0
 11
202.0719681460498
 21
281.7780880973988
 31
0.0
  0
ARC
  5
6AD
330
1F
100
AcDbEntity
  8
Plastico
370
    20
100
AcDbCircle
 10
202.6643467770861
 20
287.3780880974019
 30
0.0
 40
0.5
100
AcDbArc
 50
90.0
 51
180.0
  0
LINE
  5
6AE
330
1F
100
AcDbEntity
  8
Plastico
370
    20
100
AcDbLine
 10
203.5643467770861
 20
287.8780880974026
 30
0.0
 11
200.3621713047056
 21
287.8780880974026
 31
0.0
  0
ARC
  5
6AF
330
1F
100
AcDbEntity
  8
Plastico
370
    20
100
AcDbCircle
 10
200.3621713047056
 20
287.3780880974026
 30
0.0
 40
0.5
100
AcDbArc
 50
90.0
 51
178.9999999999982
  0
ARC
  5
6B0
330
1F
100
AcDbEntity
  8
Plastico
370
    20
100
AcDbCircle
 10
205.8643467770858
 20
287.3780880974019
 30
0.0
 40
0.5
100
AcDbArc
 50
0.0
 51
90.0
  0
LINE
  5
6B1
330
1F
100
AcDbEntity
  8
Plastico
370
    20
100
AcDbLine
 10
202.6643467770861
 20
287.8780880974019
 30
0.0
 11
205.8643467770858
 21
287.8780880974019
 31
0.0
  0
LINE
  5
6B2
330
1F
100
AcDbEntity
  8
Plastico
370
    20
100
AcDbLine
 10
205.67196814605
 20
287.8780880974026
 30
0.0
 11
200.5643467770859
 21
287.8780880974028
 31
0.0
  0
LINE
  5
6B3
330
1F
100
AcDbEntity
  8
Plastico
370
    20
100
AcDbLine
 10
202.164346777086
 20
281.978088097403
 30
0.0
 11
206.3643467770858
 21
281.978088097403
 31
0.0
  0
ARC
  5
6B4
330
1F
100
AcDbEntity
  8
Plastico
370
    20
100
AcDbCircle
 10
202.664346777086
 20
284.478088097403
 30
0.0
 40
0.5
100
AcDbArc
 50
180.0
 51
270.0
  0
ARC
  5
6B5
330
1F
100
AcDbEntity
  8
Plastico
370
    20
100
AcDbCircle
 10
205.8643467770858
 20
284.478088097403
 30
0.0
 40
0.5
100
AcDbArc
 50
270.0
 51
0.0
  0
LINE
  5
6B6
330
1F
100
AcDbEntity
  8
Plastico
370
    20
100
AcDbLine
 10
205.8643467770858
 20
283.978088097403
 30
0.0
 11
202.664346777086
 21
283.978088097403
 31
0.0
  0
LINE
  5
6B7
330
1F
100
AcDbEntity
  8
Plastico
370
    20
100
AcDbLine
 10
202.0719681460498
 20
281.7780880973988
 30
0.0
 11
199.7643467770857
 21
281.7780880973988
 31
0.0
  0
LINE
  5
6B8
330
1F
100
AcDbEntity
  8
Plastico
370
    20
100
AcDbLine
 10
199.7643467770857
 20
281.7780880973988
 30
0.0
 11
199.8622474571274
 21
287.3868143006212
 31
0.0
  0
LINE
  5
6B9
330
1F
100
AcDbEntity
  8
Plastico
370
    20
100
AcDbLine
 10
202.1643467770859
 20
281.7780880973989
 30
0.0
 11
202.1643467770861
 21
287.3780880974019
 31
0.0
  0
LINE
  5
6BA
330
1F
100
AcDbEntity
  8
Plastico
370
    20
100
AcDbLine
 10
206.3643467770858
 20
281.7780880973989
 30
0.0
 11
206.3643467770858
 21
287.3780880974019
 31
0.0
  0
LINE
  5
6BB
330
1F
100
AcDbEntity
  8
Plastico
370
    20
100
AcDbLine
 10
208.1393467770865
 20
283.2780880973989
 30
0.0
 11
207.2893467770865
 21
283.2780880973989
 31
0.0
  0
LINE
  5
6BC
330
1F
100
AcDbEntity
  8
Plastico
370
    20
100
AcDbLine
 10
212.3893467770865
 20
283.2780880973989
 30
0.0
 11
213.2393467770866
 21
283.2780880973989
 31
0.0
  0
LINE
  5
6BD
330
1F
100
AcDbEntity
  8
Plastico
370
    20
100
AcDbLine
 10
210.6893467770865
 20
283.2780880973989
 30
0.0
 11
211.5393467770867
 21
283.2780880973989
 31
0.0
  0
LINE
  5
6BE
330
1F
100
AcDbEntity
  8
Plastico
370
    20
100
AcDbLine
 10
208.9893467770866
 20
283.2780880973989
 30
0.0
 11
209.8393467770866
 21
283.2780880973989
 31
0.0
  0
LINE
  5
6BF
330
1F
100
AcDbEntity
  8
Plastico
370
    20
100
AcDbLine
 10
213.2393467770866
 20
283.2780880973989
 30
0.0
 11
213.2393467770866
 21
281.7780880973988
 31
0.0
  0
LINE
  5
6C0
330
1F
100
AcDbEntity
  8
Plastico
370
    20
100
AcDbLine
 10
212.3893467770865
 20
283.2780880973989
 30
0.0
 11
212.3893467770865
 21
281.7780880973988
 31
0.0
  0
LINE
  5
6C1
330
1F
100
AcDbEntity
  8
Plastico
370
    20
100
AcDbLine
 10
211.5393467770867
 20
283.2780880973989
 30
0.0
 11
211.5393467770865
 21
281.7780880973988
 31
0.0
  0
LINE
  5
6C2
330
1F
100
AcDbEntity
  8
Plastico
370
    20
100
AcDbLine
 10
210.6893467770865
 20
283.2780880973989
 30
0.0
 11
210.6893467770865
 21
281.7780880973988
 31
0.0
  0
LINE
  5
6C3
330
1F
100
AcDbEntity
  8
Plastico
370
    20
100
AcDbLine
 10
209.8393467770866
 20
283.2780880973989
 30
0.0
 11
209.8393467770866
 21
281.7780880973988
 31
0.0
  0
LINE
  5
6C4
330
1F
100
AcDbEntity
  8
Plastico
370
    20
100
AcDbLine
 10
208.9893467770866
 20
283.2780880973989
 30
0.0
 11
208.9893467770866
 21
281.7780880973988
 31
0.0
  0
LINE
  5
6C5
330
1F
100
AcDbEntity
  8
Plastico
370
    20
100
AcDbLine
 10
207.2893467770865
 20
283.2780880973989
 30
0.0
 11
207.2893467770865
 21
281.7780880973988
 31
0.0
  0
LINE
  5
6C6
330
1F
100
AcDbEntity
  8
Plastico
370
    20
100
AcDbLine
 10
208.1393467770865
 20
283.2780880973989
 30
0.0
 11
208.1393467770865
 21
281.7780880973988
 31
0.0
  0
LINE
  5
6C7
330
1F
100
AcDbEntity
  8
Plastico
370
    20
100
AcDbLine
 10
216.2643467770859
 20
281.7780880973989
 30
0.0
 11
216.2643467770861
 21
287.3780880974019
 31
0.0
  0
LINE
  5
6C8
330
1F
100
AcDbEntity
  8
Plastico
370
    20
100
AcDbLine
 10
214.1643467770875
 20
281.7780880973989
 30
0.0
 11
213.2393467770863
 21
281.7780880973989
 31
0.0
  0
LINE
  5
6C9
330
1F
100
AcDbEntity
  8
Plastico
370
    20
100
AcDbLine
 10
212.3893467770863
 20
281.7780880973989
 30
0.0
 11
211.5393467770863
 21
281.7780880973989
 31
0.0
  0
LINE
  5
6CA
330
1F
100
AcDbEntity
  8
Plastico
370
    20
100
AcDbLine
 10
210.6893467770862
 20
281.7780880973988
 30
0.0
 11
209.8393467770865
 21
281.7780880973988
 31
0.0
  0
LINE
  5
6CB
330
1F
100
AcDbEntity
  8
Plastico
370
    20
100
AcDbLine
 10
208.9893467770866
 20
281.7780880973988
 30
0.0
 11
208.1393467770865
 21
281.7780880973988
 31
0.0
  0
LINE
  5
6CC
330
1F
100
AcDbEntity
  8
Plastico
370
    20
100
AcDbLine
 10
215.4399096861862
 20
283.178088097399
 30
0.0
 11
214.1922748809728
 21
283.178088097399
 31
0.0
  0
LINE
  5
6CD
330
1F
100
AcDbEntity
  8
Plastico
370
    20
100
AcDbLine
 10
214.1643467770875
 20
281.7780880973989
 30
0.0
 11
213.2393467770863
 21
281.7780880973988
 31
0.0
  0
LINE
  5
6CE
330
1F
100
AcDbEntity
  8
Plastico
370
    20
100
AcDbLine
 10
212.3893467770863
 20
281.7780880973988
 30
0.0
 11
211.5393467770863
 21
281.7780880973988
 31
0.0
  0
LINE
  5
6CF
330
1F
100
AcDbEntity
  8
Plastico
370
    20
100
AcDbLine
 10
210.6893467770863
 20
281.7780880973988
 30
0.0
 11
209.8393467770865
 21
281.7780880973988
 31
0.0
  0
LINE
  5
6D0
330
1F
100
AcDbEntity
  8
Plastico
370
    20
100
AcDbLine
 10
208.9893467770863
 20
281.7780880973988
 30
0.0
 11
208.1393467770865
 21
281.7780880973989
 31
0.0
  0
LINE
  5
6D1
330
1F
100
AcDbEntity
  8
Plastico
370
    20
100
AcDbLine
 10
215.4399096861863
 20
283.1780880973989
 30
0.0
 11
215.4643467770858
 21
281.7780880973988
 31
0.0
  0
ARC
  5
6D2
330
1F
100
AcDbEntity
  8
Plastico
370
    20
100
AcDbCircle
 10
214.4621713047055
 20
287.3780880974026
 30
0.0
 40
0.5
100
AcDbArc
 50
90.0
 51
179.0000000000047
  0
LINE
  5
6D3
330
1F
100
AcDbEntity
  8
Plastico
370
    20
100
AcDbLine
 10
213.8643467770855
 20
281.7780880973988
 30
0.0
 11
213.9622474571272
 21
287.3868143006212
 31
0.0
  0
LINE
  5
6D4
330
1F
100
AcDbEntity
  8
Plastico
370
    20
100
AcDbLine
 10
252.2893467770865
 20
281.7780880973988
 30
0.0
 11
252.2893467770865
 21
274.0780880974031
 31
0.0
  0
LINE
  5
6D5
330
1F
100
AcDbEntity
  8
Plastico
370
    20
100
AcDbLine
 10
253.1393467770866
 20
281.7780880973988
 30
0.0
 11
253.1393467770866
 21
274.0780880974031
 31
0.0
  0
LINE
  5
6D6
330
1F
100
AcDbEntity
  8
Plastico
370
    20
100
AcDbLine
 10
254.8393467770865
 20
281.7780880973988
 30
0.0
 11
254.8393467770865
 21
274.0780880974031
 31
0.0
  0
LINE
  5
6D7
330
1F
100
AcDbEntity
  8
Plastico
370
    20
100
AcDbLine
 10
253.9893467770865
 20
281.7780880973988
 30
0.0
 11
253.9893467770865
 21
274.0780880974031
 31
0.0
  0
LINE
  5
6D8
330
1F
100
AcDbEntity
  8
Plastico
370
    20
100
AcDbLine
 10
228.2643467770875
 20
281.7780880973988
 30
0.0
 11
228.2643467770875
 21
274.0780880974031
 31
0.0
  0
LINE
  5
6D9
330
1F
100
AcDbEntity
  8
Plastico
370
    20
100
AcDbLine
 10
227.3393467770864
 20
281.7780880973988
 30
0.0
 11
227.3393467770864
 21
274.0780880974031
 31
0.0
  0
LINE
  5
6DA
330
1F
100
AcDbEntity
  8
Plastico
370
    20
100
AcDbLine
 10
226.4893467770864
 20
281.7780880973988
 30
0.0
 11
226.4893467770864
 21
274.0780880974031
 31
0.0
  0
LINE
  5
6DB
330
1F
100
AcDbEntity
  8
Plastico
370
    20
100
AcDbLine
 10
225.6393467770863
 20
281.7780880973988
 30
0.0
 11
225.6393467770863
 21
274.0780880974031
 31
0.0
  0
LINE
  5
6DC
330
1F
100
AcDbEntity
  8
Plastico
370
    20
100
AcDbLine
 10
224.7893467770863
 20
281.7780880973988
 30
0.0
 11
224.7893467770863
 21
274.0780880974031
 31
0.0
  0
LINE
  5
6DD
330
1F
100
AcDbEntity
  8
Plastico
370
    20
100
AcDbLine
 10
229.5643467770858
 20
281.7780880973988
 30
0.0
 11
229.5643467770858
 21
274.0780880974031
 31
0.0
  0
LINE
  5
6DE
330
1F
100
AcDbEntity
  8
Plastico
370
    20
100
AcDbLine
 10
221.3893467770866
 20
281.7780880973988
 30
0.0
 11
221.3893467770866
 21
274.0780880974031
 31
0.0
  0
LINE
  5
6DF
330
1F
100
AcDbEntity
  8
Plastico
370
    20
100
AcDbLine
 10
223.9393467770865
 20
281.7780880973988
 30
0.0
 11
223.9393467770865
 21
274.0780880974031
 31
0.0
  0
LINE
  5
6E0
330
1F
100
AcDbEntity
  8
Plastico
370
    20
100
AcDbLine
 10
223.0893467770865
 20
281.7780880973988
 30
0.0
 11
223.0893467770865
 21
274.0780880974031
 31
0.0
  0
LINE
  5
6E1
330
1F
100
AcDbEntity
  8
Plastico
370
    20
100
AcDbLine
 10
222.2393467770866
 20
281.7780880973988
 30
0.0
 11
222.2393467770866
 21
274.0780880974031
 31
0.0
  0
LINE
  5
6E2
330
1F
100
AcDbEntity
  8
Plastico
370
    20
100
AcDbLine
 10
225.6393467770863
 20
274.0780880974031
 30
0.0
 11
224.7893467770863
 21
274.0780880974031
 31
0.0
  0
LINE
  5
6E3
330
1F
100
AcDbEntity
  8
Plastico
370
    20
100
AcDbLine
 10
225.6393467770863
 20
275.5780880974026
 30
0.0
 11
224.7893467770863
 21
275.5780880974026
 31
0.0
  0
LINE
  5
6E4
330
1F
100
AcDbEntity
  8
Plastico
370
    20
100
AcDbLine
 10
222.2393467770866
 20
274.0780880974031
 30
0.0
 11
221.3893467770866
 21
274.0780880974031
 31
0.0
  0
LINE
  5
6E5
330
1F
100
AcDbEntity
  8
Plastico
370
    20
100
AcDbLine
 10
222.2393467770866
 20
275.5780880974026
 30
0.0
 11
221.3893467770866
 21
275.5780880974026
 31
0.0
  0
LINE
  5
6E6
330
1F
100
AcDbEntity
  8
Plastico
370
    20
100
AcDbLine
 10
223.9393467770865
 20
275.5780880974026
 30
0.0
 11
223.0893467770865
 21
275.5780880974026
 31
0.0
  0
LINE
  5
6E7
330
1F
100
AcDbEntity
  8
Plastico
370
    20
100
AcDbLine
 10
223.9393467770865
 20
274.0780880974031
 30
0.0
 11
223.0893467770865
 21
274.0780880974031
 31
0.0
  0
LINE
  5
6E8
330
1F
100
AcDbEntity
  8
Plastico
370
    20
100
AcDbLine
 10
228.2643467770875
 20
274.0780880974031
 30
0.0
 11
229.5643467770859
 21
274.0780880974031
 31
0.0
  0
LINE
  5
6E9
330
1F
100
AcDbEntity
  8
Plastico
370
    20
100
AcDbLine
 10
228.2643467770875
 20
275.5780880974025
 30
0.0
 11
229.5643467770858
 21
275.5780880974025
 31
0.0
  0
LINE
  5
6EA
330
1F
100
AcDbEntity
  8
Plastico
370
    20
100
AcDbLine
 10
227.3393467770864
 20
275.5780880974026
 30
0.0
 11
226.4893467770864
 21
275.5780880974026
 31
0.0
  0
LINE
  5
6EB
330
1F
100
AcDbEntity
  8
Plastico
370
    20
100
AcDbLine
 10
227.3393467770864
 20
274.0780880974031
 30
0.0
 11
226.4893467770864
 21
274.0780880974031
 31
0.0
  0
LINE
  5
6EC
330
1F
100
AcDbEntity
  8
Plastico
370
    20
100
AcDbLine
 10
253.1393467770866
 20
274.0780880974031
 30
0.0
 11
252.2893467770865
 21
274.0780880974031
 31
0.0
  0
LINE
  5
6ED
330
1F
100
AcDbEntity
  8
Plastico
370
    20
100
AcDbLine
 10
253.1393467770866
 20
275.5780880974026
 30
0.0
 11
252.2893467770865
 21
275.5780880974026
 31
0.0
  0
LINE
  5
6EE
330
1F
100
AcDbEntity
  8
Plastico
370
    20
100
AcDbLine
 10
254.8393467770865
 20
274.0780880974031
 30
0.0
 11
253.9893467770865
 21
274.0780880974031
 31
0.0
  0
LINE
  5
6EF
330
1F
100
AcDbEntity
  8
Plastico
370
    20
100
AcDbLine
 10
254.8393467770865
 20
275.5780880974026
 30
0.0
 11
253.9893467770865
 21
275.5780880974026
 31
0.0
  0
LINE
  5
6F0
330
1F
100
AcDbEntity
  8
Plastico
370
    20
100
AcDbLine
 10
226.4893467770867
 20
281.7780880973989
 30
0.0
 11
225.6393467770866
 21
281.7780880973988
 31
0.0
  0
LINE
  5
6F1
330
1F
100
AcDbEntity
  8
Plastico
370
    20
100
AcDbLine
 10
226.4893467770864
 20
281.7780880973988
 30
0.0
 11
225.6393467770863
 21
281.7780880973988
 31
0.0
  0
LINE
  5
6F2
330
1F
100
AcDbEntity
  8
Plastico
370
    20
100
AcDbLine
 10
224.7893467770865
 20
283.2780880973989
 30
0.0
 11
225.6393467770867
 21
283.2780880973989
 31
0.0
  0
LINE
  5
6F3
330
1F
100
AcDbEntity
  8
Plastico
370
    20
100
AcDbLine
 10
223.0893467770866
 20
283.2780880973989
 30
0.0
 11
223.9393467770866
 21
283.2780880973989
 31
0.0
  0
LINE
  5
6F4
330
1F
100
AcDbEntity
  8
Plastico
370
    20
100
AcDbLine
 10
221.3893467770866
 20
283.2780880973989
 30
0.0
 11
222.2393467770866
 21
283.2780880973989
 31
0.0
  0
LINE
  5
6F5
330
1F
100
AcDbEntity
  8
Plastico
370
    20
100
AcDbLine
 10
225.6393467770867
 20
283.2780880973989
 30
0.0
 11
225.6393467770866
 21
281.7780880973988
 31
0.0
  0
LINE
  5
6F6
330
1F
100
AcDbEntity
  8
Plastico
370
    20
100
AcDbLine
 10
224.7893467770865
 20
283.2780880973989
 30
0.0
 11
224.7893467770865
 21
281.7780880973988
 31
0.0
  0
LINE
  5
6F7
330
1F
100
AcDbEntity
  8
Plastico
370
    20
100
AcDbLine
 10
223.9393467770866
 20
283.2780880973989
 30
0.0
 11
223.9393467770866
 21
281.7780880973988
 31
0.0
  0
LINE
  5
6F8
330
1F
100
AcDbEntity
  8
Plastico
370
    20
100
AcDbLine
 10
223.0893467770866
 20
283.2780880973989
 30
0.0
 11
223.0893467770866
 21
281.7780880973988
 31
0.0
  0
LINE
  5
6F9
330
1F
100
AcDbEntity
  8
Plastico
370
    20
100
AcDbLine
 10
222.2393467770866
 20
283.2780880973989
 30
0.0
 11
222.2393467770866
 21
281.7780880973988
 31
0.0
  0
LINE
  5
6FA
330
1F
100
AcDbEntity
  8
Plastico
370
    20
100
AcDbLine
 10
221.3893467770866
 20
283.2780880973989
 30
0.0
 11
221.3893467770866
 21
281.7780880973988
 31
0.0
  0
LINE
  5
6FB
330
1F
100
AcDbEntity
  8
Plastico
370
    20
100
AcDbLine
 10
216.7643467770861
 20
287.8780880974019
 30
0.0
 11
219.9643467770858
 21
287.8780880974019
 31
0.0
  0
ARC
  5
6FC
330
1F
100
AcDbEntity
  8
Plastico
370
    20
100
AcDbCircle
 10
219.9643467770858
 20
287.3780880974019
 30
0.0
 40
0.5
100
AcDbArc
 50
0.0
 51
90.0
  0
LINE
  5
6FD
330
1F
100
AcDbEntity
  8
Plastico
370
    20
100
AcDbLine
 10
223.0893467770866
 20
281.7780880973988
 30
0.0
 11
222.2393467770866
 21
281.7780880973988
 31
0.0
  0
LINE
  5
6FE
330
1F
100
AcDbEntity
  8
Plastico
370
    20
100
AcDbLine
 10
223.0893467770864
 20
281.7780880973988
 30
0.0
 11
222.2393467770866
 21
281.7780880973989
 31
0.0
  0
LINE
  5
6FF
330
1F
100
AcDbEntity
  8
Plastico
370
    20
100
AcDbLine
 10
219.9643467770858
 20
283.978088097403
 30
0.0
 11
216.764346777086
 21
283.978088097403
 31
0.0
  0
ARC
  5
700
330
1F
100
AcDbEntity
  8
Plastico
370
    20
100
AcDbCircle
 10
219.9643467770858
 20
284.478088097403
 30
0.0
 40
0.5
100
AcDbArc
 50
270.0
 51
0.0
  0
LINE
  5
701
330
1F
100
AcDbEntity
  8
Plastico
370
    20
100
AcDbLine
 10
220.4643467770858
 20
281.7780880973989
 30
0.0
 11
220.4643467770858
 21
287.3780880974019
 31
0.0
  0
LINE
  5
702
330
1F
100
AcDbEntity
  8
Plastico
370
    20
100
AcDbLine
 10
224.7893467770865
 20
281.7780880973988
 30
0.0
 11
223.9393467770868
 21
281.7780880973988
 31
0.0
  0
LINE
  5
703
330
1F
100
AcDbEntity
  8
Plastico
370
    20
100
AcDbLine
 10
224.7893467770863
 20
281.7780880973988
 30
0.0
 11
223.9393467770865
 21
281.7780880973988
 31
0.0
  0
LINE
  5
704
330
1F
100
AcDbEntity
  8
Plastico
370
    20
100
AcDbLine
 10
226.4893467770866
 20
283.2780880973989
 30
0.0
 11
227.3393467770866
 21
283.2780880973989
 31
0.0
  0
LINE
  5
705
330
1F
100
AcDbEntity
  8
Plastico
370
    20
100
AcDbLine
 10
227.3393467770866
 20
283.2780880973989
 30
0.0
 11
227.3393467770866
 21
281.7780880973988
 31
0.0
  0
LINE
  5
706
330
1F
100
AcDbEntity
  8
Plastico
370
    20
100
AcDbLine
 10
226.4893467770866
 20
283.2780880973989
 30
0.0
 11
226.4893467770866
 21
281.7780880973988
 31
0.0
  0
ARC
  5
707
330
1F
100
AcDbEntity
  8
Plastico
370
    20
100
AcDbCircle
 10
234.0643467770858
 20
287.3780880974019
 30
0.0
 40
0.5
100
AcDbArc
 50
0.0
 51
90.0
  0
ARC
  5
708
330
1F
100
AcDbEntity
  8
Plastico
370
    20
100
AcDbCircle
 10
234.0643467770858
 20
284.478088097403
 30
0.0
 40
0.5
100
AcDbArc
 50
270.0
 51
0.0
  0
LINE
  5
709
330
1F
100
AcDbEntity
  8
Plastico
370
    20
100
AcDbLine
 10
234.5643467770858
 20
281.7780880973989
 30
0.0
 11
234.5643467770858
 21
287.3780880974019
 31
0.0
  0
ARC
  5
70A
330
1F
100
AcDbEntity
  8
Plastico
370
    20
100
AcDbCircle
 10
230.8643467770861
 20
287.3780880974019
 30
0.0
 40
0.5
100
AcDbArc
 50
90.0
 51
180.0
  0
LINE
  5
70B
330
1F
100
AcDbEntity
  8
Plastico
370
    20
100
AcDbLine
 10
229.5399096861864
 20
283.178088097399
 30
0.0
 11
228.2922748809728
 21
283.178088097399
 31
0.0
  0
LINE
  5
70C
330
1F
100
AcDbEntity
  8
Plastico
370
    20
100
AcDbLine
 10
228.2643467770876
 20
281.7780880973989
 30
0.0
 11
227.3393467770864
 21
281.7780880973988
 31
0.0
  0
ARC
  5
70D
330
1F
100
AcDbEntity
  8
Plastico
370
    20
100
AcDbCircle
 10
230.864346777086
 20
284.478088097403
 30
0.0
 40
0.5
100
AcDbArc
 50
180.0
 51
270.0
  0
LINE
  5
70E
330
1F
100
AcDbEntity
  8
Plastico
370
    20
100
AcDbLine
 10
229.5399096861864
 20
283.1780880973989
 30
0.0
 11
229.5643467770858
 21
281.7780880973988
 31
0.0
  0
LINE
  5
70F
330
1F
100
AcDbEntity
  8
Plastico
370
    20
100
AcDbLine
 10
230.3643467770859
 20
281.7780880973989
 30
0.0
 11
230.3643467770861
 21
287.3780880974019
 31
0.0
  0
ARC
  5
710
330
1F
100
AcDbEntity
  8
Plastico
370
    20
100
AcDbCircle
 10
228.562171304706
 20
287.3780880974026
 30
0.0
 40
0.5
100
AcDbArc
 50
90.0
 51
179.0000000000047
  0
LINE
  5
711
330
1F
100
AcDbEntity
  8
Plastico
370
    20
100
AcDbLine
 10
227.964346777086
 20
281.7780880973988
 30
0.0
 11
228.0622474571278
 21
287.3868143006212
 31
0.0
  0
LINE
  5
712
330
1F
100
AcDbEntity
  8
Plastico
370
    20
100
AcDbLine
 10
231.7643467770861
 20
287.8780880974026
 30
0.0
 11
228.562171304706
 21
287.8780880974026
 31
0.0
  0
LINE
  5
713
330
1F
100
AcDbEntity
  8
Plastico
370
    20
100
AcDbLine
 10
230.8643467770861
 20
287.8780880974019
 30
0.0
 11
234.0643467770858
 21
287.8780880974019
 31
0.0
  0
LINE
  5
714
330
1F
100
AcDbEntity
  8
Plastico
370
    20
100
AcDbLine
 10
235.8143467770858
 20
281.778088097399
 30
0.0
 11
229.5643467770857
 21
281.7780880973989
 31
0.0
  0
LINE
  5
715
330
1F
100
AcDbEntity
  8
Plastico
370
    20
100
AcDbLine
 10
230.364346777086
 20
281.978088097403
 30
0.0
 11
234.5643467770858
 21
281.978088097403
 31
0.0
  0
LINE
  5
716
330
1F
100
AcDbEntity
  8
Plastico
370
    20
100
AcDbLine
 10
234.0643467770858
 20
283.978088097403
 30
0.0
 11
230.864346777086
 21
283.978088097403
 31
0.0
  0
LINE
  5
717
330
1F
100
AcDbEntity
  8
Plastico
370
    20
100
AcDbLine
 10
244.7905293744781
 20
283.278088097399
 30
0.0
 11
251.3643467770858
 21
283.278088097399
 31
0.0
  0
LINE
  5
718
330
1F
100
AcDbEntity
  8
Plastico
370
    20
100
AcDbLine
 10
248.5643467770861
 20
287.8780880974026
 30
0.0
 11
245.3621713047057
 21
287.8780880974026
 31
0.0
  0
LINE
  5
719
330
1F
100
AcDbEntity
  8
Plastico
370
    20
100
AcDbLine
 10
252.2893467770867
 20
281.7780880973989
 30
0.0
 11
243.5143467770858
 21
281.7780880973989
 31
0.0
  0
ARC
  5
71A
330
1F
100
AcDbEntity
  8
Plastico
370
    20
100
AcDbCircle
 10
245.3621713047057
 20
287.3780880974026
 30
0.0
 40
0.5
100
AcDbArc
 50
90.0
 51
179.0000000000047
  0
LINE
  5
71B
330
1F
100
AcDbEntity
  8
Plastico
370
    20
100
AcDbLine
 10
244.7643467770858
 20
281.7780880973988
 30
0.0
 11
244.8622474571275
 21
287.3868143006212
 31
0.0
  0
LINE
  5
71C
330
1F
100
AcDbEntity
  8
Plastico
370
    20
100
AcDbLine
 10
252.2893467770865
 20
283.2780880973989
 30
0.0
 11
253.1393467770867
 21
283.278088097399
 31
0.0
  0
LINE
  5
71D
330
1F
100
AcDbEntity
  8
Plastico
370
    20
100
AcDbLine
 10
253.9893467770866
 20
283.278088097399
 30
0.0
 11
254.8393467770866
 21
283.2780880973989
 31
0.0
  0
LINE
  5
71E
330
1F
100
AcDbEntity
  8
Plastico
370
    20
100
AcDbLine
 10
254.8393467770866
 20
283.2780880973989
 30
0.0
 11
254.8393467770866
 21
281.7780880973988
 31
0.0
  0
LINE
  5
71F
330
1F
100
AcDbEntity
  8
Plastico
370
    20
100
AcDbLine
 10
253.9893467770866
 20
283.2780880973989
 30
0.0
 11
253.9893467770866
 21
281.7780880973988
 31
0.0
  0
LINE
  5
720
330
1F
100
AcDbEntity
  8
Plastico
370
    20
100
AcDbLine
 10
253.1393467770866
 20
283.2780880973989
 30
0.0
 11
253.1393467770866
 21
281.7780880973988
 31
0.0
  0
LINE
  5
721
330
1F
100
AcDbEntity
  8
Plastico
370
    20
100
AcDbLine
 10
252.2893467770865
 20
283.2780880973989
 30
0.0
 11
252.2893467770865
 21
281.7780880973988
 31
0.0
  0
ARC
  5
722
330
1F
100
AcDbEntity
  8
Plastico
370
    20
100
AcDbCircle
 10
250.8643467770858
 20
287.3780880974019
 30
0.0
 40
0.5
100
AcDbArc
 50
0.0
 51
90.0
  0
LINE
  5
723
330
1F
100
AcDbEntity
  8
Plastico
370
    20
100
AcDbLine
 10
253.9893467770863
 20
281.7780880973988
 30
0.0
 11
253.1393467770866
 21
281.7780880973989
 31
0.0
  0
ARC
  5
724
330
1F
100
AcDbEntity
  8
Plastico
370
    20
100
AcDbCircle
 10
250.8643467770858
 20
284.478088097403
 30
0.0
 40
0.5
100
AcDbArc
 50
270.0
 51
0.0
  0
LINE
  5
725
330
1F
100
AcDbEntity
  8
Plastico
370
    20
100
AcDbLine
 10
251.3643467770858
 20
281.7780880973989
 30
0.0
 11
251.3643467770858
 21
287.3780880974019
 31
0.0
  0
ARC
  5
726
330
1F
100
AcDbEntity
  8
Plastico
370
    20
100
AcDbCircle
 10
247.6643467770861
 20
287.3780880974019
 30
0.0
 40
0.5
100
AcDbArc
 50
90.0
 51
180.0
  0
LINE
  5
727
330
1F
100
AcDbEntity
  8
Plastico
370
    20
100
AcDbLine
 10
247.1643467770859
 20
281.7780880973989
 30
0.0
 11
247.1643467770861
 21
287.3780880974019
 31
0.0
  0
LINE
  5
728
330
1F
100
AcDbEntity
  8
Plastico
370
    20
100
AcDbLine
 10
247.6643467770861
 20
287.8780880974019
 30
0.0
 11
250.8643467770858
 21
287.8780880974019
 31
0.0
  0
LINE
  5
729
330
1F
100
AcDbEntity
  8
Plastico
370
    20
100
AcDbLine
 10
250.8643467770858
 20
283.978088097403
 30
0.0
 11
247.6643467770859
 21
283.978088097403
 31
0.0
  0
LINE
  5
72A
330
1F
100
AcDbEntity
  8
Plastico
370
    20
100
AcDbLine
 10
247.164346777086
 20
281.978088097403
 30
0.0
 11
251.3643467770858
 21
281.978088097403
 31
0.0
  0
LINE
  5
72B
330
1F
100
AcDbEntity
  8
Plastico
370
    20
100
AcDbLine
 10
321.7643467770863
 20
287.8780880974025
 30
0.0
 11
318.8621713047075
 21
287.8780880974025
 31
0.0
  0
LINE
  5
72C
330
1F
100
AcDbEntity
  8
Plastico
370
    20
100
AcDbLine
 10
324.5643467770859
 20
281.7780880973988
 30
0.0
 11
304.1643467770874
 21
281.7780880973988
 31
0.0
  0
LINE
  5
72D
330
1F
100
AcDbEntity
  8
Plastico
370
    20
100
AcDbLine
 10
295.8643467770857
 20
283.978088097403
 30
0.0
 11
292.6643467770859
 21
283.978088097403
 31
0.0
  0
LINE
  5
72E
330
1F
100
AcDbEntity
  8
Plastico
370
    20
100
AcDbLine
 10
297.2893467770866
 20
281.7780880973989
 30
0.0
 11
287.6643467770859
 21
281.7780880973988
 31
0.0
  0
LINE
  5
72F
330
1F
100
AcDbEntity
  8
Plastico
370
    20
100
AcDbLine
 10
292.1643467770859
 20
281.978088097403
 30
0.0
 11
296.3643467770857
 21
281.978088097403
 31
0.0
  0
LINE
  5
730
330
1F
100
AcDbEntity
  8
Plastico
370
    20
100
AcDbLine
 10
292.664346777086
 20
287.8780880974019
 30
0.0
 11
295.8643467770857
 21
287.8780880974019
 31
0.0
  0
LINE
  5
731
330
1F
100
AcDbEntity
  8
Plastico
370
    20
100
AcDbLine
 10
268.9393467770865
 20
281.7780880973988
 30
0.0
 11
268.9393467770865
 21
274.0780880974031
 31
0.0
  0
LINE
  5
732
330
1F
100
AcDbEntity
  8
Plastico
370
    20
100
AcDbLine
 10
269.7893467770863
 20
281.7780880973988
 30
0.0
 11
269.7893467770863
 21
274.0780880974031
 31
0.0
  0
LINE
  5
733
330
1F
100
AcDbEntity
  8
Plastico
370
    20
100
AcDbLine
 10
270.6393467770863
 20
281.7780880973988
 30
0.0
 11
270.6393467770863
 21
274.0780880974031
 31
0.0
  0
LINE
  5
734
330
1F
100
AcDbEntity
  8
Plastico
370
    20
100
AcDbLine
 10
271.4893467770863
 20
281.7780880973988
 30
0.0
 11
271.4893467770863
 21
274.0780880974031
 31
0.0
  0
LINE
  5
735
330
1F
100
AcDbEntity
  8
Plastico
370
    20
100
AcDbLine
 10
272.3393467770863
 20
281.7780880973988
 30
0.0
 11
272.3393467770863
 21
274.0780880974031
 31
0.0
  0
LINE
  5
736
330
1F
100
AcDbEntity
  8
Plastico
370
    20
100
AcDbLine
 10
273.2643467770874
 20
281.7780880973988
 30
0.0
 11
273.2643467770874
 21
274.0780880974031
 31
0.0
  0
LINE
  5
737
330
1F
100
AcDbEntity
  8
Plastico
370
    20
100
AcDbLine
 10
274.5643467770858
 20
281.7780880973988
 30
0.0
 11
274.5643467770858
 21
274.0780880974031
 31
0.0
  0
LINE
  5
738
330
1F
100
AcDbEntity
  8
Plastico
370
    20
100
AcDbLine
 10
260.4643467770858
 20
281.7780880973988
 30
0.0
 11
260.4643467770858
 21
274.0780880974031
 31
0.0
  0
LINE
  5
739
330
1F
100
AcDbEntity
  8
Plastico
370
    20
100
AcDbLine
 10
267.2393467770866
 20
281.7780880973988
 30
0.0
 11
267.2393467770866
 21
274.0780880974031
 31
0.0
  0
LINE
  5
73A
330
1F
100
AcDbEntity
  8
Plastico
370
    20
100
AcDbLine
 10
268.0893467770864
 20
281.7780880973988
 30
0.0
 11
268.0893467770864
 21
274.0780880974031
 31
0.0
  0
LINE
  5
73B
330
1F
100
AcDbEntity
  8
Plastico
370
    20
100
AcDbLine
 10
266.3893467770865
 20
281.7780880973988
 30
0.0
 11
266.3893467770865
 21
274.0780880974031
 31
0.0
  0
LINE
  5
73C
330
1F
100
AcDbEntity
  8
Plastico
370
    20
100
AcDbLine
 10
255.6893467770863
 20
281.7780880973988
 30
0.0
 11
255.6893467770863
 21
274.0780880974031
 31
0.0
  0
LINE
  5
73D
330
1F
100
AcDbEntity
  8
Plastico
370
    20
100
AcDbLine
 10
256.5393467770863
 20
281.7780880973988
 30
0.0
 11
256.5393467770863
 21
274.0780880974031
 31
0.0
  0
LINE
  5
73E
330
1F
100
AcDbEntity
  8
Plastico
370
    20
100
AcDbLine
 10
258.2393467770863
 20
281.7780880973988
 30
0.0
 11
258.2393467770863
 21
274.0780880974031
 31
0.0
  0
LINE
  5
73F
330
1F
100
AcDbEntity
  8
Plastico
370
    20
100
AcDbLine
 10
257.3893467770863
 20
281.7780880973988
 30
0.0
 11
257.3893467770863
 21
274.0780880974031
 31
0.0
  0
LINE
  5
740
330
1F
100
AcDbEntity
  8
Plastico
370
    20
100
AcDbLine
 10
259.1643467770874
 20
281.7780880973988
 30
0.0
 11
259.1643467770874
 21
274.0780880974031
 31
0.0
  0
LINE
  5
741
330
1F
100
AcDbEntity
  8
Plastico
370
    20
100
AcDbLine
 10
273.2643467770874
 20
275.5780880974025
 30
0.0
 11
274.5643467770858
 21
275.5780880974025
 31
0.0
  0
LINE
  5
742
330
1F
100
AcDbEntity
  8
Plastico
370
    20
100
AcDbLine
 10
273.2643467770874
 20
274.0780880974031
 30
0.0
 11
274.5643467770859
 21
274.0780880974031
 31
0.0
  0
LINE
  5
743
330
1F
100
AcDbEntity
  8
Plastico
370
    20
100
AcDbLine
 10
256.5393467770863
 20
275.5780880974026
 30
0.0
 11
255.6893467770863
 21
275.5780880974026
 31
0.0
  0
LINE
  5
744
330
1F
100
AcDbEntity
  8
Plastico
370
    20
100
AcDbLine
 10
256.5393467770863
 20
274.0780880974031
 30
0.0
 11
255.6893467770863
 21
274.0780880974031
 31
0.0
  0
LINE
  5
745
330
1F
100
AcDbEntity
  8
Plastico
370
    20
100
AcDbLine
 10
258.2393467770863
 20
274.0780880974031
 30
0.0
 11
257.3893467770863
 21
274.0780880974031
 31
0.0
  0
LINE
  5
746
330
1F
100
AcDbEntity
  8
Plastico
370
    20
100
AcDbLine
 10
258.2393467770863
 20
275.5780880974026
 30
0.0
 11
257.3893467770863
 21
275.5780880974026
 31
0.0
  0
LINE
  5
747
330
1F
100
AcDbEntity
  8
Plastico
370
    20
100
AcDbLine
 10
259.1643467770874
 20
275.5780880974025
 30
0.0
 11
260.4643467770858
 21
275.5780880974025
 31
0.0
  0
LINE
  5
748
330
1F
100
AcDbEntity
  8
Plastico
370
    20
100
AcDbLine
 10
259.1643467770874
 20
274.0780880974031
 30
0.0
 11
260.4643467770859
 21
274.0780880974031
 31
0.0
  0
LINE
  5
749
330
1F
100
AcDbEntity
  8
Plastico
370
    20
100
AcDbLine
 10
270.6393467770863
 20
275.5780880974026
 30
0.0
 11
269.7893467770863
 21
275.5780880974026
 31
0.0
  0
LINE
  5
74A
330
1F
100
AcDbEntity
  8
Plastico
370
    20
100
AcDbLine
 10
270.6393467770863
 20
274.0780880974031
 30
0.0
 11
269.7893467770863
 21
274.0780880974031
 31
0.0
  0
LINE
  5
74B
330
1F
100
AcDbEntity
  8
Plastico
370
    20
100
AcDbLine
 10
272.3393467770863
 20
274.0780880974031
 30
0.0
 11
271.4893467770863
 21
274.0780880974031
 31
0.0
  0
LINE
  5
74C
330
1F
100
AcDbEntity
  8
Plastico
370
    20
100
AcDbLine
 10
272.3393467770863
 20
275.5780880974026
 30
0.0
 11
271.4893467770863
 21
275.5780880974026
 31
0.0
  0
LINE
  5
74D
330
1F
100
AcDbEntity
  8
Plastico
370
    20
100
AcDbLine
 10
267.2393467770866
 20
275.5780880974026
 30
0.0
 11
266.3893467770865
 21
275.5780880974026
 31
0.0
  0
LINE
  5
74E
330
1F
100
AcDbEntity
  8
Plastico
370
    20
100
AcDbLine
 10
267.2393467770866
 20
274.0780880974031
 30
0.0
 11
266.3893467770865
 21
274.0780880974031
 31
0.0
  0
LINE
  5
74F
330
1F
100
AcDbEntity
  8
Plastico
370
    20
100
AcDbLine
 10
268.9393467770865
 20
274.0780880974031
 30
0.0
 11
268.0893467770864
 21
274.0780880974031
 31
0.0
  0
LINE
  5
750
330
1F
100
AcDbEntity
  8
Plastico
370
    20
100
AcDbLine
 10
268.9393467770865
 20
275.5780880974026
 30
0.0
 11
268.0893467770864
 21
275.5780880974026
 31
0.0
  0
LINE
  5
751
330
1F
100
AcDbEntity
  8
Plastico
370
    20
100
AcDbLine
 10
276.7643467770861
 20
287.8780880974026
 30
0.0
 11
273.5621713047059
 21
287.8780880974026
 31
0.0
  0
LINE
  5
752
330
1F
100
AcDbEntity
  8
Plastico
370
    20
100
AcDbLine
 10
261.7643467770861
 20
287.8780880974019
 30
0.0
 11
264.9643467770858
 21
287.8780880974019
 31
0.0
  0
LINE
  5
753
330
1F
100
AcDbEntity
  8
Plastico
370
    20
100
AcDbLine
 10
266.3893467770865
 20
281.7780880973989
 30
0.0
 11
260.4643467770858
 21
281.7780880973989
 31
0.0
  0
LINE
  5
754
330
1F
100
AcDbEntity
  8
Plastico
370
    20
100
AcDbLine
 10
261.264346777086
 20
281.978088097403
 30
0.0
 11
265.4643467770858
 21
281.978088097403
 31
0.0
  0
LINE
  5
755
330
1F
100
AcDbEntity
  8
Plastico
370
    20
100
AcDbLine
 10
264.9643467770858
 20
283.978088097403
 30
0.0
 11
261.7643467770859
 21
283.978088097403
 31
0.0
  0
LINE
  5
756
330
1F
100
AcDbEntity
  8
Plastico
370
    20
100
AcDbLine
 10
258.8905293744787
 20
283.2780880973989
 30
0.0
 11
260.4381641796934
 21
283.2780880973989
 31
0.0
  0
LINE
  5
757
330
1F
100
AcDbEntity
  8
Plastico
370
    20
100
AcDbLine
 10
260.4381641796934
 20
283.2780880973989
 30
0.0
 11
260.4643467770858
 21
281.7780880973988
 31
0.0
  0
LINE
  5
758
330
1F
100
AcDbEntity
  8
Plastico
370
    20
100
AcDbLine
 10
255.6893467770865
 20
283.2780880973989
 30
0.0
 11
256.5393467770865
 21
283.2780880973989
 31
0.0
  0
LINE
  5
759
330
1F
100
AcDbEntity
  8
Plastico
370
    20
100
AcDbLine
 10
257.3893467770865
 20
283.2780880973989
 30
0.0
 11
258.2393467770866
 21
283.2780880973989
 31
0.0
  0
LINE
  5
75A
330
1F
100
AcDbEntity
  8
Plastico
370
    20
100
AcDbLine
 10
258.2393467770866
 20
283.2780880973989
 30
0.0
 11
258.2393467770866
 21
281.7780880973988
 31
0.0
  0
LINE
  5
75B
330
1F
100
AcDbEntity
  8
Plastico
370
    20
100
AcDbLine
 10
257.3893467770865
 20
283.2780880973989
 30
0.0
 11
257.3893467770865
 21
281.7780880973988
 31
0.0
  0
LINE
  5
75C
330
1F
100
AcDbEntity
  8
Plastico
370
    20
100
AcDbLine
 10
256.5393467770866
 20
283.2780880973989
 30
0.0
 11
256.5393467770865
 21
281.7780880973988
 31
0.0
  0
LINE
  5
75D
330
1F
100
AcDbEntity
  8
Plastico
370
    20
100
AcDbLine
 10
255.6893467770865
 20
283.2780880973989
 30
0.0
 11
255.6893467770865
 21
281.7780880973988
 31
0.0
  0
ARC
  5
75E
330
1F
100
AcDbEntity
  8
Plastico
370
    20
100
AcDbCircle
 10
261.7643467770861
 20
287.3780880974019
 30
0.0
 40
0.5
100
AcDbArc
 50
90.0
 51
180.0
  0
ARC
  5
75F
330
1F
100
AcDbEntity
  8
Plastico
370
    20
100
AcDbCircle
 10
261.7643467770859
 20
284.478088097403
 30
0.0
 40
0.5
100
AcDbArc
 50
180.0
 51
270.0
  0
LINE
  5
760
330
1F
100
AcDbEntity
  8
Plastico
370
    20
100
AcDbLine
 10
261.2643467770858
 20
281.7780880973989
 30
0.0
 11
261.2643467770861
 21
287.3780880974019
 31
0.0
  0
LINE
  5
761
330
1F
100
AcDbEntity
  8
Plastico
370
    20
100
AcDbLine
 10
257.3893467770863
 20
281.7780880973988
 30
0.0
 11
256.5393467770863
 21
281.7780880973988
 31
0.0
  0
LINE
  5
762
330
1F
100
AcDbEntity
  8
Plastico
370
    20
100
AcDbLine
 10
259.1643467770875
 20
281.7780880973989
 30
0.0
 11
258.2393467770863
 21
281.7780880973988
 31
0.0
  0
ARC
  5
763
330
1F
100
AcDbEntity
  8
Plastico
370
    20
100
AcDbCircle
 10
259.4621713047062
 20
287.3780880974026
 30
0.0
 40
0.5
100
AcDbArc
 50
90.0
 51
179.0000000000047
  0
LINE
  5
764
330
1F
100
AcDbEntity
  8
Plastico
370
    20
100
AcDbLine
 10
258.8643467770863
 20
281.7780880973988
 30
0.0
 11
258.962247457128
 21
287.3868143006212
 31
0.0
  0
LINE
  5
765
330
1F
100
AcDbEntity
  8
Plastico
370
    20
100
AcDbLine
 10
262.6643467770861
 20
287.8780880974026
 30
0.0
 11
259.4621713047062
 21
287.8780880974026
 31
0.0
  0
LINE
  5
766
330
1F
100
AcDbEntity
  8
Plastico
370
    20
100
AcDbLine
 10
266.3893467770865
 20
283.2780880973987
 30
0.0
 11
267.2393467770866
 21
283.2780880973988
 31
0.0
  0
LINE
  5
767
330
1F
100
AcDbEntity
  8
Plastico
370
    20
100
AcDbLine
 10
268.0893467770866
 20
283.2780880973988
 30
0.0
 11
268.9393467770866
 21
283.2780880973989
 31
0.0
  0
LINE
  5
768
330
1F
100
AcDbEntity
  8
Plastico
370
    20
100
AcDbLine
 10
269.7893467770865
 20
283.2780880973989
 30
0.0
 11
270.6393467770866
 21
283.2780880973988
 31
0.0
  0
LINE
  5
769
330
1F
100
AcDbEntity
  8
Plastico
370
    20
100
AcDbLine
 10
271.4893467770866
 20
283.2780880973988
 30
0.0
 11
272.3393467770865
 21
283.2780880973988
 31
0.0
  0
LINE
  5
76A
330
1F
100
AcDbEntity
  8
Plastico
370
    20
100
AcDbLine
 10
272.3393467770866
 20
283.2780880973989
 30
0.0
 11
272.3393467770866
 21
281.7780880973988
 31
0.0
  0
LINE
  5
76B
330
1F
100
AcDbEntity
  8
Plastico
370
    20
100
AcDbLine
 10
271.4893467770866
 20
283.2780880973989
 30
0.0
 11
271.4893467770866
 21
281.7780880973988
 31
0.0
  0
LINE
  5
76C
330
1F
100
AcDbEntity
  8
Plastico
370
    20
100
AcDbLine
 10
270.6393467770866
 20
283.2780880973989
 30
0.0
 11
270.6393467770865
 21
281.7780880973988
 31
0.0
  0
LINE
  5
76D
330
1F
100
AcDbEntity
  8
Plastico
370
    20
100
AcDbLine
 10
269.7893467770865
 20
283.2780880973989
 30
0.0
 11
269.7893467770865
 21
281.7780880973988
 31
0.0
  0
LINE
  5
76E
330
1F
100
AcDbEntity
  8
Plastico
370
    20
100
AcDbLine
 10
268.9393467770866
 20
283.2780880973989
 30
0.0
 11
268.9393467770866
 21
281.7780880973988
 31
0.0
  0
LINE
  5
76F
330
1F
100
AcDbEntity
  8
Plastico
370
    20
100
AcDbLine
 10
268.0893467770866
 20
283.2780880973989
 30
0.0
 11
268.0893467770866
 21
281.7780880973988
 31
0.0
  0
LINE
  5
770
330
1F
100
AcDbEntity
  8
Plastico
370
    20
100
AcDbLine
 10
266.3893467770865
 20
283.2780880973989
 30
0.0
 11
266.3893467770865
 21
281.7780880973988
 31
0.0
  0
LINE
  5
771
330
1F
100
AcDbEntity
  8
Plastico
370
    20
100
AcDbLine
 10
267.2393467770866
 20
283.2780880973989
 30
0.0
 11
267.2393467770866
 21
281.7780880973988
 31
0.0
  0
LINE
  5
772
330
1F
100
AcDbEntity
  8
Plastico
370
    20
100
AcDbLine
 10
269.7893467770865
 20
281.7780880973988
 30
0.0
 11
268.9393467770866
 21
281.7780880973988
 31
0.0
  0
LINE
  5
773
330
1F
100
AcDbEntity
  8
Plastico
370
    20
100
AcDbLine
 10
271.4893467770866
 20
281.7780880973988
 30
0.0
 11
270.6393467770865
 21
281.7780880973988
 31
0.0
  0
LINE
  5
774
330
1F
100
AcDbEntity
  8
Plastico
370
    20
100
AcDbLine
 10
271.4893467770863
 20
281.7780880973988
 30
0.0
 11
270.6393467770863
 21
281.7780880973988
 31
0.0
  0
LINE
  5
775
330
1F
100
AcDbEntity
  8
Plastico
370
    20
100
AcDbLine
 10
269.7893467770863
 20
281.7780880973988
 30
0.0
 11
268.9393467770865
 21
281.7780880973988
 31
0.0
  0
LINE
  5
776
330
1F
100
AcDbEntity
  8
Plastico
370
    20
100
AcDbLine
 10
273.2643467770876
 20
281.7780880973989
 30
0.0
 11
272.3393467770863
 21
281.7780880973988
 31
0.0
  0
ARC
  5
777
330
1F
100
AcDbEntity
  8
Plastico
370
    20
100
AcDbCircle
 10
273.5621713047059
 20
287.3780880974026
 30
0.0
 40
0.5
100
AcDbArc
 50
90.0
 51
179.0000000000047
  0
LINE
  5
778
330
1F
100
AcDbEntity
  8
Plastico
370
    20
100
AcDbLine
 10
272.964346777086
 20
281.7780880973988
 30
0.0
 11
273.0622474571277
 21
287.3868143006212
 31
0.0
  0
ARC
  5
779
330
1F
100
AcDbEntity
  8
Plastico
370
    20
100
AcDbCircle
 10
264.9643467770858
 20
287.3780880974019
 30
0.0
 40
0.5
100
AcDbArc
 50
0.0
 51
90.0
  0
LINE
  5
77A
330
1F
100
AcDbEntity
  8
Plastico
370
    20
100
AcDbLine
 10
268.0893467770866
 20
281.7780880973988
 30
0.0
 11
267.2393467770866
 21
281.7780880973989
 31
0.0
  0
ARC
  5
77B
330
1F
100
AcDbEntity
  8
Plastico
370
    20
100
AcDbCircle
 10
264.9643467770858
 20
284.478088097403
 30
0.0
 40
0.5
100
AcDbArc
 50
270.0
 51
0.0
  0
LINE
  5
77C
330
1F
100
AcDbEntity
  8
Plastico
370
    20
100
AcDbLine
 10
268.0893467770864
 20
281.7780880973988
 30
0.0
 11
267.2393467770866
 21
281.7780880973989
 31
0.0
  0
LINE
  5
77D
330
1F
100
AcDbEntity
  8
Plastico
370
    20
100
AcDbLine
 10
265.4643467770858
 20
281.7780880973989
 30
0.0
 11
265.4643467770858
 21
287.3780880974019
 31
0.0
  0
LINE
  5
77E
330
1F
100
AcDbEntity
  8
Plastico
370
    20
100
AcDbLine
 10
274.5381641796935
 20
283.2780880973989
 30
0.0
 11
274.5643467770858
 21
281.7780880973988
 31
0.0
  0
ARC
  5
77F
330
1F
100
AcDbEntity
  8
Plastico
370
    20
100
AcDbCircle
 10
279.0643467770858
 20
287.3780880974019
 30
0.0
 40
0.5
100
AcDbArc
 50
0.0
 51
90.0
  0
ARC
  5
780
330
1F
100
AcDbEntity
  8
Plastico
370
    20
100
AcDbCircle
 10
279.0643467770858
 20
284.478088097403
 30
0.0
 40
0.5
100
AcDbArc
 50
270.0
 51
0.0
  0
LINE
  5
781
330
1F
100
AcDbEntity
  8
Plastico
370
    20
100
AcDbLine
 10
279.5643467770858
 20
281.7780880973989
 30
0.0
 11
279.5643467770858
 21
287.3780880974019
 31
0.0
  0
ARC
  5
782
330
1F
100
AcDbEntity
  8
Plastico
370
    20
100
AcDbCircle
 10
275.8643467770861
 20
287.3780880974019
 30
0.0
 40
0.5
100
AcDbArc
 50
90.0
 51
180.0
  0
ARC
  5
783
330
1F
100
AcDbEntity
  8
Plastico
370
    20
100
AcDbCircle
 10
275.864346777086
 20
284.478088097403
 30
0.0
 40
0.5
100
AcDbArc
 50
180.0
 51
270.0
  0
LINE
  5
784
330
1F
100
AcDbEntity
  8
Plastico
370
    20
100
AcDbLine
 10
275.3643467770859
 20
281.7780880973989
 30
0.0
 11
275.3643467770861
 21
287.3780880974019
 31
0.0
  0
LINE
  5
785
330
1F
100
AcDbEntity
  8
Plastico
370
    20
100
AcDbLine
 10
280.6643467770856
 20
281.7780880973998
 30
0.0
 11
274.5643467770857
 21
281.778088097399
 31
0.0
  0
LINE
  5
786
330
1F
100
AcDbEntity
  8
Plastico
370
    20
100
AcDbLine
 10
279.0643467770858
 20
283.978088097403
 30
0.0
 11
275.864346777086
 21
283.978088097403
 31
0.0
  0
LINE
  5
787
330
1F
100
AcDbEntity
  8
Plastico
370
    20
100
AcDbLine
 10
275.364346777086
 20
281.978088097403
 30
0.0
 11
279.5643467770858
 21
281.978088097403
 31
0.0
  0
LINE
  5
788
330
1F
100
AcDbEntity
  8
Plastico
370
    20
100
AcDbLine
 10
275.8643467770861
 20
287.8780880974019
 30
0.0
 11
279.0643467770858
 21
287.8780880974019
 31
0.0
  0
LINE
  5
789
330
1F
100
AcDbEntity
  8
Plastico
370
    20
100
AcDbLine
 10
292.1643467770858
 20
281.7780880973988
 30
0.0
 11
292.1643467770861
 21
287.3780880974019
 31
0.0
  0
ARC
  5
78A
330
1F
100
AcDbEntity
  8
Plastico
370
    20
100
AcDbCircle
 10
292.6643467770859
 20
284.478088097403
 30
0.0
 40
0.5
100
AcDbArc
 50
180.0
 51
270.0
  0
ARC
  5
78B
330
1F
100
AcDbEntity
  8
Plastico
370
    20
100
AcDbCircle
 10
292.664346777086
 20
287.3780880974019
 30
0.0
 40
0.5
100
AcDbArc
 50
90.0
 51
180.0
  0
ARC
  5
78C
330
1F
100
AcDbEntity
  8
Plastico
370
    20
100
AcDbCircle
 10
290.3621713047057
 20
287.3780880974026
 30
0.0
 40
0.5
100
AcDbArc
 50
90.0
 51
179.0000000000047
  0
LINE
  5
78D
330
1F
100
AcDbEntity
  8
Plastico
370
    20
100
AcDbLine
 10
289.7643467770858
 20
281.7780880973988
 30
0.0
 11
289.8622474571275
 21
287.3868143006212
 31
0.0
  0
LINE
  5
78E
330
1F
100
AcDbEntity
  8
Plastico
370
    20
100
AcDbLine
 10
293.564346777086
 20
287.8780880974026
 30
0.0
 11
290.3621713047057
 21
287.8780880974026
 31
0.0
  0
LINE
  5
798
330
1F
100
AcDbEntity
  8
Plastico
370
    20
100
AcDbLine
 10
304.1643467770874
 20
281.7780880973988
 30
0.0
 11
304.1643467770874
 21
274.0780880974031
 31
0.0
  0
LINE
  5
799
330
1F
100
AcDbEntity
  8
Plastico
370
    20
100
AcDbLine
 10
305.4643467770858
 20
281.7780880973988
 30
0.0
 11
305.4643467770858
 21
274.0780880974031
 31
0.0
  0
LINE
  5
79B
330
1F
100
AcDbEntity
  8
Plastico
370
    20
100
AcDbLine
 10
297.2893467770865
 20
281.7780880973988
 30
0.0
 11
297.2893467770865
 21
274.0780880974031
 31
0.0
  0
LINE
  5
79C
330
1F
100
AcDbEntity
  8
Plastico
370
    20
100
AcDbLine
 10
298.1393467770865
 20
281.7780880973988
 30
0.0
 11
298.1393467770865
 21
274.0780880974031
 31
0.0
  0
LINE
  5
79D
330
1F
100
AcDbEntity
  8
Plastico
370
    20
100
AcDbLine
 10
298.9893467770865
 20
281.7780880973988
 30
0.0
 11
298.9893467770865
 21
274.0780880974031
 31
0.0
  0
LINE
  5
79E
330
1F
100
AcDbEntity
  8
Plastico
370
    20
100
AcDbLine
 10
299.8393467770865
 20
281.7780880973988
 30
0.0
 11
299.8393467770865
 21
274.0780880974031
 31
0.0
  0
LINE
  5
79F
330
1F
100
AcDbEntity
  8
Plastico
370
    20
100
AcDbLine
 10
300.6893467770863
 20
281.7780880973988
 30
0.0
 11
300.6893467770863
 21
274.0780880974031
 31
0.0
  0
LINE
  5
7A0
330
1F
100
AcDbEntity
  8
Plastico
370
    20
100
AcDbLine
 10
301.5393467770863
 20
281.7780880973988
 30
0.0
 11
301.5393467770863
 21
274.0780880974031
 31
0.0
  0
LINE
  5
7A1
330
1F
100
AcDbEntity
  8
Plastico
370
    20
100
AcDbLine
 10
302.3893467770863
 20
281.7780880973988
 30
0.0
 11
302.3893467770863
 21
274.0780880974031
 31
0.0
  0
LINE
  5
7A2
330
1F
100
AcDbEntity
  8
Plastico
370
    20
100
AcDbLine
 10
303.2393467770863
 20
281.7780880973988
 30
0.0
 11
303.2393467770863
 21
274.0780880974031
 31
0.0
  0
LINE
  5
7A5
330
1F
100
AcDbEntity
  8
Plastico
370
    20
100
AcDbLine
 10
298.1393467770865
 20
275.5780880974026
 30
0.0
 11
297.2893467770865
 21
275.5780880974026
 31
0.0
  0
LINE
  5
7A6
330
1F
100
AcDbEntity
  8
Plastico
370
    20
100
AcDbLine
 10
298.1393467770865
 20
274.0780880974031
 30
0.0
 11
297.2893467770865
 21
274.0780880974031
 31
0.0
  0
LINE
  5
7A7
330
1F
100
AcDbEntity
  8
Plastico
370
    20
100
AcDbLine
 10
299.8393467770865
 20
274.0780880974031
 30
0.0
 11
298.9893467770865
 21
274.0780880974031
 31
0.0
  0
LINE
  5
7A8
330
1F
100
AcDbEntity
  8
Plastico
370
    20
100
AcDbLine
 10
299.8393467770865
 20
275.5780880974026
 30
0.0
 11
298.9893467770865
 21
275.5780880974026
 31
0.0
  0
LINE
  5
7A9
330
1F
100
AcDbEntity
  8
Plastico
370
    20
100
AcDbLine
 10
301.5393467770863
 20
275.5780880974026
 30
0.0
 11
300.6893467770863
 21
275.5780880974026
 31
0.0
  0
LINE
  5
7AA
330
1F
100
AcDbEntity
  8
Plastico
370
    20
100
AcDbLine
 10
301.5393467770863
 20
274.0780880974031
 30
0.0
 11
300.6893467770863
 21
274.0780880974031
 31
0.0
  0
LINE
  5
7AB
330
1F
100
AcDbEntity
  8
Plastico
370
    20
100
AcDbLine
 10
303.2393467770863
 20
274.0780880974031
 30
0.0
 11
302.3893467770863
 21
274.0780880974031
 31
0.0
  0
LINE
  5
7AC
330
1F
100
AcDbEntity
  8
Plastico
370
    20
100
AcDbLine
 10
303.2393467770863
 20
275.5780880974026
 30
0.0
 11
302.3893467770863
 21
275.5780880974026
 31
0.0
  0
LINE
  5
7AD
330
1F
100
AcDbEntity
  8
Plastico
370
    20
100
AcDbLine
 10
304.1643467770874
 20
275.5780880974025
 30
0.0
 11
305.4643467770858
 21
275.5780880974025
 31
0.0
  0
LINE
  5
7AE
330
1F
100
AcDbEntity
  8
Plastico
370
    20
100
AcDbLine
 10
304.1643467770874
 20
274.0780880974031
 30
0.0
 11
305.4643467770859
 21
274.0780880974031
 31
0.0
  0
LINE
  5
7B8
330
1F
100
AcDbEntity
  8
Plastico
370
    20
100
AcDbLine
 10
304.1643467770875
 20
281.7780880973989
 30
0.0
 11
303.2393467770863
 21
281.7780880973988
 31
0.0
  0
LINE
  5
7B9
330
1F
100
AcDbEntity
  8
Plastico
370
    20
100
AcDbLine
 10
297.2893467770866
 20
283.2780880973989
 30
0.0
 11
298.1393467770864
 21
283.2780880973989
 31
0.0
  0
LINE
  5
7BA
330
1F
100
AcDbEntity
  8
Plastico
370
    20
100
AcDbLine
 10
298.9893467770865
 20
283.2780880973989
 30
0.0
 11
299.8393467770866
 21
283.2780880973989
 31
0.0
  0
LINE
  5
7BB
330
1F
100
AcDbEntity
  8
Plastico
370
    20
100
AcDbLine
 10
300.6893467770865
 20
283.2780880973989
 30
0.0
 11
301.5393467770865
 21
283.2780880973989
 31
0.0
  0
LINE
  5
7BC
330
1F
100
AcDbEntity
  8
Plastico
370
    20
100
AcDbLine
 10
302.3893467770865
 20
283.2780880973989
 30
0.0
 11
303.2393467770867
 21
283.2780880973989
 31
0.0
  0
LINE
  5
7BD
330
1F
100
AcDbEntity
  8
Plastico
370
    20
100
AcDbLine
 10
303.2393467770865
 20
283.2780880973989
 30
0.0
 11
303.2393467770865
 21
281.7780880973988
 31
0.0
  0
LINE
  5
7BE
330
1F
100
AcDbEntity
  8
Plastico
370
    20
100
AcDbLine
 10
302.3893467770865
 20
283.2780880973989
 30
0.0
 11
302.3893467770865
 21
281.7780880973988
 31
0.0
  0
LINE
  5
7BF
330
1F
100
AcDbEntity
  8
Plastico
370
    20
100
AcDbLine
 10
301.5393467770866
 20
283.2780880973989
 30
0.0
 11
301.5393467770865
 21
281.7780880973988
 31
0.0
  0
LINE
  5
7C0
330
1F
100
AcDbEntity
  8
Plastico
370
    20
100
AcDbLine
 10
300.6893467770865
 20
283.2780880973989
 30
0.0
 11
300.6893467770865
 21
281.7780880973988
 31
0.0
  0
LINE
  5
7C1
330
1F
100
AcDbEntity
  8
Plastico
370
    20
100
AcDbLine
 10
299.8393467770866
 20
283.2780880973989
 30
0.0
 11
299.8393467770866
 21
281.7780880973988
 31
0.0
  0
LINE
  5
7C2
330
1F
100
AcDbEntity
  8
Plastico
370
    20
100
AcDbLine
 10
298.9893467770865
 20
283.2780880973989
 30
0.0
 11
298.9893467770865
 21
281.7780880973988
 31
0.0
  0
LINE
  5
7C3
330
1F
100
AcDbEntity
  8
Plastico
370
    20
100
AcDbLine
 10
298.1393467770865
 20
283.2780880973989
 30
0.0
 11
298.1393467770865
 21
281.7780880973988
 31
0.0
  0
LINE
  5
7C4
330
1F
100
AcDbEntity
  8
Plastico
370
    20
100
AcDbLine
 10
297.2893467770865
 20
283.2780880973989
 30
0.0
 11
297.2893467770865
 21
281.7780880973988
 31
0.0
  0
ARC
  5
7C5
330
1F
100
AcDbEntity
  8
Plastico
370
    20
100
AcDbCircle
 10
295.8643467770857
 20
287.3780880974019
 30
0.0
 40
0.5
100
AcDbArc
 50
0.0
 51
90.0
  0
ARC
  5
7C6
330
1F
100
AcDbEntity
  8
Plastico
370
    20
100
AcDbCircle
 10
295.8643467770857
 20
284.478088097403
 30
0.0
 40
0.5
100
AcDbArc
 50
270.0
 51
0.0
  0
LINE
  5
7C7
330
1F
100
AcDbEntity
  8
Plastico
370
    20
100
AcDbLine
 10
302.3893467770863
 20
281.7780880973988
 30
0.0
 11
301.5393467770863
 21
281.7780880973988
 31
0.0
  0
LINE
  5
7C8
330
1F
100
AcDbEntity
  8
Plastico
370
    20
100
AcDbLine
 10
300.6893467770863
 20
281.7780880973988
 30
0.0
 11
299.8393467770865
 21
281.7780880973988
 31
0.0
  0
LINE
  5
7C9
330
1F
100
AcDbEntity
  8
Plastico
370
    20
100
AcDbLine
 10
298.9893467770863
 20
281.7780880973988
 30
0.0
 11
298.1393467770865
 21
281.7780880973989
 31
0.0
  0
LINE
  5
7CA
330
1F
100
AcDbEntity
  8
Plastico
370
    20
100
AcDbLine
 10
296.3643467770857
 20
281.7780880973989
 30
0.0
 11
296.3643467770857
 21
287.3780880974019
 31
0.0
  0
LINE
  5
7D0
330
1F
100
AcDbEntity
  8
Plastico
370
    20
100
AcDbLine
 10
304.1905293744798
 20
283.2780880973989
 30
0.0
 11
310.4643467770858
 21
283.2780880973989
 31
0.0
  0
LINE
  5
7D2
330
1F
100
AcDbEntity
  8
Plastico
370
    20
100
AcDbLine
 10
305.4381641796934
 20
283.2780880973989
 30
0.0
 11
305.4643467770858
 21
281.7780880973988
 31
0.0
  0
LINE
  5
7D3
330
1F
100
AcDbEntity
  8
Plastico
370
    20
100
AcDbLine
 10
307.664346777086
 20
287.8780880974026
 30
0.0
 11
304.7621713047073
 21
287.8780880974026
 31
0.0
  0
ARC
  5
7D4
330
1F
100
AcDbEntity
  8
Plastico
370
    20
100
AcDbCircle
 10
304.7621713047073
 20
287.3780880974026
 30
0.0
 40
0.5
100
AcDbArc
 50
90.0
 51
178.9999999999982
  0
LINE
  5
7D5
330
1F
100
AcDbEntity
  8
Plastico
370
    20
100
AcDbLine
 10
306.7643467770861
 20
287.8780880974019
 30
0.0
 11
309.9643467770858
 21
287.8780880974019
 31
0.0
  0
ARC
  5
7D6
330
1F
100
AcDbEntity
  8
Plastico
370
    20
100
AcDbCircle
 10
309.9643467770858
 20
287.3780880974019
 30
0.0
 40
0.5
100
AcDbArc
 50
0.0
 51
90.0
  0
ARC
  5
7D7
330
1F
100
AcDbEntity
  8
Plastico
370
    20
100
AcDbCircle
 10
306.7643467770861
 20
287.3780880974019
 30
0.0
 40
0.5
100
AcDbArc
 50
90.0
 51
180.0
  0
LINE
  5
7D9
330
1F
100
AcDbEntity
  8
Plastico
370
    20
100
AcDbLine
 10
309.9643467770858
 20
283.978088097403
 30
0.0
 11
306.764346777086
 21
283.978088097403
 31
0.0
  0
ARC
  5
7DA
330
1F
100
AcDbEntity
  8
Plastico
370
    20
100
AcDbCircle
 10
306.764346777086
 20
284.478088097403
 30
0.0
 40
0.5
100
AcDbArc
 50
180.0
 51
270.0
  0
ARC
  5
7DB
330
1F
100
AcDbEntity
  8
Plastico
370
    20
100
AcDbCircle
 10
309.9643467770858
 20
284.478088097403
 30
0.0
 40
0.5
100
AcDbArc
 50
270.0
 51
0.0
  0
LINE
  5
7DC
330
1F
100
AcDbEntity
  8
Plastico
370
    20
100
AcDbLine
 10
306.264346777086
 20
281.978088097403
 30
0.0
 11
310.4643467770858
 21
281.978088097403
 31
0.0
  0
LINE
  5
7DD
330
1F
100
AcDbEntity
  8
Plastico
370
    20
100
AcDbLine
 10
310.4643467770858
 20
281.7780880973989
 30
0.0
 11
310.4643467770858
 21
287.3780880974019
 31
0.0
  0
LINE
  5
7DE
330
1F
100
AcDbEntity
  8
Plastico
370
    20
100
AcDbLine
 10
306.2643467770858
 20
281.7780880973989
 30
0.0
 11
306.2643467770861
 21
287.3780880974019
 31
0.0
  0
LINE
  5
7DF
330
1F
100
AcDbEntity
  8
Plastico
370
    20
100
AcDbLine
 10
304.1643467770874
 20
281.7780880973988
 30
0.0
 11
304.2622474571291
 21
287.3868143006212
 31
0.0
  0
LINE
  5
871
330
1F
100
AcDbEntity
  8
Plastico
370
    20
100
AcDbLine
 10
310.4643467770861
 20
281.7780880973988
 30
0.0
 11
310.4643467770861
 21
273.578088097399
 31
0.0
  0
LINE
  5
8AA
330
1F
100
AcDbEntity
  8
Plastico
370
    20
100
AcDbLine
 10
318.2643467770877
 20
281.7780880973987
 30
0.0
 11
318.3622474571293
 21
287.3868143006212
 31
0.0
  0
ARC
  5
8AB
330
1F
100
AcDbEntity
  8
Plastico
370
    20
100
AcDbCircle
 10
318.8621713047075
 20
287.3780880974025
 30
0.0
 40
0.5
100
AcDbArc
 50
90.0
 51
178.9999999999982
  0
LINE
  5
8AC
330
1F
100
AcDbEntity
  8
Plastico
370
    20
100
AcDbLine
 10
324.564346777086
 20
274.0780880973987
 30
0.0
 11
324.564346777086
 21
287.3780880974018
 31
0.0
  0
ARC
  5
8AD
330
1F
100
AcDbEntity
  8
Plastico
370
    20
100
AcDbCircle
 10
324.064346777086
 20
274.0780880973987
 30
0.0
 40
0.5
100
AcDbArc
 50
270.0
 51
0.0
  0
LINE
  5
8AE
330
1F
100
AcDbEntity
  8
Plastico
370
    20
100
AcDbLine
 10
320.8643467770863
 20
287.8780880974018
 30
0.0
 11
324.064346777086
 21
287.8780880974018
 31
0.0
  0
ARC
  5
8AF
330
1F
100
AcDbEntity
  8
Plastico
370
    20
100
AcDbCircle
 10
324.064346777086
 20
287.3780880974018
 30
0.0
 40
0.5
100
AcDbArc
 50
0.0
 51
90.0
  0
ARC
  5
8B0
330
1F
100
AcDbEntity
  8
Plastico
370
    20
100
AcDbCircle
 10
320.8643467770863
 20
287.3780880974018
 30
0.0
 40
0.5
100
AcDbArc
 50
90.0
 51
180.0
  0
LINE
  5
8B1
330
1F
100
AcDbEntity
  8
Plastico
370
    20
100
AcDbLine
 10
324.064346777086
 20
283.978088097403
 30
0.0
 11
320.8643467770862
 21
283.978088097403
 31
0.0
  0
ARC
  5
8B2
330
1F
100
AcDbEntity
  8
Plastico
370
    20
100
AcDbCircle
 10
320.8643467770862
 20
284.478088097403
 30
0.0
 40
0.5
100
AcDbArc
 50
180.0
 51
270.0
  0
ARC
  5
8B3
330
1F
100
AcDbEntity
  8
Plastico
370
    20
100
AcDbCircle
 10
324.064346777086
 20
284.478088097403
 30
0.0
 40
0.5
100
AcDbArc
 50
270.0
 51
0.0
  0
LINE
  5
8B4
330
1F
100
AcDbEntity
  8
Plastico
370
    20
100
AcDbLine
 10
320.3643467770862
 20
281.978088097403
 30
0.0
 11
324.564346777086
 21
281.978088097403
 31
0.0
  0
LINE
  5
8B5
330
1F
100
AcDbEntity
  8
Plastico
370
    20
100
AcDbLine
 10
320.3643467770861
 20
281.7780880973988
 30
0.0
 11
320.3643467770863
 21
287.3780880974018
 31
0.0
  0
LINE
  5
8B6
330
1F
100
AcDbEntity
  8
Plastico
370
    20
100
AcDbLine
 10
205.8643467770858
 20
148.3780880974032
 30
0.0
 11
202.6643467770868
 21
148.3780880974035
 31
0.0
  0
LINE
  5
8B7
330
1F
100
AcDbEntity
  8
Terminals
370
    20
100
AcDbLine
 10
205.3643467770853
 20
145.6691018104574
 30
0.0
 11
203.6643467770861
 21
143.9709078876441
 31
0.0
  0
LINE
  5
8B8
330
1F
100
AcDbEntity
  8
Plastico
370
    20
100
AcDbLine
 10
202.1643467770864
 20
161.3780880974033
 30
0.0
 11
202.1643467770868
 21
149.6780880974041
 31
0.0
  0
LINE
  5
8B9
330
1F
100
AcDbEntity
  8
Terminals
370
    20
100
AcDbLine
 10
203.6643467770861
 20
143.9709078876441
 30
0.0
 11
203.6643467770861
 21
140.1780880974033
 31
0.0
  0
LINE
  5
8BA
330
1F
100
AcDbEntity
  8
Terminals
370
    20
100
AcDbLine
 10
201.6643467770861
 20
144.6334438206471
 30
0.0
 11
201.6643467770861
 21
140.1780880974034
 31
0.0
  0
LINE
  5
8BB
330
1F
100
AcDbEntity
  8
Terminals
370
    20
100
AcDbLine
 10
201.6643467770861
 20
140.1780880974034
 30
0.0
 11
203.6643467770861
 21
140.1780880974033
 31
0.0
  0
ARC
  5
8BC
330
1F
100
AcDbEntity
  8
Plastico
370
    20
100
AcDbCircle
 10
202.6643467770868
 20
148.8780880974035
 30
0.0
 40
0.5
100
AcDbArc
 50
180.0
 51
270.0
  0
LINE
  5
8BD
330
1F
100
AcDbEntity
  8
Plastico
370
    20
100
AcDbLine
 10
202.1643467770868
 20
149.6780880974041
 30
0.0
 11
202.1643467770868
 21
148.8780880974035
 31
0.0
  0
LINE
  5
8BE
330
1F
100
AcDbEntity
  8
Terminals
370
    20
100
AcDbLine
 10
203.3643467770862
 20
146.1808635935183
 30
0.0
 11
201.6643467770861
 21
144.6334438206471
 31
0.0
  0
LINE
  5
8BF
330
1F
100
AcDbEntity
  8
Terminals
370
    20
100
AcDbLine
 10
203.3643467770861
 20
148.3780880974035
 30
0.0
 11
203.3643467770862
 21
146.1808635935183
 31
0.0
  0
LINE
  5
8C0
330
1F
100
AcDbEntity
  8
Plastico
370
    20
100
AcDbLine
 10
228.4643467770862
 20
173.578088097403
 30
0.0
 11
273.2643467770861
 21
173.5780880974032
 31
0.0
  0
LINE
  5
8C1
330
1F
100
AcDbEntity
  8
Plastico
370
    20
100
AcDbLine
 10
230.3643467770862
 20
161.3780880974033
 30
0.0
 11
230.3643467770867
 21
149.6780880974041
 31
0.0
  0
LINE
  5
8C2
330
1F
100
AcDbEntity
  8
Plastico
370
    20
100
AcDbLine
 10
216.2643467770862
 20
164.3780880974033
 30
0.0
 11
216.2643467770867
 21
149.6780880974041
 31
0.0
  0
LINE
  5
8C3
330
1F
100
AcDbEntity
  8
Plastico
370
    20
100
AcDbLine
 10
206.364346777086
 20
165.6780880973953
 30
0.0
 11
206.364346777086
 21
149.6780880974041
 31
0.0
  0
LINE
  5
8C4
330
1F
100
AcDbEntity
  8
Plastico
370
    20
100
AcDbLine
 10
234.5643467770858
 20
173.0780880974032
 30
0.0
 11
234.5643467770858
 21
149.6780880974041
 31
0.0
  0
LINE
  5
8C5
330
1F
100
AcDbEntity
  8
Plastico
370
    20
100
AcDbLine
 10
220.4643467770857
 20
169.4780880973953
 30
0.0
 11
220.4643467770857
 21
148.8780880974032
 31
0.0
  0
ARC
  5
8C6
330
1F
100
AcDbEntity
  8
Plastico
370
    20
100
AcDbCircle
 10
205.8643467770858
 20
148.8780880974032
 30
0.0
 40
0.5
100
AcDbArc
 50
270.0
 51
0.0
  0
LINE
  5
8C7
330
1F
100
AcDbEntity
  8
Plastico
370
    20
100
AcDbLine
 10
206.3643467770858
 20
149.6780880974041
 30
0.0
 11
206.3643467770858
 21
148.8780880974032
 31
0.0
  0
LINE
  5
8C8
330
1F
100
AcDbEntity
  8
Terminals
370
    20
100
AcDbLine
 10
205.3643467770859
 20
148.3780880974033
 30
0.0
 11
205.3643467770853
 21
145.6691018104574
 31
0.0
  0
LINE
  5
8C9
330
1F
100
AcDbEntity
  8
Terminals
370
    20
100
AcDbLine
 10
215.764346777086
 20
144.6334438206471
 30
0.0
 11
215.764346777086
 21
140.1780880974034
 31
0.0
  0
LINE
  5
8CA
330
1F
100
AcDbEntity
  8
Terminals
370
    20
100
AcDbLine
 10
217.764346777086
 20
143.9709078876441
 30
0.0
 11
217.764346777086
 21
140.1780880974033
 31
0.0
  0
LINE
  5
8CB
330
1F
100
AcDbEntity
  8
Terminals
370
    20
100
AcDbLine
 10
215.764346777086
 20
140.1780880974034
 30
0.0
 11
217.764346777086
 21
140.1780880974033
 31
0.0
  0
LINE
  5
8CC
330
1F
100
AcDbEntity
  8
Plastico
370
    20
100
AcDbLine
 10
219.9643467770858
 20
148.3780880974032
 30
0.0
 11
216.7643467770867
 21
148.3780880974035
 31
0.0
  0
ARC
  5
8CD
330
1F
100
AcDbEntity
  8
Plastico
370
    20
100
AcDbCircle
 10
216.7643467770867
 20
148.8780880974035
 30
0.0
 40
0.5
100
AcDbArc
 50
180.0
 51
270.0
  0
LINE
  5
8CE
330
1F
100
AcDbEntity
  8
Plastico
370
    20
100
AcDbLine
 10
216.2643467770867
 20
149.6780880974041
 30
0.0
 11
216.2643467770867
 21
148.8780880974035
 31
0.0
  0
LINE
  5
8CF
330
1F
100
AcDbEntity
  8
Terminals
370
    20
100
AcDbLine
 10
217.4643467770861
 20
146.1808635935183
 30
0.0
 11
215.764346777086
 21
144.6334438206471
 31
0.0
  0
LINE
  5
8D0
330
1F
100
AcDbEntity
  8
Terminals
370
    20
100
AcDbLine
 10
219.4643467770852
 20
145.6691018104574
 30
0.0
 11
217.764346777086
 21
143.9709078876441
 31
0.0
  0
LINE
  5
8D1
330
1F
100
AcDbEntity
  8
Terminals
370
    20
100
AcDbLine
 10
219.4643467770858
 20
148.3780880974023
 30
0.0
 11
219.4643467770852
 21
145.6691018104574
 31
0.0
  0
LINE
  5
8D2
330
1F
100
AcDbEntity
  8
Terminals
370
    20
100
AcDbLine
 10
217.464346777086
 20
148.3780880974024
 30
0.0
 11
217.4643467770861
 21
146.1808635935183
 31
0.0
  0
ARC
  5
8D3
330
1F
100
AcDbEntity
  8
Plastico
370
    20
100
AcDbCircle
 10
219.9643467770858
 20
148.8780880974032
 30
0.0
 40
0.5
100
AcDbArc
 50
270.0
 51
0.0
  0
ARC
  5
8D4
330
1F
100
AcDbEntity
  8
Plastico
370
    20
100
AcDbCircle
 10
234.0643467770857
 20
148.8780880974032
 30
0.0
 40
0.5
100
AcDbArc
 50
270.0
 51
0.0
  0
ARC
  5
8D5
330
1F
100
AcDbEntity
  8
Plastico
370
    20
100
AcDbCircle
 10
234.0643467770857
 20
148.8780880974032
 30
0.0
 40
0.5
100
AcDbArc
 50
270.0
 51
0.0
  0
LINE
  5
8D6
330
1F
100
AcDbEntity
  8
Terminals
370
    20
100
AcDbLine
 10
231.864346777086
 20
143.9709078876441
 30
0.0
 11
231.864346777086
 21
140.1780880974033
 31
0.0
  0
LINE
  5
8D7
330
1F
100
AcDbEntity
  8
Terminals
370
    20
100
AcDbLine
 10
229.864346777086
 20
144.6334438206471
 30
0.0
 11
229.864346777086
 21
140.1780880974034
 31
0.0
  0
LINE
  5
8D8
330
1F
100
AcDbEntity
  8
Terminals
370
    20
100
AcDbLine
 10
229.864346777086
 20
140.1780880974034
 30
0.0
 11
231.864346777086
 21
140.1780880974033
 31
0.0
  0
ARC
  5
8D9
330
1F
100
AcDbEntity
  8
Plastico
370
    20
100
AcDbCircle
 10
230.8643467770866
 20
148.8780880974035
 30
0.0
 40
0.5
100
AcDbArc
 50
180.0
 51
270.0
  0
LINE
  5
8DA
330
1F
100
AcDbEntity
  8
Plastico
370
    20
100
AcDbLine
 10
234.0643467770857
 20
148.3780880974032
 30
0.0
 11
230.8643467770866
 21
148.3780880974035
 31
0.0
  0
LINE
  5
8DB
330
1F
100
AcDbEntity
  8
Plastico
370
    20
100
AcDbLine
 10
230.3643467770867
 20
149.6780880974041
 30
0.0
 11
230.3643467770867
 21
148.8780880974035
 31
0.0
  0
LINE
  5
8DC
330
1F
100
AcDbEntity
  8
Terminals
370
    20
100
AcDbLine
 10
233.5643467770851
 20
145.6691018104574
 30
0.0
 11
231.864346777086
 21
143.9709078876441
 31
0.0
  0
LINE
  5
8DD
330
1F
100
AcDbEntity
  8
Terminals
370
    20
100
AcDbLine
 10
231.564346777086
 20
146.1808635935183
 30
0.0
 11
229.864346777086
 21
144.6334438206471
 31
0.0
  0
LINE
  5
8DE
330
1F
100
AcDbEntity
  8
Terminals
370
    20
100
AcDbLine
 10
233.5643467770857
 20
148.3780880974013
 30
0.0
 11
233.5643467770851
 21
145.6691018104574
 31
0.0
  0
LINE
  5
8DF
330
1F
100
AcDbEntity
  8
Terminals
370
    20
100
AcDbLine
 10
231.5643467770859
 20
148.3780880974015
 30
0.0
 11
231.564346777086
 21
146.1808635935183
 31
0.0
  0
LINE
  5
8E0
330
1F
100
AcDbEntity
  8
Plastico
370
    20
100
AcDbLine
 10
234.5643467770857
 20
149.6780880974041
 30
0.0
 11
234.5643467770857
 21
148.8780880974032
 31
0.0
  0
ARC
  5
8E1
330
1F
100
AcDbEntity
  8
Plastico
370
    20
100
AcDbCircle
 10
234.0643467770858
 20
173.0780880974032
 30
0.0
 40
0.5
100
AcDbArc
 50
0.0
 51
90.0
  0
ARC
  5
8E2
330
1F
100
AcDbEntity
  8
Plastico
370
    20
100
AcDbCircle
 10
228.4643467770862
 20
173.0780880974029
 30
0.0
 40
0.5
100
AcDbArc
 50
90.0
 51
180.0
  0
LINE
  5
8E3
330
1F
100
AcDbEntity
  8
Plastico
370
    20
100
AcDbLine
 10
227.9643467770862
 20
173.0780880974029
 30
0.0
 11
227.9643467770862
 21
169.9780880973948
 31
0.0
  0
LINE
  5
8E4
330
1F
100
AcDbEntity
  8
Plastico
370
    20
100
AcDbLine
 10
275.3643467770861
 20
161.3780880974033
 30
0.0
 11
275.3643467770866
 21
149.6780880974041
 31
0.0
  0
LINE
  5
8E5
330
1F
100
AcDbEntity
  8
Plastico
370
    20
100
AcDbLine
 10
247.1643467770864
 20
161.3780880974033
 30
0.0
 11
247.1643467770868
 21
149.6780880974041
 31
0.0
  0
LINE
  5
8E6
330
1F
100
AcDbEntity
  8
Plastico
370
    20
100
AcDbLine
 10
261.2643467770861
 20
164.3780880974033
 30
0.0
 11
261.2643467770867
 21
149.6780880974041
 31
0.0
  0
LINE
  5
8E7
330
1F
100
AcDbEntity
  8
Plastico
370
    20
100
AcDbLine
 10
251.3643467770859
 20
165.6780880973944
 30
0.0
 11
251.3643467770859
 21
149.6780880974041
 31
0.0
  0
LINE
  5
8E8
330
1F
100
AcDbEntity
  8
Plastico
370
    20
100
AcDbLine
 10
279.5643467770858
 20
173.0780880974032
 30
0.0
 11
279.5643467770858
 21
149.6780880974041
 31
0.0
  0
LINE
  5
8E9
330
1F
100
AcDbEntity
  8
Plastico
370
    20
100
AcDbLine
 10
265.4643467770859
 20
168.8780880973954
 30
0.0
 11
265.4643467770859
 21
149.6780880974041
 31
0.0
  0
LINE
  5
8EA
330
1F
100
AcDbEntity
  8
Plastico
370
    20
100
AcDbLine
 10
264.9643467770861
 20
148.3780880974032
 30
0.0
 11
261.7643467770871
 21
148.3780880974035
 31
0.0
  0
LINE
  5
8EB
330
1F
100
AcDbEntity
  8
Terminals
370
    20
100
AcDbLine
 10
264.4643467770855
 20
145.6691018104574
 30
0.0
 11
262.7643467770864
 21
143.9709078876441
 31
0.0
  0
LINE
  5
8EC
330
1F
100
AcDbEntity
  8
Terminals
370
    20
100
AcDbLine
 10
248.6643467770865
 20
143.9709078876441
 30
0.0
 11
248.6643467770865
 21
140.1780880974033
 31
0.0
  0
LINE
  5
8ED
330
1F
100
AcDbEntity
  8
Terminals
370
    20
100
AcDbLine
 10
246.6643467770865
 20
144.6334438206471
 30
0.0
 11
246.6643467770865
 21
140.1780880974034
 31
0.0
  0
LINE
  5
8EE
330
1F
100
AcDbEntity
  8
Terminals
370
    20
100
AcDbLine
 10
246.6643467770865
 20
140.1780880974034
 30
0.0
 11
248.6643467770865
 21
140.1780880974033
 31
0.0
  0
LINE
  5
8EF
330
1F
100
AcDbEntity
  8
Plastico
370
    20
100
AcDbLine
 10
250.8643467770862
 20
148.3780880974032
 30
0.0
 11
247.6643467770871
 21
148.3780880974035
 31
0.0
  0
LINE
  5
8F0
330
1F
100
AcDbEntity
  8
Terminals
370
    20
100
AcDbLine
 10
250.3643467770856
 20
145.6691018104574
 30
0.0
 11
248.6643467770865
 21
143.9709078876441
 31
0.0
  0
ARC
  5
8F1
330
1F
100
AcDbEntity
  8
Plastico
370
    20
100
AcDbCircle
 10
247.6643467770871
 20
148.8780880974035
 30
0.0
 40
0.5
100
AcDbArc
 50
180.0
 51
270.0
  0
LINE
  5
8F2
330
1F
100
AcDbEntity
  8
Plastico
370
    20
100
AcDbLine
 10
247.1643467770868
 20
149.6780880974041
 30
0.0
 11
247.1643467770868
 21
148.8780880974035
 31
0.0
  0
LINE
  5
8F3
330
1F
100
AcDbEntity
  8
Terminals
370
    20
100
AcDbLine
 10
248.3643467770865
 20
146.1808635935183
 30
0.0
 11
246.6643467770865
 21
144.6334438206471
 31
0.0
  0
LINE
  5
8F4
330
1F
100
AcDbEntity
  8
Terminals
370
    20
100
AcDbLine
 10
248.3643467770864
 20
148.3780880974002
 30
0.0
 11
248.3643467770865
 21
146.1808635935183
 31
0.0
  0
ARC
  5
8F5
330
1F
100
AcDbEntity
  8
Plastico
370
    20
100
AcDbCircle
 10
250.8643467770862
 20
148.8780880974032
 30
0.0
 40
0.5
100
AcDbArc
 50
270.0
 51
0.0
  0
LINE
  5
8F6
330
1F
100
AcDbEntity
  8
Plastico
370
    20
100
AcDbLine
 10
251.3643467770859
 20
149.6780880974041
 30
0.0
 11
251.3643467770859
 21
148.8780880974032
 31
0.0
  0
LINE
  5
8F7
330
1F
100
AcDbEntity
  8
Terminals
370
    20
100
AcDbLine
 10
250.3643467770862
 20
148.3780880974001
 30
0.0
 11
250.3643467770856
 21
145.6691018104574
 31
0.0
  0
LINE
  5
8F8
330
1F
100
AcDbEntity
  8
Terminals
370
    20
100
AcDbLine
 10
262.7643467770864
 20
143.9709078876441
 30
0.0
 11
262.7643467770864
 21
140.1780880974033
 31
0.0
  0
LINE
  5
8F9
330
1F
100
AcDbEntity
  8
Terminals
370
    20
100
AcDbLine
 10
260.7643467770864
 20
144.6334438206471
 30
0.0
 11
260.7643467770864
 21
140.1780880974034
 31
0.0
  0
LINE
  5
8FA
330
1F
100
AcDbEntity
  8
Terminals
370
    20
100
AcDbLine
 10
260.7643467770864
 20
140.1780880974034
 30
0.0
 11
262.7643467770864
 21
140.1780880974033
 31
0.0
  0
ARC
  5
8FB
330
1F
100
AcDbEntity
  8
Plastico
370
    20
100
AcDbCircle
 10
261.7643467770871
 20
148.8780880974035
 30
0.0
 40
0.5
100
AcDbArc
 50
180.0
 51
270.0
  0
LINE
  5
8FC
330
1F
100
AcDbEntity
  8
Plastico
370
    20
100
AcDbLine
 10
261.2643467770867
 20
149.6780880974041
 30
0.0
 11
261.2643467770867
 21
148.8780880974035
 31
0.0
  0
LINE
  5
8FD
330
1F
100
AcDbEntity
  8
Terminals
370
    20
100
AcDbLine
 10
262.4643467770864
 20
146.1808635935183
 30
0.0
 11
260.7643467770864
 21
144.6334438206471
 31
0.0
  0
LINE
  5
8FE
330
1F
100
AcDbEntity
  8
Terminals
370
    20
100
AcDbLine
 10
262.4643467770863
 20
148.3780880973993
 30
0.0
 11
262.4643467770864
 21
146.1808635935183
 31
0.0
  0
ARC
  5
8FF
330
1F
100
AcDbEntity
  8
Plastico
370
    20
100
AcDbCircle
 10
264.9643467770861
 20
148.8780880974032
 30
0.0
 40
0.5
100
AcDbArc
 50
270.0
 51
0.0
  0
LINE
  5
900
330
1F
100
AcDbEntity
  8
Plastico
370
    20
100
AcDbLine
 10
265.4643467770857
 20
149.6780880974041
 30
0.0
 11
265.4643467770857
 21
148.8780880974032
 31
0.0
  0
LINE
  5
901
330
1F
100
AcDbEntity
  8
Terminals
370
    20
100
AcDbLine
 10
264.4643467770862
 20
148.3780880973991
 30
0.0
 11
264.4643467770855
 21
145.6691018104574
 31
0.0
  0
LINE
  5
902
330
1F
100
AcDbEntity
  8
Terminals
370
    20
100
AcDbLine
 10
276.8643467770863
 20
143.9709078876441
 30
0.0
 11
276.8643467770863
 21
140.1780880974033
 31
0.0
  0
LINE
  5
903
330
1F
100
AcDbEntity
  8
Terminals
370
    20
100
AcDbLine
 10
274.8643467770863
 20
144.6334438206471
 30
0.0
 11
274.8643467770863
 21
140.1780880974034
 31
0.0
  0
LINE
  5
904
330
1F
100
AcDbEntity
  8
Terminals
370
    20
100
AcDbLine
 10
274.8643467770863
 20
140.1780880974034
 30
0.0
 11
276.8643467770863
 21
140.1780880974033
 31
0.0
  0
LINE
  5
905
330
1F
100
AcDbEntity
  8
Plastico
370
    20
100
AcDbLine
 10
279.064346777086
 20
148.3780880974032
 30
0.0
 11
275.864346777087
 21
148.3780880974035
 31
0.0
  0
ARC
  5
906
330
1F
100
AcDbEntity
  8
Plastico
370
    20
100
AcDbCircle
 10
275.864346777087
 20
148.8780880974035
 30
0.0
 40
0.5
100
AcDbArc
 50
180.0
 51
270.0
  0
LINE
  5
907
330
1F
100
AcDbEntity
  8
Plastico
370
    20
100
AcDbLine
 10
275.3643467770866
 20
149.6780880974041
 30
0.0
 11
275.3643467770866
 21
148.8780880974035
 31
0.0
  0
LINE
  5
908
330
1F
100
AcDbEntity
  8
Terminals
370
    20
100
AcDbLine
 10
276.5643467770863
 20
146.1808635935183
 30
0.0
 11
274.8643467770863
 21
144.6334438206471
 31
0.0
  0
LINE
  5
909
330
1F
100
AcDbEntity
  8
Terminals
370
    20
100
AcDbLine
 10
278.5643467770854
 20
145.6691018104574
 30
0.0
 11
276.8643467770863
 21
143.9709078876441
 31
0.0
  0
LINE
  5
90A
330
1F
100
AcDbEntity
  8
Terminals
370
    20
100
AcDbLine
 10
276.5643467770862
 20
148.3780880973982
 30
0.0
 11
276.5643467770863
 21
146.1808635935183
 31
0.0
  0
LINE
  5
90B
330
1F
100
AcDbEntity
  8
Terminals
370
    20
100
AcDbLine
 10
278.5643467770861
 20
148.3780880973981
 30
0.0
 11
278.5643467770854
 21
145.6691018104574
 31
0.0
  0
ARC
  5
90C
330
1F
100
AcDbEntity
  8
Plastico
370
    20
100
AcDbCircle
 10
279.064346777086
 20
148.8780880974032
 30
0.0
 40
0.5
100
AcDbArc
 50
270.0
 51
0.0
  0
ARC
  5
90D
330
1F
100
AcDbEntity
  8
Plastico
370
    20
100
AcDbCircle
 10
279.064346777086
 20
148.8780880974032
 30
0.0
 40
0.5
100
AcDbArc
 50
270.0
 51
0.0
  0
LINE
  5
90E
330
1F
100
AcDbEntity
  8
Plastico
370
    20
100
AcDbLine
 10
279.5643467770856
 20
149.6780880974041
 30
0.0
 11
279.5643467770856
 21
148.8780880974032
 31
0.0
  0
LINE
  5
90F
330
1F
100
AcDbEntity
  8
Plastico
370
    20
100
AcDbLine
 10
273.4643467770862
 20
173.5780880974032
 30
0.0
 11
279.0643467770857
 21
173.5780880974032
 31
0.0
  0
ARC
  5
910
330
1F
100
AcDbEntity
  8
Plastico
370
    20
100
AcDbCircle
 10
273.4643467770862
 20
173.0780880974032
 30
0.0
 40
0.5
100
AcDbArc
 50
90.0
 51
180.0
  0
LINE
  5
911
330
1F
100
AcDbEntity
  8
Plastico
370
    20
100
AcDbLine
 10
272.9643467770862
 20
173.0780880974032
 30
0.0
 11
272.9643467770862
 21
169.9780880973948
 31
0.0
  0
LINE
  5
912
330
1F
100
AcDbEntity
  8
Plastico
370
    20
100
AcDbLine
 10
292.1643467770867
 20
161.3780880974029
 30
0.0
 11
292.1643467770871
 21
149.6780880974041
 31
0.0
  0
LINE
  5
913
330
1F
100
AcDbEntity
  8
Plastico
370
    20
100
AcDbLine
 10
296.3643467770863
 20
165.6780880973942
 30
0.0
 11
296.3643467770863
 21
149.6780880974041
 31
0.0
  0
LINE
  5
914
330
1F
100
AcDbEntity
  8
Plastico
370
    20
100
AcDbLine
 10
306.2643467770865
 20
164.3780880974029
 30
0.0
 11
306.264346777087
 21
149.6780880974041
 31
0.0
  0
LINE
  5
915
330
1F
100
AcDbEntity
  8
Plastico
370
    20
100
AcDbLine
 10
310.4643467770862
 20
168.2780880973958
 30
0.0
 11
310.4643467770862
 21
149.6780880974041
 31
0.0
  0
LINE
  5
916
330
1F
100
AcDbEntity
  8
Terminals
370
    20
100
AcDbLine
 10
293.6643467770861
 20
143.9709078876441
 30
0.0
 11
293.6643467770861
 21
140.1780880974033
 31
0.0
  0
LINE
  5
917
330
1F
100
AcDbEntity
  8
Terminals
370
    20
100
AcDbLine
 10
291.6643467770861
 20
144.6334438206471
 30
0.0
 11
291.6643467770861
 21
140.1780880974034
 31
0.0
  0
LINE
  5
918
330
1F
100
AcDbEntity
  8
Terminals
370
    20
100
AcDbLine
 10
291.6643467770861
 20
140.1780880974034
 30
0.0
 11
293.6643467770861
 21
140.1780880974033
 31
0.0
  0
ARC
  5
919
330
1F
100
AcDbEntity
  8
Plastico
370
    20
100
AcDbCircle
 10
292.6643467770871
 20
148.8780880974031
 30
0.0
 40
0.5
100
AcDbArc
 50
180.0
 51
270.0
  0
LINE
  5
91A
330
1F
100
AcDbEntity
  8
Terminals
370
    20
100
AcDbLine
 10
293.3643467770862
 20
146.1808635935183
 30
0.0
 11
291.6643467770861
 21
144.6334438206471
 31
0.0
  0
LINE
  5
91B
330
1F
100
AcDbEntity
  8
Plastico
370
    20
100
AcDbLine
 10
292.164346777087
 20
149.6780880974041
 30
0.0
 11
292.1643467770871
 21
148.8780880974031
 31
0.0
  0
ARC
  5
91C
330
1F
100
AcDbEntity
  8
Plastico
370
    20
100
AcDbCircle
 10
295.8643467770862
 20
148.8780880974029
 30
0.0
 40
0.5
100
AcDbArc
 50
270.0
 51
0.0
  0
LINE
  5
91D
330
1F
100
AcDbEntity
  8
Plastico
370
    20
100
AcDbLine
 10
295.8643467770862
 20
148.3780880974029
 30
0.0
 11
292.6643467770871
 21
148.3780880974031
 31
0.0
  0
LINE
  5
91E
330
1F
100
AcDbEntity
  8
Plastico
370
    20
100
AcDbLine
 10
296.3643467770861
 20
149.6780880974041
 30
0.0
 11
296.3643467770861
 21
148.8780880974029
 31
0.0
  0
LINE
  5
91F
330
1F
100
AcDbEntity
  8
Terminals
370
    20
100
AcDbLine
 10
293.364346777086
 20
148.3780880973907
 30
0.0
 11
293.3643467770862
 21
146.1808635935183
 31
0.0
  0
LINE
  5
920
330
1F
100
AcDbEntity
  8
Terminals
370
    20
100
AcDbLine
 10
295.3643467770859
 20
148.3780880973905
 30
0.0
 11
295.3643467770852
 21
145.6691018104574
 31
0.0
  0
LINE
  5
921
330
1F
100
AcDbEntity
  8
Terminals
370
    20
100
AcDbLine
 10
295.3643467770852
 20
145.6691018104574
 30
0.0
 11
293.6643467770861
 21
143.9709078876441
 31
0.0
  0
LINE
  5
922
330
1F
100
AcDbEntity
  8
Plastico
370
    20
100
AcDbLine
 10
309.9643467770861
 20
148.3780880974032
 30
0.0
 11
306.764346777087
 21
148.3780880974035
 31
0.0
  0
LINE
  5
923
330
1F
100
AcDbEntity
  8
Terminals
370
    20
100
AcDbLine
 10
307.4643467770861
 20
146.1808635935186
 30
0.0
 11
305.764346777086
 21
144.6334438206474
 31
0.0
  0
LINE
  5
924
330
1F
100
AcDbEntity
  8
Terminals
370
    20
100
AcDbLine
 10
305.764346777086
 20
140.1780880974038
 30
0.0
 11
307.764346777086
 21
140.1780880974037
 31
0.0
  0
LINE
  5
925
330
1F
100
AcDbEntity
  8
Terminals
370
    20
100
AcDbLine
 10
305.764346777086
 20
144.6334438206474
 30
0.0
 11
305.764346777086
 21
140.1780880974038
 31
0.0
  0
ARC
  5
926
330
1F
100
AcDbEntity
  8
Plastico
370
    20
100
AcDbCircle
 10
306.764346777087
 20
148.8780880974035
 30
0.0
 40
0.5
100
AcDbArc
 50
180.0
 51
270.0
  0
LINE
  5
927
330
1F
100
AcDbEntity
  8
Plastico
370
    20
100
AcDbLine
 10
306.2643467770869
 20
149.6780880974041
 30
0.0
 11
306.264346777087
 21
148.8780880974031
 31
0.0
  0
LINE
  5
928
330
1F
100
AcDbEntity
  8
Terminals
370
    20
100
AcDbLine
 10
307.764346777086
 20
143.9709078876444
 30
0.0
 11
307.764346777086
 21
140.1780880974037
 31
0.0
  0
ARC
  5
929
330
1F
100
AcDbEntity
  8
Plastico
370
    20
100
AcDbCircle
 10
309.9643467770861
 20
148.8780880974032
 30
0.0
 40
0.5
100
AcDbArc
 50
270.0
 51
0.0
  0
LINE
  5
92A
330
1F
100
AcDbEntity
  8
Plastico
370
    20
100
AcDbLine
 10
310.464346777086
 20
149.6780880974041
 30
0.0
 11
310.464346777086
 21
148.8780880974029
 31
0.0
  0
LINE
  5
92B
330
1F
100
AcDbEntity
  8
Terminals
370
    20
100
AcDbLine
 10
307.4643467770859
 20
148.3780880973896
 30
0.0
 11
307.4643467770861
 21
146.1808635935186
 31
0.0
  0
LINE
  5
92C
330
1F
100
AcDbEntity
  8
Terminals
370
    20
100
AcDbLine
 10
309.4643467770857
 20
148.3780880973895
 30
0.0
 11
309.4643467770851
 21
145.6691018104578
 31
0.0
  0
LINE
  5
92D
330
1F
100
AcDbEntity
  8
Terminals
370
    20
100
AcDbLine
 10
309.4643467770851
 20
145.6691018104578
 30
0.0
 11
307.764346777086
 21
143.9709078876444
 31
0.0
  0
LINE
  5
92E
330
1F
100
AcDbEntity
  8
Plastico
370
    20
100
AcDbLine
 10
320.3643467770865
 20
161.3780880974033
 30
0.0
 11
320.364346777087
 21
149.6780880974041
 31
0.0
  0
LINE
  5
92F
330
1F
100
AcDbEntity
  8
Plastico
370
    20
100
AcDbLine
 10
324.5643467770861
 20
173.0780880974032
 30
0.0
 11
324.5643467770861
 21
149.6780880974041
 31
0.0
  0
LINE
  5
930
330
1F
100
AcDbEntity
  8
Terminals
370
    20
100
AcDbLine
 10
321.8643467770859
 20
143.9709078876444
 30
0.0
 11
321.8643467770859
 21
140.1780880974037
 31
0.0
  0
LINE
  5
931
330
1F
100
AcDbEntity
  8
Terminals
370
    20
100
AcDbLine
 10
319.8643467770859
 20
144.6334438206474
 30
0.0
 11
319.8643467770859
 21
140.1780880974038
 31
0.0
  0
LINE
  5
932
330
1F
100
AcDbEntity
  8
Terminals
370
    20
100
AcDbLine
 10
319.8643467770859
 20
140.1780880974038
 30
0.0
 11
321.8643467770859
 21
140.1780880974037
 31
0.0
  0
LINE
  5
933
330
1F
100
AcDbEntity
  8
Plastico
370
    20
100
AcDbLine
 10
324.0643467770856
 20
148.3780880974036
 30
0.0
 11
320.8643467770866
 21
148.3780880974038
 31
0.0
  0
LINE
  5
934
330
1F
100
AcDbEntity
  8
Terminals
370
    20
100
AcDbLine
 10
323.564346777085
 20
145.6691018104578
 30
0.0
 11
321.8643467770859
 21
143.9709078876444
 31
0.0
  0
ARC
  5
935
330
1F
100
AcDbEntity
  8
Plastico
370
    20
100
AcDbCircle
 10
320.8643467770866
 20
148.8780880974038
 30
0.0
 40
0.5
100
AcDbArc
 50
180.0
 51
270.0
  0
LINE
  5
936
330
1F
100
AcDbEntity
  8
Plastico
370
    20
100
AcDbLine
 10
320.3643467770868
 20
149.6780880974041
 30
0.0
 11
320.364346777087
 21
148.8780880974035
 31
0.0
  0
LINE
  5
937
330
1F
100
AcDbEntity
  8
Terminals
370
    20
100
AcDbLine
 10
321.5643467770858
 20
148.3780880973886
 30
0.0
 11
321.564346777086
 21
146.1808635935186
 31
0.0
  0
LINE
  5
938
330
1F
100
AcDbEntity
  8
Terminals
370
    20
100
AcDbLine
 10
321.564346777086
 20
146.1808635935186
 30
0.0
 11
319.8643467770859
 21
144.6334438206474
 31
0.0
  0
ARC
  5
939
330
1F
100
AcDbEntity
  8
Plastico
370
    20
100
AcDbCircle
 10
324.0643467770856
 20
148.8780880974036
 30
0.0
 40
0.5
100
AcDbArc
 50
270.0
 51
0.0
  0
ARC
  5
93A
330
1F
100
AcDbEntity
  8
Plastico
370
    20
100
AcDbCircle
 10
324.0643467770856
 20
148.8780880974036
 30
0.0
 40
0.5
100
AcDbArc
 50
270.0
 51
0.0
  0
LINE
  5
93B
330
1F
100
AcDbEntity
  8
Plastico
370
    20
100
AcDbLine
 10
324.564346777086
 20
149.6780880974041
 30
0.0
 11
324.564346777086
 21
148.8780880974032
 31
0.0
  0
LINE
  5
93C
330
1F
100
AcDbEntity
  8
Terminals
370
    20
100
AcDbLine
 10
323.5643467770856
 20
148.3780880973885
 30
0.0
 11
323.564346777085
 21
145.6691018104578
 31
0.0
  0
DIMENSION
  5
93D
330
1F
100
AcDbEntity
  8
COTAS
  6
ByBlock
100
AcDbDimension
280
     0
  2
*D9
 10
199.7643467770859
 20
181.1780880974034
 30
0.0
 11
262.0342192389605
 21
181.1780880974034
 31
0.0
 70
   160
 71
     5
 42
124.8000000000001
 73
     0
 74
     0
 75
     0
  3
E11
100
AcDbAlignedDimension
 13
324.5643467770861
 23
173.0780880974032
 33
0.0
 14
199.7643467770859
 24
165.6780880973958
 34
0.0
100
AcDbRotatedDimension
  0
LINE
  5
93E
330
1F
100
AcDbEntity
  8
Plastico
 62
     0
100
AcDbLine
 10
235.8143467770858
 20
283.2780880973989
 30
0.0
 11
235.8143467770858
 21
274.0780880974031
 31
0.0
  0
LINE
  5
93F
330
1F
100
AcDbEntity
  8
Plastico
 62
     0
100
AcDbLine
 10
236.9143467770859
 20
283.2780880973989
 30
0.0
 11
236.9143467770859
 21
274.0780880974031
 31
0.0
  0
LINE
  5
940
330
1F
100
AcDbEntity
  8
Plastico
 62
     0
100
AcDbLine
 10
238.0143467770858
 20
283.2780880973989
 30
0.0
 11
238.0143467770858
 21
274.0780880974031
 31
0.0
  0
LINE
  5
941
330
1F
100
AcDbEntity
  8
Plastico
 62
     0
100
AcDbLine
 10
239.1143467770858
 20
283.2780880973989
 30
0.0
 11
239.1143467770858
 21
274.0780880974031
 31
0.0
  0
LINE
  5
942
330
1F
100
AcDbEntity
  8
Plastico
 62
     0
100
AcDbLine
 10
240.2143467770858
 20
283.2780880973989
 30
0.0
 11
240.2143467770858
 21
274.0780880974031
 31
0.0
  0
LINE
  5
943
330
1F
100
AcDbEntity
  8
Plastico
 62
     0
100
AcDbLine
 10
241.3143467770858
 20
283.2780880973989
 30
0.0
 11
241.3143467770858
 21
274.0780880974031
 31
0.0
  0
LINE
  5
944
330
1F
100
AcDbEntity
  8
Plastico
 62
     0
100
AcDbLine
 10
242.4143467770857
 20
283.2780880973989
 30
0.0
 11
242.4143467770857
 21
274.0780880974031
 31
0.0
  0
LINE
  5
945
330
1F
100
AcDbEntity
  8
Plastico
 62
     0
100
AcDbLine
 10
243.5143467770858
 20
283.2780880973989
 30
0.0
 11
243.5143467770858
 21
274.0780880974031
 31
0.0
  0
LINE
  5
946
330
1F
100
AcDbEntity
  8
Plastico
 62
     0
100
AcDbLine
 10
235.8143467770858
 20
283.2780880973989
 30
0.0
 11
236.9143467770859
 21
283.2780880973989
 31
0.0
  0
LINE
  5
947
330
1F
100
AcDbEntity
  8
Plastico
 62
     0
100
AcDbLine
 10
243.5143467770858
 20
274.0780880974031
 30
0.0
 11
242.4143467770858
 21
274.0780880974031
 31
0.0
  0
LINE
  5
948
330
1F
100
AcDbEntity
  8
Plastico
 62
     0
100
AcDbLine
 10
243.5143467770858
 20
275.5780880974025
 30
0.0
 11
242.4143467770857
 21
275.5780880974025
 31
0.0
  0
LINE
  5
949
330
1F
100
AcDbEntity
  8
Plastico
 62
     0
100
AcDbLine
 10
238.0143467770858
 20
283.2780880973989
 30
0.0
 11
239.1143467770858
 21
283.2780880973989
 31
0.0
  0
LINE
  5
94A
330
1F
100
AcDbEntity
  8
Plastico
 62
     0
100
AcDbLine
 10
240.2143467770858
 20
283.2780880973989
 30
0.0
 11
241.3143467770858
 21
283.2780880973989
 31
0.0
  0
LINE
  5
94B
330
1F
100
AcDbEntity
  8
Plastico
 62
     0
100
AcDbLine
 10
242.4143467770857
 20
283.2780880973989
 30
0.0
 11
243.5143467770858
 21
283.2780880973989
 31
0.0
  0
LINE
  5
94C
330
1F
100
AcDbEntity
  8
Plastico
 62
     0
100
AcDbLine
 10
241.3143467770858
 20
274.0780880974031
 30
0.0
 11
240.2143467770858
 21
274.0780880974031
 31
0.0
  0
LINE
  5
94D
330
1F
100
AcDbEntity
  8
Plastico
 62
     0
100
AcDbLine
 10
239.1143467770858
 20
274.0780880974031
 30
0.0
 11
238.0143467770858
 21
274.0780880974031
 31
0.0
  0
LINE
  5
94E
330
1F
100
AcDbEntity
  8
Plastico
 62
     0
100
AcDbLine
 10
236.9143467770859
 20
274.0780880974031
 30
0.0
 11
235.8143467770858
 21
274.0780880974031
 31
0.0
  0
LINE
  5
94F
330
1F
100
AcDbEntity
  8
Plastico
 62
     0
100
AcDbLine
 10
236.9143467770859
 20
275.5780880974025
 30
0.0
 11
235.8143467770858
 21
275.5780880974025
 31
0.0
  0
LINE
  5
950
330
1F
100
AcDbEntity
  8
Plastico
 62
     0
100
AcDbLine
 10
239.1143467770858
 20
275.5780880974025
 30
0.0
 11
238.0143467770858
 21
275.5780880974025
 31
0.0
  0
LINE
  5
951
330
1F
100
AcDbEntity
  8
Plastico
 62
     0
100
AcDbLine
 10
241.3143467770858
 20
275.5780880974025
 30
0.0
 11
240.2143467770858
 21
275.5780880974025
 31
0.0
  0
LINE
  5
952
330
1F
100
AcDbEntity
  8
Plastico
370
    20
100
AcDbLine
 10
238.0143467770858
 20
281.7780880973988
 30
0.0
 11
236.9143467770859
 21
281.7780880973988
 31
0.0
  0
LINE
  5
953
330
1F
100
AcDbEntity
  8
Plastico
370
    20
100
AcDbLine
 10
240.2143467770858
 20
281.7780880973988
 30
0.0
 11
239.1143467770858
 21
281.7780880973988
 31
0.0
  0
LINE
  5
954
330
1F
100
AcDbEntity
  8
Plastico
370
    20
100
AcDbLine
 10
242.4143467770858
 20
281.7780880973988
 30
0.0
 11
241.3143467770858
 21
281.7780880973988
 31
0.0
  0
LINE
  5
955
330
1F
100
AcDbEntity
  8
Plastico
370
    20
100
AcDbLine
 10
272.9905293744787
 20
283.2780880973989
 30
0.0
 11
274.5381641796935
 21
283.2780880973989
 31
0.0
  0
ARC
  5
956
330
1F
100
AcDbEntity
  8
Plastico
370
    20
100
AcDbCircle
 10
247.6643467770859
 20
284.478088097403
 30
0.0
 40
0.5
100
AcDbArc
 50
179.9999999999975
 51
270.0
  0
LINE
  5
957
330
1F
100
AcDbEntity
  8
Plastico
 62
     0
100
AcDbLine
 10
288.5143467770859
 20
283.2780880973989
 30
0.0
 11
288.5143467770859
 21
274.0780880974031
 31
0.0
  0
LINE
  5
958
330
1F
100
AcDbEntity
  8
Plastico
 62
     0
100
AcDbLine
 10
287.4143467770858
 20
283.2780880973989
 30
0.0
 11
287.4143467770858
 21
274.0780880974031
 31
0.0
  0
LINE
  5
959
330
1F
100
AcDbEntity
  8
Plastico
 62
     0
100
AcDbLine
 10
286.3143467770859
 20
283.2780880973989
 30
0.0
 11
286.3143467770859
 21
274.0780880974031
 31
0.0
  0
LINE
  5
95A
330
1F
100
AcDbEntity
  8
Plastico
 62
     0
100
AcDbLine
 10
285.2143467770859
 20
283.2780880973989
 30
0.0
 11
285.2143467770859
 21
274.0780880974031
 31
0.0
  0
LINE
  5
95B
330
1F
100
AcDbEntity
  8
Plastico
 62
     0
100
AcDbLine
 10
284.1143467770859
 20
283.2780880973989
 30
0.0
 11
284.1143467770859
 21
274.0780880974031
 31
0.0
  0
LINE
  5
95C
330
1F
100
AcDbEntity
  8
Plastico
 62
     0
100
AcDbLine
 10
283.0143467770859
 20
283.2780880973989
 30
0.0
 11
283.0143467770859
 21
274.0780880974031
 31
0.0
  0
LINE
  5
95D
330
1F
100
AcDbEntity
  8
Plastico
 62
     0
100
AcDbLine
 10
281.9143467770859
 20
283.2780880973989
 30
0.0
 11
281.9143467770859
 21
274.0780880974031
 31
0.0
  0
LINE
  5
95E
330
1F
100
AcDbEntity
  8
Plastico
 62
     0
100
AcDbLine
 10
280.8143467770859
 20
283.2780880973989
 30
0.0
 11
280.8143467770859
 21
274.0780880974031
 31
0.0
  0
LINE
  5
95F
330
1F
100
AcDbEntity
  8
Plastico
 62
     0
100
AcDbLine
 10
286.3143467770859
 20
274.0780880974031
 30
0.0
 11
285.2143467770859
 21
274.0780880974031
 31
0.0
  0
LINE
  5
960
330
1F
100
AcDbEntity
  8
Plastico
 62
     0
100
AcDbLine
 10
284.1143467770859
 20
274.0780880974031
 30
0.0
 11
283.0143467770859
 21
274.0780880974031
 31
0.0
  0
LINE
  5
961
330
1F
100
AcDbEntity
  8
Plastico
 62
     0
100
AcDbLine
 10
281.9143467770859
 20
274.0780880974031
 30
0.0
 11
280.8143467770859
 21
274.0780880974031
 31
0.0
  0
LINE
  5
962
330
1F
100
AcDbEntity
  8
Plastico
 62
     0
100
AcDbLine
 10
288.5143467770859
 20
274.0780880974031
 30
0.0
 11
287.414346777086
 21
274.0780880974031
 31
0.0
  0
LINE
  5
963
330
1F
100
AcDbEntity
  8
Plastico
 62
     0
100
AcDbLine
 10
286.3143467770859
 20
275.5780880974025
 30
0.0
 11
285.2143467770859
 21
275.5780880974025
 31
0.0
  0
LINE
  5
964
330
1F
100
AcDbEntity
  8
Plastico
 62
     0
100
AcDbLine
 10
284.1143467770859
 20
275.5780880974025
 30
0.0
 11
283.0143467770859
 21
275.5780880974025
 31
0.0
  0
LINE
  5
965
330
1F
100
AcDbEntity
  8
Plastico
 62
     0
100
AcDbLine
 10
281.9143467770859
 20
275.5780880974025
 30
0.0
 11
280.8143467770859
 21
275.5780880974025
 31
0.0
  0
LINE
  5
966
330
1F
100
AcDbEntity
  8
Plastico
 62
     0
100
AcDbLine
 10
288.5143467770859
 20
275.5780880974025
 30
0.0
 11
287.4143467770858
 21
275.5780880974025
 31
0.0
  0
LINE
  5
967
330
1F
100
AcDbEntity
  8
Plastico
 62
     0
100
AcDbLine
 10
285.2143467770859
 20
283.2780880973989
 30
0.0
 11
286.3143467770859
 21
283.2780880973989
 31
0.0
  0
LINE
  5
968
330
1F
100
AcDbEntity
  8
Plastico
370
    20
100
AcDbLine
 10
285.2143467770859
 20
281.7780880973988
 30
0.0
 11
284.1143467770859
 21
281.7780880973989
 31
0.0
  0
LINE
  5
969
330
1F
100
AcDbEntity
  8
Plastico
370
    20
100
AcDbLine
 10
283.0143467770859
 20
281.7780880973988
 30
0.0
 11
281.9143467770859
 21
281.7780880973988
 31
0.0
  0
LINE
  5
96A
330
1F
100
AcDbEntity
  8
Plastico
 62
     0
100
AcDbLine
 10
283.0143467770859
 20
283.2780880973989
 30
0.0
 11
284.1143467770859
 21
283.2780880973989
 31
0.0
  0
LINE
  5
96B
330
1F
100
AcDbEntity
  8
Plastico
 62
     0
100
AcDbLine
 10
280.8143467770859
 20
283.2780880973989
 30
0.0
 11
281.9143467770859
 21
283.2780880973989
 31
0.0
  0
LINE
  5
96C
330
1F
100
AcDbEntity
  8
Plastico
370
    20
100
AcDbLine
 10
287.414346777086
 20
281.7780880973989
 30
0.0
 11
286.3143467770859
 21
281.7780880973988
 31
0.0
  0
LINE
  5
96D
330
1F
100
AcDbEntity
  8
Plastico
 62
     0
100
AcDbLine
 10
287.4143467770858
 20
283.2780880973989
 30
0.0
 11
288.5143467770859
 21
283.2780880973989
 31
0.0
  0
ARC
  5
99C
330
1F
100
AcDbEntity
  8
Plastico
370
    20
100
AcDbCircle
 10
324.0643467770861
 20
173.0780880974032
 30
0.0
 40
0.5
100
AcDbArc
 50
0.0
 51
90.0
  0
ARC
  5
99D
330
1F
100
AcDbEntity
  8
Plastico
370
    20
100
AcDbCircle
 10
318.4643467770864
 20
173.0780880974032
 30
0.0
 40
0.5
100
AcDbArc
 50
90.0
 51
180.0000000000089
  0
ARC
  5
99E
330
1F
100
AcDbEntity
  8
Plastico
370
    20
100
AcDbCircle
 10
279.064346777086
 20
173.0780880974032
 30
0.0
 40
0.5
100
AcDbArc
 50
0.0
 51
90.0
  0
LINE
  5
99F
330
1F
100
AcDbEntity
  8
Plastico
370
    20
100
AcDbLine
 10
279.3643467770865
 20
173.5780880974032
 30
0.0
 11
318.2643467770867
 21
173.5780880974032
 31
0.0
  0
ARC
  5
9A0
330
1F
100
AcDbEntity
  8
Plastico
370
    20
100
AcDbCircle
 10
318.464346777087
 20
169.278088097395
 30
0.0
 40
0.5
100
AcDbArc
 50
180.0000000000089
 51
269.9999999999935
  0
LINE
  5
9A1
330
1F
100
AcDbEntity
  8
Plastico
370
    20
100
AcDbLine
 10
319.8643467770862
 20
168.7780880973948
 30
0.0
 11
310.9643467770863
 21
168.7780880973958
 31
0.0
  0
LINE
  5
9A2
330
1F
100
AcDbEntity
  8
Plastico
370
    20
100
AcDbLine
 10
292.1643467770867
 20
161.3780880974029
 30
0.0
 11
292.1643467770871
 21
149.6780880974041
 31
0.0
  0
LINE
  5
9A3
330
1F
100
AcDbEntity
  8
Plastico
370
    20
100
AcDbLine
 10
296.3643467770863
 20
165.6780880973942
 30
0.0
 11
296.3643467770863
 21
149.6780880974041
 31
0.0
  0
LINE
  5
9A4
330
1F
100
AcDbEntity
  8
Plastico
370
    20
100
AcDbLine
 10
306.2643467770865
 20
164.3780880974029
 30
0.0
 11
306.264346777087
 21
149.6780880974041
 31
0.0
  0
LINE
  5
9A5
330
1F
100
AcDbEntity
  8
Plastico
370
    20
100
AcDbLine
 10
279.564346777086
 20
173.0780880974032
 30
0.0
 11
279.564346777086
 21
149.6780880974041
 31
0.0
  0
LINE
  5
9A6
330
1F
100
AcDbEntity
  8
Plastico
370
    20
100
AcDbLine
 10
310.4643467770862
 20
168.2780880973958
 30
0.0
 11
310.4643467770862
 21
149.6780880974041
 31
0.0
  0
LINE
  5
9A7
330
1F
100
AcDbEntity
  8
Plastico
370
    20
100
AcDbLine
 10
279.5643467770861
 20
173.0780880974032
 30
0.0
 11
279.5643467770861
 21
149.6780880974041
 31
0.0
  0
ARC
  5
9A8
330
1F
100
AcDbEntity
  8
Plastico
370
    20
100
AcDbCircle
 10
279.064346777086
 20
148.8780880974035
 30
0.0
 40
0.5
100
AcDbArc
 50
270.0
 51
0.0
  0
ARC
  5
9A9
330
1F
100
AcDbEntity
  8
Plastico
370
    20
100
AcDbCircle
 10
279.064346777086
 20
148.8780880974035
 30
0.0
 40
0.5
100
AcDbArc
 50
270.0
 51
0.0
  0
LINE
  5
9AA
330
1F
100
AcDbEntity
  8
Plastico
370
    20
100
AcDbLine
 10
279.564346777086
 20
149.6780880974041
 30
0.0
 11
279.564346777086
 21
148.8780880974031
 31
0.0
  0
LINE
  5
9AB
330
1F
100
AcDbEntity
  8
Plastico
370
    20
100
AcDbLine
 10
295.8643467770862
 20
148.3780880974029
 30
0.0
 11
292.6643467770871
 21
148.3780880974031
 31
0.0
  0
ARC
  5
9AC
330
1F
100
AcDbEntity
  8
Plastico
370
    20
100
AcDbCircle
 10
292.6643467770871
 20
148.8780880974031
 30
0.0
 40
0.5
100
AcDbArc
 50
180.0
 51
270.0
  0
LINE
  5
9AD
330
1F
100
AcDbEntity
  8
Plastico
370
    20
100
AcDbLine
 10
292.164346777087
 20
149.6780880974041
 30
0.0
 11
292.1643467770871
 21
148.8780880974031
 31
0.0
  0
ARC
  5
9AE
330
1F
100
AcDbEntity
  8
Plastico
370
    20
100
AcDbCircle
 10
295.8643467770862
 20
148.8780880974029
 30
0.0
 40
0.5
100
AcDbArc
 50
270.0
 51
0.0
  0
LINE
  5
9AF
330
1F
100
AcDbEntity
  8
Plastico
370
    20
100
AcDbLine
 10
296.3643467770861
 20
149.6780880974041
 30
0.0
 11
296.3643467770861
 21
148.8780880974029
 31
0.0
  0
LINE
  5
9B0
330
1F
100
AcDbEntity
  8
Plastico
370
    20
100
AcDbLine
 10
309.9643467770861
 20
148.3780880974032
 30
0.0
 11
306.764346777087
 21
148.3780880974035
 31
0.0
  0
ARC
  5
9B1
330
1F
100
AcDbEntity
  8
Plastico
370
    20
100
AcDbCircle
 10
306.764346777087
 20
148.8780880974035
 30
0.0
 40
0.5
100
AcDbArc
 50
180.0
 51
270.0
  0
LINE
  5
9B2
330
1F
100
AcDbEntity
  8
Plastico
370
    20
100
AcDbLine
 10
306.2643467770869
 20
149.6780880974041
 30
0.0
 11
306.264346777087
 21
148.8780880974031
 31
0.0
  0
ARC
  5
9B3
330
1F
100
AcDbEntity
  8
Plastico
370
    20
100
AcDbCircle
 10
309.9643467770861
 20
148.8780880974032
 30
0.0
 40
0.5
100
AcDbArc
 50
270.0
 51
0.0
  0
LINE
  5
9B4
330
1F
100
AcDbEntity
  8
Plastico
370
    20
100
AcDbLine
 10
310.464346777086
 20
149.6780880974041
 30
0.0
 11
310.464346777086
 21
148.8780880974029
 31
0.0
  0
LINE
  5
9B5
330
1F
100
AcDbEntity
  8
Plastico
370
    20
100
AcDbLine
 10
298.8593467770867
 20
164.9780880973962
 30
0.0
 11
298.0093467770867
 21
164.9780880973962
 31
0.0
  0
LINE
  5
9B6
330
1F
100
AcDbEntity
  8
Plastico
370
    20
100
AcDbLine
 10
298.8593467770867
 20
164.9780880973962
 30
0.0
 11
298.0093467770866
 21
164.9780880973962
 31
0.0
  0
LINE
  5
9B7
330
1F
100
AcDbEntity
  8
Plastico
370
    20
100
AcDbLine
 10
298.8593467770866
 20
164.9780880973962
 30
0.0
 11
298.0093467770867
 21
164.9780880973962
 31
0.0
  0
LINE
  5
9B8
330
1F
100
AcDbEntity
  8
Plastico
370
    20
100
AcDbLine
 10
298.0093467770867
 20
164.978088097396
 30
0.0
 11
298.8593467770867
 21
164.978088097396
 31
0.0
  0
LINE
  5
9B9
330
1F
100
AcDbEntity
  8
Plastico
370
    20
100
AcDbLine
 10
289.7643467770864
 20
165.6780880973942
 30
0.0
 11
289.7643467770864
 21
161.8780880974024
 31
0.0
  0
LINE
  5
9BA
330
1F
100
AcDbEntity
  8
Plastico
 62
     0
100
AcDbLine
 10
286.3143467770864
 20
167.8780880974027
 30
0.0
 11
286.3143467770866
 21
159.8780880974043
 31
0.0
  0
LINE
  5
9BB
330
1F
100
AcDbEntity
  8
Plastico
 62
     0
100
AcDbLine
 10
285.2143467770864
 20
167.8780880974028
 30
0.0
 11
285.2143467770865
 21
159.8780880974043
 31
0.0
  0
LINE
  5
9BC
330
1F
100
AcDbEntity
  8
Plastico
 62
     0
100
AcDbLine
 10
284.1143467770864
 20
167.8780880974029
 30
0.0
 11
284.1143467770865
 21
159.8780880974043
 31
0.0
  0
LINE
  5
9BD
330
1F
100
AcDbEntity
  8
Plastico
 62
     0
100
AcDbLine
 10
283.0143467770865
 20
167.878088097403
 30
0.0
 11
283.0143467770865
 21
159.8780880974043
 31
0.0
  0
LINE
  5
9BE
330
1F
100
AcDbEntity
  8
Plastico
 62
     0
100
AcDbLine
 10
287.4143467770863
 20
167.8780880974026
 30
0.0
 11
287.4143467770864
 21
159.8780880974043
 31
0.0
  0
LINE
  5
9BF
330
1F
100
AcDbEntity
  8
Plastico
 62
     0
100
AcDbLine
 10
288.5143467770864
 20
167.8780880974026
 30
0.0
 11
288.5143467770865
 21
159.8780880974043
 31
0.0
  0
LINE
  5
9C0
330
1F
100
AcDbEntity
  8
Plastico
 62
     0
100
AcDbLine
 10
281.9143467770865
 20
167.878088097403
 30
0.0
 11
281.9143467770865
 21
159.8780880974043
 31
0.0
  0
LINE
  5
9C1
330
1F
100
AcDbEntity
  8
Plastico
 62
     0
100
AcDbLine
 10
280.8143467770864
 20
167.8780880974031
 30
0.0
 11
280.8143467770865
 21
159.8780880974043
 31
0.0
  0
LINE
  5
9C2
330
1F
100
AcDbEntity
  8
Plastico
 62
     0
100
AcDbLine
 10
287.4143467770864
 20
159.8780880974043
 30
0.0
 11
288.5143467770865
 21
159.8780880974043
 31
0.0
  0
LINE
  5
9C3
330
1F
100
AcDbEntity
  8
Plastico
 62
     0
100
AcDbLine
 10
283.0143467770865
 20
159.8780880974043
 30
0.0
 11
284.1143467770865
 21
159.8780880974043
 31
0.0
  0
LINE
  5
9C4
330
1F
100
AcDbEntity
  8
Plastico
370
    20
100
AcDbLine
 10
279.564346777086
 20
161.3780880974024
 30
0.0
 11
280.8143467770861
 21
161.3780880974024
 31
0.0
  0
LINE
  5
9C5
330
1F
100
AcDbEntity
  8
Plastico
370
    20
100
AcDbLine
 10
283.0143467770865
 20
161.3780880974034
 30
0.0
 11
281.9143467770865
 21
161.3780880974034
 31
0.0
  0
LINE
  5
9C6
330
1F
100
AcDbEntity
  8
Plastico
 62
     0
100
AcDbLine
 10
280.8143467770865
 20
159.8780880974043
 30
0.0
 11
281.9143467770865
 21
159.8780880974043
 31
0.0
  0
LINE
  5
9C7
330
1F
100
AcDbEntity
  8
Plastico
370
    20
100
AcDbLine
 10
287.4143467770864
 20
161.3780880974033
 30
0.0
 11
286.3143467770866
 21
161.3780880974033
 31
0.0
  0
LINE
  5
9C8
330
1F
100
AcDbEntity
  8
Plastico
370
    20
100
AcDbLine
 10
285.2143467770865
 20
161.3780880974033
 30
0.0
 11
284.1143467770865
 21
161.3780880974034
 31
0.0
  0
LINE
  5
9C9
330
1F
100
AcDbEntity
  8
Plastico
 62
     0
100
AcDbLine
 10
285.2143467770865
 20
159.8780880974043
 30
0.0
 11
286.3143467770866
 21
159.8780880974043
 31
0.0
  0
ARC
  5
9CA
330
1F
100
AcDbEntity
  8
Plastico
370
    20
100
AcDbCircle
 10
290.2643467770864
 20
161.8780880974024
 30
0.0
 40
0.5
100
AcDbArc
 50
180.0
 51
270.0
  0
LINE
  5
9CB
330
1F
100
AcDbEntity
  8
Plastico
370
    20
100
AcDbLine
 10
288.514346777086
 20
161.3780880974024
 30
0.0
 11
292.1643467770863
 21
161.3780880974024
 31
0.0
  0
LINE
  5
9CC
330
1F
100
AcDbEntity
  8
Plastico
 62
     0
100
AcDbLine
 10
287.4143467770863
 20
167.8780880974026
 30
0.0
 11
288.5143467770864
 21
167.8780880974026
 31
0.0
  0
LINE
  5
9CD
330
1F
100
AcDbEntity
  8
Plastico
 62
     0
100
AcDbLine
 10
283.0143467770865
 20
167.8780880974027
 30
0.0
 11
284.1143467770865
 21
167.8780880974026
 31
0.0
  0
LINE
  5
9CE
330
1F
100
AcDbEntity
  8
Plastico
 62
     0
100
AcDbLine
 10
280.8143467770865
 20
167.8780880974026
 30
0.0
 11
281.9143467770865
 21
167.8780880974027
 31
0.0
  0
LINE
  5
9CF
330
1F
100
AcDbEntity
  8
Plastico
 62
     0
100
AcDbLine
 10
285.2143467770865
 20
167.8780880974026
 30
0.0
 11
286.3143467770866
 21
167.8780880974026
 31
0.0
  0
LINE
  5
9D0
330
1F
100
AcDbEntity
  8
Plastico
370
    20
100
AcDbLine
 10
297.1593467770869
 20
164.1780880973963
 30
0.0
 11
297.1593467770867
 21
167.8780880974026
 31
0.0
  0
LINE
  5
9D1
330
1F
100
AcDbEntity
  8
Plastico
370
    20
100
AcDbLine
 10
298.0093467770869
 20
164.1780880973963
 30
0.0
 11
298.0093467770869
 21
167.8780880974026
 31
0.0
  0
LINE
  5
9D2
330
1F
100
AcDbEntity
  8
Plastico
370
    20
100
AcDbLine
 10
295.8643467770863
 20
166.1780880973942
 30
0.0
 11
290.2643467770864
 21
166.1780880973942
 31
0.0
  0
ARC
  5
9D3
330
1F
100
AcDbEntity
  8
Plastico
370
    20
100
AcDbCircle
 10
290.2643467770864
 20
165.6780880973942
 30
0.0
 40
0.5
100
AcDbArc
 50
90.0
 51
180.0
  0
LINE
  5
9D4
330
1F
100
AcDbEntity
  8
Plastico
370
    20
100
AcDbLine
 10
298.0093467770867
 20
164.978088097396
 30
0.0
 11
298.0093467770868
 21
164.1780880973963
 31
0.0
  0
LINE
  5
9D5
330
1F
100
AcDbEntity
  8
Plastico
370
    20
100
AcDbLine
 10
297.1593467770867
 20
164.978088097396
 30
0.0
 11
297.1593467770867
 21
164.178088097396
 31
0.0
  0
LINE
  5
9D6
330
1F
100
AcDbEntity
  8
Plastico
370
    20
100
AcDbLine
 10
297.1593467770868
 20
164.978088097396
 30
0.0
 11
296.3643467770861
 21
164.978088097396
 31
0.0
  0
LINE
  5
9D7
330
1F
100
AcDbEntity
  8
Plastico
370
    20
100
AcDbLine
 10
296.3643467770863
 20
164.978088097396
 30
0.0
 11
297.1593467770868
 21
164.978088097396
 31
0.0
  0
LINE
  5
9D8
330
1F
100
AcDbEntity
  8
Plastico
370
    20
100
AcDbLine
 10
298.0093467770868
 20
164.1780880973963
 30
0.0
 11
297.1593467770868
 21
164.178088097396
 31
0.0
  0
ARC
  5
9D9
330
1F
100
AcDbEntity
  8
Plastico
370
    20
100
AcDbCircle
 10
295.8643467770863
 20
165.6780880973942
 30
0.0
 40
0.5
100
AcDbArc
 50
0.0
 51
90.0
  0
LINE
  5
9DA
330
1F
100
AcDbEntity
  8
Plastico
370
    20
100
AcDbLine
 10
298.0093467770869
 20
167.8780880974026
 30
0.0
 11
297.1593467770868
 21
167.8780880974026
 31
0.0
  0
LINE
  5
9DB
330
1F
100
AcDbEntity
  8
Plastico
370
    20
100
AcDbLine
 10
309.9643467770863
 20
169.3780880973949
 30
0.0
 11
304.3643467770867
 21
169.3780880973954
 31
0.0
  0
LINE
  5
9DC
330
1F
100
AcDbEntity
  8
Plastico
370
    20
100
AcDbLine
 10
303.8643467770866
 20
168.8780880973953
 30
0.0
 11
303.8643467770873
 21
164.8780880974031
 31
0.0
  0
LINE
  5
9DD
330
1F
100
AcDbEntity
  8
Plastico
370
    20
100
AcDbLine
 10
303.1093467770869
 20
164.1780880973972
 30
0.0
 11
303.1093467770868
 21
168.9780880974017
 31
0.0
  0
LINE
  5
9DE
330
1F
100
AcDbEntity
  8
Plastico
370
    20
100
AcDbLine
 10
298.8593467770869
 20
164.1780880973965
 30
0.0
 11
298.8593467770867
 21
167.8780880974026
 31
0.0
  0
LINE
  5
9DF
330
1F
100
AcDbEntity
  8
Plastico
370
    20
100
AcDbLine
 10
299.709346777087
 20
164.1780880973965
 30
0.0
 11
299.709346777087
 21
167.8780880974026
 31
0.0
  0
LINE
  5
9E0
330
1F
100
AcDbEntity
  8
Plastico
370
    20
100
AcDbLine
 10
300.5593467770868
 20
164.1780880973967
 30
0.0
 11
300.5593467770868
 21
167.8780880974026
 31
0.0
  0
LINE
  5
9E1
330
1F
100
AcDbEntity
  8
Plastico
370
    20
100
AcDbLine
 10
301.4093467770869
 20
164.178088097397
 30
0.0
 11
301.4093467770869
 21
167.8780880974026
 31
0.0
  0
LINE
  5
9E2
330
1F
100
AcDbEntity
  8
Plastico
370
    20
100
AcDbLine
 10
302.2593467770869
 20
164.1780880973972
 30
0.0
 11
302.2593467770867
 21
168.9780880974017
 31
0.0
  0
LINE
  5
9E3
330
1F
100
AcDbEntity
  8
Plastico
370
    20
100
AcDbLine
 10
303.1093467770867
 20
164.978088097396
 30
0.0
 11
303.1093467770867
 21
164.1780880973972
 31
0.0
  0
LINE
  5
9E4
330
1F
100
AcDbEntity
  8
Plastico
370
    20
100
AcDbLine
 10
300.5593467770867
 20
164.978088097396
 30
0.0
 11
299.7093467770867
 21
164.9780880973962
 31
0.0
  0
LINE
  5
9E5
330
1F
100
AcDbEntity
  8
Plastico
370
    20
100
AcDbLine
 10
300.5593467770867
 20
164.9780880973962
 30
0.0
 11
299.7093467770867
 21
164.9780880973962
 31
0.0
  0
LINE
  5
9E6
330
1F
100
AcDbEntity
  8
Plastico
370
    20
100
AcDbLine
 10
300.5593467770867
 20
164.978088097396
 30
0.0
 11
299.7093467770867
 21
164.978088097396
 31
0.0
  0
LINE
  5
9E7
330
1F
100
AcDbEntity
  8
Plastico
370
    20
100
AcDbLine
 10
299.7093467770867
 20
164.978088097396
 30
0.0
 11
300.5593467770867
 21
164.978088097396
 31
0.0
  0
LINE
  5
9E8
330
1F
100
AcDbEntity
  8
Plastico
370
    20
100
AcDbLine
 10
299.7093467770867
 20
164.978088097396
 30
0.0
 11
299.7093467770867
 21
164.1780880973965
 31
0.0
  0
LINE
  5
9E9
330
1F
100
AcDbEntity
  8
Plastico
370
    20
100
AcDbLine
 10
298.8593467770867
 20
164.978088097396
 30
0.0
 11
298.8593467770867
 21
164.1780880973963
 31
0.0
  0
LINE
  5
9EA
330
1F
100
AcDbEntity
  8
Plastico
370
    20
100
AcDbLine
 10
299.7093467770869
 20
164.1780880973965
 30
0.0
 11
298.8593467770868
 21
164.178088097396
 31
0.0
  0
LINE
  5
9EB
330
1F
100
AcDbEntity
  8
Plastico
370
    20
100
AcDbLine
 10
302.2593467770868
 20
164.978088097396
 30
0.0
 11
301.4093467770867
 21
164.978088097396
 31
0.0
  0
LINE
  5
9EC
330
1F
100
AcDbEntity
  8
Plastico
370
    20
100
AcDbLine
 10
302.2593467770867
 20
164.978088097396
 30
0.0
 11
302.2593467770867
 21
164.178088097397
 31
0.0
  0
LINE
  5
9ED
330
1F
100
AcDbEntity
  8
Plastico
370
    20
100
AcDbLine
 10
301.4093467770867
 20
164.978088097396
 30
0.0
 11
301.4093467770866
 21
164.178088097397
 31
0.0
  0
LINE
  5
9EE
330
1F
100
AcDbEntity
  8
Plastico
370
    20
100
AcDbLine
 10
302.2593467770867
 20
164.978088097396
 30
0.0
 11
301.4093467770867
 21
164.978088097396
 31
0.0
  0
LINE
  5
9EF
330
1F
100
AcDbEntity
  8
Plastico
370
    20
100
AcDbLine
 10
302.2593467770868
 20
164.9780880973962
 30
0.0
 11
301.4093467770867
 21
164.9780880973962
 31
0.0
  0
LINE
  5
9F0
330
1F
100
AcDbEntity
  8
Plastico
370
    20
100
AcDbLine
 10
301.4093467770868
 20
164.978088097396
 30
0.0
 11
302.2593467770867
 21
164.978088097396
 31
0.0
  0
LINE
  5
9F1
330
1F
100
AcDbEntity
  8
Plastico
370
    20
100
AcDbLine
 10
300.5593467770867
 20
164.978088097396
 30
0.0
 11
300.5593467770868
 21
164.1780880973967
 31
0.0
  0
LINE
  5
9F2
330
1F
100
AcDbEntity
  8
Plastico
370
    20
100
AcDbLine
 10
301.4093467770868
 20
164.1780880973967
 30
0.0
 11
300.5593467770868
 21
164.1780880973967
 31
0.0
  0
LINE
  5
9F3
330
1F
100
AcDbEntity
  8
Plastico
370
    20
100
AcDbLine
 10
303.1093467770868
 20
164.1780880973972
 30
0.0
 11
302.2593467770868
 21
164.178088097397
 31
0.0
  0
ARC
  5
9F4
330
1F
100
AcDbEntity
  8
Plastico
370
    20
100
AcDbCircle
 10
304.3643467770873
 20
164.8780880974031
 30
0.0
 40
0.5
100
AcDbArc
 50
180.0000000000065
 51
269.9999999999935
  0
LINE
  5
9F5
330
1F
100
AcDbEntity
  8
Plastico
370
    20
100
AcDbLine
 10
306.2643467770865
 20
164.3780880974029
 30
0.0
 11
304.3643467770873
 21
164.3780880974031
 31
0.0
  0
LINE
  5
9F6
330
1F
100
AcDbEntity
  8
Plastico
370
    20
100
AcDbLine
 10
303.8643467770873
 20
164.978088097396
 30
0.0
 11
303.2393467770867
 21
164.978088097396
 31
0.0
  0
LINE
  5
9F7
330
1F
100
AcDbEntity
  8
Plastico
370
    20
100
AcDbLine
 10
303.2393467770867
 20
164.9780880973962
 30
0.0
 11
303.8643467770872
 21
164.9780880973962
 31
0.0
  0
LINE
  5
9F8
330
1F
100
AcDbEntity
  8
Plastico
370
    20
100
AcDbLine
 10
301.4093467770869
 20
167.8780880974026
 30
0.0
 11
300.5593467770868
 21
167.8780880974026
 31
0.0
  0
LINE
  5
9F9
330
1F
100
AcDbEntity
  8
Plastico
370
    20
100
AcDbLine
 10
299.709346777087
 20
167.8780880974026
 30
0.0
 11
298.8593467770868
 21
167.8780880974026
 31
0.0
  0
LINE
  5
9FA
330
1F
100
AcDbEntity
  8
Plastico
370
    20
100
AcDbLine
 10
303.1093467770868
 20
168.9780880974017
 30
0.0
 11
302.2593467770867
 21
168.9780880974017
 31
0.0
  0
ARC
  5
9FB
330
1F
100
AcDbEntity
  8
Plastico
370
    20
100
AcDbCircle
 10
304.3643467770866
 20
168.8780880973955
 30
0.0
 40
0.5
100
AcDbArc
 50
89.99999999999511
 51
180.0000000000081
  0
ARC
  5
9FC
330
1F
100
AcDbEntity
  8
Plastico
370
    20
100
AcDbCircle
 10
309.9643467770863
 20
168.878088097395
 30
0.0
 40
0.5
100
AcDbArc
 50
0.0
 51
90.0
  0
ARC
  5
9FD
330
1F
100
AcDbEntity
  8
Plastico
370
    20
100
AcDbCircle
 10
310.9643467770862
 20
168.2780880973958
 30
0.0
 40
0.5
100
AcDbArc
 50
89.99999999999349
 51
180.0
  0
LINE
  5
9FE
330
1F
100
AcDbEntity
  8
Plastico
370
    20
100
AcDbLine
 10
320.3643467770865
 20
161.3780880974033
 30
0.0
 11
320.364346777087
 21
149.6780880974041
 31
0.0
  0
LINE
  5
9FF
330
1F
100
AcDbEntity
  8
Plastico
370
    20
100
AcDbLine
 10
324.5643467770861
 20
173.0780880974032
 30
0.0
 11
324.5643467770861
 21
149.6780880974041
 31
0.0
  0
LINE
  5
A00
330
1F
100
AcDbEntity
  8
Plastico
370
    20
100
AcDbLine
 10
324.0643467770856
 20
148.3780880974036
 30
0.0
 11
320.8643467770866
 21
148.3780880974038
 31
0.0
  0
ARC
  5
A01
330
1F
100
AcDbEntity
  8
Plastico
370
    20
100
AcDbCircle
 10
320.8643467770866
 20
148.8780880974038
 30
0.0
 40
0.5
100
AcDbArc
 50
180.0
 51
270.0
  0
LINE
  5
A02
330
1F
100
AcDbEntity
  8
Plastico
370
    20
100
AcDbLine
 10
320.3643467770868
 20
149.6780880974041
 30
0.0
 11
320.364346777087
 21
148.8780880974035
 31
0.0
  0
ARC
  5
A03
330
1F
100
AcDbEntity
  8
Plastico
370
    20
100
AcDbCircle
 10
324.0643467770856
 20
148.8780880974036
 30
0.0
 40
0.5
100
AcDbArc
 50
270.0
 51
0.0
  0
ARC
  5
A04
330
1F
100
AcDbEntity
  8
Plastico
370
    20
100
AcDbCircle
 10
324.0643467770856
 20
148.8780880974036
 30
0.0
 40
0.5
100
AcDbArc
 50
270.0
 51
0.0
  0
LINE
  5
A05
330
1F
100
AcDbEntity
  8
Plastico
370
    20
100
AcDbLine
 10
324.564346777086
 20
149.6780880974041
 30
0.0
 11
324.564346777086
 21
148.8780880974032
 31
0.0
  0
LINE
  5
A06
330
1F
100
AcDbEntity
  8
Plastico
370
    20
100
AcDbLine
 10
320.3643467770862
 20
168.2780880973948
 30
0.0
 11
320.3643467770863
 21
161.3780880974033
 31
0.0
  0
LINE
  5
A07
330
1F
100
AcDbEntity
  8
Plastico
370
    20
100
AcDbLine
 10
318.4643467770864
 20
173.5780880974032
 30
0.0
 11
324.0643467770861
 21
173.5780880974032
 31
0.0
  0
ARC
  5
A08
330
1F
100
AcDbEntity
  8
Plastico
370
    20
100
AcDbCircle
 10
319.8643467770862
 20
168.2780880973948
 30
0.0
 40
0.5
100
AcDbArc
 50
0.0
 51
90.0
  0
LINE
  5
A09
330
1F
100
AcDbEntity
  8
Plastico
370
    20
100
AcDbLine
 10
317.9643467770864
 20
173.0780880974031
 30
0.0
 11
317.964346777087
 21
169.2780880973949
 31
0.0
  0
LINE
  5
A0A
330
1F
100
AcDbEntity
  8
Plastico
370
    20
100
AcDbLine
 10
207.2893467770867
 20
166.1780880973956
 30
0.0
 11
200.2643467770859
 21
166.1780880973958
 31
0.0
  0
LINE
  5
A0B
330
1F
100
AcDbEntity
  8
Plastico
370
    20
100
AcDbLine
 10
199.7643467770859
 20
165.6780880973958
 30
0.0
 11
199.764346777086
 21
161.8780880974027
 31
0.0
  0
LINE
  5
A0C
330
1F
100
AcDbEntity
  8
Plastico
370
    20
100
AcDbLine
 10
200.1643467770862
 20
161.3780880974024
 30
0.0
 11
202.164346777086
 21
161.3780880974024
 31
0.0
  0
LINE
  5
A0D
330
1F
100
AcDbEntity
  8
Plastico
370
    20
100
AcDbLine
 10
200.5643467770861
 20
161.3780880974027
 30
0.0
 11
202.164346777086
 21
161.3780880974027
 31
0.0
  0
ARC
  5
A0E
330
1F
100
AcDbEntity
  8
Plastico
370
    20
100
AcDbCircle
 10
200.2643467770861
 20
161.8780880974027
 30
0.0
 40
0.5
100
AcDbArc
 50
180.0
 51
270.0
  0
ARC
  5
A0F
330
1F
100
AcDbEntity
  8
Plastico
370
    20
100
AcDbCircle
 10
200.2643467770859
 20
165.6780880973958
 30
0.0
 40
0.5
100
AcDbArc
 50
90.0
 51
180.0
  0
ARC
  5
A10
330
1F
100
AcDbEntity
  8
Plastico
370
    20
100
AcDbCircle
 10
245.2643467770859
 20
165.6780880973944
 30
0.0
 40
0.5
100
AcDbArc
 50
90.0
 51
180.0
  0
LINE
  5
A11
330
1F
100
AcDbEntity
  8
Plastico
370
    20
100
AcDbLine
 10
247.1643467770864
 20
161.3780880974033
 30
0.0
 11
243.5143467770858
 21
161.3780880974033
 31
0.0
  0
ARC
  5
A12
330
1F
100
AcDbEntity
  8
Plastico
370
    20
100
AcDbCircle
 10
245.2643467770859
 20
161.8780880974034
 30
0.0
 40
0.5
100
AcDbArc
 50
180.0
 51
270.0
  0
LINE
  5
A13
330
1F
100
AcDbEntity
  8
Plastico
370
    20
100
AcDbLine
 10
225.6393467770865
 20
159.8780880974038
 30
0.0
 11
224.7893467770865
 21
159.8780880974036
 31
0.0
  0
LINE
  5
A14
330
1F
100
AcDbEntity
  8
Plastico
370
    20
100
AcDbLine
 10
227.9643467770862
 20
169.9780880973948
 30
0.0
 11
214.3643467770858
 21
169.9780880973958
 31
0.0
  0
LINE
  5
A15
330
1F
100
AcDbEntity
  8
Plastico
370
    20
100
AcDbLine
 10
225.6393467770865
 20
168.9780880974032
 30
0.0
 11
224.7893467770864
 21
168.9780880974032
 31
0.0
  0
LINE
  5
A16
330
1F
100
AcDbEntity
  8
Plastico
370
    20
100
AcDbLine
 10
224.7893467770865
 20
161.3780880974031
 30
0.0
 11
224.7893467770863
 21
168.9780880974031
 31
0.0
  0
LINE
  5
A17
330
1F
100
AcDbEntity
  8
Plastico
370
    20
100
AcDbLine
 10
221.3893467770865
 20
161.3780880974031
 30
0.0
 11
221.3893467770863
 21
167.8780880974042
 31
0.0
  0
LINE
  5
A18
330
1F
100
AcDbEntity
  8
Plastico
370
    20
100
AcDbLine
 10
222.2393467770865
 20
161.3780880974031
 30
0.0
 11
222.2393467770865
 21
167.878088097404
 31
0.0
  0
LINE
  5
A19
330
1F
100
AcDbEntity
  8
Plastico
370
    20
100
AcDbLine
 10
223.0893467770866
 20
161.3780880974031
 30
0.0
 11
223.0893467770863
 21
167.878088097404
 31
0.0
  0
LINE
  5
A1A
330
1F
100
AcDbEntity
  8
Plastico
370
    20
100
AcDbLine
 10
223.9393467770866
 20
161.3780880974031
 30
0.0
 11
223.9393467770866
 21
167.8780880974039
 31
0.0
  0
LINE
  5
A1B
330
1F
100
AcDbEntity
  8
Plastico
370
    20
100
AcDbLine
 10
215.4643467770861
 20
164.3780880974033
 30
0.0
 11
215.464346777086
 21
161.3780880974031
 31
0.0
  0
LINE
  5
A1C
330
1F
100
AcDbEntity
  8
Plastico
370
    20
100
AcDbLine
 10
212.3893467770867
 20
161.3780880974029
 30
0.0
 11
212.3893467770866
 21
165.2198305279066
 31
0.0
  0
LINE
  5
A1D
330
1F
100
AcDbEntity
  8
Plastico
370
    20
100
AcDbLine
 10
213.2393467770867
 20
161.3780880974029
 30
0.0
 11
213.2393467770869
 21
165.2198305279066
 31
0.0
  0
LINE
  5
A1E
330
1F
100
AcDbEntity
  8
Plastico
370
    20
100
AcDbLine
 10
215.4643467770861
 20
164.3780880974031
 30
0.0
 11
215.464346777086
 21
161.3780880974029
 31
0.0
  0
LINE
  5
A1F
330
1F
100
AcDbEntity
  8
Plastico
370
    20
100
AcDbLine
 10
211.5393467770867
 20
161.3780880974029
 30
0.0
 11
211.5393467770867
 21
166.8780880974031
 31
0.0
  0
LINE
  5
A20
330
1F
100
AcDbEntity
  8
Plastico
370
    20
100
AcDbLine
 10
210.6893467770867
 20
161.3780880974029
 30
0.0
 11
210.6893467770866
 21
166.8780880974031
 31
0.0
  0
LINE
  5
A21
330
1F
100
AcDbEntity
  8
Plastico
370
    20
100
AcDbLine
 10
207.2893467770867
 20
161.3780880974029
 30
0.0
 11
207.2893467770867
 21
166.8780880974031
 31
0.0
  0
LINE
  5
A22
330
1F
100
AcDbEntity
  8
Plastico
370
    20
100
AcDbLine
 10
208.9893467770867
 20
161.3780880974029
 30
0.0
 11
208.9893467770866
 21
166.8780880974031
 31
0.0
  0
LINE
  5
A23
330
1F
100
AcDbEntity
  8
Plastico
370
    20
100
AcDbLine
 10
209.8393467770868
 20
161.3780880974029
 30
0.0
 11
209.8393467770868
 21
166.8780880974031
 31
0.0
  0
LINE
  5
A24
330
1F
100
AcDbEntity
  8
Plastico
370
    20
100
AcDbLine
 10
208.1393467770867
 20
161.3780880974029
 30
0.0
 11
208.1393467770866
 21
166.8780880974031
 31
0.0
  0
LINE
  5
A25
330
1F
100
AcDbEntity
  8
Plastico
370
    20
100
AcDbLine
 10
214.1643467770869
 20
165.2198305279066
 30
0.0
 11
214.1643467770879
 21
159.8780880974043
 31
0.0
  0
LINE
  5
A26
330
1F
100
AcDbEntity
  8
Plastico
370
    20
100
AcDbLine
 10
215.464346777086
 20
161.3780880974031
 30
0.0
 11
216.2643467770863
 21
161.3780880974031
 31
0.0
  0
LINE
  5
A27
330
1F
100
AcDbEntity
  8
Plastico
370
    20
100
AcDbLine
 10
210.6893467770867
 20
161.3780880974029
 30
0.0
 11
209.8393467770868
 21
161.3780880974031
 31
0.0
  0
LINE
  5
A28
330
1F
100
AcDbEntity
  8
Plastico
370
    20
100
AcDbLine
 10
207.2893467770867
 20
161.3780880974029
 30
0.0
 11
206.3643467770858
 21
161.3780880974029
 31
0.0
  0
LINE
  5
A29
330
1F
100
AcDbEntity
  8
Plastico
370
    20
100
AcDbLine
 10
208.9893467770867
 20
161.3780880974031
 30
0.0
 11
208.1393467770867
 21
161.3780880974031
 31
0.0
  0
LINE
  5
A2A
330
1F
100
AcDbEntity
  8
Plastico
370
    20
100
AcDbLine
 10
208.1393467770867
 20
159.8780880974031
 30
0.0
 11
207.2893467770867
 21
159.8780880974029
 31
0.0
  0
LINE
  5
A2B
330
1F
100
AcDbEntity
  8
Plastico
370
    20
100
AcDbLine
 10
209.8393467770868
 20
159.8780880974033
 30
0.0
 11
208.9893467770867
 21
159.8780880974029
 31
0.0
  0
LINE
  5
A2C
330
1F
100
AcDbEntity
  8
Plastico
370
    20
100
AcDbLine
 10
207.2893467770867
 20
161.3780880974029
 30
0.0
 11
207.2893467770867
 21
159.8780880974029
 31
0.0
  0
LINE
  5
A2D
330
1F
100
AcDbEntity
  8
Plastico
370
    20
100
AcDbLine
 10
209.8393467770868
 20
161.3780880974029
 30
0.0
 11
209.8393467770868
 21
159.8780880974033
 31
0.0
  0
LINE
  5
A2E
330
1F
100
AcDbEntity
  8
Plastico
370
    20
100
AcDbLine
 10
208.9893467770867
 20
161.3780880974029
 30
0.0
 11
208.9893467770867
 21
159.8780880974029
 31
0.0
  0
LINE
  5
A2F
330
1F
100
AcDbEntity
  8
Plastico
370
    20
100
AcDbLine
 10
208.1393467770867
 20
161.3780880974029
 30
0.0
 11
208.1393467770867
 21
159.8780880974031
 31
0.0
  0
LINE
  5
A30
330
1F
100
AcDbEntity
  8
Plastico
370
    20
100
AcDbLine
 10
214.1643467770876
 20
161.3780880974029
 30
0.0
 11
213.2393467770866
 21
161.3780880974029
 31
0.0
  0
LINE
  5
A31
330
1F
100
AcDbEntity
  8
Plastico
370
    20
100
AcDbLine
 10
212.3893467770868
 20
161.3780880974029
 30
0.0
 11
211.5393467770867
 21
161.3780880974029
 31
0.0
  0
LINE
  5
A32
330
1F
100
AcDbEntity
  8
Plastico
370
    20
100
AcDbLine
 10
215.4381641796938
 20
159.8780880974045
 30
0.0
 11
214.1643467770879
 21
159.8780880974043
 31
0.0
  0
LINE
  5
A33
330
1F
100
AcDbEntity
  8
Plastico
370
    20
100
AcDbLine
 10
213.2393467770867
 20
159.878088097404
 30
0.0
 11
212.3893467770867
 21
159.8780880974038
 31
0.0
  0
LINE
  5
A34
330
1F
100
AcDbEntity
  8
Plastico
370
    20
100
AcDbLine
 10
211.5393467770867
 20
159.8780880974036
 30
0.0
 11
210.6893467770867
 21
159.8780880974033
 31
0.0
  0
LINE
  5
A35
330
1F
100
AcDbEntity
  8
Plastico
370
    20
100
AcDbLine
 10
215.4381641796938
 20
159.8780880974043
 30
0.0
 11
214.1643467770879
 21
159.878088097404
 31
0.0
  0
LINE
  5
A36
330
1F
100
AcDbEntity
  8
Plastico
370
    20
100
AcDbLine
 10
215.464346777086
 20
161.3780880974031
 30
0.0
 11
215.4381641796938
 21
159.8780880974045
 31
0.0
  0
LINE
  5
A37
330
1F
100
AcDbEntity
  8
Plastico
370
    20
100
AcDbLine
 10
213.2393467770867
 20
161.3780880974029
 30
0.0
 11
213.2393467770867
 21
159.878088097404
 31
0.0
  0
LINE
  5
A38
330
1F
100
AcDbEntity
  8
Plastico
370
    20
100
AcDbLine
 10
212.3893467770867
 20
161.3780880974029
 30
0.0
 11
212.3893467770867
 21
159.8780880974038
 31
0.0
  0
LINE
  5
A39
330
1F
100
AcDbEntity
  8
Plastico
370
    20
100
AcDbLine
 10
211.5393467770867
 20
161.3780880974029
 30
0.0
 11
211.5393467770867
 21
159.8780880974036
 31
0.0
  0
LINE
  5
A3A
330
1F
100
AcDbEntity
  8
Plastico
370
    20
100
AcDbLine
 10
210.6893467770867
 20
161.3780880974029
 30
0.0
 11
210.6893467770867
 21
159.8780880974033
 31
0.0
  0
LINE
  5
A3B
330
1F
100
AcDbEntity
  8
Plastico
370
    20
100
AcDbLine
 10
215.464346777086
 20
161.3780880974029
 30
0.0
 11
215.4381641796938
 21
159.8780880974043
 31
0.0
  0
LINE
  5
A3C
330
1F
100
AcDbEntity
  8
Plastico
370
    20
100
AcDbLine
 10
220.4643467770857
 20
161.3780880974031
 30
0.0
 11
221.3893467770865
 21
161.3780880974031
 31
0.0
  0
LINE
  5
A3D
330
1F
100
AcDbEntity
  8
Plastico
370
    20
100
AcDbLine
 10
224.7893467770865
 20
161.3780880974033
 30
0.0
 11
223.9393467770866
 21
161.3780880974033
 31
0.0
  0
LINE
  5
A3E
330
1F
100
AcDbEntity
  8
Plastico
370
    20
100
AcDbLine
 10
224.7893467770865
 20
161.3780880974031
 30
0.0
 11
223.9393467770866
 21
161.3780880974033
 31
0.0
  0
LINE
  5
A3F
330
1F
100
AcDbEntity
  8
Plastico
370
    20
100
AcDbLine
 10
223.0893467770864
 20
161.3780880974033
 30
0.0
 11
222.2393467770865
 21
161.3780880974033
 31
0.0
  0
LINE
  5
A40
330
1F
100
AcDbEntity
  8
Plastico
370
    20
100
AcDbLine
 10
223.0893467770866
 20
161.3780880974033
 30
0.0
 11
222.2393467770864
 21
161.3780880974033
 31
0.0
  0
LINE
  5
A41
330
1F
100
AcDbEntity
  8
Plastico
370
    20
100
AcDbLine
 10
223.0893467770866
 20
161.3780880974033
 30
0.0
 11
222.2393467770865
 21
161.3780880974033
 31
0.0
  0
LINE
  5
A42
330
1F
100
AcDbEntity
  8
Plastico
370
    20
100
AcDbLine
 10
221.3893467770865
 20
161.3780880974031
 30
0.0
 11
220.4643467770857
 21
161.3780880974031
 31
0.0
  0
LINE
  5
A43
330
1F
100
AcDbEntity
  8
Plastico
370
    20
100
AcDbLine
 10
223.9393467770866
 20
159.8780880974036
 30
0.0
 11
223.0893467770866
 21
159.8780880974031
 31
0.0
  0
LINE
  5
A44
330
1F
100
AcDbEntity
  8
Plastico
370
    20
100
AcDbLine
 10
222.2393467770865
 20
159.8780880974033
 30
0.0
 11
221.3893467770865
 21
159.8780880974031
 31
0.0
  0
LINE
  5
A45
330
1F
100
AcDbEntity
  8
Plastico
370
    20
100
AcDbLine
 10
221.3893467770865
 20
161.3780880974031
 30
0.0
 11
221.3893467770865
 21
159.8780880974031
 31
0.0
  0
LINE
  5
A46
330
1F
100
AcDbEntity
  8
Plastico
370
    20
100
AcDbLine
 10
223.9393467770866
 20
161.3780880974031
 30
0.0
 11
223.9393467770866
 21
159.8780880974036
 31
0.0
  0
LINE
  5
A47
330
1F
100
AcDbEntity
  8
Plastico
370
    20
100
AcDbLine
 10
223.0893467770866
 20
161.3780880974031
 30
0.0
 11
223.0893467770866
 21
159.8780880974031
 31
0.0
  0
LINE
  5
A48
330
1F
100
AcDbEntity
  8
Plastico
370
    20
100
AcDbLine
 10
222.2393467770865
 20
161.3780880974031
 30
0.0
 11
222.2393467770865
 21
159.8780880974033
 31
0.0
  0
LINE
  5
A49
330
1F
100
AcDbEntity
  8
Plastico
370
    20
100
AcDbLine
 10
224.7893467770865
 20
161.3780880974031
 30
0.0
 11
224.7893467770865
 21
159.8780880974036
 31
0.0
  0
LINE
  5
A4A
330
1F
100
AcDbEntity
  8
Plastico
370
    20
100
AcDbLine
 10
224.7893467770865
 20
161.3780880974031
 30
0.0
 11
223.9393467770866
 21
161.3780880974031
 31
0.0
  0
LINE
  5
A4B
330
1F
100
AcDbEntity
  8
Plastico
370
    20
100
AcDbLine
 10
216.2643467770862
 20
164.3780880974033
 30
0.0
 11
214.1643467770872
 21
164.3780880974036
 31
0.0
  0
LINE
  5
A4C
330
1F
100
AcDbEntity
  8
Plastico
370
    20
100
AcDbLine
 10
216.2643467770862
 20
164.3780880974031
 30
0.0
 11
214.1643467770872
 21
164.3780880974033
 31
0.0
  0
LINE
  5
A4D
330
1F
100
AcDbEntity
  8
Plastico
370
    20
100
AcDbLine
 10
213.8643467770859
 20
169.4780880973958
 30
0.0
 11
213.8643467770859
 21
165.6780880974026
 31
0.0
  0
LINE
  5
A4E
330
1F
100
AcDbEntity
  8
Plastico
370
    20
100
AcDbLine
 10
210.6893467770868
 20
166.1780880973951
 30
0.0
 11
209.8393467770868
 21
166.1780880973951
 31
0.0
  0
LINE
  5
A4F
330
1F
100
AcDbEntity
  8
Plastico
370
    20
100
AcDbLine
 10
208.1393467770866
 20
166.8780880974031
 30
0.0
 11
207.2893467770866
 21
166.8780880974029
 31
0.0
  0
LINE
  5
A50
330
1F
100
AcDbEntity
  8
Plastico
370
    20
100
AcDbLine
 10
209.8393467770868
 20
166.8780880974031
 30
0.0
 11
208.9893467770867
 21
166.8780880974029
 31
0.0
  0
LINE
  5
A51
330
1F
100
AcDbEntity
  8
Plastico
370
    20
100
AcDbLine
 10
208.9893467770867
 20
166.1780880973954
 30
0.0
 11
208.1393467770867
 21
166.1780880973954
 31
0.0
  0
ARC
  5
A52
330
1F
100
AcDbEntity
  8
Plastico
370
    20
100
AcDbCircle
 10
205.8643467770859
 20
165.6780880973953
 30
0.0
 40
0.5
100
AcDbArc
 50
0.0
 51
90.0
  0
LINE
  5
A53
330
1F
100
AcDbEntity
  8
Plastico
370
    20
100
AcDbLine
 10
211.5393467770867
 20
166.8780880974031
 30
0.0
 11
210.6893467770868
 21
166.8780880974031
 31
0.0
  0
LINE
  5
A54
330
1F
100
AcDbEntity
  8
Plastico
370
    20
100
AcDbLine
 10
213.2393467770866
 20
165.2198305279066
 30
0.0
 11
212.3893467770866
 21
165.2198305279066
 31
0.0
  0
ARC
  5
A55
330
1F
100
AcDbEntity
  8
Plastico
370
    20
100
AcDbCircle
 10
214.364346777086
 20
165.6780880974026
 30
0.0
 40
0.5
100
AcDbArc
 50
180.0
 51
246.4218215219207
  0
LINE
  5
A56
330
1F
100
AcDbEntity
  8
Plastico
370
    20
100
AcDbLine
 10
213.8643467770859
 20
166.1780880973951
 30
0.0
 11
211.5393467770867
 21
166.1780880973949
 31
0.0
  0
ARC
  5
A57
330
1F
100
AcDbEntity
  8
Plastico
370
    20
100
AcDbCircle
 10
214.3643467770858
 20
169.4780880973958
 30
0.0
 40
0.5
100
AcDbArc
 50
90.0
 51
180.0
  0
ARC
  5
A58
330
1F
100
AcDbEntity
  8
Plastico
370
    20
100
AcDbCircle
 10
219.9643467770858
 20
169.4780880973953
 30
0.0
 40
0.5
100
AcDbArc
 50
0.0
 51
89.99999999999349
  0
LINE
  5
A59
330
1F
100
AcDbEntity
  8
Plastico
370
    20
100
AcDbLine
 10
223.9393467770866
 20
167.8780880974042
 30
0.0
 11
223.0893467770864
 21
167.8780880974042
 31
0.0
  0
LINE
  5
A5A
330
1F
100
AcDbEntity
  8
Plastico
370
    20
100
AcDbLine
 10
222.2393467770865
 20
167.8780880974042
 30
0.0
 11
221.3893467770863
 21
167.8780880974042
 31
0.0
  0
LINE
  5
A5B
330
1F
100
AcDbEntity
  8
Plastico
370
    20
100
AcDbLine
 10
244.7643467770859
 20
165.6780880973944
 30
0.0
 11
244.7643467770859
 21
161.8780880974034
 31
0.0
  0
LINE
  5
A5C
330
1F
100
AcDbEntity
  8
Plastico
370
    20
100
AcDbLine
 10
230.3643467770859
 20
168.4780880973949
 30
0.0
 11
230.3643467770859
 21
161.3780880974033
 31
0.0
  0
LINE
  5
A5D
330
1F
100
AcDbEntity
  8
Plastico
370
    20
100
AcDbLine
 10
225.6393467770865
 20
161.3780880974031
 30
0.0
 11
225.6393467770865
 21
168.9780880974031
 31
0.0
  0
LINE
  5
A5E
330
1F
100
AcDbEntity
  8
Plastico
370
    20
100
AcDbLine
 10
226.4893467770865
 20
161.3780880974031
 30
0.0
 11
226.4893467770864
 21
167.8780880974038
 31
0.0
  0
LINE
  5
A5F
330
1F
100
AcDbEntity
  8
Plastico
370
    20
100
AcDbLine
 10
227.3393467770866
 20
161.3780880974031
 30
0.0
 11
227.3393467770866
 21
167.8780880974037
 31
0.0
  0
LINE
  5
A60
330
1F
100
AcDbEntity
  8
Plastico
 62
     0
100
AcDbLine
 10
243.5143467770858
 20
167.8780880974026
 30
0.0
 11
243.5143467770858
 21
159.8780880974043
 31
0.0
  0
LINE
  5
A61
330
1F
100
AcDbEntity
  8
Plastico
370
    20
100
AcDbLine
 10
228.2643467770864
 20
167.8780880974036
 30
0.0
 11
228.2643467770876
 21
159.8780880974043
 31
0.0
  0
LINE
  5
A62
330
1F
100
AcDbEntity
  8
Plastico
 62
     0
100
AcDbLine
 10
235.8143467770858
 20
167.8780880974031
 30
0.0
 11
235.8143467770859
 21
159.8780880974043
 31
0.0
  0
LINE
  5
A63
330
1F
100
AcDbEntity
  8
Plastico
 62
     0
100
AcDbLine
 10
236.9143467770858
 20
167.878088097403
 30
0.0
 11
236.9143467770859
 21
159.8780880974043
 31
0.0
  0
LINE
  5
A64
330
1F
100
AcDbEntity
  8
Plastico
 62
     0
100
AcDbLine
 10
238.0143467770859
 20
167.878088097403
 30
0.0
 11
238.0143467770858
 21
159.8780880974043
 31
0.0
  0
LINE
  5
A65
330
1F
100
AcDbEntity
  8
Plastico
 62
     0
100
AcDbLine
 10
239.1143467770858
 20
167.8780880974029
 30
0.0
 11
239.1143467770858
 21
159.8780880974043
 31
0.0
  0
LINE
  5
A66
330
1F
100
AcDbEntity
  8
Plastico
 62
     0
100
AcDbLine
 10
240.2143467770858
 20
167.8780880974028
 30
0.0
 11
240.2143467770859
 21
159.8780880974043
 31
0.0
  0
LINE
  5
A67
330
1F
100
AcDbEntity
  8
Plastico
 62
     0
100
AcDbLine
 10
241.3143467770858
 20
167.8780880974027
 30
0.0
 11
241.3143467770859
 21
159.8780880974043
 31
0.0
  0
LINE
  5
A68
330
1F
100
AcDbEntity
  8
Plastico
 62
     0
100
AcDbLine
 10
242.4143467770858
 20
167.8780880974027
 30
0.0
 11
242.4143467770858
 21
159.8780880974043
 31
0.0
  0
LINE
  5
A69
330
1F
100
AcDbEntity
  8
Plastico
370
    20
100
AcDbLine
 10
229.5643467770861
 20
167.8780880974035
 30
0.0
 11
229.5643467770857
 21
159.8780880974046
 31
0.0
  0
LINE
  5
A6A
330
1F
100
AcDbEntity
  8
Plastico
370
    20
100
AcDbLine
 10
235.8143467770859
 20
161.3780880974033
 30
0.0
 11
234.5643467770858
 21
161.3780880974033
 31
0.0
  0
LINE
  5
A6B
330
1F
100
AcDbEntity
  8
Plastico
370
    20
100
AcDbLine
 10
230.3643467770863
 20
161.3780880974036
 30
0.0
 11
229.5643467770858
 21
161.3780880974033
 31
0.0
  0
LINE
  5
A6C
330
1F
100
AcDbEntity
  8
Plastico
370
    20
100
AcDbLine
 10
230.3643467770859
 20
161.3780880974031
 30
0.0
 11
229.5643467770858
 21
161.3780880974031
 31
0.0
  0
LINE
  5
A6D
330
1F
100
AcDbEntity
  8
Plastico
370
    20
100
AcDbLine
 10
226.4893467770866
 20
161.3780880974033
 30
0.0
 11
225.6393467770865
 21
161.3780880974033
 31
0.0
  0
LINE
  5
A6E
330
1F
100
AcDbEntity
  8
Plastico
370
    20
100
AcDbLine
 10
226.4893467770865
 20
161.3780880974031
 30
0.0
 11
225.6393467770865
 21
161.3780880974031
 31
0.0
  0
LINE
  5
A6F
330
1F
100
AcDbEntity
  8
Plastico
370
    20
100
AcDbLine
 10
226.4893467770866
 20
161.3780880974031
 30
0.0
 11
225.6393467770865
 21
161.3780880974031
 31
0.0
  0
LINE
  5
A70
330
1F
100
AcDbEntity
  8
Plastico
370
    20
100
AcDbLine
 10
228.264346777086
 20
161.3780880974033
 30
0.0
 11
227.3393467770866
 21
161.3780880974031
 31
0.0
  0
LINE
  5
A71
330
1F
100
AcDbEntity
  8
Plastico
370
    20
100
AcDbLine
 10
228.264346777086
 20
161.3780880974033
 30
0.0
 11
227.3393467770866
 21
161.3780880974036
 31
0.0
  0
LINE
  5
A72
330
1F
100
AcDbEntity
  8
Plastico
370
    20
100
AcDbLine
 10
228.2643467770874
 20
161.3780880974031
 30
0.0
 11
227.3393467770864
 21
161.3780880974031
 31
0.0
  0
LINE
  5
A73
330
1F
100
AcDbEntity
  8
Plastico
370
    20
100
AcDbLine
 10
227.3393467770866
 20
159.8780880974043
 30
0.0
 11
226.4893467770865
 21
159.878088097404
 31
0.0
  0
LINE
  5
A74
330
1F
100
AcDbEntity
  8
Plastico
370
    20
100
AcDbLine
 10
229.5643467770857
 20
159.8780880974046
 30
0.0
 11
228.2643467770876
 21
159.8780880974043
 31
0.0
  0
LINE
  5
A75
330
1F
100
AcDbEntity
  8
Plastico
370
    20
100
AcDbLine
 10
225.6393467770865
 20
161.3780880974031
 30
0.0
 11
225.6393467770865
 21
159.8780880974038
 31
0.0
  0
LINE
  5
A76
330
1F
100
AcDbEntity
  8
Plastico
370
    20
100
AcDbLine
 10
227.3393467770866
 20
161.3780880974031
 30
0.0
 11
227.3393467770866
 21
159.8780880974043
 31
0.0
  0
LINE
  5
A77
330
1F
100
AcDbEntity
  8
Plastico
370
    20
100
AcDbLine
 10
226.4893467770865
 20
161.3780880974031
 30
0.0
 11
226.4893467770865
 21
159.878088097404
 31
0.0
  0
LINE
  5
A78
330
1F
100
AcDbEntity
  8
Plastico
370
    20
100
AcDbLine
 10
240.2143467770859
 20
161.3780880974033
 30
0.0
 11
239.1143467770858
 21
161.3780880974034
 31
0.0
  0
LINE
  5
A79
330
1F
100
AcDbEntity
  8
Plastico
370
    20
100
AcDbLine
 10
238.0143467770859
 20
161.3780880974034
 30
0.0
 11
236.9143467770859
 21
161.3780880974034
 31
0.0
  0
LINE
  5
A7A
330
1F
100
AcDbEntity
  8
Plastico
 62
     0
100
AcDbLine
 10
235.8143467770859
 20
159.8780880974043
 30
0.0
 11
236.9143467770859
 21
159.8780880974043
 31
0.0
  0
LINE
  5
A7B
330
1F
100
AcDbEntity
  8
Plastico
 62
     0
100
AcDbLine
 10
238.0143467770858
 20
159.8780880974043
 30
0.0
 11
239.1143467770858
 21
159.8780880974043
 31
0.0
  0
LINE
  5
A7C
330
1F
100
AcDbEntity
  8
Plastico
370
    20
100
AcDbLine
 10
242.4143467770858
 20
161.3780880974033
 30
0.0
 11
241.3143467770859
 21
161.3780880974033
 31
0.0
  0
LINE
  5
A7D
330
1F
100
AcDbEntity
  8
Plastico
 62
     0
100
AcDbLine
 10
240.2143467770859
 20
159.8780880974043
 30
0.0
 11
241.3143467770859
 21
159.8780880974043
 31
0.0
  0
LINE
  5
A7E
330
1F
100
AcDbEntity
  8
Plastico
 62
     0
100
AcDbLine
 10
242.4143467770858
 20
159.8780880974043
 30
0.0
 11
243.5143467770858
 21
159.8780880974043
 31
0.0
  0
LINE
  5
A7F
330
1F
100
AcDbEntity
  8
Plastico
370
    20
100
AcDbLine
 10
228.2643467770868
 20
166.8780880974031
 30
0.0
 11
228.2643467770866
 21
165.4780880973964
 31
0.0
  0
ARC
  5
A80
330
1F
100
AcDbEntity
  8
Plastico
370
    20
100
AcDbCircle
 10
229.3643467770858
 20
168.4780880973949
 30
0.0
 40
1.0
100
AcDbArc
 50
0.0
 51
90.0
  0
ARC
  5
A81
330
1F
100
AcDbEntity
  8
Plastico
370
    20
100
AcDbCircle
 10
228.4643467770862
 20
169.9780880973948
 30
0.0
 40
0.5
100
AcDbArc
 50
180.0
 51
270.0
  0
LINE
  5
A82
330
1F
100
AcDbEntity
  8
Plastico
370
    20
100
AcDbLine
 10
229.3643467770858
 20
169.4780880973949
 30
0.0
 11
228.4643467770862
 21
169.4780880973949
 31
0.0
  0
LINE
  5
A83
330
1F
100
AcDbEntity
  8
Plastico
370
    20
100
AcDbLine
 10
229.564346777086
 20
167.8780880974042
 30
0.0
 11
228.2643467770865
 21
167.8780880974042
 31
0.0
  0
LINE
  5
A84
330
1F
100
AcDbEntity
  8
Plastico
370
    20
100
AcDbLine
 10
227.3393467770866
 20
167.8780880974042
 30
0.0
 11
226.4893467770864
 21
167.8780880974042
 31
0.0
  0
LINE
  5
A85
330
1F
100
AcDbEntity
  8
Plastico
 62
     0
100
AcDbLine
 10
238.0143467770858
 20
167.8780880974027
 30
0.0
 11
239.1143467770858
 21
167.8780880974026
 31
0.0
  0
LINE
  5
A86
330
1F
100
AcDbEntity
  8
Plastico
 62
     0
100
AcDbLine
 10
235.8143467770859
 20
167.8780880974026
 30
0.0
 11
236.9143467770859
 21
167.8780880974027
 31
0.0
  0
LINE
  5
A87
330
1F
100
AcDbEntity
  8
Plastico
 62
     0
100
AcDbLine
 10
242.4143467770858
 20
167.8780880974026
 30
0.0
 11
243.5143467770858
 21
167.8780880974026
 31
0.0
  0
LINE
  5
A88
330
1F
100
AcDbEntity
  8
Plastico
 62
     0
100
AcDbLine
 10
240.2143467770859
 20
167.8780880974026
 30
0.0
 11
241.3143467770859
 21
167.8780880974026
 31
0.0
  0
LINE
  5
A89
330
1F
100
AcDbEntity
  8
Plastico
370
    20
100
AcDbLine
 10
264.964346777086
 20
169.3780880973954
 30
0.0
 11
259.3643467770865
 21
169.3780880973956
 31
0.0
  0
LINE
  5
A8A
330
1F
100
AcDbEntity
  8
Plastico
370
    20
100
AcDbLine
 10
260.464346777086
 20
164.3780880974033
 30
0.0
 11
260.464346777086
 21
161.3780880974031
 31
0.0
  0
LINE
  5
A8B
330
1F
100
AcDbEntity
  8
Plastico
370
    20
100
AcDbLine
 10
255.5593467770866
 20
161.3780880974031
 30
0.0
 11
255.5593467770864
 21
167.8780880974026
 31
0.0
  0
LINE
  5
A8C
330
1F
100
AcDbEntity
  8
Plastico
370
    20
100
AcDbLine
 10
256.4093467770866
 20
161.3780880974031
 30
0.0
 11
256.4093467770866
 21
167.8780880974026
 31
0.0
  0
LINE
  5
A8D
330
1F
100
AcDbEntity
  8
Plastico
370
    20
100
AcDbLine
 10
257.2593467770866
 20
161.3780880974031
 30
0.0
 11
257.2593467770865
 21
167.8780880974026
 31
0.0
  0
LINE
  5
A8E
330
1F
100
AcDbEntity
  8
Plastico
370
    20
100
AcDbLine
 10
258.1093467770866
 20
161.3780880974031
 30
0.0
 11
258.1093467770866
 21
167.8780880974026
 31
0.0
  0
LINE
  5
A8F
330
1F
100
AcDbEntity
  8
Plastico
370
    20
100
AcDbLine
 10
254.7093467770867
 20
161.3780880974031
 30
0.0
 11
254.7093467770866
 21
167.8780880974026
 31
0.0
  0
LINE
  5
A90
330
1F
100
AcDbEntity
  8
Plastico
370
    20
100
AcDbLine
 10
253.8593467770867
 20
161.3780880974031
 30
0.0
 11
253.8593467770865
 21
167.8780880974026
 31
0.0
  0
LINE
  5
A91
330
1F
100
AcDbEntity
  8
Plastico
370
    20
100
AcDbLine
 10
252.1593467770866
 20
161.3780880974031
 30
0.0
 11
252.1593467770864
 21
168.9780880974022
 31
0.0
  0
LINE
  5
A92
330
1F
100
AcDbEntity
  8
Plastico
370
    20
100
AcDbLine
 10
253.0093467770866
 20
161.3780880974031
 30
0.0
 11
253.0093467770866
 21
168.9780880974022
 31
0.0
  0
LINE
  5
A93
330
1F
100
AcDbEntity
  8
Plastico
370
    20
100
AcDbLine
 10
259.1643467770871
 20
164.419830527908
 30
0.0
 11
259.1643467770878
 21
159.8780880974043
 31
0.0
  0
LINE
  5
A94
330
1F
100
AcDbEntity
  8
Plastico
370
    20
100
AcDbLine
 10
255.5593467770866
 20
161.3780880974031
 30
0.0
 11
254.7093467770867
 21
161.3780880974031
 31
0.0
  0
LINE
  5
A95
330
1F
100
AcDbEntity
  8
Plastico
370
    20
100
AcDbLine
 10
255.5593467770866
 20
161.3780880974033
 30
0.0
 11
254.7093467770867
 21
161.3780880974033
 31
0.0
  0
LINE
  5
A96
330
1F
100
AcDbEntity
  8
Plastico
370
    20
100
AcDbLine
 10
255.5593467770866
 20
161.3780880974031
 30
0.0
 11
254.7093467770867
 21
161.3780880974033
 31
0.0
  0
LINE
  5
A97
330
1F
100
AcDbEntity
  8
Plastico
370
    20
100
AcDbLine
 10
245.1643467770863
 20
161.3780880974024
 30
0.0
 11
247.164346777086
 21
161.3780880974024
 31
0.0
  0
LINE
  5
A98
330
1F
100
AcDbEntity
  8
Plastico
370
    20
100
AcDbLine
 10
245.5643467770861
 20
161.3780880974027
 30
0.0
 11
247.164346777086
 21
161.3780880974027
 31
0.0
  0
LINE
  5
A99
330
1F
100
AcDbEntity
  8
Plastico
370
    20
100
AcDbLine
 10
253.8593467770865
 20
161.3780880974033
 30
0.0
 11
253.0093467770866
 21
161.3780880974033
 31
0.0
  0
LINE
  5
A9A
330
1F
100
AcDbEntity
  8
Plastico
370
    20
100
AcDbLine
 10
253.8593467770867
 20
161.3780880974033
 30
0.0
 11
253.0093467770865
 21
161.3780880974033
 31
0.0
  0
LINE
  5
A9B
330
1F
100
AcDbEntity
  8
Plastico
370
    20
100
AcDbLine
 10
253.8593467770867
 20
161.3780880974033
 30
0.0
 11
253.0093467770866
 21
161.3780880974033
 31
0.0
  0
LINE
  5
A9C
330
1F
100
AcDbEntity
  8
Plastico
370
    20
100
AcDbLine
 10
252.2893467770867
 20
161.3780880974031
 30
0.0
 11
251.3643467770859
 21
161.3780880974031
 31
0.0
  0
LINE
  5
A9D
330
1F
100
AcDbEntity
  8
Plastico
370
    20
100
AcDbLine
 10
253.0093467770866
 20
159.8780880974033
 30
0.0
 11
252.1593467770866
 21
159.8780880974031
 31
0.0
  0
LINE
  5
A9E
330
1F
100
AcDbEntity
  8
Plastico
370
    20
100
AcDbLine
 10
254.7093467770867
 20
159.8780880974036
 30
0.0
 11
253.8593467770867
 21
159.8780880974031
 31
0.0
  0
LINE
  5
A9F
330
1F
100
AcDbEntity
  8
Plastico
370
    20
100
AcDbLine
 10
253.0093467770866
 20
161.3780880974031
 30
0.0
 11
253.0093467770866
 21
159.8780880974033
 31
0.0
  0
LINE
  5
AA0
330
1F
100
AcDbEntity
  8
Plastico
370
    20
100
AcDbLine
 10
253.8593467770867
 20
161.3780880974031
 30
0.0
 11
253.8593467770867
 21
159.8780880974031
 31
0.0
  0
LINE
  5
AA1
330
1F
100
AcDbEntity
  8
Plastico
370
    20
100
AcDbLine
 10
254.7093467770867
 20
161.3780880974031
 30
0.0
 11
254.7093467770867
 21
159.8780880974036
 31
0.0
  0
LINE
  5
AA2
330
1F
100
AcDbEntity
  8
Plastico
370
    20
100
AcDbLine
 10
252.1593467770866
 20
161.3780880974031
 30
0.0
 11
252.1593467770866
 21
159.8780880974031
 31
0.0
  0
LINE
  5
AA3
330
1F
100
AcDbEntity
  8
Plastico
370
    20
100
AcDbLine
 10
260.4381641796937
 20
159.8780880974045
 30
0.0
 11
259.1643467770878
 21
159.8780880974043
 31
0.0
  0
LINE
  5
AA4
330
1F
100
AcDbEntity
  8
Plastico
370
    20
100
AcDbLine
 10
259.1643467770876
 20
161.3780880974031
 30
0.0
 11
258.2393467770866
 21
161.3780880974031
 31
0.0
  0
LINE
  5
AA5
330
1F
100
AcDbEntity
  8
Plastico
370
    20
100
AcDbLine
 10
257.2593467770867
 20
161.3780880974033
 30
0.0
 11
256.4093467770866
 21
161.3780880974033
 31
0.0
  0
LINE
  5
AA6
330
1F
100
AcDbEntity
  8
Plastico
370
    20
100
AcDbLine
 10
257.2593467770866
 20
161.3780880974031
 30
0.0
 11
256.4093467770866
 21
161.3780880974031
 31
0.0
  0
LINE
  5
AA7
330
1F
100
AcDbEntity
  8
Plastico
370
    20
100
AcDbLine
 10
257.2593467770867
 20
161.3780880974031
 30
0.0
 11
256.4093467770866
 21
161.3780880974031
 31
0.0
  0
LINE
  5
AA8
330
1F
100
AcDbEntity
  8
Plastico
370
    20
100
AcDbLine
 10
256.4093467770866
 20
159.8780880974038
 30
0.0
 11
255.5593467770866
 21
159.8780880974036
 31
0.0
  0
LINE
  5
AA9
330
1F
100
AcDbEntity
  8
Plastico
370
    20
100
AcDbLine
 10
258.1093467770866
 20
159.8780880974043
 30
0.0
 11
257.2593467770866
 21
159.878088097404
 31
0.0
  0
LINE
  5
AAA
330
1F
100
AcDbEntity
  8
Plastico
370
    20
100
AcDbLine
 10
255.5593467770866
 20
161.3780880974031
 30
0.0
 11
255.5593467770866
 21
159.8780880974036
 31
0.0
  0
LINE
  5
AAB
330
1F
100
AcDbEntity
  8
Plastico
370
    20
100
AcDbLine
 10
256.4093467770866
 20
161.3780880974031
 30
0.0
 11
256.4093467770866
 21
159.8780880974038
 31
0.0
  0
LINE
  5
AAC
330
1F
100
AcDbEntity
  8
Plastico
370
    20
100
AcDbLine
 10
257.2593467770866
 20
161.3780880974031
 30
0.0
 11
257.2593467770866
 21
159.878088097404
 31
0.0
  0
LINE
  5
AAD
330
1F
100
AcDbEntity
  8
Plastico
370
    20
100
AcDbLine
 10
258.1093467770866
 20
161.3780880974031
 30
0.0
 11
258.1093467770866
 21
159.8780880974043
 31
0.0
  0
LINE
  5
AAE
330
1F
100
AcDbEntity
  8
Plastico
370
    20
100
AcDbLine
 10
260.464346777086
 20
161.3780880974031
 30
0.0
 11
261.2643467770864
 21
161.3780880974031
 31
0.0
  0
LINE
  5
AAF
330
1F
100
AcDbEntity
  8
Plastico
370
    20
100
AcDbLine
 10
260.464346777086
 20
161.3780880974031
 30
0.0
 11
260.4381641796937
 21
159.8780880974045
 31
0.0
  0
LINE
  5
AB0
330
1F
100
AcDbEntity
  8
Plastico
370
    20
100
AcDbLine
 10
250.864346777086
 20
166.1780880973944
 30
0.0
 11
245.2643467770859
 21
166.1780880973944
 31
0.0
  0
ARC
  5
AB1
330
1F
100
AcDbEntity
  8
Plastico
370
    20
100
AcDbCircle
 10
250.864346777086
 20
165.6780880973944
 30
0.0
 40
0.5
100
AcDbArc
 50
0.0
 51
90.0
  0
LINE
  5
AB2
330
1F
100
AcDbEntity
  8
Plastico
370
    20
100
AcDbLine
 10
254.7093467770866
 20
167.8780880974026
 30
0.0
 11
253.8593467770865
 21
167.8780880974026
 31
0.0
  0
LINE
  5
AB3
330
1F
100
AcDbEntity
  8
Plastico
370
    20
100
AcDbLine
 10
253.0093467770866
 20
168.9780880974022
 30
0.0
 11
252.1593467770865
 21
168.9780880974022
 31
0.0
  0
LINE
  5
AB4
330
1F
100
AcDbEntity
  8
Plastico
370
    20
100
AcDbLine
 10
258.8643467770865
 20
168.8780880973956
 30
0.0
 11
258.8643467770871
 21
164.8780880974036
 31
0.0
  0
LINE
  5
AB5
330
1F
100
AcDbEntity
  8
Plastico
370
    20
100
AcDbLine
 10
261.2643467770861
 20
164.3780880974033
 30
0.0
 11
259.3643467770871
 21
164.3780880974036
 31
0.0
  0
ARC
  5
AB6
330
1F
100
AcDbEntity
  8
Plastico
370
    20
100
AcDbCircle
 10
259.3643467770871
 20
164.8780880974036
 30
0.0
 40
0.5
100
AcDbArc
 50
180.0000000000065
 51
269.9999999999935
  0
ARC
  5
AB7
330
1F
100
AcDbEntity
  8
Plastico
370
    20
100
AcDbCircle
 10
259.3643467770865
 20
168.8780880973956
 30
0.0
 40
0.5
100
AcDbArc
 50
89.99999999999349
 51
180.0000000000065
  0
LINE
  5
AB8
330
1F
100
AcDbEntity
  8
Plastico
370
    20
100
AcDbLine
 10
256.4093467770866
 20
167.8780880974026
 30
0.0
 11
255.5593467770864
 21
167.8780880974026
 31
0.0
  0
LINE
  5
AB9
330
1F
100
AcDbEntity
  8
Plastico
370
    20
100
AcDbLine
 10
258.1093467770866
 20
167.8780880974026
 30
0.0
 11
257.2593467770865
 21
167.8780880974026
 31
0.0
  0
LINE
  5
ABA
330
1F
100
AcDbEntity
  8
Plastico
370
    20
100
AcDbLine
 10
275.3643467770858
 20
168.4780880973949
 30
0.0
 11
275.3643467770859
 21
161.3780880974033
 31
0.0
  0
LINE
  5
ABB
330
1F
100
AcDbEntity
  8
Plastico
370
    20
100
AcDbLine
 10
268.9393467770865
 20
161.3780880974031
 30
0.0
 11
268.9393467770865
 21
167.8780880974039
 31
0.0
  0
LINE
  5
ABC
330
1F
100
AcDbEntity
  8
Plastico
370
    20
100
AcDbLine
 10
268.0893467770865
 20
161.3780880974031
 30
0.0
 11
268.0893467770864
 21
167.878088097404
 31
0.0
  0
LINE
  5
ABD
330
1F
100
AcDbEntity
  8
Plastico
370
    20
100
AcDbLine
 10
267.2393467770865
 20
161.3780880974031
 30
0.0
 11
267.2393467770865
 21
167.878088097404
 31
0.0
  0
LINE
  5
ABE
330
1F
100
AcDbEntity
  8
Plastico
370
    20
100
AcDbLine
 10
266.3893467770865
 20
161.3780880974031
 30
0.0
 11
266.3893467770863
 21
167.8780880974042
 31
0.0
  0
LINE
  5
ABF
330
1F
100
AcDbEntity
  8
Plastico
370
    20
100
AcDbLine
 10
269.7893467770864
 20
161.3780880974031
 30
0.0
 11
269.7893467770863
 21
168.9780880974031
 31
0.0
  0
LINE
  5
AC0
330
1F
100
AcDbEntity
  8
Plastico
370
    20
100
AcDbLine
 10
272.3393467770865
 20
161.3780880974031
 30
0.0
 11
272.3393467770866
 21
167.8780880974037
 31
0.0
  0
LINE
  5
AC1
330
1F
100
AcDbEntity
  8
Plastico
370
    20
100
AcDbLine
 10
271.4893467770865
 20
161.3780880974031
 30
0.0
 11
271.4893467770864
 21
167.8780880974038
 31
0.0
  0
LINE
  5
AC2
330
1F
100
AcDbEntity
  8
Plastico
370
    20
100
AcDbLine
 10
270.6393467770865
 20
161.3780880974031
 30
0.0
 11
270.6393467770865
 21
168.9780880974031
 31
0.0
  0
LINE
  5
AC3
330
1F
100
AcDbEntity
  8
Plastico
370
    20
100
AcDbLine
 10
274.5643467770861
 20
167.8780880974035
 30
0.0
 11
274.5643467770857
 21
159.8780880974046
 31
0.0
  0
LINE
  5
AC4
330
1F
100
AcDbEntity
  8
Plastico
370
    20
100
AcDbLine
 10
273.2643467770864
 20
167.8780880974036
 30
0.0
 11
273.2643467770876
 21
159.8780880974043
 31
0.0
  0
LINE
  5
AC5
330
1F
100
AcDbEntity
  8
Plastico
370
    20
100
AcDbLine
 10
274.5643467770857
 20
159.8780880974046
 30
0.0
 11
273.2643467770876
 21
159.8780880974043
 31
0.0
  0
LINE
  5
AC6
330
1F
100
AcDbEntity
  8
Plastico
370
    20
100
AcDbLine
 10
269.7893467770864
 20
161.3780880974031
 30
0.0
 11
268.9393467770865
 21
161.3780880974033
 31
0.0
  0
LINE
  5
AC7
330
1F
100
AcDbEntity
  8
Plastico
370
    20
100
AcDbLine
 10
269.7893467770864
 20
161.3780880974033
 30
0.0
 11
268.9393467770865
 21
161.3780880974033
 31
0.0
  0
LINE
  5
AC8
330
1F
100
AcDbEntity
  8
Plastico
370
    20
100
AcDbLine
 10
269.7893467770864
 20
161.3780880974031
 30
0.0
 11
268.9393467770865
 21
161.3780880974031
 31
0.0
  0
LINE
  5
AC9
330
1F
100
AcDbEntity
  8
Plastico
370
    20
100
AcDbLine
 10
265.4643467770859
 20
161.3780880974033
 30
0.0
 11
266.3893467770864
 21
161.3780880974031
 31
0.0
  0
LINE
  5
ACA
330
1F
100
AcDbEntity
  8
Plastico
370
    20
100
AcDbLine
 10
266.3893467770862
 20
161.3780880974033
 30
0.0
 11
265.2643467770864
 21
161.3780880974033
 31
0.0
  0
LINE
  5
ACB
330
1F
100
AcDbEntity
  8
Plastico
370
    20
100
AcDbLine
 10
268.0893467770865
 20
161.3780880974033
 30
0.0
 11
267.2393467770865
 21
161.3780880974033
 31
0.0
  0
LINE
  5
ACC
330
1F
100
AcDbEntity
  8
Plastico
370
    20
100
AcDbLine
 10
268.0893467770865
 20
161.3780880974033
 30
0.0
 11
267.2393467770864
 21
161.3780880974033
 31
0.0
  0
LINE
  5
ACD
330
1F
100
AcDbEntity
  8
Plastico
370
    20
100
AcDbLine
 10
268.0893467770864
 20
161.3780880974033
 30
0.0
 11
267.2393467770865
 21
161.3780880974033
 31
0.0
  0
LINE
  5
ACE
330
1F
100
AcDbEntity
  8
Plastico
370
    20
100
AcDbLine
 10
267.2393467770865
 20
159.8780880974033
 30
0.0
 11
266.3893467770865
 21
159.8780880974031
 31
0.0
  0
LINE
  5
ACF
330
1F
100
AcDbEntity
  8
Plastico
370
    20
100
AcDbLine
 10
268.9393467770865
 20
159.8780880974036
 30
0.0
 11
268.0893467770865
 21
159.8780880974031
 31
0.0
  0
LINE
  5
AD0
330
1F
100
AcDbEntity
  8
Plastico
370
    20
100
AcDbLine
 10
267.2393467770865
 20
161.3780880974031
 30
0.0
 11
267.2393467770865
 21
159.8780880974033
 31
0.0
  0
LINE
  5
AD1
330
1F
100
AcDbEntity
  8
Plastico
370
    20
100
AcDbLine
 10
268.0893467770865
 20
161.3780880974031
 30
0.0
 11
268.0893467770865
 21
159.8780880974031
 31
0.0
  0
LINE
  5
AD2
330
1F
100
AcDbEntity
  8
Plastico
370
    20
100
AcDbLine
 10
268.9393467770865
 20
161.3780880974031
 30
0.0
 11
268.9393467770865
 21
159.8780880974036
 31
0.0
  0
LINE
  5
AD3
330
1F
100
AcDbEntity
  8
Plastico
370
    20
100
AcDbLine
 10
266.3893467770865
 20
161.3780880974031
 30
0.0
 11
266.3893467770865
 21
159.8780880974031
 31
0.0
  0
LINE
  5
AD4
330
1F
100
AcDbEntity
  8
Plastico
370
    20
100
AcDbLine
 10
273.2643467770874
 20
161.3780880974031
 30
0.0
 11
272.3393467770864
 21
161.3780880974031
 31
0.0
  0
LINE
  5
AD5
330
1F
100
AcDbEntity
  8
Plastico
370
    20
100
AcDbLine
 10
273.264346777086
 20
161.3780880974033
 30
0.0
 11
272.3393467770865
 21
161.3780880974036
 31
0.0
  0
LINE
  5
AD6
330
1F
100
AcDbEntity
  8
Plastico
370
    20
100
AcDbLine
 10
273.264346777086
 20
161.3780880974033
 30
0.0
 11
272.3393467770865
 21
161.3780880974031
 31
0.0
  0
LINE
  5
AD7
330
1F
100
AcDbEntity
  8
Plastico
370
    20
100
AcDbLine
 10
271.4893467770866
 20
161.3780880974031
 30
0.0
 11
270.6393467770865
 21
161.3780880974031
 31
0.0
  0
LINE
  5
AD8
330
1F
100
AcDbEntity
  8
Plastico
370
    20
100
AcDbLine
 10
271.4893467770865
 20
161.3780880974031
 30
0.0
 11
270.6393467770865
 21
161.3780880974031
 31
0.0
  0
LINE
  5
AD9
330
1F
100
AcDbEntity
  8
Plastico
370
    20
100
AcDbLine
 10
271.4893467770866
 20
161.3780880974033
 30
0.0
 11
270.6393467770865
 21
161.3780880974033
 31
0.0
  0
LINE
  5
ADA
330
1F
100
AcDbEntity
  8
Plastico
370
    20
100
AcDbLine
 10
270.6393467770865
 20
159.8780880974038
 30
0.0
 11
269.7893467770864
 21
159.8780880974036
 31
0.0
  0
LINE
  5
ADB
330
1F
100
AcDbEntity
  8
Plastico
370
    20
100
AcDbLine
 10
272.3393467770865
 20
159.8780880974043
 30
0.0
 11
271.4893467770865
 21
159.878088097404
 31
0.0
  0
LINE
  5
ADC
330
1F
100
AcDbEntity
  8
Plastico
370
    20
100
AcDbLine
 10
269.7893467770864
 20
161.3780880974031
 30
0.0
 11
269.7893467770864
 21
159.8780880974036
 31
0.0
  0
LINE
  5
ADD
330
1F
100
AcDbEntity
  8
Plastico
370
    20
100
AcDbLine
 10
271.4893467770865
 20
161.3780880974031
 30
0.0
 11
271.4893467770865
 21
159.878088097404
 31
0.0
  0
LINE
  5
ADE
330
1F
100
AcDbEntity
  8
Plastico
370
    20
100
AcDbLine
 10
272.3393467770865
 20
161.3780880974031
 30
0.0
 11
272.3393467770865
 21
159.8780880974043
 31
0.0
  0
LINE
  5
ADF
330
1F
100
AcDbEntity
  8
Plastico
370
    20
100
AcDbLine
 10
270.6393467770865
 20
161.3780880974031
 30
0.0
 11
270.6393467770865
 21
159.8780880974038
 31
0.0
  0
LINE
  5
AE0
330
1F
100
AcDbEntity
  8
Plastico
370
    20
100
AcDbLine
 10
275.3643467770861
 20
161.3780880974036
 30
0.0
 11
274.5643467770856
 21
161.3780880974036
 31
0.0
  0
ARC
  5
AE1
330
1F
100
AcDbEntity
  8
Plastico
370
    20
100
AcDbCircle
 10
274.3643467770858
 20
168.4780880973949
 30
0.0
 40
1.0
100
AcDbArc
 50
0.0
 51
90.0
  0
LINE
  5
AE2
330
1F
100
AcDbEntity
  8
Plastico
370
    20
100
AcDbLine
 10
274.564346777086
 20
167.8780880974042
 30
0.0
 11
273.2643467770865
 21
167.8780880974042
 31
0.0
  0
LINE
  5
AE3
330
1F
100
AcDbEntity
  8
Plastico
370
    20
100
AcDbLine
 10
273.2643467770868
 20
166.8780880974031
 30
0.0
 11
273.2643467770866
 21
165.4780880973964
 31
0.0
  0
ARC
  5
AE4
330
1F
100
AcDbEntity
  8
Plastico
370
    20
100
AcDbCircle
 10
264.964346777086
 20
168.8780880973954
 30
0.0
 40
0.5
100
AcDbArc
 50
0.0
 51
90.0
  0
LINE
  5
AE5
330
1F
100
AcDbEntity
  8
Plastico
370
    20
100
AcDbLine
 10
267.2393467770865
 20
167.8780880974042
 30
0.0
 11
266.3893467770863
 21
167.8780880974042
 31
0.0
  0
LINE
  5
AE6
330
1F
100
AcDbEntity
  8
Plastico
370
    20
100
AcDbLine
 10
268.9393467770865
 20
167.8780880974042
 30
0.0
 11
268.0893467770864
 21
167.8780880974042
 31
0.0
  0
ARC
  5
AE7
330
1F
100
AcDbEntity
  8
Plastico
370
    20
100
AcDbCircle
 10
273.4643467770862
 20
169.9780880973948
 30
0.0
 40
0.5
100
AcDbArc
 50
180.0
 51
270.0
  0
LINE
  5
AE8
330
1F
100
AcDbEntity
  8
Plastico
370
    20
100
AcDbLine
 10
274.3643467770858
 20
169.4780880973949
 30
0.0
 11
273.4643467770862
 21
169.4780880973949
 31
0.0
  0
LINE
  5
AE9
330
1F
100
AcDbEntity
  8
Plastico
370
    20
100
AcDbLine
 10
270.6393467770865
 20
168.9780880974032
 30
0.0
 11
269.7893467770863
 21
168.9780880974032
 31
0.0
  0
LINE
  5
AEA
330
1F
100
AcDbEntity
  8
Plastico
370
    20
100
AcDbLine
 10
272.3393467770865
 20
167.8780880974042
 30
0.0
 11
271.4893467770864
 21
167.8780880974042
 31
0.0
  0
LINE
  5
AEB
330
1F
100
AcDbEntity
  8
Plastico
370
    20
100
AcDbLine
 10
374.9061685622673
 20
235.1544211872113
 30
0.0
 11
374.9061685622673
 21
227.6544211872127
 31
0.0
  0
LINE
  5
AEC
330
1F
100
AcDbEntity
  8
Plastico
370
    20
100
AcDbLine
 10
379.5061685622672
 20
216.154421187212
 30
0.0
 11
379.5061685622672
 21
240.3544211872118
 31
0.0
  0
LINE
  5
AED
330
1F
100
AcDbEntity
  8
Plastico
370
    20
100
AcDbLine
 10
365.2061685622673
 20
240.3544211872116
 30
0.0
 11
365.2061685622673
 21
229.1544211872116
 31
0.0
  0
LINE
  5
AEE
330
1F
100
AcDbEntity
  8
Plastico
370
    20
100
AcDbLine
 10
373.4061685622673
 20
240.8544211872116
 30
0.0
 11
373.4061685622673
 21
228.6544211872116
 31
0.0
  0
LINE
  5
AEF
330
1F
100
AcDbEntity
  8
Terminals
370
    20
100
AcDbLine
 10
376.4061685622671
 20
215.654421187212
 30
0.0
 11
376.4061685622672
 21
207.4544211872121
 31
0.0
  0
LINE
  5
AF0
330
1F
100
AcDbEntity
  8
Terminals
370
    20
100
AcDbLine
 10
378.7061685622671
 20
215.654421187212
 30
0.0
 11
378.7061685622672
 21
207.4544211872122
 31
0.0
  0
LINE
  5
AF1
330
1F
100
AcDbEntity
  8
Terminals
370
    20
100
AcDbLine
 10
376.4061685622672
 20
207.4544211872121
 30
0.0
 11
378.7061685622672
 21
207.4544211872122
 31
0.0
  0
LINE
  5
AF2
330
1F
100
AcDbEntity
  8
Plastico
 62
     0
100
AcDbLine
 10
367.2061685622661
 20
227.1544211872127
 30
0.0
 11
374.4061685622674
 21
227.1544211872127
 31
0.0
  0
LINE
  5
AF3
330
1F
100
AcDbEntity
  8
Plastico
370
    20
100
AcDbLine
 10
365.7061685622673
 20
228.6544211872116
 30
0.0
 11
373.4061685622673
 21
228.6544211872115
 31
0.0
  0
LINE
  5
AF4
330
1F
100
AcDbEntity
  8
Plastico
370
    20
100
AcDbLine
 10
365.7061685622671
 20
228.6544211872117
 30
0.0
 11
367.2061685622661
 21
227.1544211872127
 31
0.0
  0
ARC
  5
AF5
330
1F
100
AcDbEntity
  8
Plastico
370
    20
100
AcDbCircle
 10
365.7061685622673
 20
229.1544211872115
 30
0.0
 40
0.5
100
AcDbArc
 50
180.0
 51
270.0
  0
LINE
  5
AF6
330
1F
100
AcDbEntity
  8
Plastico
370
    20
100
AcDbLine
 10
375.6061685622672
 20
216.154421187212
 30
0.0
 11
375.6061685622672
 21
224.154421187212
 31
0.0
  0
LINE
  5
AF7
330
1F
100
AcDbEntity
  8
Terminals
370
    20
100
AcDbLine
 10
376.4061685622671
 20
211.9097769104558
 30
0.0
 11
378.7061685622671
 21
211.9097769104559
 31
0.0
  0
LINE
  5
AF8
330
1F
100
AcDbEntity
  8
Plastico
370
    20
100
AcDbLine
 10
376.1061685622672
 20
215.654421187212
 30
0.0
 11
379.0061685622672
 21
215.654421187212
 31
0.0
  0
ARC
  5
AF9
330
1F
100
AcDbEntity
  8
Plastico
370
    20
100
AcDbCircle
 10
376.1061685622672
 20
216.154421187212
 30
0.0
 40
0.5
100
AcDbArc
 50
180.0
 51
270.0
  0
ARC
  5
AFA
330
1F
100
AcDbEntity
  8
Plastico
370
    20
100
AcDbCircle
 10
379.0061685622672
 20
216.154421187212
 30
0.0
 40
0.5
100
AcDbArc
 50
270.0
 51
0.0
  0
ARC
  5
AFB
330
1F
100
AcDbEntity
  8
Plastico
 62
     0
100
AcDbCircle
 10
374.4061685622674
 20
227.6544211872127
 30
0.0
 40
0.5
100
AcDbArc
 50
270.0
 51
0.0
  0
LINE
  5
AFC
330
1F
100
AcDbEntity
  8
Plastico
370
    20
100
AcDbLine
 10
374.2728352289339
 20
227.1544211872121
 30
0.0
 11
375.6061685622672
 21
224.154421187212
 31
0.0
  0
LINE
  5
AFD
330
1F
100
AcDbEntity
  8
Plastico
370
    20
100
AcDbLine
 10
374.9061685622673
 20
228.6544211872116
 30
0.0
 11
379.5061685622672
 21
228.654421187212
 31
0.0
  0
LINE
  5
AFE
330
1F
100
AcDbEntity
  8
Plastico
 62
     0
100
AcDbLine
 10
374.9061685622673
 20
233.4544211872026
 30
0.0
 11
379.5061685622672
 21
233.4544211872027
 31
0.0
  0
LINE
  5
AFF
330
1F
100
AcDbEntity
  8
Plastico
370
    20
100
AcDbLine
 10
365.7061685622673
 20
240.8544211872116
 30
0.0
 11
379.0061685622672
 21
240.8544211872116
 31
0.0
  0
ARC
  5
B00
330
1F
100
AcDbEntity
  8
Plastico
370
    20
100
AcDbCircle
 10
365.7061685622673
 20
240.3544211872116
 30
0.0
 40
0.5
100
AcDbArc
 50
90.0
 51
180.0
  0
LINE
  5
B01
330
1F
100
AcDbEntity
  8
Plastico
 62
     0
100
AcDbLine
 10
373.4061685622673
 20
236.6544211872039
 30
0.0
 11
379.5061685622672
 21
236.6544211872039
 31
0.0
  0
LINE
  5
B02
330
1F
100
AcDbEntity
  8
Plastico
  6
ByBlock
370
    20
100
AcDbLine
 10
379.5061685622672
 20
236.6544211872034
 30
0.0
 11
373.4061685622673
 21
236.6544211872034
 31
0.0
  0
LINE
  5
B03
330
1F
100
AcDbEntity
  8
Plastico
 62
     0
100
AcDbLine
 10
374.4061685622674
 20
235.6544211872113
 30
0.0
 11
373.4061685622673
 21
235.6544211872113
 31
0.0
  0
ARC
  5
B04
330
1F
100
AcDbEntity
  8
Plastico
 62
     0
100
AcDbCircle
 10
374.4061685622674
 20
235.1544211872113
 30
0.0
 40
0.5
100
AcDbArc
 50
0.0
 51
90.0
  0
LINE
  5
B05
330
1F
100
AcDbEntity
  8
Plastico
  6
ByBlock
370
    20
100
AcDbLine
 10
373.4061685622673
 20
234.1544211872114
 30
0.0
 11
373.4061685622673
 21
234.1544211872113
 31
0.0
  0
ARC
  5
B06
330
1F
100
AcDbEntity
  8
Plastico
370
    20
100
AcDbCircle
 10
379.0061685622674
 20
240.3544211872117
 30
0.0
 40
0.5
100
AcDbArc
 50
0.0
 51
90.0
  0
DIMENSION
  5
B07
330
1F
100
AcDbEntity
  8
COTAS
 62
     0
100
AcDbDimension
280
     0
  2
*D10
 10
379.5061685622674
 20
248.4544209777443
 30
0.0
 11
372.2061688204593
 21
248.4544209777443
 31
0.0
 70
   160
 71
     5
 42
14.30000000000018
 73
     0
 74
     0
 75
     0
  3
E11
100
AcDbAlignedDimension
 13
365.2061685622672
 23
240.3544211872116
 33
0.0
 14
379.5061685622674
 24
240.3544211872117
 34
0.0
100
AcDbRotatedDimension
  0
DIMENSION
  5
B08
330
1F
100
AcDbEntity
  8
COTAS
 62
     0
100
AcDbDimension
280
     0
  2
*D11
 10
402.2061688204592
 20
207.4544211872122
 30
0.0
 11
402.2061688204592
 21
225.4544209777442
 31
0.0
 70
   160
 71
     5
 42
33.39999999999947
 73
     0
 74
     0
 75
     0
  3
E11
100
AcDbAlignedDimension
 13
379.0061685622672
 23
240.8544211872116
 33
0.0
 14
378.7061685622672
 24
207.4544211872122
 34
0.0
 50
90.0
100
AcDbRotatedDimension
  0
DIMENSION
  5
B09
330
1F
100
AcDbEntity
  8
COTAS
 62
     0
100
AcDbDimension
280
     0
  2
*D12
 10
393.2061688204594
 20
215.654421187212
 30
0.0
 11
393.2061688204593
 21
228.4544209777442
 31
0.0
 70
   160
 71
     5
 42
25.19999999999959
 73
     0
 74
     0
 75
     0
  3
E11
100
AcDbAlignedDimension
 13
379.0061685622672
 23
240.8544211872116
 33
0.0
 14
379.0061685622672
 24
215.654421187212
 34
0.0
 50
90.0
100
AcDbRotatedDimension
  0
DIMENSION
  5
B0A
330
1F
100
AcDbEntity
  8
COTAS
 62
     0
100
AcDbDimension
280
     0
  2
*D13
 10
378.7061685622672
 20
194.4544209777442
 30
0.0
 11
388.5990257051243
 21
194.4544209777442
 31
0.0
 70
   160
 71
     5
 42
2.299999999999954
 73
     0
 74
     0
 75
     0
  3
E11
100
AcDbAlignedDimension
 13
376.4061685622672
 23
207.4544211872121
 33
0.0
 14
378.7061685622672
 24
207.4544211872122
 34
0.0
100
AcDbRotatedDimension
  0
DIMENSION
  5
B0B
330
1F
100
AcDbEntity
  8
COTAS
 62
     0
100
AcDbDimension
280
     0
  2
*D14
 10
379.5061685622672
 20
200.4544209777442
 30
0.0
 11
389.3275971336958
 21
200.4544209777442
 31
0.0
 70
   160
 71
     5
 42
3.90000000000009
 73
     0
 74
     0
 75
     0
  3
E11
100
AcDbAlignedDimension
 13
375.6061685622672
 23
216.154421187212
 33
0.0
 14
379.5061685622672
 24
216.154421187212
 34
0.0
100
AcDbRotatedDimension
  0
ENDSEC
  0
SECTION
  2
OBJECTS
  0
DICTIONARY
  5
C
330
0
100
AcDbDictionary
281
     1
  3
ACAD_CIP_PREVIOUS_PRODUCT_INFO
350
1A5
  3
ACAD_COLOR
350
73
  3
ACAD_GROUP
350
D
  3
ACAD_LAYOUT
350
1A
  3
ACAD_MATERIAL
350
72
  3
ACAD_MLEADERSTYLE
350
D7
  3
ACAD_MLINESTYLE
350
17
  3
ACAD_PLOTSETTINGS
350
19
  3
ACAD_PLOTSTYLENAME
350
E
  3
ACAD_SCALELIST
350
B6
  3
ACAD_TABLESTYLE
350
86
  3
ACAD_VISUALSTYLE
350
99
  3
ACDB_RECOMPOSE_DATA
350
CAE
  3
AcDbVariableDictionary
350
66
  0
DICTIONARY
  5
18E
330
2
100
AcDbDictionary
280
     1
281
     1
  3
ACAD_LAYERSTATES
360
18F
  0
DICTIONARY
  5
E6
330
10
100
AcDbDictionary
280
     1
281
     1
  0
DICTIONARY
  5
15D
330
1F
100
AcDbDictionary
280
     1
281
     1
  0
XRECORD
  5
1A5
102
{ACAD_REACTORS
330
C
102
}
330
C
100
AcDbXrecord
280
     1
300
ACAD_E
300
2012
300
ACAD_E_F_S
  0
DICTIONARY
  5
73
102
{ACAD_REACTORS
330
C
102
}
330
C
100
AcDbDictionary
281
     1
  0
DICTIONARY
  5
D
102
{ACAD_REACTORS
330
C
102
}
330
C
100
AcDbDictionary
281
     1
  0
DICTIONARY
  5
1A
102
{ACAD_REACTORS
330
C
102
}
330
C
100
AcDbDictionary
281
     1
  3
Layout1
350
59
  3
Layout2
350
5E
  3
Model
350
22
  0
DICTIONARY
  5
72
102
{ACAD_REACTORS
330
C
102
}
330
C
100
AcDbDictionary
281
     1
  3
ByBlock
350
97
  3
ByLayer
350
96
  3
Global
350
98
  0
DICTIONARY
  5
D7
102
{ACAD_REACTORS
330
C
102
}
330
C
100
AcDbDictionary
281
     1
  3
Annotative
350
E5
  3
Standard
350
D8
  0
DICTIONARY
  5
17
102
{ACAD_REACTORS
330
C
102
}
330
C
100
AcDbDictionary
281
     1
  3
Standard
350
18
  0
DICTIONARY
  5
19
102
{ACAD_REACTORS
330
C
102
}
330
C
100
AcDbDictionary
281
     1
  0
ACDBDICTIONARYWDFLT
  5
E
102
{ACAD_REACTORS
330
C
102
}
330
C
100
AcDbDictionary
281
     1
  3
Normal
350
F
100
AcDbDictionaryWithDefault
340
F
  0
DICTIONARY
  5
B6
102
{ACAD_REACTORS
330
C
102
}
330
C
100
AcDbDictionary
281
     1
  3
A0
350
B7
  3
A1
350
124
  3
A2
350
125
  3
A3
350
126
  3
A4
350
127
  3
A5
350
128
  3
A6
350
129
  3
A7
350
12A
  3
A8
350
12B
  3
A9
350
12C
  3
B0
350
12D
  3
B1
350
12E
  3
B2
350
12F
  3
B3
350
130
  3
B4
350
131
  3
B5
350
132
  3
B6
350
133
  3
B7
350
134
  3
B8
350
135
  3
B9
350
136
  3
C0
350
137
  3
C1
350
138
  3
C2
350
139
  3
C3
350
13A
  3
C4
350
13B
  3
C5
350
13C
  3
C6
350
13D
  3
C7
350
13E
  3
C8
350
13F
  3
C9
350
140
  3
D0
350
141
  3
D1
350
142
  3
D2
350
143
  0
DICTIONARY
  5
86
102
{ACAD_REACTORS
330
C
102
}
330
C
100
AcDbDictionary
281
     1
  3
Standard
350
87
  0
DICTIONARY
  5
99
102
{ACAD_REACTORS
330
C
102
}
330
C
100
AcDbDictionary
281
     1
  3
2dWireframe
350
9F
  3
Basic
350
9E
  3
Brighten
350
A5
  3
ColorChange
350
A9
  3
Conceptual
350
A2
  3
Dim
350
A4
  3
EdgeColorOff
350
175
  3
Facepattern
350
A8
  3
Flat
350
9A
  3
FlatWithEdges
350
9B
  3
Gouraud
350
9C
  3
GouraudWithEdges
350
9D
  3
Hidden
350
A1
  3
JitterOff
350
173
  3
Linepattern
350
A7
  3
OverhangOff
350
174
  3
Realistic
350
A3
  3
Shaded
350
182
  3
Shaded with edges
350
181
  3
Shades of Gray
350
17E
  3
Sketchy
350
17F
  3
Thicken
350
A6
  3
Wireframe
350
A0
  3
X-Ray
350
180
  0
XRECORD
  5
CAE
102
{ACAD_REACTORS
330
C
102
}
330
C
100
AcDbXrecord
280
     1
 90
        1
330
87
  0
DICTIONARY
  5
66
102
{ACAD_REACTORS
330
C
102
}
330
C
100
AcDbDictionary
281
     1
  3
CANNOSCALE
350
F0
  3
CMLEADERSTYLE
350
EF
  3
CTABLESTYLE
350
89
  3
DIMASSOC
350
67
  3
HIDETEXT
350
6B
  3
LAYEREVAL
350
14D
  3
LAYERNOTIFY
350
14E
  0
DICTIONARY
  5
18F
102
{ACAD_REACTORS
330
18E
102
}
330
18E
100
AcDbDictionary
281
     1
  0
LAYOUT
  5
59
102
{ACAD_REACTORS
330
1A
102
}
330
1A
100
AcDbPlotSettings
  1

  2
None
  4

  6

 40
0.0
 41
0.0
 42
0.0
 43
0.0
 44
0.0
 45
0.0
 46
0.0
 47
0.0
 48
0.0
 49
0.0
140
0.0
141
0.0
142
1.0
143
1.0
 70
   688
 72
     0
 73
     0
 74
     5
  7

 75
    16
147
1.0
 76
     0
 77
     2
 78
   300
148
0.0
149
0.0
100
AcDbLayout
  1
Layout1
 70
     1
 71
     1
 10
0.0
 20
0.0
 11
12.0
 21
9.0
 12
0.0
 22
0.0
 32
0.0
 14
0.0
 24
0.0
 34
0.0
 15
0.0
 25
0.0
 35
0.0
146
0.0
 13
0.0
 23
0.0
 33
0.0
 16
1.0
 26
0.0
 36
0.0
 17
0.0
 27
1.0
 37
0.0
 76
     0
330
58
  0
LAYOUT
  5
5E
102
{ACAD_REACTORS
330
1A
102
}
330
1A
100
AcDbPlotSettings
  1

  2
None
  4

  6

 40
0.0
 41
0.0
 42
0.0
 43
0.0
 44
0.0
 45
0.0
 46
0.0
 47
0.0
 48
0.0
 49
0.0
140
0.0
141
0.0
142
1.0
143
1.0
 70
   688
 72
     0
 73
     0
 74
     5
  7

 75
    16
147
1.0
 76
     0
 77
     2
 78
   300
148
0.0
149
0.0
100
AcDbLayout
  1
Layout2
 70
     1
 71
     2
 10
0.0
 20
0.0
 11
12.0
 21
9.0
 12
0.0
 22
0.0
 32
0.0
 14
0.0
 24
0.0
 34
0.0
 15
0.0
 25
0.0
 35
0.0
146
0.0
 13
0.0
 23
0.0
 33
0.0
 16
1.0
 26
0.0
 36
0.0
 17
0.0
 27
1.0
 37
0.0
 76
     0
330
5D
  0
LAYOUT
  5
22
102
{ACAD_XDICTIONARY
360
194
102
}
102
{ACAD_REACTORS
330
1A
102
}
330
1A
100
AcDbPlotSettings
  1

  2
none_device
  4
ANSI_A_(8.50_x_11.00_Inches)
  6

 40
6.349999904632568
 41
19.04999923706055
 42
6.350006103515625
 43
19.04998779296875
 44
215.8999938964844
 45
279.3999938964844
 46
0.0
 47
0.0
 48
0.0
 49
0.0
140
0.0
141
0.0
142
1.0
143
2.584895464708373
 70
 11952
 72
     0
 73
     1
 74
     0
  7

 75
     0
147
0.3868628397755418
 76
     0
 77
     2
 78
   300
148
0.0
149
0.0
100
AcDbLayout
  1
Model
 70
     1
 71
     0
 10
0.0
 20
0.0
 11
12.0
 21
9.0
 12
0.0
 22
0.0
 32
0.0
 14
0.0
 24
0.0
 34
0.0
 15
0.0
 25
0.0
 35
0.0
146
0.0
 13
0.0
 23
0.0
 33
0.0
 16
1.0
 26
0.0
 36
0.0
 17
0.0
 27
1.0
 37
0.0
 76
     0
330
1F
331
94
  0
MATERIAL
  5
97
102
{ACAD_XDICTIONARY
360
188
102
}
102
{ACAD_REACTORS
330
72
102
}
330
72
100
AcDbMaterial
  1
ByBlock
 94
       63
  0
MATERIAL
  5
96
102
{ACAD_XDICTIONARY
360
186
102
}
102
{ACAD_REACTORS
330
72
102
}
330
72
100
AcDbMaterial
  1
ByLayer
 94
       63
  0
MATERIAL
  5
98
102
{ACAD_XDICTIONARY
360
110
102
}
102
{ACAD_REACTORS
330
72
102
}
330
72
100
AcDbMaterial
  1
Global
 43
0.0208000000566244
 43
0.0
 43
0.0
 43
0.0
 43
0.0
 43
0.0208000000566244
 43
0.0
 43
0.0
 43
0.0
 43
0.0
 43
1.0
 43
0.0
 43
0.0
 43
0.0
 43
0.0
 43
1.0
 49
0.0208000000566244
 49
0.0
 49
0.0
 49
0.0
 49
0.0
 49
0.0208000000566244
 49
0.0
 49
0.0
 49
0.0
 49
0.0
 49
1.0
 49
0.0
 49
0.0
 49
0.0
 49
0.0
 49
1.0
142
0.0208000000566244
142
0.0
142
0.0
142
0.0
142
0.0
142
0.0208000000566244
142
0.0
142
0.0
142
0.0
142
0.0
142
1.0
142
0.0
142
0.0
142
0.0
142
0.0
142
1.0
144
0.0208000000566244
144
0.0
144
0.0
144
0.0
144
0.0
144
0.0208000000566244
144
0.0
144
0.0
144
0.0
144
0.0
144
1.0
144
0.0
144
0.0
144
0.0
144
0.0
144
1.0
 94
       63
1001
ACAD
1070
    -1
1070
     3
1070
     0
1000

1071
        0
1070
     0
  0
MLEADERSTYLE
  5
E5
102
{ACAD_XDICTIONARY
360
CAC
102
}
102
{ACAD_REACTORS
330
D7
102
}
330
D7
100
AcDbMLeaderStyle
179
     2
170
     2
171
     1
172
     0
 90
        2
 40
0.0
 41
0.0
173
     1
 91
-1056964608
340
14
 92
       -2
290
     1
 42
0.09
291
     1
 43
0.36
  3
Standard
 44
0.18
300

342
11
174
     1
178
     1
175
     1
176
     0
 93
-1056964608
 45
0.18
292
     0
297
     0
 46
0.18
 94
-1056964608
 47
1.0
 49
1.0
140
1.0
293
     1
141
0.0
294
     1
177
     0
142
1.0
295
     0
296
     1
143
0.125
271
     0
272
     9
273
     9
  0
MLEADERSTYLE
  5
D8
102
{ACAD_XDICTIONARY
360
CAA
102
}
102
{ACAD_REACTORS
330
D7
102
}
330
D7
100
AcDbMLeaderStyle
179
     2
170
     2
171
     1
172
     0
 90
        2
 40
0.0
 41
0.0
173
     1
 91
-1056964608
340
14
 92
       -2
290
     1
 42
0.09
291
     1
 43
0.36
  3
Standard
 44
0.18
300

342
11
174
     1
178
     1
175
     1
176
     0
 93
-1056964608
 45
0.18
292
     0
297
     0
 46
0.18
 94
-1056964608
 47
1.0
 49
1.0
140
1.0
293
     1
141
0.0
294
     1
177
     0
142
1.0
295
     0
296
     0
143
0.125
271
     0
272
     9
273
     9
  0
MLINESTYLE
  5
18
102
{ACAD_REACTORS
330
17
102
}
330
17
100
AcDbMlineStyle
  2
STANDARD
 70
     0
  3

 62
   256
 51
90.0
 52
90.0
 71
     2
 49
0.5
 62
   256
  6
BYLAYER
 49
-0.5
 62
   256
  6
BYLAYER
  0
ACDBPLACEHOLDER
  5
F
102
{ACAD_REACTORS
330
E
102
}
330
E
  0
SCALE
  5
B7
102
{ACAD_REACTORS
330
B6
102
}
330
B6
100
AcDbScale
 70
     0
300
1:1
140
1.0
141
1.0
290
     1
  0
SCALE
  5
124
102
{ACAD_REACTORS
330
B6
102
}
330
B6
100
AcDbScale
 70
     0
300
1:2
140
1.0
141
2.0
290
     0
  0
SCALE
  5
125
102
{ACAD_REACTORS
330
B6
102
}
330
B6
100
AcDbScale
 70
     0
300
1:4
140
1.0
141
4.0
290
     0
  0
SCALE
  5
126
102
{ACAD_REACTORS
330
B6
102
}
330
B6
100
AcDbScale
 70
     0
300
1:5
140
1.0
141
5.0
290
     0
  0
SCALE
  5
127
102
{ACAD_REACTORS
330
B6
102
}
330
B6
100
AcDbScale
 70
     0
300
1:8
140
1.0
141
8.0
290
     0
  0
SCALE
  5
128
102
{ACAD_REACTORS
330
B6
102
}
330
B6
100
AcDbScale
 70
     0
300
1:10
140
1.0
141
10.0
290
     0
  0
SCALE
  5
129
102
{ACAD_REACTORS
330
B6
102
}
330
B6
100
AcDbScale
 70
     0
300
1:16
140
1.0
141
16.0
290
     0
  0
SCALE
  5
12A
102
{ACAD_REACTORS
330
B6
102
}
330
B6
100
AcDbScale
 70
     0
300
1:20
140
1.0
141
20.0
290
     0
  0
SCALE
  5
12B
102
{ACAD_REACTORS
330
B6
102
}
330
B6
100
AcDbScale
 70
     0
300
1:30
140
1.0
141
30.0
290
     0
  0
SCALE
  5
12C
102
{ACAD_REACTORS
330
B6
102
}
330
B6
100
AcDbScale
 70
     0
300
1:40
140
1.0
141
40.0
290
     0
  0
SCALE
  5
12D
102
{ACAD_REACTORS
330
B6
102
}
330
B6
100
AcDbScale
 70
     0
300
1:50
140
1.0
141
50.0
290
     0
  0
SCALE
  5
12E
102
{ACAD_REACTORS
330
B6
102
}
330
B6
100
AcDbScale
 70
     0
300
1:100
140
1.0
141
100.0
290
     0
  0
SCALE
  5
12F
102
{ACAD_REACTORS
330
B6
102
}
330
B6
100
AcDbScale
 70
     0
300
2:1
140
2.0
141
1.0
290
     0
  0
SCALE
  5
130
102
{ACAD_REACTORS
330
B6
102
}
330
B6
100
AcDbScale
 70
     0
300
4:1
140
4.0
141
1.0
290
     0
  0
SCALE
  5
131
102
{ACAD_REACTORS
330
B6
102
}
330
B6
100
AcDbScale
 70
     0
300
8:1
140
8.0
141
1.0
290
     0
  0
SCALE
  5
132
102
{ACAD_REACTORS
330
B6
102
}
330
B6
100
AcDbScale
 70
     0
300
10:1
140
10.0
141
1.0
290
     0
  0
SCALE
  5
133
102
{ACAD_REACTORS
330
B6
102
}
330
B6
100
AcDbScale
 70
     0
300
100:1
140
100.0
141
1.0
290
     0
  0
SCALE
  5
134
102
{ACAD_REACTORS
330
B6
102
}
330
B6
100
AcDbScale
 70
     0
300
1/128" = 1'-0"
140
0.0078125
141
12.0
290
     0
  0
SCALE
  5
135
102
{ACAD_REACTORS
330
B6
102
}
330
B6
100
AcDbScale
 70
     0
300
1/64" = 1'-0"
140
0.015625
141
12.0
290
     0
  0
SCALE
  5
136
102
{ACAD_REACTORS
330
B6
102
}
330
B6
100
AcDbScale
 70
     0
300
1/32" = 1'-0"
140
0.03125
141
12.0
290
     0
  0
SCALE
  5
137
102
{ACAD_REACTORS
330
B6
102
}
330
B6
100
AcDbScale
 70
     0
300
1/16" = 1'-0"
140
0.0625
141
12.0
290
     0
  0
SCALE
  5
138
102
{ACAD_REACTORS
330
B6
102
}
330
B6
100
AcDbScale
 70
     0
300
3/32" = 1'-0"
140
0.09375
141
12.0
290
     0
  0
SCALE
  5
139
102
{ACAD_REACTORS
330
B6
102
}
330
B6
100
AcDbScale
 70
     0
300
1/8" = 1'-0"
140
0.125
141
12.0
290
     0
  0
SCALE
  5
13A
102
{ACAD_REACTORS
330
B6
102
}
330
B6
100
AcDbScale
 70
     0
300
3/16" = 1'-0"
140
0.1875
141
12.0
290
     0
  0
SCALE
  5
13B
102
{ACAD_REACTORS
330
B6
102
}
330
B6
100
AcDbScale
 70
     0
300
1/4" = 1'-0"
140
0.25
141
12.0
290
     0
  0
SCALE
  5
13C
102
{ACAD_REACTORS
330
B6
102
}
330
B6
100
AcDbScale
 70
     0
300
3/8" = 1'-0"
140
0.375
141
12.0
290
     0
  0
SCALE
  5
13D
102
{ACAD_REACTORS
330
B6
102
}
330
B6
100
AcDbScale
 70
     0
300
1/2" = 1'-0"
140
0.5
141
12.0
290
     0
  0
SCALE
  5
13E
102
{ACAD_REACTORS
330
B6
102
}
330
B6
100
AcDbScale
 70
     0
300
3/4" = 1'-0"
140
0.75
141
12.0
290
     0
  0
SCALE
  5
13F
102
{ACAD_REACTORS
330
B6
102
}
330
B6
100
AcDbScale
 70
     0
300
1" = 1'-0"
140
1.0
141
12.0
290
     0
  0
SCALE
  5
140
102
{ACAD_REACTORS
330
B6
102
}
330
B6
100
AcDbScale
 70
     0
300
1-1/2" = 1'-0"
140
1.5
141
12.0
290
     0
  0
SCALE
  5
141
102
{ACAD_REACTORS
330
B6
102
}
330
B6
100
AcDbScale
 70
     0
300
3" = 1'-0"
140
3.0
141
12.0
290
     0
  0
SCALE
  5
142
102
{ACAD_REACTORS
330
B6
102
}
330
B6
100
AcDbScale
 70
     0
300
6" = 1'-0"
140
6.0
141
12.0
290
     0
  0
SCALE
  5
143
102
{ACAD_REACTORS
330
B6
102
}
330
B6
100
AcDbScale
 70
     0
300
1'-0" = 1'-0"
140
12.0
141
12.0
290
     0
  0
TABLESTYLE
  5
87
102
{ACAD_XDICTIONARY
360
104
102
}
102
{ACAD_REACTORS
330
86
102
}
330
86
100
AcDbTableStyle
280
     0
  3
Standard
 70
     0
 71
     0
 40
0.06
 41
0.06
280
     0
281
     0
  7
Standard
140
0.18
170
     2
 62
     0
 63
     7
283
     0
 90
      512
 91
        0
  1

274
    -2
284
     1
 64
     0
275
    -2
285
     1
 65
     0
276
    -2
286
     1
 66
     0
277
    -2
287
     1
 67
     0
278
    -2
288
     1
 68
     0
279
    -2
289
     1
 69
     0
  7
Standard
140
0.25
170
     5
 62
     0
 63
     7
283
     0
 90
      512
 91
        0
  1

274
    -2
284
     1
 64
     0
275
    -2
285
     1
 65
     0
276
    -2
286
     1
 66
     0
277
    -2
287
     1
 67
     0
278
    -2
288
     1
 68
     0
279
    -2
289
     1
 69
     0
  7
Standard
140
0.18
170
     5
 62
     0
 63
     7
283
     0
 90
      512
 91
        0
  1

274
    -2
284
     1
 64
     0
275
    -2
285
     1
 65
     0
276
    -2
286
     1
 66
     0
277
    -2
287
     1
 67
     0
278
    -2
288
     1
 68
     0
279
    -2
289
     1
 69
     0
  0
VISUALSTYLE
  5
9F
102
{ACAD_REACTORS
330
99
102
}
330
99
100
AcDbVisualStyle
  2
2dWireframe
 70
     4
177
     2
291
     0
 71
     0
176
     1
 72
     2
176
     1
 73
     1
176
     1
 90
        0
176
     1
 40
0.6
176
     1
 41
30.0
176
     1
 63
     7
421
 16777215
176
     1
 74
     1
176
     1
 91
        4
176
     1
 64
     7
176
     1
 65
   257
176
     1
 75
     1
176
     1
175
     1
176
     1
 42
1.0
176
     1
 92
        0
176
     1
 66
   257
176
     1
 43
1.0
176
     1
 76
     1
176
     1
 77
     6
176
     1
 78
     2
176
     1
 67
     7
176
     1
 79
     5
176
     1
170
     0
176
     1
171
     0
176
     1
290
     0
176
     1
 93
        1
176
     1
 44
0.0
176
     1
173
     0
176
     1
  0
VISUALSTYLE
  5
9E
102
{ACAD_REACTORS
330
99
102
}
330
99
100
AcDbVisualStyle
  2
Basic
 70
     7
177
     2
291
     1
 71
     1
176
     1
 72
     0
176
     1
 73
     1
176
     1
 90
        0
176
     1
 40
0.6
176
     1
 41
30.0
176
     1
 63
     7
421
 16777215
176
     1
 74
     0
176
     1
 91
        4
176
     1
 64
     7
176
     1
 65
   257
176
     1
 75
     1
176
     1
175
     1
176
     1
 42
1.0
176
     1
 92
        8
176
     1
 66
     7
176
     1
 43
1.0
176
     1
 76
     1
176
     1
 77
     6
176
     1
 78
     2
176
     1
 67
     7
176
     1
 79
     5
176
     1
170
     0
176
     1
171
     0
176
     1
290
     0
176
     1
 93
        1
176
     1
 44
0.0
176
     1
173
     0
176
     1
  0
VISUALSTYLE
  5
A5
102
{ACAD_REACTORS
330
99
102
}
330
99
100
AcDbVisualStyle
  2
Brighten
 70
    12
177
     2
291
     1
 71
     2
176
     1
 72
     2
176
     1
 73
     1
176
     1
 90
        0
176
     1
 40
0.6
176
     1
 41
30.0
176
     1
 63
     7
421
 16777215
176
     1
 74
     1
176
     1
 91
        4
176
     1
 64
     7
176
     1
 65
   257
176
     1
 75
     1
176
     1
175
     1
176
     1
 42
1.0
176
     1
 92
        8
176
     1
 66
     7
176
     1
 43
1.0
176
     1
 76
     1
176
     1
 77
     6
176
     1
 78
     2
176
     1
 67
     7
176
     1
 79
     5
176
     1
170
     0
176
     1
171
     0
176
     1
290
     0
176
     1
 93
        1
176
     1
 44
50.0
176
     1
173
     0
176
     1
  0
VISUALSTYLE
  5
A9
102
{ACAD_REACTORS
330
99
102
}
330
99
100
AcDbVisualStyle
  2
ColorChange
 70
    16
177
     2
291
     1
 71
     2
176
     1
 72
     2
176
     1
 73
     3
176
     1
 90
        0
176
     1
 40
0.6
176
     1
 41
30.0
176
     1
 63
     8
421
  8421504
176
     1
 74
     1
176
     1
 91
        4
176
     1
 64
     7
176
     1
 65
   257
176
     1
 75
     1
176
     1
175
     1
176
     1
 42
1.0
176
     1
 92
        8
176
     1
 66
     8
424
  8421504
176
     1
 43
1.0
176
     1
 76
     1
176
     1
 77
     6
176
     1
 78
     2
176
     1
 67
     7
176
     1
 79
     5
176
     1
170
     0
176
     1
171
     0
176
     1
290
     0
176
     1
 93
        1
176
     1
 44
0.0
176
     1
173
     0
176
     1
  0
VISUALSTYLE
  5
A2
102
{ACAD_REACTORS
330
99
102
}
330
99
100
AcDbVisualStyle
  2
Conceptual
 70
     9
177
     2
291
     0
 71
     3
176
     1
 72
     2
176
     1
 73
     1
176
     1
 90
        0
176
     1
 40
0.6
176
     1
 41
30.0
176
     1
 63
     7
421
 16777215
176
     1
 74
     2
176
     1
 91
        2
176
     1
 64
     7
176
     1
 65
   257
176
     1
 75
     1
176
     1
175
     1
176
     1
 42
40.0
176
     1
 92
        8
176
     1
 66
     7
176
     1
 43
1.0
176
     1
 76
     1
176
     1
 77
     6
176
     1
 78
     2
176
     1
 67
     7
176
     1
 79
     3
176
     1
170
     0
176
     1
171
     0
176
     1
290
     0
176
     1
 93
        1
176
     1
 44
0.0
176
     1
173
     0
176
     1
  0
VISUALSTYLE
  5
A4
102
{ACAD_REACTORS
330
99
102
}
330
99
100
AcDbVisualStyle
  2
Dim
 70
    11
177
     2
291
     1
 71
     2
176
     1
 72
     2
176
     1
 73
     1
176
     1
 90
        0
176
     1
 40
0.6
176
     1
 41
30.0
176
     1
 63
     7
421
 16777215
176
     1
 74
     1
176
     1
 91
        4
176
     1
 64
     7
176
     1
 65
   257
176
     1
 75
     1
176
     1
175
     1
176
     1
 42
1.0
176
     1
 92
        8
176
     1
 66
     7
176
     1
 43
1.0
176
     1
 76
     1
176
     1
 77
     6
176
     1
 78
     2
176
     1
 67
     7
176
     1
 79
     5
176
     1
170
     0
176
     1
171
     0
176
     1
290
     0
176
     1
 93
        1
176
     1
 44
-50.0
176
     1
173
     0
176
     1
  0
VISUALSTYLE
  5
175
102
{ACAD_REACTORS
330
99
102
}
330
99
100
AcDbVisualStyle
  2
EdgeColorOff
 70
    22
177
     2
291
     1
 71
     2
176
     0
 72
     2
176
     0
 73
     0
176
     0
 90
        0
176
     0
 40
0.6
176
     0
 41
30.0
176
     0
 63
     7
421
 16777215
176
     0
 74
     1
176
     0
 91
        4
176
     0
 64
     7
176
     0
 65
   257
176
     0
 75
     1
176
     0
175
     1
176
     0
 42
1.0
176
     0
 92
        8
176
     2
 66
     7
176
     0
 43
1.0
176
     0
 76
     1
176
     0
 77
     6
176
     0
 78
     2
176
     0
 67
     7
176
     0
 79
     5
176
     0
170
     0
176
     0
171
     0
176
     0
290
     0
176
     0
 93
        1
176
     0
 44
0.0
176
     0
173
     0
176
     0
  0
VISUALSTYLE
  5
A8
102
{ACAD_REACTORS
330
99
102
}
330
99
100
AcDbVisualStyle
  2
Facepattern
 70
    15
177
     2
291
     1
 71
     2
176
     1
 72
     2
176
     1
 73
     1
176
     1
 90
        0
176
     1
 40
0.6
176
     1
 41
30.0
176
     1
 63
     7
421
 16777215
176
     1
 74
     1
176
     1
 91
        4
176
     1
 64
     7
176
     1
 65
   257
176
     1
 75
     1
176
     1
175
     1
176
     1
 42
1.0
176
     1
 92
        8
176
     1
 66
     7
176
     1
 43
1.0
176
     1
 76
     1
176
     1
 77
     6
176
     1
 78
     2
176
     1
 67
     7
176
     1
 79
     5
176
     1
170
     0
176
     1
171
     0
176
     1
290
     0
176
     1
 93
        1
176
     1
 44
0.0
176
     1
173
     0
176
     1
  0
VISUALSTYLE
  5
9A
102
{ACAD_REACTORS
330
99
102
}
330
99
100
AcDbVisualStyle
  2
Flat
 70
     0
177
     2
291
     1
 71
     2
176
     1
 72
     1
176
     1
 73
     1
176
     1
 90
        2
176
     1
 40
0.6
176
     1
 41
30.0
176
     1
 63
     7
421
 16777215
176
     1
 74
     0
176
     1
 91
        0
176
     1
 64
     7
176
     1
 65
   257
176
     1
 75
     1
176
     1
175
     1
176
     1
 42
1.0
176
     1
 92
        8
176
     1
 66
     7
176
     1
 43
1.0
176
     1
 76
     1
176
     1
 77
     6
176
     1
 78
     2
176
     1
 67
     7
176
     1
 79
     5
176
     1
170
     0
176
     1
171
     0
176
     1
290
     0
176
     1
 93
       13
176
     1
 44
0.0
176
     1
173
     0
176
     1
  0
VISUALSTYLE
  5
9B
102
{ACAD_REACTORS
330
99
102
}
330
99
100
AcDbVisualStyle
  2
FlatWithEdges
 70
     1
177
     2
291
     1
 71
     2
176
     1
 72
     1
176
     1
 73
     1
176
     1
 90
        2
176
     1
 40
0.6
176
     1
 41
30.0
176
     1
 63
     7
421
 16777215
176
     1
 74
     1
176
     1
 91
        0
176
     1
 64
     7
176
     1
 65
   257
176
     1
 75
     1
176
     1
175
     1
176
     1
 42
1.0
176
     1
 92
        0
176
     1
 66
   257
176
     1
 43
1.0
176
     1
 76
     1
176
     1
 77
     6
176
     1
 78
     2
176
     1
 67
     7
176
     1
 79
     5
176
     1
170
     0
176
     1
171
     0
176
     1
290
     0
176
     1
 93
       13
176
     1
 44
0.0
176
     1
173
     0
176
     1
  0
VISUALSTYLE
  5
9C
102
{ACAD_REACTORS
330
99
102
}
330
99
100
AcDbVisualStyle
  2
Gouraud
 70
     2
177
     2
291
     1
 71
     2
176
     1
 72
     2
176
     1
 73
     1
176
     1
 90
        2
176
     1
 40
0.6
176
     1
 41
30.0
176
     1
 63
     7
421
 16777215
176
     1
 74
     0
176
     1
 91
        0
176
     1
 64
     7
176
     1
 65
   257
176
     1
 75
     1
176
     1
175
     1
176
     1
 42
1.0
176
     1
 92
        0
176
     1
 66
     7
176
     1
 43
1.0
176
     1
 76
     1
176
     1
 77
     6
176
     1
 78
     2
176
     1
 67
     7
176
     1
 79
     5
176
     1
170
     0
176
     1
171
     0
176
     1
290
     0
176
     1
 93
       13
176
     1
 44
0.0
176
     1
173
     0
176
     1
  0
VISUALSTYLE
  5
9D
102
{ACAD_REACTORS
330
99
102
}
330
99
100
AcDbVisualStyle
  2
GouraudWithEdges
 70
     3
177
     2
291
     1
 71
     2
176
     1
 72
     2
176
     1
 73
     1
176
     1
 90
        2
176
     1
 40
0.6
176
     1
 41
30.0
176
     1
 63
     7
421
 16777215
176
     1
 74
     1
176
     1
 91
        0
176
     1
 64
     7
176
     1
 65
   257
176
     1
 75
     1
176
     1
175
     1
176
     1
 42
1.0
176
     1
 92
        0
176
     1
 66
   257
176
     1
 43
1.0
176
     1
 76
     1
176
     1
 77
     6
176
     1
 78
     2
176
     1
 67
     7
176
     1
 79
     5
176
     1
170
     0
176
     1
171
     0
176
     1
290
     0
176
     1
 93
       13
176
     1
 44
0.0
176
     1
173
     0
176
     1
  0
VISUALSTYLE
  5
A1
102
{ACAD_REACTORS
330
99
102
}
330
99
100
AcDbVisualStyle
  2
Hidden
 70
     6
177
     2
291
     0
 71
     1
176
     1
 72
     2
176
     1
 73
     2
176
     1
 90
        0
176
     1
 40
0.6
176
     1
 41
30.0
176
     1
 63
     7
421
 16777215
176
     1
 74
     2
176
     1
 91
        2
176
     1
 64
     7
176
     1
 65
   257
176
     1
 75
     2
176
     1
175
     1
176
     1
 42
40.0
176
     1
 92
        0
176
     1
 66
   257
176
     1
 43
1.0
176
     1
 76
     1
176
     1
 77
     6
176
     1
 78
     2
176
     1
 67
     7
176
     1
 79
     3
176
     1
170
     0
176
     1
171
     0
176
     1
290
     0
176
     1
 93
        1
176
     1
 44
0.0
176
     1
173
     0
176
     1
  0
VISUALSTYLE
  5
173
102
{ACAD_REACTORS
330
99
102
}
330
99
100
AcDbVisualStyle
  2
JitterOff
 70
    20
177
     2
291
     1
 71
     2
176
     0
 72
     2
176
     0
 73
     0
176
     0
 90
        0
176
     0
 40
0.6
176
     0
 41
30.0
176
     0
 63
     7
421
 16777215
176
     0
 74
     1
176
     0
 91
        4
176
     0
 64
     7
176
     0
 65
   257
176
     0
 75
     1
176
     0
175
     1
176
     0
 42
1.0
176
     0
 92
       10
176
     2
 66
     7
176
     0
 43
1.0
176
     0
 76
     1
176
     0
 77
     6
176
     0
 78
     2
176
     0
 67
     7
176
     0
 79
     5
176
     0
170
     0
176
     0
171
     0
176
     0
290
     0
176
     0
 93
        1
176
     0
 44
0.0
176
     0
173
     0
176
     0
  0
VISUALSTYLE
  5
A7
102
{ACAD_REACTORS
330
99
102
}
330
99
100
AcDbVisualStyle
  2
Linepattern
 70
    14
177
     2
291
     1
 71
     2
176
     1
 72
     2
176
     1
 73
     1
176
     1
 90
        0
176
     1
 40
0.6
176
     1
 41
30.0
176
     1
 63
     7
421
 16777215
176
     1
 74
     1
176
     1
 91
        4
176
     1
 64
     7
176
     1
 65
   257
176
     1
 75
     7
176
     1
175
     7
176
     1
 42
1.0
176
     1
 92
        8
176
     1
 66
     7
176
     1
 43
1.0
176
     1
 76
     1
176
     1
 77
     6
176
     1
 78
     2
176
     1
 67
     7
176
     1
 79
     5
176
     1
170
     0
176
     1
171
     0
176
     1
290
     0
176
     1
 93
        1
176
     1
 44
0.0
176
     1
173
     0
176
     1
  0
VISUALSTYLE
  5
174
102
{ACAD_REACTORS
330
99
102
}
330
99
100
AcDbVisualStyle
  2
OverhangOff
 70
    21
177
     2
291
     1
 71
     2
176
     0
 72
     2
176
     0
 73
     0
176
     0
 90
        0
176
     0
 40
0.6
176
     0
 41
30.0
176
     0
 63
     7
421
 16777215
176
     0
 74
     1
176
     0
 91
        4
176
     0
 64
     7
176
     0
 65
   257
176
     0
 75
     1
176
     0
175
     1
176
     0
 42
1.0
176
     0
 92
        9
176
     2
 66
     7
176
     0
 43
1.0
176
     0
 76
     1
176
     0
 77
     6
176
     0
 78
     2
176
     0
 67
     7
176
     0
 79
     5
176
     0
170
     0
176
     0
171
     0
176
     0
290
     0
176
     0
 93
        1
176
     0
 44
0.0
176
     0
173
     0
176
     0
  0
VISUALSTYLE
  5
A3
102
{ACAD_REACTORS
330
99
102
}
330
99
100
AcDbVisualStyle
  2
Realistic
 70
     8
177
     2
291
     0
 71
     2
176
     1
 72
     3
176
     1
 73
     0
176
     1
 90
        2
176
     1
 40
0.6
176
     1
 41
30.0
176
     1
 63
     7
421
 16777215
176
     1
 74
     0
176
     1
 91
        0
176
     1
 64
     7
176
     1
 65
   257
176
     1
 75
     1
176
     1
175
     1
176
     1
 42
1.0
176
     1
 92
        8
176
     1
 66
   257
176
     1
 43
1.0
176
     1
 76
     1
176
     1
 77
     6
176
     1
 78
     2
176
     1
 67
     7
176
     1
 79
     3
176
     1
170
     0
176
     1
171
     0
176
     1
290
     0
176
     1
 93
       13
176
     1
 44
0.0
176
     1
173
     0
176
     1
  0
VISUALSTYLE
  5
182
102
{ACAD_REACTORS
330
99
102
}
330
99
100
AcDbVisualStyle
  2
Shaded
 70
    27
177
     2
291
     0
 71
     2
176
     1
 72
     2
176
     1
 73
     1
176
     1
 90
        2
176
     1
 40
0.6
176
     1
 41
30.0
176
     1
 63
     7
421
 16777215
176
     1
 74
     0
176
     1
 91
        4
176
     1
 64
     7
176
     1
 65
   257
176
     1
 75
     1
176
     1
175
     1
176
     1
 42
1.0
176
     1
 92
        8
176
     1
 66
   257
176
     1
 43
1.0
176
     1
 76
     1
176
     1
 77
     6
176
     1
 78
     2
176
     1
 67
     8
425
  7895160
176
     1
 79
     3
176
     1
170
     0
176
     1
171
     0
176
     1
290
     0
176
     1
 93
        5
176
     1
 44
0.0
176
     1
173
     0
176
     1
  0
VISUALSTYLE
  5
181
102
{ACAD_REACTORS
330
99
102
}
330
99
100
AcDbVisualStyle
  2
Shaded with edges
 70
    26
177
     2
291
     0
 71
     2
176
     1
 72
     2
176
     1
 73
     1
176
     1
 90
        2
176
     1
 40
0.6
176
     1
 41
30.0
176
     1
 63
     7
421
 16777215
176
     1
 74
     1
176
     1
 91
       10
176
     1
 64
     7
176
     1
 65
   257
176
     1
 75
     2
176
     1
175
     1
176
     1
 42
1.0
176
     1
 92
        8
176
     1
 66
   257
176
     1
 43
1.0
176
     1
 76
     1
176
     1
 77
     6
176
     1
 78
     2
176
     1
 67
     7
176
     1
 79
     3
176
     1
170
     0
176
     1
171
     0
176
     1
290
     0
176
     1
 93
        5
176
     1
 44
0.0
176
     1
173
     0
176
     1
  0
VISUALSTYLE
  5
17E
102
{ACAD_REACTORS
330
99
102
}
330
99
100
AcDbVisualStyle
  2
Shades of Gray
 70
    23
177
     2
291
     0
 71
     2
176
     1
 72
     2
176
     1
 73
     3
176
     1
 90
        0
176
     1
 40
0.6
176
     1
 41
30.0
176
     1
 63
     7
421
 16777215
176
     1
 74
     2
176
     1
 91
        2
176
     1
 64
     7
176
     1
 65
     7
176
     1
 75
     1
176
     1
175
     1
176
     1
 42
40.0
176
     1
 92
        8
176
     1
 66
     7
176
     1
 43
1.0
176
     1
 76
     1
176
     1
 77
     6
176
     1
 78
     2
176
     1
 67
     7
176
     1
 79
     3
176
     1
170
     0
176
     1
171
     0
176
     1
290
     0
176
     1
 93
        1
176
     1
 44
0.0
176
     1
173
     0
176
     1
  0
VISUALSTYLE
  5
17F
102
{ACAD_REACTORS
330
99
102
}
330
99
100
AcDbVisualStyle
  2
Sketchy
 70
    24
177
     2
291
     0
 71
     1
176
     1
 72
     2
176
     1
 73
     2
176
     1
 90
        0
176
     1
 40
0.6
176
     1
 41
30.0
176
     1
 63
     7
421
 16777215
176
     1
 74
     2
176
     1
 91
        2
176
     1
 64
     7
176
     1
 65
     7
176
     1
 75
     1
176
     1
175
     1
176
     1
 42
40.0
176
     1
 92
       11
176
     1
 66
     7
176
     1
 43
1.0
176
     1
 76
     1
176
     1
 77
     6
176
     1
 78
     2
176
     1
 67
     7
176
     1
 79
     6
176
     1
170
     0
176
     1
171
     0
176
     1
290
     0
176
     1
 93
        1
176
     1
 44
0.0
176
     1
173
     0
176
     1
  0
VISUALSTYLE
  5
A6
102
{ACAD_REACTORS
330
99
102
}
330
99
100
AcDbVisualStyle
  2
Thicken
 70
    13
177
     2
291
     1
 71
     2
176
     1
 72
     2
176
     1
 73
     1
176
     1
 90
        0
176
     1
 40
0.6
176
     1
 41
30.0
176
     1
 63
     7
421
 16777215
176
     1
 74
     1
176
     1
 91
        4
176
     1
 64
     7
176
     1
 65
   257
176
     1
 75
     1
176
     1
175
     1
176
     1
 42
1.0
176
     1
 92
       12
176
     1
 66
     7
176
     1
 43
1.0
176
     1
 76
     1
176
     1
 77
     6
176
     1
 78
     2
176
     1
 67
     7
176
     1
 79
     5
176
     1
170
     0
176
     1
171
     0
176
     1
290
     0
176
     1
 93
        1
176
     1
 44
0.0
176
     1
173
     0
176
     1
  0
VISUALSTYLE
  5
A0
102
{ACAD_REACTORS
330
99
102
}
330
99
100
AcDbVisualStyle
  2
Wireframe
 70
     5
177
     2
291
     0
 71
     0
176
     1
 72
     2
176
     1
 73
     0
176
     1
 90
        0
176
     1
 40
0.6
176
     1
 41
30.0
176
     1
 63
     7
421
 16777215
176
     1
 74
     1
176
     1
 91
        4
176
     1
 64
     7
176
     1
 65
   257
176
     1
 75
     1
176
     1
175
     1
176
     1
 42
1.0
176
     1
 92
        0
176
     1
 66
   257
176
     1
 43
1.0
176
     1
 76
     1
176
     1
 77
     6
176
     1
 78
     2
176
     1
 67
     7
176
     1
 79
     3
176
     1
170
     0
176
     1
171
     0
176
     1
290
     0
176
     1
 93
        1
176
     1
 44
0.0
176
     1
173
     0
176
     1
  0
VISUALSTYLE
  5
180
102
{ACAD_REACTORS
330
99
102
}
330
99
100
AcDbVisualStyle
  2
X-Ray
 70
    25
177
     2
291
     0
 71
     2
176
     1
 72
     2
176
     1
 73
     1
176
     1
 90
        1
176
     1
 40
0.5
176
     1
 41
30.0
176
     1
 63
     7
421
 16777215
176
     1
 74
     1
176
     1
 91
        0
176
     1
 64
     7
176
     1
 65
   257
176
     1
 75
     1
176
     1
175
     1
176
     1
 42
1.0
176
     1
 92
        8
176
     1
 66
     7
176
     1
 43
1.0
176
     1
 76
     1
176
     1
 77
     6
176
     1
 78
     2
176
     1
 67
     7
176
     1
 79
     3
176
     1
170
     0
176
     1
171
     0
176
     1
290
     0
176
     1
 93
       13
176
     1
 44
0.0
176
     1
173
     0
176
     1
  0
DICTIONARYVAR
  5
F0
102
{ACAD_REACTORS
330
66
102
}
330
66
100
DictionaryVariables
280
     0
  1
1:1
  0
DICTIONARYVAR
  5
EF
102
{ACAD_REACTORS
330
66
102
}
330
66
100
DictionaryVariables
280
     0
  1
STANDARD
  0
DICTIONARYVAR
  5
89
102
{ACAD_REACTORS
330
66
102
}
330
66
100
DictionaryVariables
280
     0
  1
STANDARD
  0
DICTIONARYVAR
  5
67
102
{ACAD_REACTORS
330
66
102
}
330
66
100
DictionaryVariables
280
     0
  1
2
  0
DICTIONARYVAR
  5
6B
102
{ACAD_REACTORS
330
66
102
}
330
66
100
DictionaryVariables
280
     0
  1
1
  0
DICTIONARYVAR
  5
14D
102
{ACAD_REACTORS
330
66
102
}
330
66
100
DictionaryVariables
280
     0
  1
0
  0
DICTIONARYVAR
  5
14E
102
{ACAD_REACTORS
330
66
102
}
330
66
100
DictionaryVariables
280
     0
  1
0
  0
DICTIONARY
  5
194
330
22
100
AcDbDictionary
280
     1
281
     1
  3
ADSK_XREC_LAYOUTTHUMBNAIL
360
195
  0
DICTIONARY
  5
188
330
97
100
AcDbDictionary
280
     1
281
     1
  3
FBXASSET
360
189
  0
DICTIONARY
  5
186
330
96
100
AcDbDictionary
280
     1
281
     1
  3
FBXASSET
360
187
  0
DICTIONARY
  5
110
330
98
100
AcDbDictionary
280
     1
281
     1
  3
BUMPTILE
360
112
  3
DIFFUSETILE
360
111
  3
FBXASSET
360
18A
  3
OPACITYTILE
360
113
  3
REFLECTIONTILE
360
114
  0
DICTIONARY
  5
CAC
330
E5
100
AcDbDictionary
280
     1
281
     1
  3
ACAD_XREC_ROUNDTRIP
360
CAD
  0
DICTIONARY
  5
CAA
330
D8
100
AcDbDictionary
280
     1
281
     1
  3
ACAD_XREC_ROUNDTRIP
360
CAB
  0
DICTIONARY
  5
104
330
87
100
AcDbDictionary
280
     1
281
     1
  3
ACAD_ROUNDTRIP_2008_TABLESTYLE_CELLSTYLEMAP
360
CA9
  0
XRECORD
  5
195
102
{ACAD_REACTORS
330
194
102
}
330
194
100
AcDbXrecord
280
     1
310
280000000001000088000000010008000000000000880000000000000000000000010000000000009D98950000000000FFFFFF000000000000000000000000000000000000000000000000000000000000000000330000006600000099000000CC000000FF00000000330000333300006633000099330000CC330000FF3300
310
0000660000336600006666000099660000CC660000FF66000000990000339900006699000099990000CC990000FF99000000CC000033CC000066CC000099CC0000CCCC0000FFCC000000FF000033FF000066FF000099FF0000CCFF0000FFFF000000003300330033006600330099003300CC003300FF003300003333003333
310
33006633330099333300CC333300FF33330000663300336633006666330099663300CC663300FF66330000993300339933006699330099993300CC993300FF99330000CC330033CC330066CC330099CC3300CCCC3300FFCC330000FF330033FF330066FF330099FF3300CCFF3300FFFF330000006600330066006600660099
310
006600CC006600FF00660000336600333366006633660099336600CC336600FF33660000666600336666006666660099666600CC666600FF66660000996600339966006699660099996600CC996600FF99660000CC660033CC660066CC660099CC6600CCCC6600FFCC660000FF660033FF660066FF660099FF6600CCFF6600
310
FFFF660000009900330099006600990099009900CC009900FF00990000339900333399006633990099339900CC339900FF33990000669900336699006666990099669900CC669900FF66990000999900339999006699990099999900CC999900FF99990000CC990033CC990066CC990099CC9900CCCC9900FFCC990000FF99
310
0033FF990066FF990099FF9900CCFF9900FFFF99000000CC003300CC006600CC009900CC00CC00CC00FF00CC000033CC003333CC006633CC009933CC00CC33CC00FF33CC000066CC003366CC006666CC009966CC00CC66CC00FF66CC000099CC003399CC006699CC009999CC00CC99CC00FF99CC0000CCCC0033CCCC0066CC
310
CC0099CCCC00CCCCCC00FFCCCC0000FFCC0033FFCC0066FFCC0099FFCC00CCFFCC00FFFFCC000000FF003300FF006600FF009900FF00CC00FF00FF00FF000033FF003333FF006633FF009933FF00CC33FF00FF33FF000066FF003366FF006666FF009966FF00CC66FF00FF66FF000099FF003399FF006699FF009999FF00CC
310
99FF00FF99FF0000CCFF0033CCFF0066CCFF0099CCFF00CCCCFF00FFCCFF0000FFFF0033FFFF0066FFFF0099FFFF00CCFFFF00FFFFFF00000000000D0D0D001A1A1A00282828003535350043434300505050005D5D5D006B6B6B00787878008686860093939300A1A1A100AEAEAE00BBBBBB00C9C9C900D6D6D600E4E4E400
310
F1F1F100FFFFFF0000000000000000000000000000000000000000000000000000000000000000000000000000000000606060606060603C606060606060606060606060606060603C6060606060606060606060606060603C606060606060606060606060606060603C606060606060606060606060606060603C60606060
310
60606060606060606060603C606060606060606060606060606060603C606060606060606060606060606060603C6060606060606060606060606060603C606060606060606060606060606060603C6060606060606060606060606060603C606060606060606060606060606060603C606060606060606060606060606060
310
603C6060606060606060606060606060603C606060606060606060606060606060603C6060606060606060606060606060608B608B8B608B8B3C8B8B8B608B8B608B8B608B8B608B8B8B3C8B8B608B8B608B8B8B608B8B608B8B3C8B8B8B608B8B608B8B608B8B8B608B8B3C8B8B608B8B8B608B8B608B8B608B8B8B3C8B8B
310
608B8B608B8B8B608B8B608B8B3C8B8B8B608B8B608B8B608B8B8B608B8B3C8B8B608B8B8B608B8B608B8B608B8B8B3C8B8B608B8B608B8B608B8B8B608B8B3C8B8B608B8B8B608B8B608B8B608B8B8B3C8B8B608B8B608B8B8B608B8B608B8B3C8B8B8B608B8B608B8B608B8B8B608B8B3C8B8B608B8B8B608B8B608B8B60
310
8B8B8B3C8B8B608B8B608B8B8B608B8B608B8B3C8B8B8B608B8B608B8B608B8B608B8B8B3C8B8B608B8B608B8B8B608B8B608B8B8B608B8B608B8B3C8B8B8B608B8B608B8B608B8B608B8B8B3C8B8B608B8B608B8B8B608B8B608B8B3C8B8B8B608B8B608B8B608B8B8B608B8B3C8B8B608B8B8B608B8B608B8B608B8B8B3C
310
8B8B608B8B608B8B8B608B8B608B8B3C8B8B8B608B8B608B8B608B8B8B608B8B3C8B8B608B8B8B608B8B608B8B608B8B8B3C8B8B608B8B608B8B608B8B8B608B8B3C8B8B608B8B8B608B8B608B8B608B8B8B3C8B8B608B8B608B8B8B608B8B608B8B3C8B8B8B608B8B608B8B608B8B8B608B8B3C8B8B608B8B8B608B8B608B
310
8B608B8B8B3C8B8B608B8B608B8B8B608B8B608B8B3C8B8B8B608B8B608B8B608B8B608B8B8B3C8B8B608B8B608B8B8B608B8B608B8B606060606060603C606060606060606060606060606060603C6060606060606060606060606060603C606060606060606060606060606060603C606060606060606060606060606060
310
603C6060606060606060606060606060603C606060606060606060606060606060603C606060606060606060606060606060603C6060606060606060606060606060603C606060606060606060606060606060603C6060606060606060606060606060603C606060606060606060606060606060603C606060606060606060
310
606060606060603C6060606060606060606060606060603C606060606060606060606060606060603C6060606060606060606060606060608B608B8B608B8B3C8B8B8B608B8B608B8B608B8B608B8B8B3C8B8B608B8B608B8B8B608B8B608B8B3C8B8B8B608B8B608B8B608B8B8B608B8B3C8B8B608B8B8B608B8B608B8B60
310
8B8B8B3C8B8B608B8B608B8B8B608B8B608B8B3C8B8B8B608B8B608B8B608B8B8B608B8B3C8B8B608B8B8B608B8B608B8B608B8B8B3C8B8B608B8B608B8B608B8B8B608B8B3C8B8B608B8B8B608B8B608B8B608B8B8B3C8B8B608B8B608B8B8B608B8B608B8B3C8B8B8B608B8B608B8B608B8B8B608B8B3C8B8B608B8B8B60
310
8B8B608B8B608B8B8B3C8B8B608B8B608B8B8B608B8B608B8B3C8B8B8B608B8B608B8B608B8B608B8B8B3C8B8B608B8B608B8B8B608B8B608B8B8B608B8B608B8B3C8B8B8B608B8B608B8B608B8B608B8B8B3C8B8B608B8B608B8B8B608B8B608B8B3C8B8B8B608B8B608B8B608B8B8B608B8B3C8B8B608B8B8B608B8B608B
310
8B608B8B8B3C8B8B608B8B608B8B8B608B8B608B8B3C8B8B8B608B8B608B8B608B8B8B608B8B3C8B8B608B8B8B608B8B608B8B608B8B8B3C8B8B608B8B608B8B608B8B8B608B8B3C8B8B608B8B8B608B8B608B8B608B8B8B3C8B8B608B8B608B8B8B608B8B608B8B3C8B8B8B608B8B608B8B608B8B8B608B8B3C8B8B608B8B
310
8B608B8B608B8B608B8B8B3C8B8B608B8B608B8B8B608B8B608B8B3C8B8B8B608B8B608B8B608B8B608B8B8B3C8B8B608B8B608B8B8B608B8B608B8B606060606060603C606060606060606060606060606060603C6060606060606060606060606060603C606060606060606060606060606060603C606060606060606060
310
606060606060603C6060606060606060606060606060603C606060606060606060606060606060603C606060606060606060606060606060603C6060606060606060606060606060603C606060606060606060606060606060603C6060606060606060606060606060603C606060606060606060606060606060603C606060
310
606060606060606060606060603C6060606060606060606060606060603C606060606060606060606060606060603C6060606060606060606060606060608B608B8B608B8B3C8B8B8B608B8B608B8B608B8B608B8B8B3C8B8B608B8B608B8B8B608B8B608B8B3C8B8B8B608B8B608B8B608B8B8B608B8B3C8B8B608B8B8B60
310
8B8B608B8B608B8B8B3C8B8B608B8B608B8B8B608B8B608B8B3C8B8B8B608B8B608B8B608B8B8B608B8B3C8B8B608B8B8B608B8B608B8B608B8B8B3C8B8B608B8B608B8B608B8B8B608B8B3C8B8B608B8B8B608B8B608B8B608B8B8B3C8B8B608B8B608B8B8B608B8B608B8B3C8B8B8B608B8B608B8B608B8B8B608B8B3C8B
310
8B608B8B8B608B8B608B8B608B8B8B3C8B8B608B8B608B8B8B608B8B608B8B3C8B8B8B608B8B608B8B608B8B608B8B8B3C8B8B608B8B608B8B8B608B8B608B8B8B608B8B608B8B3C8B8B8B608B8B608B8B608B8B608B8B8B3C8B8B608B8B608B8B8B608B8B608B8B3C8B8B8B608B8B608B8B608B8B8B608B8B3C8B8B608B8B
310
8B608B8B608B8B608B8B8B3C8B8B608B8B608B8B8B608B8B608B8B3C8B8B8B608B8B608B8B608B8B8B608B8B3C8B8B608B8B8B608B8B608B8B608B8B8B3C8B8B608B8B608B8B608B8B8B608B8B3C8B8B608B8B8B608B8B608B8B608B8B8B3C8B8B608B8B608B8B8B608B8B608B8B3C8B8B8B608B8B608B8B608B8B8B608B8B
310
3C8B8B608B8B8B608B8B608B8B608B8B8B3C8B8B608B8B608B8B8B608B8B608B8B3C8B8B8B608B8B608B8B608B8B608B8B8B3C8B8B608B8B608B8B8B608B8B608B8B8B608B8B608B8B3C8B8B8B608B8B608B8B608B8B608B8B8B3C8B8B608B8B608B8B8B608B8B608B8B3C8B8B8B608B8B608B8B608B8B8B608B8B3C8B8B60
310
8B8B8B608B8B608B8B608B8B8B3C8B8B608B8B608B8B8B608B8B608B8B3C8B8B8B608B8B608B8B608B8B8B608B8B3C8B8B608B8B8B608B8B608B8B608B8B8B3C8B8B608B8B608B8B608B8B8B608B8B3C8B8B608B8B8B608B8B608B8B608B8B8B3C8B8B608B8B608B8B8B608B8B608B8B3C8B8B8B608B8B608B8B608B8B8B60
310
8B8B3C8B8B608B8B8B608B8B608B8B608B8B8B3C8B8B608B8B608B8B8B608B8B608B8B3C8B8B8B608B8B608B8B608B8B608B8B8B3C8B8B608B8B608B8B8B608B8B608B8B3C3C3C3C3C3C3C6CA8A8A8A8A8A8A8A8A8A8A8A8A8A8A8A8A8A8A8A8A8A8A8A8A8A8A8A8A8A8A8A8A8A8A8A8A8A8A8A8A8A8A8A8A8A8A8A8A8A8A8
310
A8A8A8A8A8A8A8A8A8A8A8A8A8A8A8A8A8A8A8A8A8A8A8A8A8A8A8A8A8A8A8A8A8A8A8A8A8A8A8A8A8A8A8A8A8A8A8A8A8A8A8A8A8A8A8A8A8A8A8A8A8A8A8A8A8A8A8A8A8A8A8A8A8A8A8A8A8A8A8A8A8A8A8A8A8A8A8A8A8A8A8A8A8A8A8A8A8A8A8A8A8A8A8A8A8A8A8A8A8A8A8A8A8A8A8A8A8A8A8A8A8A8A8A8A8A8A8
310
A8A8A8A8A8A8A8A8A8A8A8A8A8A8A8A8A8A8A8A8A8A8A8A8A8A8A8A8A8A8A8A8A8A8A8A8A8A8A8A8A8A8A8A8A8A8A8A8A8A8A8A8A8A8A8A8A8A8A8A8A8A8A8A8A8A8A8A8A8A88B608B8B608B8B6C8B8B8B608B8B608B8B608B8B608B8B8B3C8B8B608B8B608B8B8B608B8B608B8B3C8B8B8B608B8B608B8B608B8B8B608B8B
310
3C8B8B608B8B8B608B8B608B8B608B8B8B3C8B8B608B8B608B8B8B608B8B608B8B3C8B8B8B608B8B608B8B608B8B8B608B8B3C8B8B608B8B8B608B8B608B8B608B8B8B3C8B8B608B8B608B8B608B8B8B608B8B3C8B8B608B8B8B608B8B608B8B608B8B8B3C8B8B608B8B608B8B8B608B8B608B8B3C8B8B8B608B8B608B8B60
310
8B8B8B608B8B3C8B8B608B8B8B608B8B608B8B608B8B8B3C8B8B608B8B608B8B8B608B8B608B8B3C8B8B8B608B8B608B8B608B8B608B8B8B3C8B8B608B8B608B8B8B608B8B608B8B8B608B8B608B8B6C8B8B8B608B8B608B8B608B8B608B8B8B3C8B8B608B8B608B8B8B608B8B608B8B3C8B8B8B608B8B608B8B608B8B8B60
310
8B8B3C8B8B608B8B8B608B8B608B8B608B8B8B3C8B8B608B8B608B8B8B608B8B608B8B3C8B8B8B608B8B608B8B608B8B8B608B8B3C8B8B608B8B8B608B8B608B8B608B8B8B3C8B8B608B8B608B8B608B8B8B608B8B3C8B8B608B8B8B608B8B608B8B608B8B8B3C8B8B608B8B608B8B8B608B8B608B8B3C8B8B8B608B8B608B
310
8B608B8B8B608B8B3C8B8B608B8B8B608B8B608B8B608B8B8B3C8B8B608B8B608B8B8B608B8B608B8B3C8B8B8B608B8B608B8B608B8B608B8B8B3C8B8B608B8B608B8B8B608B8B608B8B606060606060606C606060606060606060606060606060603C6060606060606060606060606060603C606060606060606060606060
310
606060603C606060606060606060606060606060603C6060606060606060606060606060603C606060606060606060606060606060603C606060606060606060606060606060603C6060606060606060606060606060603C606060606060606060606060606060603C6060606060606060606060606060603C606060606060
310
606060606060606060603C606060606060606060606060606060603C6060606060606060606060606060603C606060606060606060606060606060603C6060606060606060606060606060608B608B8B608B8B6C8B8B8B608B8B608B8B608B8B608B8B8B3C8B8B608B8B608B8B8B608B8B608B8B3C8B8B8B608B8B608B8B60
310
8B8B8B608B8B3C8B8B608B8B8B608B8B608B8B608B8B8B3C8B8B608B8B608B8B8B608B8B608B8B3C8B8B8B608B8B608B8B608B8B8B608B8B3C8B8B608B8B8B608B8B608B8B608B8B8B3C8B8B608B8B608B8B608B8B8B608B8B3C8B8B608B8B8B608B8B608B8B608B8B8B3C8B8B608B8B608B8B8B608B8B608B8B3C8B8B8B60
310
8B8B608B8B608B8B8B608B8B3C8B8B608B8B8B608B8B608B8B608B8B8B3C8B8B608B8B608B8B8B608B8B608B8B3C8B8B8B608B8B608B8B608B8B608B8B8B3C8B8B608B8B608B8B8B608B8B608B8B8B608B8B608B8B6C8B8B8B608B8B608B8B608B8B608B8B8B3C8B8B608B8B608B8B8B608B8B608B8B3C8B8B8B608B8B608B
310
8B608B8B8B608B8B3C8B8B608B8B8B608B8B608B8B608B8B8B3C8B8B608B8B608B8B8B608B8B608B8B3C8B8B8B608B8B608B8B608B8B8B608B8B3C8B8B608B8B8B608B8B608B8B608B8B8B3C8B8B608B8B608B8B608B8B8B608B8B3C8B8B608B8B8B608B8B608B8B608B8B8B3C8B8B608B8B608B8B8B608B8B608B8B3C8B8B
310
8B608B8B608B8B608B8B8B608B8B3C8B8B608B8B8B608B8B608B8B608B8B8B3C8B8B608B8B608B8B8B608B8B608B8B3C8B8B8B608B8B608B8B608B8B608B8B8B3C8B8B608B8B608B8B8B608B8B608B8B606060606060606C606060606060606060606060606060603C6060606060606060606060606060603C606060606060
310
606060606060606060603C606060606060606060606060606060603C6060606060606060606060606060603C606060606060606060606060606060603C606060606060606060606060606060603C6060606060606060606060606060603C606060606060606060606060606060603C6060606060606060606060606060603C
310
606060606060606060606060606060603C606060606060606060606060606060603C6060606060606060606060606060603C606060606060606060606060606060603C6060606060606060606060606060608B608B8B608B8B6C8B8B8B608B8B608B8B608B8B608B8B8B3C8B8B608B8B608B8B8B608B8B608B8B3C8B8B8B60
310
8B8B608B8B608B8B8B608B8B3C8B8B608B8B8B608B8B608B8B608B8B8B3C8B8B608B8B608B8B8B608B8B608B8B3C8B8B8B608B8B608B8B608B8B8B608B8B3C8B8B608B8B8B608B8B608B8B608B8B8B3C8B8B608B8B608B8B608B8B8B608B8B3C8B8B608B8B8B608B8B608B8B608B8B8B3C8B8B608B8B608B8B8B608B8B608B
310
8B3C8B8B8B608B8B608B8B608B8B8B608B8B3C8B8B608B8B8B608B8B608B8B608B8B8B3C8B8B608B8B608B8B8B608B8B608B8B3C8B8B8B608B8B608B8B608B8B608B8B8B3C8B8B608B8B608B8B8B608B8B608B8B8B608B8B608B8B6C8B8B8B608B8B608B8B608B8B608B8B8B3C8B8B608B8B608B8B8B608B8B608B8B3C8B8B
310
8B608B8B608B8B608B8B8B608B8B3C8B8B608B8B8B608B8B608B8B608B8B8B3C8B8B608B8B608B8B8B608B8B608B8B3C8B8B8B608B8B608B8B608B8B8B608B8B3C8B8B608B8B8B608B8B608B8B608B8B8B3C8B8B608B8B608B8B608B8B8B608B8B3C8B8B608B8B8B608B8B608B8B608B8B8B3C8B8B608B8B608B8B8B608B8B
310
608B8B3C8B8B8B608B8B608B8B608B8B8B608B8B3C8B8B608B8B8B608B8B608B8B608B8B8B3C8B8B608B8B608B8B8B608B8B608B8B3C8B8B8B608B8B608B8B608B8B608B8B8B3C8B8B608B8B608B8B8B608B8B608B8B8B608B8B608B8B6C8B8B8B608B8B608B8B608B8B608B8B8B3C8B8B608B8B608B8B8B608B8B608B8B3C
310
8B8B8B608B8B608B8B608B8B8B608B8B3C8B8B608B8B8B608B8B608B8B608B8B8B3C8B8B608B8B608B8B8B608B8B608B8B3C8B8B8B608B8B608B8B608B8B8B608B8B3C8B8B608B8B8B608B8B608B8B608B8B8B3C8B8B608B8B608B8B608B8B8B608B8B3C8B8B608B8B8B608B8B608B8B608B8B8B3C8B8B608B8B608B8B8B60
310
8B8B608B8B3C8B8B8B608B8B608B8B608B8B8B608B8B3C8B8B608B8B8B608B8B608B8B608B8B8B3C8B8B608B8B608B8B8B608B8B608B8B3C8B8B8B608B8B608B8B608B8B608B8B8B3C8B8B608B8B608B8B8B608B8B608B8B606060606060606C606060606060606060606060606060603C6060606060606060606060606060
310
603C606060606060606060606060606060603C606060606060606060606060606060603C6060606060606060606060606060603C606060606060606060606060606060603C606060606060606060606060606060603C6060606060606060606060606060603C606060606060606060606060606060603C6060606060606060
310
606060606060603C606060606060606060606060606060603C606060606060606060606060606060603C6060606060606060606060606060603C606060606060606060606060606060603C6060606060606060606060606060608B608B8B608B8B6C8B8B8B608B8B608B8B608B8B608B8B8B3C8B8B608B8B608B8B8B608B8B
310
608B8B3C8B8B8B608B8B608B8B608B8B8B608B8B3C8B8B608B8B8B608B8B608B8B608B8B8B3C8B8B608B8B608B8B8B608B8B608B8B3C8B8B8B608B8B608B8B608B8B8B608B8B3C8B8B608B8B8B608B8B608B8B608B8B8B3C8B8B608B8B608B8B608B8B8B608B8B3C8B8B608B8B8B608B8B608B8B608B8B8B3C8B8B608B8B60
310
8B8B8B608B8B608B8B3C8B8B8B608B8B608B8B608B8B8B608B8B3C8B8B608B8B8B608B8B608B8B608B8B8B3C8B8B608B8B608B8B8B608B8B608B8B3C8B8B8B608B8B608B8B608B8B608B8B8B3C8B8B608B8B608B8B8B608B8B608B8B8B608B8B608B8B6C8B8B8B608B8B608B8B608B8B608B8B8B3C8B8B608B8B608B8B8B60
310
8B8B608B8B3C8B8B8B608B8B608B8B608B8B8B608B8B3C8B8B608B8B8B608B8B608B8B608B8B8B3C8B8B608B8B608B8B8B608B8B608B8B3C8B8B8B608B8B608B8B608B8B8B608B8B3C8B8B608B8B8B608B8B608B8B608B8B8B3C8B8B608B8B608B8B608B8B8B608B8B3C8B8B608B8B8B608B8B608B8B608B8B8B3C8B8B608B
310
8B608B8B8B608B8B608B8B3C8B8B8B608B8B608B8B608B8B8B608B8B3C8B8B608B8B8B608B8B608B8B608B8B8B3C8B8B608B8B608B8B8B608B8B608B8B3C8B8B8B608B8B608B8B608B8B608B8B8B3C8B8B608B8B608B8B8B608B8B608B8B606060606060606C606060606060606060606060606060603C6060606060606060
310
606060606060603C606060606060606060606060606060603C606060606060606060606060606060603C6060606060606060606060606060603C606060606060606060606060606060603C606060606060606060606060606060603C6060606060606060606060606060603C606060606060606060606060606060603C6060
310
606060606060606060606060603C606060606060606060606060606060603C606060606060606060606060606060603C6060606060606060606060606060603C606060606060606060606060606060603C6060606060606060606060606060608B608B8B608B8B6C8B8B8B608B8B608B8B608B8B608B8B8B3C8B8B608B8B60
310
8B8B8B608B8B608B8B3C8B8B8B608B8B608B8B608B8B8B608B8B3C8B8B608B8B8B608B8B608B8B608B8B8B3C8B8B608B8B608B8B8B608B8B608B8B3C8B8B8B608B8B608B8B608B8B8B608B8B3C8B8B608B8B8B608B8B608B8B608B8B8B3C8B8B608B8B608B8B608B8B8B608B8B3C8B8B608B8B8B608B8B608B8B608B8B8B3C
310
8B8B608B8B608B8B8B608B8B608B8B3C8B8B8B608B8B608B8B608B8B8B608B8B3C8B8B608B8B8B608B8B608B8B608B8B8B3C8B8B608B8B608B8B8B608B8B608B8B3C8B8B8B608B8B608B8B608B8B608B8B8B3C8B8B608B8B608B8B8B608B8B608B8B8B608B8B608B8B6C8B8B8B608B8B608B8B608B8B608B8B8B3C8B8B608B
310
8B608B8B8B608B8B608B8B3C8B8B8B608B8B608B8B608B8B8B608B8B3C8B8B608B8B8B608B8B608B8B608B8B8B3C8B8B608B8B608B8B8B608B8B608B8B3C8B8B8B608B8B608B8B608B8B8B608B8B3C8B8B608B8B8B608B8B608B8B608B8B8B3C8B8B608B8B608B8B608B8B8B608B8B3C8B8B608B8B8B608B8B608B8B608B8B
310
8B3C8B8B608B8B608B8B8B608B8B608B8B3C8B8B8B608B8B608B8B608B8B8B608B8B3C8B8B608B8B8B608B8B608B8B608B8B8B3C8B8B608B8B608B8B8B608B8B608B8B3C8B8B8B608B8B608B8B608B8B608B8B8B3C8B8B608B8B608B8B8B608B8B608B8B3C3C3C3C3C3C3C6C3C3C3C3C3C3C3C3C3C3C3C3C3C3C3C3C3C3C3C
310
3C3C3C3C3C3C3C3C3C3C3C3C3C3C3C3C3C3C3C3C3C3C3C3C3C3C3C3C3C3C3C3C3C3C3C3C3C3C3C3C3C3C3C3C3C3C3C3C3C3C3C3C3C3C3C3C3C3C3C3C3C3C3C3C3C3C3C3C3C3C3C3C3C3C3C3C3C3C3C3C3C3C3C3C3C3C3C3C3C3C3C3C3C3C3C3C3C3C3C3C3C3C3C3C3C3C3C3C3C3C3C3C3C3C3C3C3C3C3C3C3C3C3C3C3C3C3C
310
3C3C3C3C3C3C3C3C3C3C3C3C3C3C3C3C3C3C3C3C3C3C3C3C3C3C3C3C3C3C3C3C3C3C3C3C3C3C3C3C3C3C3C3C3C3C3C3C3C3C3C3C3C3C3C3C3C3C3C3C3C3C3C3C3C3C3C3C3C3C3C3C3C3C3C3C3C3C3C3C3C3C3C3C3C3C3C3C3C3C3C3C3C3C3C3C3C3C3C3C3C3C8B608B8B608B8B6C8B8B8B608B8B608B8B608B8B608B8B8B3C
310
8B8B608B8B608B8B8B608B8B608B8B3C8B8B8B608B8B608B8B608B8B8B608B8B3C8B8B608B8B8B608B8B608B8B608B8B8B3C8B8B608B8B608B8B8B608B8B608B8B3C8B8B8B608B8B608B8B608B8B8B608B8B3C8B8B608B8B8B608B8B608B8B608B8B8B3C8B8B608B8B608B8B608B8B8B608B8B3C8B8B608B8B8B608B8B608B
310
8B608B8B8B3C8B8B608B8B608B8B8B608B8B608B8B3C8B8B8B608B8B608B8B608B8B8B608B8B3C8B8B608B8B8B608B8B608B8B608B8B8B3C8B8B608B8B608B8B8B608B8B608B8B3C8B8B8B608B8B608B8B608B8B608B8B8B3C8B8B608B8B608B8B8B608B8B608B8B8B608B8B608B8B6C8B8B8B608B8B608B8B608B8B608B8B
310
8B3C8B8B608B8B608B8B8B608B8B608B8B3C8B8B8B608B8B608B8B608B8B8B608B8B3C8B8B608B8B8B608B8B608B8B608B8B8B3C8B8B608B8B608B8B8B608B8B608B8B3C8B8B8B608B8B608B8B608B8B8B608B8B3C8B8B608B8B8B608B8B608B8B608B8B8B3C8B8B608B8B608B8B608B8B8B608B8B3C8B8B608B8B8B608B8B
310
608B8B608B8B8B3C8B8B608B8B608B8B8B608B8B608B8B3C8B8B8B608B8B608B8B608B8B8B608B8B3C8B8B608B8B8B608B8B608B8B608B8B8B3C8B8B608B8B608B8B8B608B8B608B8B3C8B8B8B608B8B608B8B608B8B608B8B8B3C8B8B608B8B608B8B8B608B8B608B8B8B608B8B608B8B6C8B8B8B608B8B608B8B608B8B60
310
8B8B8B3C8B8B608B8B608B8B8B608B8B608B8B3C8B8B8B608B8B608B8B608B8B8B608B8B3C8B8B608B8B8B608B8B608B8B608B8B8B3C8B8B608B8B608B8B8B608B8B608B8B3C8B8B8B608B8B608B8B608B8B8B608B8B3C8B8B608B8B8B608B8B608B8B608B8B8B3C8B8B608B8B608B8B608B8B8B608B8B3C8B8B608B8B8B60
310
8B8B608B8B608B8B8B3C8B8B608B8B608B8B8B608B8B608B8B3C8B8B8B608B8B608B8B608B8B8B608B8B3C8B8B608B8B8B608B8B608B8B608B8B8B3C8B8B608B8B608B8B8B608B8B608B8B3C8B8B8B608B8B608B8B608B8B608B8B8B3C8B8B608B8B608B8B8B608B8B608B8B606060606060606C6060606060606060606060
310
60606060603C6060606060606060606060606060603C606060606060606060606060606060603C606060606060606060606060606060603C6060606060606060606060606060603C606060606060606060606060606060603C606060606060606060606060606060603C6060606060606060606060606060603C6060606060
310
60606060606060606060603C6060606060606060606060606060603C606060606060606060606060606060603C606060606060606060606060606060603C6060606060606060606060606060603C606060606060606060606060606060603C6060606060606060606060606060608B608B8B608B8B6C8B8B8B608B8B608B8B
310
608B8B608B8B8B3C8B8B608B8B608B8B8B608B8B608B8B3C8B8B8B608B8B608B8B608B8B8B608B8B3C8B8B608B8B8B608B8B608B8B608B8B8B3C8B8B608B8B608B8B8B608B8B608B8B3C8B8B8B608B8B608B8B608B8B8B608B8B3C8B8B608B8B8B608B8B608B8B608B8B8B3C8B8B608B8B608B8B608B8B8B608B8B3C8B8B60
310
8B8B8B608B8B608B8B608B8B8B3C8B8B608B8B608B8B8B608B8B608B8B3C8B8B8B608B8B608B8B608B8B8B608B8B3C8B8B608B8B8B608B8B608B8B608B8B8B3C8B8B608B8B608B8B8B608B8B608B8B3C8B8B8B608B8B608B8B608B8B608B8B8B3C8B8B608B8B608B8B8B608B8B608B8B8B608B8B608B8B6C8B8B8B608B8B60
310
8B8B608B8B608B8B8B3C8B8B608B8B608B8B8B608B8B608B8B3C8B8B8B608B8B608B8B608B8B8B608B8B3C8B8B608B8B8B608B8B608B8B608B8B8B3C8B8B608B8B608B8B8B608B8B608B8B3C8B8B8B608B8B608B8B608B8B8B608B8B3C8B8B608B8B8B608B8B608B8B608B8B8B3C8B8B608B8B608B8B608B8B8B608B8B3C8B
310
8B608B8B8B608B8B608B8B608B8B8B3C8B8B608B8B608B8B8B608B8B608B8B3C8B8B8B608B8B608B8B608B8B8B608B8B3C8B8B608B8B8B608B8B608B8B608B8B8B3C8B8B608B8B608B8B8B608B8B608B8B3C8B8B8B608B8B608B8B608B8B608B8B8B3C8B8B608B8B608B8B8B608B8B608B8B606060606060606C6060606060
310
60606060606060606060603C6060606060606060606060606060603C606060606060606060606060606060603C606060606060606060606060606060603C6060606060606060606060606060603C606060606060606060606060606060603C606060606060606060606060606060603C606060606060606060606060606060
310
3C606060606060606060606060606060603C6060606060606060606060606060603C606060606060606060606060606060603C606060606060606060606060606060603C6060606060606060606060606060603C606060606060606060606060606060603C6060606060606060606060606060608B608B8B608B8B6C8B8B8B
310
608B8B608B8B608B8B608B8B8B3C8B8B608B8B608B8B8B608B8B608B8B3C8B8B8B608B8B608B8B608B8B8B608B8B3C8B8B608B8B8B608B8B608B8B608B8B8B3C8B8B608B8B608B8B8B608B8B608B8B3C8B8B8B608B8B608B8B608B8B8B608B8B3C8B8B608B8B8B608B8B608B8B608B8B8B3C8B8B608B8B608B8B608B8B8B60
310
8B8B3C8B8B608B8B8B608B8B608B8B608B8B8B3C8B8B608B8B608B8B8B608B8B608B8B3C8B8B8B608B8B608B8B608B8B8B608B8B3C8B8B608B8B8B608B8B608B8B608B8B8B3C8B8B608B8B608B8B8B608B8B608B8B3C8B8B8B608B8B608B8B608B8B608B8B8B3C8B8B608B8B608B8B8B608B8B608B8B8B608B8B608B8B6C8B
310
8B8B608B8B608B8B608B8B608B8B8B3C8B8B608B8B608B8B8B608B8B608B8B3C8B8B8B608B8B608B8B608B8B8B608B8B3C8B8B608B8B8B608B8B608B8B608B8B8B3C8B8B608B8B608B8B8B608B8B608B8B3C8B8B8B608B8B608B8B608B8B8B608B8B3C8B8B608B8B8B608B8B608B8B608B8B8B3C8B8B608B8B608B8B608B8B
310
8B608B8B3C8B8B608B8B8B608B8B608B8B608B8B8B3C8B8B608B8B608B8B8B608B8B608B8B3C8B8B8B608B8B608B8B608B8B8B608B8B3C8B8B608B8B8B608B8B608B8B608B8B8B3C8B8B608B8B608B8B8B608B8B608B8B3C8B8B8B608B8B608B8B608B8B608B8B8B3C8B8B608B8B608B8B8B608B8B608B8B60606060606060
310
6C606060606060606060606060606060603C6060606060606060606060606060603C606060606060606060606060606060603C606060606060606060606060606060603C6060606060606060606060606060603C606060606060606060606060606060603C606060606060606060606060606060603C606060606060606060
310
6060606060603C606060606060606060606060606060603C6060606060606060606060606060603C606060606060606060606060606060603C606060606060606060606060606060603C6060606060606060606060606060603C606060606060606060606060606060603C6060606060606060606060606060608B608B8B60
310
8B8B6C8B8B8B608B8B608B8B608B8B608B8B8B3C8B8B608B8B608B8B8B608B8B608B8B3C8B8B8B608B8B608B8B608B8B8B608B8B3C8B8B608B8B8B608B8B608B8B608B8B8B3C8B8B608B8B608B8B8B608B8B608B8B3C8B8B8B608B8B608B8B608B8B8B608B8B3C8B8B608B8B8B608B8B608B8B608B8B8B3C8B8B608B8B608B
310
8B608B8B8B608B8B3C8B8B608B8B8B608B8B608B8B608B8B8B3C8B8B608B8B608B8B8B608B8B608B8B3C8B8B8B608B8B608B8B608B8B8B608B8B3C8B8B608B8B8B608B8B608B8B608B8B8B3C8B8B608B8B608B8B8B608B8B608B8B3C8B8B8B608B8B608B8B608B8B608B8B8B3C8B8B608B8B608B8B8B608B8B608B8B8B608B
310
8B608B8B6C8B8B8B608B8B608B8B608B8B608B8B8B3C8B8B608B8B608B8B8B608B8B608B8B3C8B8B8B608B8B608B8B608B8B8B608B8B3C8B8B608B8B8B608B8B608B8B608B8B8B3C8B8B608B8B608B8B8B608B8B608B8B3C8B8B8B608B8B608B8B608B8B8B608B8B3C8B8B608B8B8B608B8B608B8B608B8B8B3C8B8B608B8B
310
608B8B608B8B8B608B8B3C8B8B608B8B8B608B8B608B8B608B8B8B3C8B8B608B8B608B8B8B608B8B608B8B3C8B8B8B608B8B608B8B608B8B8B608B8B3C8B8B608B8B8B608B8B608B8B608B8B8B3C8B8B608B8B608B8B8B608B8B608B8B3C8B8B8B608B8B608B8B608B8B608B8B8B3C8B8B608B8B608B8B8B608B8B608B8B8B
310
608B8B608B8B6C8B8B8B608B8B608B8B608B8B608B8B8B3C8B8B608B8B608B8B8B608B8B608B8B3C8B8B8B608B8B608B8B608B8B8B608B8B3C8B8B608B8B8B608B8B608B8B608B8B8B3C8B8B608B8B608B8B8B608B8B608B8B3C8B8B8B608B8B608B8B608B8B8B608B8B3C8B8B608B8B8B608B8B608B8B608B8B8B3C8B8B60
310
8B8B608B8B608B8B8B608B8B3C8B8B608B8B8B608B8B608B8B608B8B8B3C8B8B608B8B608B8B8B608B8B608B8B3C8B8B8B608B8B608B8B608B8B8B608B8B3C8B8B608B8B8B608B8B608B8B608B8B8B3C8B8B608B8B608B8B8B608B8B608B8B3C8B8B8B608B8B608B8B608B8B608B8B8B3C8B8B608B8B608B8B8B608B8B608B
310
8B606060606060606C606060606060606060606060606060603C6060606060606060606060606060603C606060606060606060606060606060603C606060606060606060606060606060603C6060606060606060606060606060603C606060606060606060606060606060603C606060606060606060606060606060603C60
310
60606060606060606060606060603C606060606060606060606060606060603C6060606060606060606060606060603C606060606060606060606060606060603C606060606060606060606060606060603C6060606060606060606060606060603C606060606060606060606060606060603C606060606060606060606060
310
6060608B608B8B608B8B6C8B8B8B608B8B608B8B608B8B608B8B8B3C8B8B608B8B608B8B8B608B8B608B8B3C8B8B8B608B8B608B8B608B8B8B608B8B3C8B8B608B8B8B608B8B608B8B608B8B8B3C8B8B608B8B608B8B8B608B8B608B8B3C8B8B8B608B8B608B8B608B8B8B608B8B3C8B8B608B8B8B608B8B608B8B608B8B8B
310
3C8B8B608B8B608B8B608B8B8B608B8B3C8B8B608B8B8B608B8B608B8B608B8B8B3C8B8B608B8B608B8B8B608B8B608B8B3C8B8B8B608B8B608B8B608B8B8B608B8B3C8B8B608B8B8B608B8B608B8B608B8B8B3C8B8B608B8B608B8B8B608B8B608B8B3C8B8B8B608B8B608B8B608B8B608B8B8B3C8B8B608B8B608B8B8B60
310
8B8B608B8B8B608B8B608B8B6C8B8B8B608B8B608B8B608B8B608B8B8B3C8B8B608B8B608B8B8B608B8B608B8B3C8B8B8B608B8B608B8B608B8B8B608B8B3C8B8B608B8B8B608B8B608B8B608B8B8B3C8B8B608B8B608B8B8B608B8B608B8B3C8B8B8B608B8B608B8B608B8B8B608B8B3C8B8B608B8B8B608B8B608B8B608B
310
8B8B3C8B8B608B8B608B8B608B8B8B608B8B3C8B8B608B8B8B608B8B608B8B608B8B8B3C8B8B608B8B608B8B8B608B8B608B8B3C8B8B8B608B8B608B8B608B8B8B608B8B3C8B8B608B8B8B608B8B608B8B608B8B8B3C8B8B608B8B608B8B8B608B8B608B8B3C8B8B8B608B8B608B8B608B8B608B8B8B3C8B8B608B8B608B8B
310
8B608B8B608B8B3C3C3C3C3C3C3C6C3C3C3C3C3C3C3C3C3C3C3C3C3C3C3C3C3C3C3C3C3C3C3C3C3C3C3C3C3C3C3C3C3C3C3C3C3C3C3C3C3C3C3C3C3C3C3C3C3C3C3C3C3C3C3C3C3C3C3C3C3C3C3C3C3C3C3C3C3C3C3C3C3C3C3C3C3C3C3C3C3C3C3C3C3C3C3C3C3C3C3C3C3C3C3C3C3C3C3C3C3C3C3C3C3C3C3C3C3C3C3C3C
310
3C3C3C3C3C3C3C3C3C3C3C3C3C3C3C3C3C3C3C3C3C3C3C3C3C3C3C3C3C3C3C3C3C3C3C3C3C3C3C3C3C3C3C3C3C3C3C3C3C3C3C3C3C3C3C3C3C3C3C3C3C3C3C3C3C3C3C3C3C3C3C3C3C3C3C3C3C3C3C3C3C3C3C3C3C3C3C3C3C3C3C3C3C3C3C3C3C3C3C3C3C3C3C3C3C3C3C3C3C3C3C3C3C3C3C3C3C3C3C3C3C3C3C3C3C3C3C
310
3C3C3C3C3C3C3C3C3C8B608B8B608B8B6C8B8B8B608B8B608B8B608B8B608B8B8B3C8B8B608B8B608B8B8B608B8B608B8B3C8B8B8B608B8B608B8B608B8B8B608B8B3C8B8B608B8B8B608B8B608B8B608B8B8B3C8B8B608B8B608B8B8B608B8B608B8B3C8B8B8B608B8B608B8B608B8B8B608B8B3C8B8B608B8B8B608B8B60
310
8B8B608B8B8B3C8B8B608B8B608B8B608B8B8B608B8B3C8B8B608B8B8B608B8B608B8B608B8B8B3C8B8B608B8B608B8B8B608B8B608B8B3C8B8B8B608B8B608B8B608B8B8B608B8B3C8B8B608B8B8B608B8B608B8B608B8B8B3C8B8B608B8B608B8B8B608B8B608B8B3C8B8B8B608B8B608B8B608B8B608B8B8B3C8B8B608B
310
8B608B8B8B608B8B608B8B8B608B8B608B8B6C8B8B8B608B8B608B8B608B8B608B8B8B3C8B8B608B8B608B8B8B608B8B608B8B3C8B8B8B608B8B608B8B608B8B8B608B8B3C8B8B608B8B8B608B8B608B8B608B8B8B3C8B8B608B8B608B8B8B608B8B608B8B3C8B8B8B608B8B608B8B608B8B8B608B8B3C8B8B608B8B8B608B
310
8B608B8B608B8B8B3C8B8B608B8B608B8B608B8B8B608B8B3C8B8B608B8B8B608B8B608B8B608B8B8B3C8B8B608B8B608B8B8B608B8B608B8B3C8B8B8B608B8B608B8B608B8B8B608B8B3C8B8B608B8B8B608B8B608B8B608B8B8B3C8B8B608B8B608B8B8B608B8B608B8B3C8B8B8B608B8B608B8B608B8B608B8B8B3C8B8B
310
608B8B608B8B8B608B8B608B8B606060606060606C606060606060606060606060606060603C6060606060606060606060606060603C606060606060606060606060606060603C606060606060606060606060606060603C6060606060606060606060606060603C606060606060606060606060606060603C606060606060
310
606060606060606060603C6060606060606060606060606060603C606060606060606060606060606060603C6060606060606060606060606060603C606060606060606060606060606060603C606060606060606060606060606060603C6060606060606060606060606060603C606060606060606060606060606060603C
310
6060606060606060606060606060608B608B8B608B8B6C8B8B8B608B8B608B8B608B8B608B8B8B3C8B8B608B8B608B8B8B608B8B608B8B3C8B8B8B608B8B608B8B608B8B8B608B8B3C8B8B608B8B8B608B8B608B8B608B8B8B3C8B8B608B8B608B8B8B608B8B608B8B3C8B8B8B608B8B608B8B608B8B8B608B8B3C8B8B608B
310
8B8B608B8B608B8B608B8B8B3C8B8B608B8B608B8B608B8B8B608B8B3C8B8B608B8B8B608B8B608B8B608B8B8B3C8B8B608B8B608B8B8B608B8B608B8B3C8B8B8B608B8B608B8B608B8B8B608B8B3C8B8B608B8B8B608B8B608B8B608B8B8B3C8B8B608B8B608B8B8B608B8B608B8B3C8B8B8B608B8B608B8B608B8B608B8B
310
8B3C8B8B608B8B608B8B8B608B8B608B8B8B608B8B608B8B6C8B8B8B608B8B608B8B608B8B608B8B8B3C8B8B608B8B608B8B8B608B8B608B8B3C8B8B8B608B8B608B8B608B8B8B608B8B3C8B8B608B8B8B608B8B608B8B608B8B8B3C8B8B608B8B608B8B8B608B8B608B8B3C8B8B8B608B8B608B8B608B8B8B608B8B3C8B8B
310
608B8B8B608B8B608B8B608B8B8B3C8B8B608B8B608B8B608B8B8B608B8B3C8B8B608B8B8B608B8B608B8B608B8B8B3C8B8B608B8B608B8B8B608B8B608B8B3C8B8B8B608B8B608B8B608B8B8B608B8B3C8B8B608B8B8B608B8B608B8B608B8B8B3C8B8B608B8B608B8B8B608B8B608B8B3C8B8B8B608B8B608B8B608B8B60
310
8B8B8B3C8B8B608B8B608B8B8B608B8B608B8B606060606060606C606060606060606060606060606060603C6060606060606060606060606060603C606060606060606060606060606060603C606060606060606060606060606060603C6060606060606060606060606060603C606060606060606060606060606060603C
310
606060606060606060606060606060603C6060606060606060606060606060603C606060606060606060606060606060603C6060606060606060606060606060603C606060606060606060606060606060603C606060606060606060606060606060603C6060606060606060606060606060603C6060606060606060606060
310
60606060603C6060606060606060606060606060608B608B8B608B8B6C8B8B8B608B8B608B8B608B8B608B8B8B3C8B8B608B8B608B8B8B608B8B608B8B3C8B8B8B608B8B608B8B608B8B8B608B8B3C8B8B608B8B8B608B8B608B8B608B8B8B3C8B8B608B8B608B8B8B608B8B608B8B3C8B8B8B608B8B608B8B608B8B8B608B
310
8B3C8B8B608B8B8B608B8B608B8B608B8B8B3C8B8B608B8B608B8B608B8B8B608B8B3C8B8B608B8B8B608B8B608B8B608B8B8B3C8B8B608B8B608B8B8B608B8B608B8B3C8B8B8B608B8B608B8B608B8B8B608B8B3C8B8B608B8B8B608B8B608B8B608B8B8B3C8B8B608B8B608B8B8B608B8B608B8B3C8B8B8B608B8B608B8B
310
608B8B608B8B8B3C8B8B608B8B608B8B8B608B8B608B8B8B608B8B608B8B6C8B8B8B608B8B608B8B608B8B608B8B8B3C8B8B608B8B608B8B8B608B8B608B8B3C8B8B8B608B8B608B8B608B8B8B608B8B3C8B8B608B8B8B608B8B608B8B608B8B8B3C8B8B608B8B608B8B8B608B8B608B8B3C8B8B8B608B8B608B8B608B8B8B
310
608B8B3C8B8B608B8B8B608B8B608B8B608B8B8B3C8B8B608B8B608B8B608B8B8B608B8B3C8B8B608B8B8B608B8B608B8B608B8B8B3C8B8B608B8B608B8B8B608B8B608B8B3C8B8B8B608B8B608B8B608B8B8B608B8B3C8B8B608B8B8B608B8B608B8B608B8B8B3C8B8B608B8B608B8B8B608B8B608B8B3C8B8B8B608B8B60
310
8B8B608B8B608B8B8B3C8B8B608B8B608B8B8B608B8B608B8B8B608B8B608B8B6C8B8B8B608B8B608B8B608B8B608B8B8B3C8B8B608B8B608B8B8B608B8B608B8B3C8B8B8B608B8B608B8B608B8B8B608B8B3C8B8B608B8B8B608B8B608B8B608B8B8B3C8B8B608B8B608B8B8B608B8B608B8B3C8B8B8B608B8B608B8B608B
310
8B8B608B8B3C8B8B608B8B8B608B8B608B8B608B8B8B3C8B8B608B8B608B8B608B8B8B608B8B3C8B8B608B8B8B608B8B608B8B608B8B8B3C8B8B608B8B608B8B8B608B8B608B8B3C8B8B8B608B8B608B8B608B8B8B608B8B3C8B8B608B8B8B608B8B608B8B608B8B8B3C8B8B608B8B608B8B8B608B8B608B8B3C8B8B8B608B
310
8B608B8B608B8B608B8B8B3C8B8B608B8B608B8B8B608B8B608B8B606060606060606C606060606060606060606060606060603C6060606060606060606060606060603C606060606060606060606060606060603C606060606060606060606060606060603C6060606060606060606060606060603C606060606060606060
310
606060606060603C606060606060606060606060606060603C6060606060606060606060606060603C606060606060606060606060606060603C6060606060606060606060606060603C606060606060606060606060606060603C606060606060606060606060606060603C6060606060606060606060606060603C606060
310
606060606060606060606060603C6060606060606060606060606060608B608B8B608B8B6C8B8B8B608B8B608B8B608B8B608B8B8B3C8B8B608B8B608B8B8B608B8B608B8B3C8B8B8B608B8B608B8B608B8B8B608B8B3C8B8B608B8B8B608B8B608B8B608B8B8B3C8B8B608B8B608B8B8B608B8B608B8B3C8B8B8B608B8B60
310
8B8B608B8B8B608B8B3C8B8B608B8B8B608B8B608B8B608B8B8B3C8B8B608B8B608B8B608B8B8B608B8B3C8B8B608B8B8B608B8B608B8B608B8B8B3C8B8B608B8B608B8B8B608B8B608B8B3C8B8B8B608B8B608B8B608B8B8B608B8B3C8B8B608B8B8B608B8B608B8B608B8B8B3C8B8B608B8B608B8B8B608B8B608B8B3C8B
310
8B8B608B8B608B8B608B8B608B8B8B3C8B8B608B8B608B8B8B608B8B608B8B8B608B8B608B8B6C8B8B8B608B8B608B8B608B8B608B8B8B3C8B8B608B8B608B8B8B608B8B608B8B3C8B8B8B608B8B608B8B608B8B8B608B8B3C8B8B608B8B8B608B8B608B8B608B8B8B3C8B8B608B8B608B8B8B608B8B608B8B3C8B8B8B608B
310
8B608B8B608B8B8B608B8B3C8B8B608B8B8B608B8B608B8B608B8B8B3C8B8B608B8B608B8B608B8B8B608B8B3C8B8B608B8B8B608B8B608B8B608B8B8B3C8B8B608B8B608B8B8B608B8B608B8B3C8B8B8B608B8B608B8B608B8B8B608B8B3C8B8B608B8B8B608B8B608B8B608B8B8B3C8B8B608B8B608B8B8B608B8B608B8B
310
3C8B8B8B608B8B608B8B608B8B608B8B8B3C8B8B608B8B608B8B8B608B8B608B8B606060606060606C606060606060606060606060606060603C6060606060606060606060606060603C606060606060606060606060606060603C606060606060606060606060606060603C6060606060606060606060606060603C606060
310
606060606060606060606060603C606060606060606060606060606060603C6060606060606060606060606060603C606060606060606060606060606060603C6060606060606060606060606060603C606060606060606060606060606060603C606060606060606060606060606060603C60606060606060606060606060
310
60603C606060606060606060606060606060603C6060606060606060606060606060608B608B8B608B8B6C8B8B8B608B8B608B8B608B8B608B8B8B3C8B8B608B8B608B8B8B608B8B608B8B3C8B8B8B608B8B608B8B608B8B8B608B8B3C8B8B608B8B8B608B8B608B8B608B8B8B3C8B8B608B8B608B8B8B608B8B608B8B3C8B
310
8B8B608B8B608B8B608B8B8B608B8B3C8B8B608B8B8B608B8B608B8B608B8B8B3C8B8B608B8B608B8B608B8B8B608B8B3C8B8B608B8B8B608B8B608B8B608B8B8B3C8B8B608B8B608B8B8B608B8B608B8B3C8B8B8B608B8B608B8B608B8B8B608B8B3C8B8B608B8B8B608B8B608B8B608B8B8B3C8B8B608B8B608B8B8B608B
310
8B608B8B3C8B8B8B608B8B608B8B608B8B608B8B8B3C8B8B608B8B608B8B8B608B8B608B8B8B608B8B608B8B6C8B8B8B608B8B608B8B608B8B608B8B8B3C8B8B608B8B608B8B8B608B8B608B8B3C8B8B8B608B8B608B8B608B8B8B608B8B3C8B8B608B8B8B608B8B608B8B608B8B8B3C8B8B608B8B608B8B8B608B8B608B8B
310
3C8B8B8B608B8B608B8B608B8B8B608B8B3C8B8B608B8B8B608B8B608B8B608B8B8B3C8B8B608B8B608B8B608B8B8B608B8B3C8B8B608B8B8B608B8B608B8B608B8B8B3C8B8B608B8B608B8B8B608B8B608B8B3C8B8B8B608B8B608B8B608B8B8B608B8B3C8B8B608B8B8B608B8B608B8B608B8B8B3C8B8B608B8B608B8B8B
310
608B8B608B8B3C8B8B8B608B8B608B8B608B8B608B8B8B3C8B8B608B8B608B8B8B608B8B608B8B3C3C3C3C3C3C3C6C3C3C3C3C3C3C3C3C3C3C3C3C3C3C3C3C3C3C3C3C3C3C3C3C3C3C3C3C3C3C3C3C3C3C3C3C3C3C3C3C3C3C3C3C3C3C3C3C3C3C3C3C3C3C3C3C3C3C3C3C3C3C3C3C3C3C3C3C3C3C3C3C3C3C3C3C3C3C3C3C
310
3C3C3C3C3C3C3C3C3C3C3C3C3C3C3C3C3C3C3C3C3C3C3C3C3C3C3C3C3C3C3C3C3C3C3C3C3C3C3C3C3C3C3C3C3C3C3C3C3C3C3C3C3C3C3C3C3C3C3C3C3C3C3C3C3C3C3C3C3C3C3C3C3C3C3C3C3C3C3C3C3C3C3C3C3C3C3C3C3C3C3C3C3C3C3C3C3C3C3C3C3C3C3C3C3C3C3C3C3C3C3C3C3C3C3C3C3C3C3C3C3C3C3C3C3C3C3C
310
3C3C3C3C3C3C3C3C3C3C3C3C3C3C3C3C3C3C3C3C3C3C3C3C3C3C3C3C3C3C3C3C3C3C3C3C3C3C3C3C3C8B608B8B608B8B6C8B8B8B608B8B608B8B608B8B608B8B8B3C8B8B608B8B608B8B8B608B8B608B8B3C8B8B8B608B8B608B8B608B8B8B608B8B3C8B8B608B8B8B608B8B608B8B608B8B8B3C8B8B608B8B608B8B8B608B
310
8B608B8B3C8B8B8B608B8B608B8B608B8B8B608B8B3C8B8B608B8B8B608B8B608B8B608B8B8B3C8B8B608B8B608B8B608B8B8B608B8B3C8B8B608B8B8B608B8B608B8B608B8B8B3C8B8B608B8B608B8B8B608B8B608B8B3C8B8B8B608B8B608B8B608B8B8B608B8B3C8B8B608B8B8B608B8B608B8B608B8B8B3C8B8B608B8B
310
608B8B8B608B8B608B8B3C8B8B8B608B8B608B8B608B8B608B8B8B3C8B8B608B8B608B8B8B608B8B608B8B8B608B8B608B8B6C8B8B8B608B8B608B8B608B8B608B8B8B3C8B8B608B8B608B8B8B608B8B608B8B3C8B8B8B608B8B608B8B608B8B8B608B8B3C8B8B608B8B8B608B8B608B8B608B8B8B3C8B8B608B8B608B8B8B
310
608B8B608B8B3C8B8B8B608B8B608B8B608B8B8B608B8B3C8B8B608B8B8B608B8B608B8B608B8B8B3C8B8B608B8B608B8B608B8B8B608B8B3C8B8B608B8B8B608B8B608B8B608B8B8B3C8B8B608B8B608B8B8B608B8B608B8B3C8B8B8B608B8B608B8B608B8B8B608B8B3C8B8B608B8B8B608B8B608B8B608B8B8B3C8B8B60
310
8B8B608B8B8B608B8B608B8B3C8B8B8B608B8B608B8B608B8B608B8B8B3C8B8B608B8B608B8B8B608B8B608B8B8B608B8B608B8B6C8B8B8B608B8B608B8B608B8B608B8B8B3C8B8B608B8B608B8B8B608B8B608B8B3C8B8B8B608B8B608B8B608B8B8B608B8B3C8B8B608B8B8B608B8B608B8B608B8B8B3C8B8B608B8B608B
310
8B8B608B8B608B8B3C8B8B8B608B8B608B8B608B8B8B608B8B3C8B8B608B8B8B608B8B608B8B608B8B8B3C8B8B608B8B608B8B608B8B8B608B8B3C8B8B608B8B8B608B8B608B8B608B8B8B3C8B8B608B8B608B8B8B608B8B608B8B3C8B8B8B608B8B608B8B608B8B8B608B8B3C8B8B608B8B8B608B8B608B8B608B8B8B3C8B
310
8B608B8B608B8B8B608B8B608B8B3C8B8B8B608B8B608B8B608B8B608B8B8B3C8B8B608B8B608B8B8B608B8B608B8B606060606060606C606060606060606060606060606060603C6060606060606060606060606060603C606060606060606060606060606060603C606060606060606060606060606060603C6060606060
310
606060606060606060603C606060606060606060606060606060603C606060606060606060606060606060603C6060606060606060606060606060603C606060606060606060606060606060603C6060606060606060606060606060603C606060606060606060606060606060603C60606060606060606060606060606060
310
3C6060606060606060606060606060603C606060606060606060606060606060603C6060606060606060606060606060608B608B8B608B8B6C8B8B8B608B8B608B8B608B8B608B8B8B3C8B8B608B8B608B8B8B608B8B608B8B3C8B8B8B608B8B608B8B608B8B8B608B8B3C8B8B608B8B8B608B8B608B8B608B8B8B3C8B8B60
310
8B8B608B8B8B608B8B608B8B3C8B8B8B608B8B608B8B608B8B8B608B8B3C8B8B608B8B8B608B8B608B8B608B8B8B3C8B8B608B8B608B8B608B8B8B608B8B3C8B8B608B8B8B608B8B608B8B608B8B8B3C8B8B608B8B608B8B8B608B8B608B8B3C8B8B8B608B8B608B8B608B8B8B608B8B3C8B8B608B8B8B608B8B608B8B608B
310
8B8B3C8B8B608B8B608B8B8B608B8B608B8B3C8B8B8B608B8B608B8B608B8B608B8B8B3C8B8B608B8B608B8B8B608B8B608B8B8B608B8B608B8B6C8B8B8B608B8B608B8B608B8B608B8B8B3C8B8B608B8B608B8B8B608B8B608B8B3C8B8B8B608B8B608B8B608B8B8B608B8B3C8B8B608B8B8B608B8B608B8B608B8B8B3C8B
310
8B608B8B608B8B8B608B8B608B8B3C8B8B8B608B8B608B8B608B8B8B608B8B3C8B8B608B8B8B608B8B608B8B608B8B8B3C8B8B608B8B608B8B608B8B8B608B8B3C8B8B608B8B8B608B8B608B8B608B8B8B3C8B8B608B8B608B8B8B608B8B608B8B3C8B8B8B608B8B608B8B608B8B8B608B8B3C8B8B608B8B8B608B8B608B8B
310
608B8B8B3C8B8B608B8B608B8B8B608B8B608B8B3C8B8B8B608B8B608B8B608B8B608B8B8B3C8B8B608B8B608B8B8B608B8B608B8B606060606060606C606060606060606060606060606060603C6060606060606060606060606060603C606060606060606060606060606060603C60606060606060606060606060606060
310
3C6060606060606060606060606060603C606060606060606060606060606060603C606060606060606060606060606060603C6060606060606060606060606060603C606060606060606060606060606060603C6060606060606060606060606060603C606060606060606060606060606060603C60606060606060606060
310
6060606060603C6060606060606060606060606060603C606060606060606060606060606060603C6060606060606060606060606060608B608B8B608B8B6C8B8B8B608B8B608B8B608B8B608B8B8B3C8B8B608B8B608B8B8B608B8B608B8B3C8B8B8B608B8B608B8B608B8B8B608B8B3C8B8B608B8B8B608B8B608B8B608B
310
8B8B3C8B8B608B8B608B8B8B608B8B608B8B3C8B8B8B608B8B608B8B608B8B8B608B8B3C8B8B608B8B8B608B8B608B8B608B8B8B3C8B8B608B8B608B8B608B8B8B608B8B3C8B8B608B8B8B608B8B608B8B608B8B8B3C8B8B608B8B608B8B8B608B8B608B8B3C8B8B8B608B8B608B8B608B8B8B608B8B3C8B8B608B8B8B608B
310
8B608B8B608B8B8B3C8B8B608B8B608B8B8B608B8B608B8B3C8B8B8B608B8B608B8B608B8B608B8B8B3C8B8B608B8B608B8B8B608B8B608B8B8B608B8B608B8B6C8B8B8B608B8B608B8B608B8B608B8B8B3C8B8B608B8B608B8B8B608B8B608B8B3C8B8B8B608B8B608B8B608B8B8B608B8B3C8B8B608B8B8B608B8B608B8B
310
608B8B8B3C8B8B608B8B608B8B8B608B8B608B8B3C8B8B8B608B8B608B8B608B8B8B608B8B3C8B8B608B8B8B608B8B608B8B608B8B8B3C8B8B608B8B608B8B608B8B8B608B8B3C8B8B608B8B8B608B8B608B8B608B8B8B3C8B8B608B8B608B8B8B608B8B608B8B3C8B8B8B608B8B608B8B608B8B8B608B8B3C8B8B608B8B8B
310
608B8B608B8B608B8B8B3C8B8B608B8B608B8B8B608B8B608B8B3C8B8B8B608B8B608B8B608B8B608B8B8B3C8B8B608B8B608B8B8B608B8B608B8B606060606060606C606060606060606060606060606060603C6060606060606060606060606060603C606060606060606060606060606060603C60606060606060606060
310
6060606060603C6060606060606060606060606060603C606060606060606060606060606060603C606060606060606060606060606060603C6060606060606060606060606060603C606060606060606060606060606060603C6060606060606060606060606060603C606060606060606060606060606060603C60606060
310
6060606060606060606060603C6060606060606060606060606060603C606060606060606060606060606060603C6060606060606060606060606060608B608B8B608B8B6C8B8B8B608B8B608B8B608B8B608B8B8B3C8B8B608B8B608B8B8B608B8B608B8B3C8B8B8B608B8B608B8B608B8B8B608B8B3C8B8B608B8B8B608B
310
8B608B8B608B8B8B3C8B8B608B8B608B8B8B608B8B608B8B3C8B8B8B608B8B608B8B608B8B8B608B8B3C8B8B608B8B8B608B8B608B8B608B8B8B3C8B8B608B8B608B8B608B8B8B608B8B3C8B8B608B8B8B608B8B608B8B608B8B8B3C8B8B608B8B608B8B8B608B8B608B8B3C8B8B8B608B8B608B8B608B8B8B608B8B3C8B8B
310
608B8B8B608B8B608B8B608B8B8B3C8B8B608B8B608B8B8B608B8B608B8B3C8B8B8B608B8B608B8B608B8B608B8B8B3C8B8B608B8B608B8B8B608B8B608B8B8B608B8B608B8B6C8B8B8B608B8B608B8B608B8B608B8B8B3C8B8B608B8B608B8B8B608B8B608B8B3C8B8B8B608B8B608B8B608B8B8B608B8B3C8B8B608B8B8B
310
608B8B608B8B608B8B8B3C8B8B608B8B608B8B8B608B8B608B8B3C8B8B8B608B8B608B8B608B8B8B608B8B3C8B8B608B8B8B608B8B608B8B608B8B8B3C8B8B608B8B608B8B608B8B8B608B8B3C8B8B608B8B8B608B8B608B8B608B8B8B3C8B8B608B8B608B8B8B608B8B608B8B3C8B8B8B608B8B608B8B608B8B8B608B8B3C
310
8B8B608B8B8B608B8B608B8B608B8B8B3C8B8B608B8B608B8B8B608B8B608B8B3C8B8B8B608B8B608B8B608B8B608B8B8B3C8B8B608B8B608B8B8B608B8B608B8B8B608B8B608B8B6C8B8B8B608B8B608B8B608B8B608B8B8B3C8B8B608B8B608B8B8B608B8B608B8B3C8B8B8B608B8B608B8B608B8B8B608B8B3C8B8B608B
310
8B8B608B8B608B8B608B8B8B3C8B8B608B8B608B8B8B608B8B608B8B3C8B8B8B608B8B608B8B608B8B8B608B8B3C8B8B608B8B8B608B8B608B8B608B8B8B3C8B8B608B8B608B8B608B8B8B608B8B3C8B8B608B8B8B608B8B608B8B608B8B8B3C8B8B608B8B608B8B8B608B8B608B8B3C8B8B8B608B8B608B8B608B8B8B608B
310
8B3C8B8B608B8B8B608B8B608B8B608B8B8B3C8B8B608B8B608B8B8B608B8B608B8B3C8B8B8B608B8B608B8B608B8B608B8B8B3C8B8B608B8B608B8B8B608B8B608B8B606060606060606C606060606060606060606060606060603C6060606060606060606060606060603C606060606060606060606060606060603C6060
310
60606060606060606060606060603C6060606060606060606060606060603C606060606060606060606060606060603C606060606060606060606060606060603C6060606060606060606060606060603C606060606060606060606060606060603C6060606060606060606060606060603C60606060606060606060606060
310
6060603C606060606060606060606060606060603C6060606060606060606060606060603C606060606060606060606060606060603C6060606060606060606060606060608B608B8B608B8B6C8B8B8B608B8B608B8B608B8B608B8B8B3C8B8B608B8B608B8B8B608B8B608B8B3C8B8B8B608B8B608B8B608B8B8B608B8B3C
310
8B8B608B8B8B608B8B608B8B608B8B8B3C8B8B608B8B608B8B8B608B8B608B8B3C8B8B8B608B8B608B8B608B8B8B608B8B3C8B8B608B8B8B608B8B608B8B608B8B8B3C8B8B608B8B608B8B608B8B8B608B8B3C8B8B608B8B8B608B8B608B8B608B8B8B3C8B8B608B8B608B8B8B608B8B608B8B3C8B8B8B608B8B608B8B608B
310
8B8B608B8B3C8B8B608B8B8B608B8B608B8B608B8B8B3C8B8B608B8B608B8B8B608B8B608B8B3C8B8B8B608B8B608B8B608B8B608B8B8B3C8B8B608B8B608B8B8B608B8B608B8B8B608B8B608B8B6C8B8B8B608B8B608B8B608B8B608B8B8B3C8B8B608B8B608B8B8B608B8B608B8B3C8B8B8B608B8B608B8B608B8B8B608B
310
8B3C8B8B608B8B8B608B8B608B8B608B8B8B3C8B8B608B8B608B8B8B608B8B608B8B3C8B8B8B608B8B608B8B608B8B8B608B8B3C8B8B608B8B8B608B8B608B8B608B8B8B3C8B8B608B8B608B8B608B8B8B608B8B3C8B8B608B8B8B608B8B608B8B608B8B8B3C8B8B608B8B608B8B8B608B8B608B8B3C8B8B8B608B8B608B8B
310
608B8B8B608B8B3C8B8B608B8B8B608B8B608B8B608B8B8B3C8B8B608B8B608B8B8B608B8B608B8B3C8B8B8B608B8B608B8B608B8B608B8B8B3C8B8B608B8B608B8B8B608B8B608B8B3C3C3C3C3C3C3C6C3C3C3C3C3C3C3C3C3C3C3C3C3C3C3C3C3C3C3C3C3C3C3C3C3C3C3C3C3C3C3C3C3C3C3C3C3C3C3C3C3C3C3C3C3C3C
310
3C3C3C3C3C3C3C3C3C3C3C3C3C3C3C3C3C3C3C3C3C3C3C3C3C3C3C3C3C3C3C3C3C3C3C3C3C3C3C3C3C3C3C3C3C3C3C3C3C3C3C3C3C3C3C3C3C3C3C3C3C3C3C3C3C3C3C3C3C3C3C3C3C3C3C3C3C3C3C3C3C3C3C3C3C3C3C3C3C3C3C3C3C3C3C3C3C3C3C3C3C3C3C3C3C3C3C3C3C3C3C3C3C3C3C3C3C3C3C3C3C3C3C3C3C3C3C
310
3C3C3C3C3C3C3C3C3C3C3C3C3C3C3C3C3C3C3C3C3C3C3C3C3C3C3C3C3C3C3C3C3C3C3C3C3C3C3C3C3C3C3C3C3C3C3C3C3C3C3C3C3C3C3C3C3C3C3C3C3C3C3C3C3C3C3C3C3C3C3C3C3C3C3C8B608B8B608B8B6C8B8B8B608B8B608B8B608B8B608B8B8B3C8B8B608B8B608B8B8B608B8B608B8B3C8B8B8B608B8B608B8B608B
310
8B8B608B8B3C8B8B608B8B8B608B8B608B8B608B8B8B3C8B8B608B8B608B8B8B608B8B608B8B3C8B8B8B608B8B608B8B608B8B8B608B8B3C8B8B608B8B8B608B8B608B8B608B8B8B3C8B8B608B8B608B8B608B8B8B608B8B3C8B8B608B8B8B608B8B608B8B608B8B8B3C8B8B608B8B608B8B8B608B8B608B8B3C8B8B8B608B
310
8B608B8B608B8B8B608B8B3C8B8B608B8B8B608B8B608B8B608B8B8B3C8B8B608B8B608B8B8B608B8B608B8B3C8B8B8B608B8B608B8B608B8B608B8B8B3C8B8B608B8B608B8B8B608B8B608B8B8B608B8B608B8B6C8B8B8B608B8B608B8B608B8B608B8B8B3C8B8B608B8B608B8B8B608B8B608B8B3C8B8B8B608B8B608B8B
310
608B8B8B608B8B3C8B8B608B8B8B608B8B608B8B608B8B8B3C8B8B608B8B608B8B8B608B8B608B8B3C8B8B8B608B8B608B8B608B8B8B608B8B3C8B8B608B8B8B608B8B608B8B608B8B8B3C8B8B608B8B608B8B608B8B8B608B8B3C8B8B608B8B8B608B8B608B8B608B8B8B3C8B8B608B8B608B8B8B608B8B608B8B3C8B8B8B
310
608B8B608B8B608B8B8B608B8B3C8B8B608B8B8B608B8B608B8B608B8B8B3C8B8B608B8B608B8B8B608B8B608B8B3C8B8B8B608B8B608B8B608B8B608B8B8B3C8B8B608B8B608B8B8B608B8B608B8B606060606060606C606060606060606060606060606060603C6060606060606060606060606060603C60606060606060
310
6060606060606060603C606060606060606060606060606060603C6060606060606060606060606060603C606060606060606060606060606060603C606060606060606060606060606060603C6060606060606060606060606060603C606060606060606060606060606060603C6060606060606060606060606060603C60
310
6060606060606060606060606060603C606060606060606060606060606060603C6060606060606060606060606060603C606060606060606060606060606060603C6060606060606060606060606060608B608B8B608B8B6C8B8B8B608B8B608B8B608B8B608B8B8B3C8B8B608B8B608B8B8B608B8B608B8B3C8B8B8B608B
310
8B608B8B608B8B8B608B8B3C8B8B608B8B8B608B8B608B8B608B8B8B3C8B8B608B8B608B8B8B608B8B608B8B3C8B8B8B608B8B608B8B608B8B8B608B8B3C8B8B608B8B8B608B8B608B8B608B8B8B3C8B8B608B8B608B8B608B8B8B608B8B3C8B8B608B8B8B608B8B608B8B608B8B8B3C8B8B608B8B608B8B8B608B8B608B8B
310
3C8B8B8B608B8B608B8B608B8B8B608B8B3C8B8B608B8B8B608B8B608B8B608B8B8B3C8B8B608B8B608B8B8B608B8B608B8B3C8B8B8B608B8B608B8B608B8B608B8B8B3C8B8B608B8B608B8B8B608B8B608B8B8B608B8B608B8B6C8B8B8B608B8B608B8B608B8B608B8B8B3C8B8B608B8B608B8B8B608B8B608B8B3C8B8B8B
310
608B8B608B8B608B8B8B608B8B3C8B8B608B8B8B608B8B608B8B608B8B8B3C8B8B608B8B608B8B8B608B8B608B8B3C8B8B8B608B8B608B8B608B8B8B608B8B3C8B8B608B8B8B608B8B608B8B608B8B8B3C8B8B608B8B608B8B608B8B8B608B8B3C8B8B608B8B8B608B8B608B8B608B8B8B3C8B8B608B8B608B8B8B608B8B60
310
8B8B3C8B8B8B608B8B608B8B608B8B8B608B8B3C8B8B608B8B8B608B8B608B8B608B8B8B3C8B8B608B8B608B8B8B608B8B608B8B3C8B8B8B608B8B608B8B608B8B608B8B8B3C8B8B608B8B608B8B8B608B8B608B8B8B608B8B608B8B6C8B8B8B608B8B608B8B608B8B608B8B8B3C8B8B608B8B608B8B8B608B8B608B8B3C8B
310
8B8B608B8B608B8B608B8B8B608B8B3C8B8B608B8B8B608B8B608B8B608B8B8B3C8B8B608B8B608B8B8B608B8B608B8B3C8B8B8B608B8B608B8B608B8B8B608B8B3C8B8B608B8B8B608B8B608B8B608B8B8B3C8B8B608B8B608B8B608B8B8B608B8B3C8B8B608B8B8B608B8B608B8B608B8B8B3C8B8B608B8B608B8B8B608B
310
8B608B8B3C8B8B8B608B8B608B8B608B8B8B608B8B3C8B8B608B8B8B608B8B608B8B608B8B8B3C8B8B608B8B608B8B8B608B8B608B8B3C8B8B8B608B8B608B8B608B8B608B8B8B3C8B8B608B8B608B8B8B608B8B608B8B606060606060606C606060606060606060606060606060603C606060606060606060606060606060
310
3C606060606060606060606060606060603C606060606060606060606060606060603C6060606060606060606060606060603C606060606060606060606060606060603C606060606060606060606060606060603C6060606060606060606060606060603C606060606060606060606060606060603C606060606060606060
310
6060606060603C606060606060606060606060606060603C606060606060606060606060606060603C6060606060606060606060606060603C606060606060606060606060606060603C6060606060606060606060606060608B608B8B608B8B6C8B8B8B608B8B608B8B608B8B608B8B8B3C8B8B608B8B608B8B8B608B8B60
310
8B8B3C8B8B8B608B8B608B8B608B8B8B608B8B3C8B8B608B8B8B608B8B608B8B608B8B8B3C8B8B608B8B608B8B8B608B8B608B8B3C8B8B8B608B8B608B8B608B8B8B608B8B3C8B8B608B8B8B608B8B608B8B608B8B8B3C8B8B608B8B608B8B608B8B8B608B8B3C8B8B608B8B8B608B8B608B8B608B8B8B3C8B8B608B8B608B
310
8B8B608B8B608B8B3C8B8B8B608B8B608B8B608B8B8B608B8B3C8B8B608B8B8B608B8B608B8B608B8B8B3C8B8B608B8B608B8B8B608B8B608B8B3C8B8B8B608B8B608B8B608B8B608B8B8B3C8B8B608B8B608B8B8B608B8B608B8B8B608B8B608B8B6C8B8B8B608B8B608B8B608B8B608B8B8B3C8B8B608B8B608B8B8B608B
310
8B608B8B3C8B8B8B608B8B608B8B608B8B8B608B8B3C8B8B608B8B8B608B8B608B8B608B8B8B3C8B8B608B8B608B8B8B608B8B608B8B3C8B8B8B608B8B608B8B608B8B8B608B8B3C8B8B608B8B8B608B8B608B8B608B8B8B3C8B8B608B8B608B8B608B8B8B608B8B3C8B8B608B8B8B608B8B608B8B608B8B8B3C8B8B608B8B
310
608B8B8B608B8B608B8B3C8B8B8B608B8B608B8B608B8B8B608B8B3C8B8B608B8B8B608B8B608B8B608B8B8B3C8B8B608B8B608B8B8B608B8B608B8B3C8B8B8B608B8B608B8B608B8B608B8B8B3C8B8B608B8B608B8B8B608B8B608B8B606060606060606C606060606060606060606060606060603C606060606060606060
310
6060606060603C606060606060606060606060606060603C606060606060606060606060606060603C6060606060606060606060606060603C606060606060606060606060606060603C606060606060606060606060606060603C6060606060606060606060606060603C606060606060606060606060606060603C606060
310
6060606060606060606060603C606060606060606060606060606060603C606060606060606060606060606060603C6060606060606060606060606060603C606060606060606060606060606060603C6060606060606060606060606060608B608B8B608B8B6C8B8B8B608B8B608B8B608B8B608B8B8B3C8B8B608B8B608B
310
8B8B608B8B608B8B3C8B8B8B608B8B608B8B608B8B8B608B8B3C8B8B608B8B8B608B8B608B8B608B8B8B3C8B8B608B8B608B8B8B608B8B608B8B3C8B8B8B608B8B608B8B608B8B8B608B8B3C8B8B608B8B8B608B8B608B8B608B8B8B3C8B8B608B8B608B8B608B8B8B608B8B3C8B8B608B8B8B608B8B608B8B608B8B8B3C8B
310
8B608B8B608B8B8B608B8B608B8B3C8B8B8B608B8B608B8B608B8B8B608B8B3C8B8B608B8B8B608B8B608B8B608B8B8B3C8B8B608B8B608B8B8B608B8B608B8B3C8B8B8B608B8B608B8B608B8B608B8B8B3C8B8B608B8B608B8B8B608B8B608B8B8B608B8B608B8B6C8B8B8B608B8B608B8B608B8B608B8B8B3C8B8B608B8B
310
608B8B8B608B8B608B8B3C8B8B8B608B8B608B8B608B8B8B608B8B3C8B8B608B8B8B608B8B608B8B608B8B8B3C8B8B608B8B608B8B8B608B8B608B8B3C8B8B8B608B8B608B8B608B8B8B608B8B3C8B8B608B8B8B608B8B608B8B608B8B8B3C8B8B608B8B608B8B608B8B8B608B8B3C8B8B608B8B8B608B8B608B8B608B8B8B
310
3C8B8B608B8B608B8B8B608B8B608B8B3C8B8B8B608B8B608B8B608B8B8B608B8B3C8B8B608B8B8B608B8B608B8B608B8B8B3C8B8B608B8B608B8B8B608B8B608B8B3C8B8B8B608B8B608B8B608B8B608B8B8B3C8B8B608B8B608B8B8B608B8B608B8B606060606060606C606060606060606060606060606060603C606060
310
6060606060606060606060603C606060606060606060606060606060603C606060606060606060606060606060603C6060606060606060606060606060603C606060606060606060606060606060603C606060606060606060606060606060603C6060606060606060606060606060603C6060606060606060606060606060
310
60603C6060606060606060606060606060603C606060606060606060606060606060603C606060606060606060606060606060603C6060606060606060606060606060603C606060606060606060606060606060603C6060606060606060606060606060608B608B8B608B8B6C8B8B8B608B8B608B8B608B8B608B8B8B3C8B
310
8B608B8B608B8B8B608B8B608B8B3C8B8B8B608B8B608B8B608B8B8B608B8B3C8B8B608B8B8B608B8B608B8B608B8B8B3C8B8B608B8B608B8B8B608B8B608B8B3C8B8B8B608B8B608B8B608B8B8B608B8B3C8B8B608B8B8B608B8B608B8B608B8B8B3C8B8B608B8B608B8B608B8B8B608B8B3C8B8B608B8B8B608B8B608B8B
310
608B8B8B3C8B8B608B8B608B8B8B608B8B608B8B3C8B8B8B608B8B608B8B608B8B8B608B8B3C8B8B608B8B8B608B8B608B8B608B8B8B3C8B8B608B8B608B8B8B608B8B608B8B3C8B8B8B608B8B608B8B608B8B608B8B8B3C8B8B608B8B608B8B8B608B8B608B8B8B608B8B608B8B6C8B8B8B608B8B608B8B608B8B608B8B8B
310
3C8B8B608B8B608B8B8B608B8B608B8B3C8B8B8B608B8B608B8B608B8B8B608B8B3C8B8B608B8B8B608B8B608B8B608B8B8B3C8B8B608B8B608B8B8B608B8B608B8B3C8B8B8B608B8B608B8B608B8B8B608B8B3C8B8B608B8B8B608B8B608B8B608B8B8B3C8B8B608B8B608B8B608B8B8B608B8B3C8B8B608B8B8B608B8B60
310
8B8B608B8B8B3C8B8B608B8B608B8B8B608B8B608B8B3C8B8B8B608B8B608B8B608B8B8B608B8B3C8B8B608B8B8B608B8B608B8B608B8B8B3C8B8B608B8B608B8B8B608B8B608B8B3C8B8B8B608B8B608B8B608B8B608B8B8B3C8B8B608B8B608B8B8B608B8B608B8B3C3C3C3C3C3C3C6C3C3C3C3C3C3C3C3C3C3C3C3C3C3C
310
3C3C3C3C3C3C3C3C3C3C3C3C3C3C3C3C3C3C3C3C3C3C3C3C3C3C3C3C3C3C3C3C3C3C3C3C3C3C3C3C3C3C3C3C3C3C3C3C3C3C3C3C3C3C3C3C3C3C3C3C3C3C3C3C3C3C3C3C3C3C3C3C3C3C3C3C3C3C3C3C3C3C3C3C3C3C3C3C3C3C3C3C3C3C3C3C3C3C3C3C3C3C3C3C3C3C3C3C3C3C3C3C3C3C3C3C3C3C3C3C3C3C3C3C3C3C3C
310
3C3C3C3C3C3C3C3C3C3C3C3C3C3C3C3C3C3C3C3C3C3C3C3C3C3C3C3C3C3C3C3C3C3C3C3C3C3C3C3C3C3C3C3C3C3C3C3C3C3C3C3C3C3C3C3C3C3C3C3C3C3C3C3C3C3C3C3C3C3C3C3C3C3C3C3C3C3C3C3C3C3C3C3C3C3C3C3C3C3C3C3C3C3C3C3C3C3C3C3C3C3C3C3C3C3C3C8B608B8B608B8B6C8B8B8B608B8B608B8B608B8B
310
608B8B8B3C8B8B608B8B608B8B8B608B8B608B8B3C8B8B8B608B8B608B8B608B8B8B608B8B3C8B8B608B8B8B608B8B608B8B608B8B8B3C8B8B608B8B608B8B8B608B8B608B8B3C8B8B8B608B8B608B8B608B8B8B608B8B3C8B8B608B8B8B608B8B608B8B608B8B8B3C8B8B608B8B608B8B608B8B8B608B8B3C8B8B608B8B8B
310
608B8B608B8B608B8B8B3C8B8B608B8B608B8B8B608B8B608B8B3C8B8B8B608B8B608B8B608B8B8B608B8B3C8B8B608B8B8B608B8B608B8B608B8B8B3C8B8B608B8B608B8B8B608B8B608B8B3C8B8B8B608B8B608B8B608B8B608B8B8B3C8B8B608B8B608B8B8B608B8B608B8B8B608B8B608B8B6C8B8B8B608B8B608B8B60
310
8B8B608B8B8B3C8B8B608B8B608B8B8B608B8B608B8B3C8B8B8B608B8B608B8B608B8B8B608B8B3C8B8B608B8B8B608B8B608B8B608B8B8B3C8B8B608B8B608B8B8B608B8B608B8B3C8B8B8B608B8B608B8B608B8B8B608B8B3C8B8B608B8B8B608B8B608B8B608B8B8B3C8B8B608B8B608B8B608B8B8B608B8B3C8B8B608B
310
8B8B608B8B608B8B608B8B8B3C8B8B608B8B608B8B8B608B8B608B8B3C8B8B8B608B8B608B8B608B8B8B608B8B3C8B8B608B8B8B608B8B608B8B608B8B8B3C8B8B608B8B608B8B8B608B8B608B8B3C8B8B8B608B8B608B8B608B8B608B8B8B3C8B8B608B8B608B8B8B608B8B608B8B8B608B8B608B8B6C8B8B8B608B8B608B
310
8B608B8B608B8B8B3C8B8B608B8B608B8B8B608B8B608B8B3C8B8B8B608B8B608B8B608B8B8B608B8B3C8B8B608B8B8B608B8B608B8B608B8B8B3C8B8B608B8B608B8B8B608B8B608B8B3C8B8B8B608B8B608B8B608B8B8B608B8B3C8B8B608B8B8B608B8B608B8B608B8B8B3C8B8B608B8B608B8B608B8B8B608B8B3C8B8B
310
608B8B8B608B8B608B8B608B8B8B3C8B8B608B8B608B8B8B608B8B608B8B3C8B8B8B608B8B608B8B608B8B8B608B8B3C8B8B608B8B8B608B8B608B8B608B8B8B3C8B8B608B8B608B8B8B608B8B608B8B3C8B8B8B608B8B608B8B608B8B608B8B8B3C8B8B608B8B608B8B8B608B8B608B8B606060606060606C606060606060
310
606060606060606060603C6060606060606060606060606060603C606060606060606060606060606060603C606060606060606060606060606060603C6060606060606060606060606060603C606060606060606060606060606060603C606060606060606060606060606060603C6060606060606060606060606060603C
310
606060606060606060606060606060603C6060606060606060606060606060603C606060606060606060606060606060603C606060606060606060606060606060603C6060606060606060606060606060603C606060606060606060606060606060603C6060606060606060606060606060608B608B8B608B8B6C8B8B8B60
310
8B8B608B8B608B8B608B8B8B3C8B8B608B8B608B8B8B608B8B608B8B3C8B8B8B608B8B608B8B608B8B8B608B8B3C8B8B608B8B8B608B8B608B8B608B8B8B3C8B8B608B8B608B8B8B608B8B608B8B3C8B8B8B608B8B608B8B608B8B8B608B8B3C8B8B608B8B8B608B8B608B8B608B8B8B3C8B8B608B8B608B8B608B8B8B608B
310
8B3C8B8B608B8B8B608B8B608B8B608B8B8B3C8B8B608B8B608B8B8B608B8B608B8B3C8B8B8B608B8B608B8B608B8B8B608B8B3C8B8B608B8B8B608B8B608B8B608B8B8B3C8B8B608B8B608B8B8B608B8B608B8B3C8B8B8B608B8B608B8B608B8B608B8B8B3C8B8B608B8B608B8B8B608B8B608B8B8B608B8B608B8B6C8B8B
310
8B608B8B608B8B608B8B608B8B8B3C8B8B608B8B608B8B8B608B8B608B8B3C8B8B8B608B8B608B8B608B8B8B608B8B3C8B8B608B8B8B608B8B608B8B608B8B8B3C8B8B608B8B608B8B8B608B8B608B8B3C8B8B8B608B8B608B8B608B8B8B608B8B3C8B8B608B8B8B608B8B608B8B608B8B8B3C8B8B608B8B608B8B608B8B8B
310
608B8B3C8B8B608B8B8B608B8B608B8B608B8B8B3C8B8B608B8B608B8B8B608B8B608B8B3C8B8B8B608B8B608B8B608B8B8B608B8B3C8B8B608B8B8B608B8B608B8B608B8B8B3C8B8B608B8B608B8B8B608B8B608B8B3C8B8B8B608B8B608B8B608B8B608B8B8B3C8B8B608B8B608B8B8B608B8B608B8B606060606060606C
310
606060606060606060606060606060603C6060606060606060606060606060603C606060606060606060606060606060603C606060606060606060606060606060603C6060606060606060606060606060603C606060606060606060606060606060603C606060606060606060606060606060603C60606060606060606060
310
60606060603C606060606060606060606060606060603C6060606060606060606060606060603C606060606060606060606060606060603C606060606060606060606060606060603C6060606060606060606060606060603C606060606060606060606060606060603C6060606060606060606060606060608B608B8B608B
310
8B6C8B8B8B608B8B608B8B608B8B608B8B8B3C8B8B608B8B608B8B8B608B8B608B8B3C8B8B8B608B8B608B8B608B8B8B608B8B3C8B8B608B8B8B608B8B608B8B608B8B8B3C8B8B608B8B608B8B8B608B8B608B8B3C8B8B8B608B8B608B8B608B8B8B608B8B3C8B8B608B8B8B608B8B608B8B608B8B8B3C8B8B608B8B608B8B
310
608B8B8B608B8B3C8B8B608B8B8B608B8B608B8B608B8B8B3C8B8B608B8B608B8B8B608B8B608B8B3C8B8B8B608B8B608B8B608B8B8B608B8B3C8B8B608B8B8B608B8B608B8B608B8B8B3C8B8B608B8B608B8B8B608B8B608B8B3C8B8B8B608B8B608B8B608B8B608B8B8B3C8B8B608B8B608B8B8B608B8B608B8B8B608B8B
310
608B8B6C8B8B8B608B8B608B8B608B8B608B8B8B3C8B8B608B8B608B8B8B608B8B608B8B3C8B8B8B608B8B608B8B608B8B8B608B8B3C8B8B608B8B8B608B8B608B8B608B8B8B3C8B8B608B8B608B8B8B608B8B608B8B3C8B8B8B608B8B608B8B608B8B8B608B8B3C8B8B608B8B8B608B8B608B8B608B8B8B3C8B8B608B8B60
310
8B8B608B8B8B608B8B3C8B8B608B8B8B608B8B608B8B608B8B8B3C8B8B608B8B608B8B8B608B8B608B8B3C8B8B8B608B8B608B8B608B8B8B608B8B3C8B8B608B8B8B608B8B608B8B608B8B8B3C8B8B608B8B608B8B8B608B8B608B8B3C8B8B8B608B8B608B8B608B8B608B8B8B3C8B8B608B8B608B8B8B608B8B608B8B6060
310
60606060606C606060606060606060606060606060603C6060606060606060606060606060603C606060606060606060606060606060603C606060606060606060606060606060603C6060606060606060606060606060603C606060606060606060606060606060603C606060606060606060606060606060603C60606060
310
60606060606060606060603C606060606060606060606060606060603C6060606060606060606060606060603C606060606060606060606060606060603C606060606060606060606060606060603C6060606060606060606060606060603C606060606060606060606060606060603C606060606060606060606060606060
310
8B608B8B608B8B6C8B8B8B608B8B608B8B608B8B608B8B8B3C8B8B608B8B608B8B8B608B8B608B8B3C8B8B8B608B8B608B8B608B8B8B608B8B3C8B8B608B8B8B608B8B608B8B608B8B8B3C8B8B608B8B608B8B8B608B8B608B8B3C8B8B8B608B8B608B8B608B8B8B608B8B3C8B8B608B8B8B608B8B608B8B608B8B8B3C8B8B
310
608B8B608B8B608B8B8B608B8B3C8B8B608B8B8B608B8B608B8B608B8B8B3C8B8B608B8B608B8B8B608B8B608B8B3C8B8B8B608B8B608B8B608B8B8B608B8B3C8B8B608B8B8B608B8B608B8B608B8B8B3C8B8B608B8B608B8B8B608B8B608B8B3C8B8B8B608B8B608B8B608B8B608B8B8B3C8B8B608B8B608B8B8B608B8B60
310
8B8B8B608B8B608B8B6C8B8B8B608B8B608B8B608B8B608B8B8B3C8B8B608B8B608B8B8B608B8B608B8B3C8B8B8B608B8B608B8B608B8B8B608B8B3C8B8B608B8B8B608B8B608B8B608B8B8B3C8B8B608B8B608B8B8B608B8B608B8B3C8B8B8B608B8B608B8B608B8B8B608B8B3C8B8B608B8B8B608B8B608B8B608B8B8B3C
310
8B8B608B8B608B8B608B8B8B608B8B3C8B8B608B8B8B608B8B608B8B608B8B8B3C8B8B608B8B608B8B8B608B8B608B8B3C8B8B8B608B8B608B8B608B8B8B608B8B3C8B8B608B8B8B608B8B608B8B608B8B8B3C8B8B608B8B608B8B8B608B8B608B8B3C8B8B8B608B8B608B8B608B8B608B8B8B3C8B8B608B8B608B8B8B608B
310
8B608B8B8B608B8B608B8B6C8B8B8B608B8B608B8B608B8B608B8B8B3C8B8B608B8B608B8B8B608B8B608B8B3C8B8B8B608B8B608B8B608B8B8B608B8B3C8B8B608B8B8B608B8B608B8B608B8B8B3C8B8B608B8B608B8B8B608B8B608B8B3C8B8B8B608B8B608B8B608B8B8B608B8B3C8B8B608B8B8B608B8B608B8B608B8B
310
8B3C8B8B608B8B608B8B608B8B8B608B8B3C8B8B608B8B8B608B8B608B8B608B8B8B3C8B8B608B8B608B8B8B608B8B608B8B3C8B8B8B608B8B608B8B608B8B8B608B8B3C8B8B608B8B8B608B8B608B8B608B8B8B3C8B8B608B8B608B8B8B608B8B608B8B3C8B8B8B608B8B608B8B608B8B608B8B8B3C8B8B608B8B608B8B8B
310
608B8B608B8B606060606060606C606060606060606060606060606060603C6060606060606060606060606060603C606060606060606060606060606060603C606060606060606060606060606060603C6060606060606060606060606060603C606060606060606060606060606060603C60606060606060606060606060
310
6060603C6060606060606060606060606060603C606060606060606060606060606060603C6060606060606060606060606060603C606060606060606060606060606060603C606060606060606060606060606060603C6060606060606060606060606060603C606060606060606060606060606060603C60606060606060
310
60606060606060608B608B8B608B8B6C8B8B8B608B8B608B8B608B8B608B8B8B3C8B8B608B8B608B8B8B608B8B608B8B3C8B8B8B608B8B608B8B608B8B8B608B8B3C8B8B608B8B8B608B8B608B8B608B8B8B3C8B8B608B8B608B8B8B608B8B608B8B3C8B8B8B608B8B608B8B608B8B8B608B8B3C8B8B608B8B8B608B8B608B
310
8B608B8B8B3C8B8B608B8B608B8B608B8B8B608B8B3C8B8B608B8B8B608B8B608B8B608B8B8B3C8B8B608B8B608B8B8B608B8B608B8B3C8B8B8B608B8B608B8B608B8B8B608B8B3C8B8B608B8B8B608B8B608B8B608B8B8B3C8B8B608B8B608B8B8B608B8B608B8B3C8B8B8B608B8B608B8B608B8B608B8B8B3C8B8B608B8B
310
608B8B8B608B8B608B8B8B608B8B608B8B6C8B8B8B608B8B608B8B608B8B608B8B8B3C8B8B608B8B608B8B8B608B8B608B8B3C8B8B8B608B8B608B8B608B8B8B608B8B3C8B8B608B8B8B608B8B608B8B608B8B8B3C8B8B608B8B608B8B8B608B8B608B8B3C8B8B8B608B8B608B8B608B8B8B608B8B3C8B8B608B8B8B608B8B
310
608B8B608B8B8B3C8B8B608B8B608B8B608B8B8B608B8B3C8B8B608B8B8B608B8B608B8B608B8B8B3C8B8B608B8B608B8B8B608B8B608B8B3C8B8B8B608B8B608B8B608B8B8B608B8B3C8B8B608B8B8B608B8B608B8B608B8B8B3C8B8B608B8B608B8B8B608B8B608B8B3C8B8B8B608B8B608B8B608B8B608B8B8B3C8B8B60
310
8B8B608B8B8B608B8B608B8B3C3C3C3C3C3C3C6C3C3C3C3C3C3C3C3C3C3C3C3C3C3C3C3C3C3C3C3C3C3C3C3C3C3C3C3C3C3C3C3C3C3C3C3C3C3C3C3C3C3C3C3C3C3C3C3C3C3C3C3C3C3C3C3C3C3C3C3C3C3C3C3C3C3C3C3C3C3C3C3C3C3C3C3C3C3C3C3C3C3C3C3C3C3C3C3C3C3C3C3C3C3C3C3C3C3C3C3C3C3C3C3C3C3C3C
310
3C3C3C3C3C3C3C3C3C3C3C3C3C3C3C3C3C3C3C3C3C3C3C3C3C3C3C3C3C3C3C3C3C3C3C3C3C3C3C3C3C3C3C3C3C3C3C3C3C3C3C3C3C3C3C3C3C3C3C3C3C3C3C3C3C3C3C3C3C3C3C3C3C3C3C3C3C3C3C3C3C3C3C3C3C3C3C3C3C3C3C3C3C3C3C3C3C3C3C3C3C3C3C3C3C3C3C3C3C3C3C3C3C3C3C3C3C3C3C3C3C3C3C3C3C3C3C
310
3C3C3C3C3C3C3C3C3C3C3C3C3C3C8B608B8B608B8B6C8B8B8B608B8B608B8B608B8B608B8B8B3C8B8B608B8B608B8B8B608B8B608B8B3C8B8B8B608B8B608B8B608B8B8B608B8B3C8B8B608B8B8B608B8B608B8B608B8B8B3C8B8B608B8B608B8B8B608B8B608B8B3C8B8B8B608B8B608B8B608B8B8B608B8B3C8B8B608B8B
310
8B608B8B608B8B608B8B8B3C8B8B608B8B608B8B608B8B8B608B8B3C8B8B608B8B8B608B8B608B8B608B8B8B3C8B8B608B8B608B8B8B608B8B608B8B3C8B8B8B608B8B608B8B608B8B8B608B8B3C8B8B608B8B8B608B8B608B8B608B8B8B3C8B8B608B8B608B8B8B608B8B608B8B3C8B8B8B608B8B608B8B608B8B608B8B8B
310
3C8B8B608B8B608B8B8B608B8B608B8B8B608B8B608B8B6C8B8B8B608B8B608B8B608B8B608B8B8B3C8B8B608B8B608B8B8B608B8B608B8B3C8B8B8B608B8B608B8B608B8B8B608B8B3C8B8B608B8B8B608B8B608B8B608B8B8B3C8B8B608B8B608B8B8B608B8B608B8B3C8B8B8B608B8B608B8B608B8B8B608B8B3C8B8B60
310
8B8B8B608B8B608B8B608B8B8B3C8B8B608B8B608B8B608B8B8B608B8B3C8B8B608B8B8B608B8B608B8B608B8B8B3C8B8B608B8B608B8B8B608B8B608B8B3C8B8B8B608B8B608B8B608B8B8B608B8B3C8B8B608B8B8B608B8B608B8B608B8B8B3C8B8B608B8B608B8B8B608B8B608B8B3C8B8B8B608B8B608B8B608B8B608B
310
8B8B3C8B8B608B8B608B8B8B608B8B608B8B606060606060606C606060606060606060606060606060603C6060606060606060606060606060603C606060606060606060606060606060603C606060606060606060606060606060603C6060606060606060606060606060603C606060606060606060606060606060603C60
310
6060606060606060606060606060603C6060606060606060606060606060603C606060606060606060606060606060603C6060606060606060606060606060603C606060606060606060606060606060603C606060606060606060606060606060603C6060606060606060606060606060603C606060606060606060606060
310
606060603C6060606060606060606060606060608B608B8B608B8B6C8B8B8B608B8B608B8B608B8B608B8B8B3C8B8B608B8B608B8B8B608B8B608B8B3C8B8B8B608B8B608B8B608B8B8B608B8B3C8B8B608B8B8B608B8B608B8B608B8B8B3C8B8B608B8B608B8B8B608B8B608B8B3C8B8B8B608B8B608B8B608B8B8B608B8B
310
3C8B8B608B8B8B608B8B608B8B608B8B8B3C8B8B608B8B608B8B608B8B8B608B8B3C8B8B608B8B8B608B8B608B8B608B8B8B3C8B8B608B8B608B8B8B608B8B608B8B3C8B8B8B608B8B608B8B608B8B8B608B8B3C8B8B608B8B8B608B8B608B8B608B8B8B3C8B8B608B8B608B8B8B608B8B608B8B3C8B8B8B608B8B608B8B60
310
8B8B608B8B8B3C8B8B608B8B608B8B8B608B8B608B8B8B608B8B608B8B6C8B8B8B608B8B608B8B608B8B608B8B8B3C8B8B608B8B608B8B8B608B8B608B8B3C8B8B8B608B8B608B8B608B8B8B608B8B3C8B8B608B8B8B608B8B608B8B608B8B8B3C8B8B608B8B608B8B8B608B8B608B8B3C8B8B8B608B8B608B8B608B8B8B60
310
8B8B3C8B8B608B8B8B608B8B608B8B608B8B8B3C8B8B608B8B608B8B608B8B8B608B8B3C8B8B608B8B8B608B8B608B8B608B8B8B3C8B8B608B8B608B8B8B608B8B608B8B3C8B8B8B608B8B608B8B608B8B8B608B8B3C8B8B608B8B8B608B8B608B8B608B8B8B3C8B8B608B8B608B8B8B608B8B608B8B3C8B8B8B608B8B608B
310
8B608B8B608B8B8B3C8B8B608B8B608B8B8B608B8B608B8B8B608B8B608B8B6C8B8B8B608B8B608B8B608B8B608B8B8B3C8B8B608B8B608B8B8B608B8B608B8B3C8B8B8B608B8B608B8B608B8B8B608B8B3C8B8B608B8B8B608B8B608B8B608B8B8B3C8B8B608B8B608B8B8B608B8B608B8B3C8B8B8B608B8B608B8B608B8B
310
8B608B8B3C8B8B608B8B8B608B8B608B8B608B8B8B3C8B8B608B8B608B8B608B8B8B608B8B3C8B8B608B8B8B608B8B608B8B608B8B8B3C8B8B608B8B608B8B8B608B8B608B8B3C8B8B8B608B8B608B8B608B8B8B608B8B3C8B8B608B8B8B608B8B608B8B608B8B8B3C8B8B608B8B608B8B8B608B8B608B8B3C8B8B8B608B8B
310
608B8B608B8B608B8B8B3C8B8B608B8B608B8B8B608B8B608B8B606060606060606C606060606060606060606060606060603C6060606060606060606060606060603C606060606060606060606060606060603C606060606060606060606060606060603C6060606060606060606060606060603C60606060606060606060
310
6060606060603C606060606060606060606060606060603C6060606060606060606060606060603C606060606060606060606060606060603C6060606060606060606060606060603C606060606060606060606060606060603C606060606060606060606060606060603C6060606060606060606060606060603C60606060
310
6060606060606060606060603C6060606060606060606060606060608B608B8B608B8B6C8B8B8B608B8B608B8B608B8B608B8B8B3C8B8B608B8B608B8B8B608B8B608B8B3C8B8B8B608B8B608B8B608B8B8B608B8B3C8B8B608B8B8B608B8B608B8B608B8B8B3C8B8B608B8B608B8B8B608B8B608B8B3C8B8B8B608B8B608B
310
8B608B8B8B608B8B3C8B8B608B8B8B608B8B608B8B608B8B8B3C8B8B608B8B608B8B608B8B8B608B8B3C8B8B608B8B8B608B8B608B8B608B8B8B3C8B8B608B8B608B8B8B608B8B608B8B3C8B8B8B608B8B608B8B608B8B8B608B8B3C8B8B608B8B8B608B8B608B8B608B8B8B3C8B8B608B8B608B8B8B608B8B608B8B3C8B8B
310
8B608B8B608B8B608B8B608B8B8B3C8B8B608B8B608B8B8B608B8B608B8B8B608B8B608B8B6C8B8B8B608B8B608B8B608B8B608B8B8B3C8B8B608B8B608B8B8B608B8B608B8B3C8B8B8B608B8B608B8B608B8B8B608B8B3C8B8B608B8B8B608B8B608B8B608B8B8B3C8B8B608B8B608B8B8B608B8B608B8B3C8B8B8B608B8B
310
608B8B608B8B8B608B8B3C8B8B608B8B8B608B8B608B8B608B8B8B3C8B8B608B8B608B8B608B8B8B608B8B3C8B8B608B8B8B608B8B608B8B608B8B8B3C8B8B608B8B608B8B8B608B8B608B8B3C8B8B8B608B8B608B8B608B8B8B608B8B3C8B8B608B8B8B608B8B608B8B608B8B8B3C8B8B608B8B608B8B8B608B8B608B8B3C
310
8B8B8B608B8B608B8B608B8B608B8B8B3C8B8B608B8B608B8B8B608B8B608B8B606060606060606C606060606060606060606060606060603C6060606060606060606060606060603C606060606060606060606060606060603C606060606060606060606060606060603C6060606060606060606060606060603C60606060
310
6060606060606060606060603C606060606060606060606060606060603C6060606060606060606060606060603C606060606060606060606060606060603C6060606060606060606060606060603C606060606060606060606060606060603C606060606060606060606060606060603C6060606060606060606060606060
310
603C606060606060606060606060606060603C6060606060606060606060606060608B608B8B608B8B6C8B8B8B608B8B608B8B608B8B608B8B8B3C8B8B608B8B608B8B8B608B8B608B8B3C8B8B8B608B8B608B8B608B8B8B608B8B3C8B8B608B8B8B608B8B608B8B608B8B8B3C8B8B608B8B608B8B8B608B8B608B8B3C8B8B
310
8B608B8B608B8B608B8B8B608B8B3C8B8B608B8B8B608B8B608B8B608B8B8B3C8B8B608B8B608B8B608B8B8B608B8B3C8B8B608B8B8B608B8B608B8B608B8B8B3C8B8B608B8B608B8B8B608B8B608B8B3C8B8B8B608B8B608B8B608B8B8B608B8B3C8B8B608B8B8B608B8B608B8B608B8B8B3C8B8B608B8B608B8B8B608B8B
310
608B8B3C8B8B8B608B8B608B8B608B8B608B8B8B3C8B8B608B8B608B8B8B608B8B608B8B8B608B8B608B8B6C8B8B8B608B8B608B8B608B8B608B8B8B3C8B8B608B8B608B8B8B608B8B608B8B3C8B8B8B608B8B608B8B608B8B8B608B8B3C8B8B608B8B8B608B8B608B8B608B8B8B3C8B8B608B8B608B8B8B608B8B608B8B3C
310
8B8B8B608B8B608B8B608B8B8B608B8B3C8B8B608B8B8B608B8B608B8B608B8B8B3C8B8B608B8B608B8B608B8B8B608B8B3C8B8B608B8B8B608B8B608B8B608B8B8B3C8B8B608B8B608B8B8B608B8B608B8B3C8B8B8B608B8B608B8B608B8B8B608B8B3C8B8B608B8B8B608B8B608B8B608B8B8B3C8B8B608B8B608B8B8B60
310
8B8B608B8B3C8B8B8B608B8B608B8B608B8B608B8B8B3C8B8B608B8B608B8B8B608B8B608B8B606060606060606C606060606060606060606060606060603C6060606060606060606060606060603C606060606060606060606060606060603C606060606060606060606060606060603C6060606060606060606060606060
310
603C606060606060606060606060606060603C606060606060606060606060606060603C6060606060606060606060606060603C606060606060606060606060606060603C6060606060606060606060606060603C606060606060606060606060606060603C606060606060606060606060606060603C6060606060606060
310
606060606060603C606060606060606060606060606060603C6060606060606060606060606060608B608B8B608B8B6C8B8B8B608B8B608B8B608B8B608B8B8B3C8B8B608B8B608B8B8B608B8B608B8B3C8B8B8B608B8B608B8B608B8B8B608B8B3C8B8B608B8B8B608B8B608B8B608B8B8B3C8B8B608B8B608B8B8B608B8B
310
608B8B3C8B8B8B608B8B608B8B608B8B8B608B8B3C8B8B608B8B8B608B8B608B8B608B8B8B3C8B8B608B8B608B8B608B8B8B608B8B3C8B8B608B8B8B608B8B608B8B608B8B8B3C8B8B608B8B608B8B8B608B8B608B8B3C8B8B8B608B8B608B8B608B8B8B608B8B3C8B8B608B8B8B608B8B608B8B608B8B8B3C8B8B608B8B60
310
8B8B8B608B8B608B8B3C8B8B8B608B8B608B8B608B8B608B8B8B3C8B8B608B8B608B8B8B608B8B608B8B8B608B8B608B8B6C8B8B8B608B8B608B8B608B8B608B8B8B3C8B8B608B8B608B8B8B608B8B608B8B3C8B8B8B608B8B608B8B608B8B8B608B8B3C8B8B608B8B8B608B8B608B8B608B8B8B3C8B8B608B8B608B8B8B60
310
8B8B608B8B3C8B8B8B608B8B608B8B608B8B8B608B8B3C8B8B608B8B8B608B8B608B8B608B8B8B3C8B8B608B8B608B8B608B8B8B608B8B3C8B8B608B8B8B608B8B608B8B608B8B8B3C8B8B608B8B608B8B8B608B8B608B8B3C8B8B8B608B8B608B8B608B8B8B608B8B3C8B8B608B8B8B608B8B608B8B608B8B8B3C8B8B608B
310
8B608B8B8B608B8B608B8B3C8B8B8B608B8B608B8B608B8B608B8B8B3C8B8B608B8B608B8B8B608B8B608B8B8B608B8B608B8B6C8B8B8B608B8B608B8B608B8B608B8B8B3C8B8B608B8B608B8B8B608B8B608B8B3C8B8B8B608B8B608B8B608B8B8B608B8B3C8B8B608B8B8B608B8B608B8B608B8B8B3C8B8B608B8B608B8B
310
8B608B8B608B8B3C8B8B8B608B8B608B8B608B8B8B608B8B3C8B8B608B8B8B608B8B608B8B608B8B8B3C8B8B608B8B608B8B608B8B8B608B8B3C8B8B608B8B8B608B8B608B8B608B8B8B3C8B8B608B8B608B8B8B608B8B608B8B3C8B8B8B608B8B608B8B608B8B8B608B8B3C8B8B608B8B8B608B8B608B8B608B8B8B3C8B8B
310
608B8B608B8B8B608B8B608B8B3C8B8B8B608B8B608B8B608B8B608B8B8B3C8B8B608B8B608B8B8B608B8B608B8B3C3C3C3C3C3C3C6C3C3C3C3C3C3C3C3C3C3C3C3C3C3C3C3C3C3C3C3C3C3C3C3C3C3C3C3C3C3C3C3C3C3C3C3C3C3C3C3C3C3C3C3C3C3C3C3C3C3C3C3C3C3C3C3C3C3C3C3C3C3C3C3C3C3C3C3C3C3C3C3C3C
310
3C3C3C3C3C3C3C3C3C3C3C3C3C3C3C3C3C3C3C3C3C3C3C3C3C3C3C3C3C3C3C3C3C3C3C3C3C3C3C3C3C3C3C3C3C3C3C3C3C3C3C3C3C3C3C3C3C3C3C3C3C3C3C3C3C3C3C3C3C3C3C3C3C3C3C3C3C3C3C3C3C3C3C3C3C3C3C3C3C3C3C3C3C3C3C3C3C3C3C3C3C3C3C3C3C3C3C3C3C3C3C3C3C3C3C3C3C3C3C3C3C3C3C3C3C3C3C
310
3C3C3C3C3C3C3C3C3C3C3C3C3C3C3C3C3C3C3C3C3C3C3C3C3C3C3C3C3C3C3C3C3C3C3C3C3C3C3C3C3C3C3C3C3C3C3C3C8B608B8B608B8B6C8B8B8B608B8B608B8B608B8B608B8B8B3C8B8B608B8B608B8B8B608B8B608B8B3C8B8B8B608B8B608B8B608B8B8B608B8B3C8B8B608B8B8B608B8B608B8B608B8B8B3C8B8B608B
310
8B608B8B8B608B8B608B8B3C8B8B8B608B8B608B8B608B8B8B608B8B3C8B8B608B8B8B608B8B608B8B608B8B8B3C8B8B608B8B608B8B608B8B8B608B8B3C8B8B608B8B8B608B8B608B8B608B8B8B3C8B8B608B8B608B8B8B608B8B608B8B3C8B8B8B608B8B608B8B608B8B8B608B8B3C8B8B608B8B8B608B8B608B8B608B8B
310
8B3C8B8B608B8B608B8B8B608B8B608B8B3C8B8B8B608B8B608B8B608B8B608B8B8B3C8B8B608B8B608B8B8B608B8B608B8B8B608B8B608B8B6C8B8B8B608B8B608B8B608B8B608B8B8B3C8B8B608B8B608B8B8B608B8B608B8B3C8B8B8B608B8B608B8B608B8B8B608B8B3C8B8B608B8B8B608B8B608B8B608B8B8B3C8B8B
310
608B8B608B8B8B608B8B608B8B3C8B8B8B608B8B608B8B608B8B8B608B8B3C8B8B608B8B8B608B8B608B8B608B8B8B3C8B8B608B8B608B8B608B8B8B608B8B3C8B8B608B8B8B608B8B608B8B608B8B8B3C8B8B608B8B608B8B8B608B8B608B8B3C8B8B8B608B8B608B8B608B8B8B608B8B3C8B8B608B8B8B608B8B608B8B60
310
8B8B8B3C8B8B608B8B608B8B8B608B8B608B8B3C8B8B8B608B8B608B8B608B8B608B8B8B3C8B8B608B8B608B8B8B608B8B608B8B606060606060606C606060606060606060606060606060603C6060606060606060606060606060603C606060606060606060606060606060603C606060606060606060606060606060603C
310
6060606060606060606060606060603C606060606060606060606060606060603C606060606060606060606060606060603C6060606060606060606060606060603C606060606060606060606060606060603C6060606060606060606060606060603C606060606060606060606060606060603C6060606060606060606060
310
60606060603C6060606060606060606060606060603C606060606060606060606060606060603C6060606060606060606060606060608B608B8B608B8B6C8B8B8B608B8B608B8B608B8B608B8B8B3C8B8B608B8B608B8B8B608B8B608B8B3C8B8B8B608B8B608B8B608B8B8B608B8B3C8B8B608B8B8B608B8B608B8B608B8B
310
8B3C8B8B608B8B608B8B8B608B8B608B8B3C8B8B8B608B8B608B8B608B8B8B608B8B3C8B8B608B8B8B608B8B608B8B608B8B8B3C8B8B608B8B608B8B608B8B8B608B8B3C8B8B608B8B8B608B8B608B8B608B8B8B3C8B8B608B8B608B8B8B608B8B608B8B3C8B8B8B608B8B608B8B608B8B8B608B8B3C8B8B608B8B8B608B8B
310
608B8B608B8B8B3C8B8B608B8B608B8B8B608B8B608B8B3C8B8B8B608B8B608B8B608B8B608B8B8B3C8B8B608B8B608B8B8B608B8B608B8B8B608B8B608B8B6C8B8B8B608B8B608B8B608B8B608B8B8B3C8B8B608B8B608B8B8B608B8B608B8B3C8B8B8B608B8B608B8B608B8B8B608B8B3C8B8B608B8B8B608B8B608B8B60
310
8B8B8B3C8B8B608B8B608B8B8B608B8B608B8B3C8B8B8B608B8B608B8B608B8B8B608B8B3C8B8B608B8B8B608B8B608B8B608B8B8B3C8B8B608B8B608B8B608B8B8B608B8B3C8B8B608B8B8B608B8B608B8B608B8B8B3C8B8B608B8B608B8B8B608B8B608B8B3C8B8B8B608B8B608B8B608B8B8B608B8B3C8B8B608B8B8B60
310
8B8B608B8B608B8B8B3C8B8B608B8B608B8B8B608B8B608B8B3C8B8B8B608B8B608B8B608B8B608B8B8B3C8B8B608B8B608B8B8B608B8B608B8B606060606060606C606060606060606060606060606060603C6060606060606060606060606060603C606060606060606060606060606060603C6060606060606060606060
310
60606060603C6060606060606060606060606060603C606060606060606060606060606060603C606060606060606060606060606060603C6060606060606060606060606060603C606060606060606060606060606060603C6060606060606060606060606060603C606060606060606060606060606060603C6060606060
310
60606060606060606060603C6060606060606060606060606060603C606060606060606060606060606060603C6060606060606060606060606060608B608B8B608B8B6C8B8B8B608B8B608B8B608B8B608B8B8B3C8B8B608B8B608B8B8B608B8B608B8B3C8B8B8B608B8B608B8B608B8B8B608B8B3C8B8B608B8B8B608B8B
310
608B8B608B8B8B3C8B8B608B8B608B8B8B608B8B608B8B3C8B8B8B608B8B608B8B608B8B8B608B8B3C8B8B608B8B8B608B8B608B8B608B8B8B3C8B8B608B8B608B8B608B8B8B608B8B3C8B8B608B8B8B608B8B608B8B608B8B8B3C8B8B608B8B608B8B8B608B8B608B8B3C8B8B8B608B8B608B8B608B8B8B608B8B3C8B8B60
310
8B8B8B608B8B608B8B608B8B8B3C8B8B608B8B608B8B8B608B8B608B8B3C8B8B8B608B8B608B8B608B8B608B8B8B3C8B8B608B8B608B8B8B608B8B608B8B8B608B8B608B8B6C8B8B8B608B8B608B8B608B8B608B8B8B3C8B8B608B8B608B8B8B608B8B608B8B3C8B8B8B608B8B608B8B608B8B8B608B8B3C8B8B608B8B8B60
310
8B8B608B8B608B8B8B3C8B8B608B8B608B8B8B608B8B608B8B3C8B8B8B608B8B608B8B608B8B8B608B8B3C8B8B608B8B8B608B8B608B8B608B8B8B3C8B8B608B8B608B8B608B8B8B608B8B3C8B8B608B8B8B608B8B608B8B608B8B8B3C8B8B608B8B608B8B8B608B8B608B8B3C8B8B8B608B8B608B8B608B8B8B608B8B3C8B
310
8B608B8B8B608B8B608B8B608B8B8B3C8B8B608B8B608B8B8B608B8B608B8B3C8B8B8B608B8B608B8B608B8B608B8B8B3C8B8B608B8B608B8B8B608B8B608B8B606060606060606C606060606060606060606060606060603C6060606060606060606060606060603C606060606060606060606060606060603C6060606060
310
60606060606060606060603C6060606060606060606060606060603C606060606060606060606060606060603C606060606060606060606060606060603C6060606060606060606060606060603C606060606060606060606060606060603C6060606060606060606060606060603C60606060606060606060606060606060
310
3C606060606060606060606060606060603C6060606060606060606060606060603C606060606060606060606060606060603C606060606060606060606060606060
  0
XRECORD
  5
189
102
{ACAD_REACTORS
330
188
102
}
330
188
100
AcDbXrecord
280
     1
 70
     1
 90
429727718
  1
508B35C9-AEE7-456F-BE74-D52651303AC6
310
504B03040A0000080000B670623B3DEE336E79000000790000001B0000006175746F6465736B2D64657369676E2D7061636B6167652E786D6C3C3F786D6C2076657273696F6E3D22312E302220656E636F64696E673D227574662D3822203F3E3C666F726D6174733E3C666F726D61743E687474703A2F2F736368656D612E
310
6175746F6465736B2E636F6D2F64657369676E2D7061636B6167652F323030393C2F666F726D61743E3C2F666F726D6174733E504B0304140006080800B670623BD486FD9CA0000000F4000000130000005B436F6E74656E745F54797065735D2E786D6C7D8EC10E82300C865F65E91D8A1E8C310C0EEA1BF002731658846E
310
D98AC1B77784ABF1D8FE5FBFBF75BBCE937A534CCEB38643598122B6FEE978D0B0485F9C41B54DDD7D022595594E1A469170414C76A4D9A4D207E29CF43ECE46F218070CC6BECC4078ACAA135ACF422C856C0E68EA1BF5669944DDD7BCDE7B1F8E415D77AECB980613C2E4AC91FC167A2B244592486606FC29C8FD7F045B9A
310
EF7053A7E60B504B0304140006080800B670623B28ED286BEB0000007C01000008000000636F72652E786D6C8D90416EC3201045AF82665B6183218D6D61A254764FD00B204C5C94182C03558F5F9C3852BBEB6A467FFE9B197D71FA9E6FE8CBACC17AD7012D0820E3B41FAD9B3A48F1826B40272956EFE32F1B20A766D3C1
310
268314D3EAD3B24BDABB685CCCAAF3A3D94515828980F42D371D04FD696655A814B3235C8B45E9AB9A4C419F5D8653B2237A1CB163DE672FD6AC209BF3C08E0D1B30EB19C3FC9D72FCC6EB231EFA33EDE96BDD341517E5064B11EDFCBCAF57A3A2194156843498524CAA0FCA5B7268F9E185D42D21A2DCEC7FA0B48CFF8492
310
759155FBBB0F2C80A4F991FB408A72CB22977B50B96EB9C91F504B0304140006080800B670623B55019EA25F0000007C00000007000000636E782E786D6C4DCB3B0E80201045D1AD90E915ED2CF8AC45050C11660C8261F98AB1B07AC9C97D42D718D865D3E909258CFD00CCE24AC6E326A164D74DC0B4128928FF32603847
310
2BA13128B1252AC747C6BAB984FC68F0B87FE8960A5C09FE86CFB69FBA01504B0304140006080800B670623B7BC41AC871010000D40300000C0000006662782F636F72652E786D6CC553ED6E8320147D15C2DF4501B56B6D90A64BBB27D80B50A5CE54C120983EFEAE1F4DD7A56BBA5FF3879273EEE59E7310BE393735EA95
310
ED2AA333CC428A91D2B9292A5D66D8BB63B0C26823B835C67D2BC348CB46657880B1E0A535BE9DA1DC68A7B403549B42CDA0EC3AE530CA6B5864B8CB3F552343E91D5474A7B095F949962A6421D0502778E72C0840D390E18DC5F170E664C205F7BE2A66B62A605A75AC94C522DDEEE3651AEF837817C741F2CE92E02D592D
310
83FD6ECB76EC7595A651C2C9D02CB8AB9A8BBADC2AE954814544691A3016D0E883256BBA58278B17BA5A53CAC9507ED3E4DBE2C9265F691747B3DCA9ADC382819091F8E1162272A8933DE82182932144F88C09DF060D8140C84E1EEA8B8F1340BDCA9DB1093085F157AA97B557309586747CD0EF0B4EA64E983A6E0EAEEFCE
310
889E9EF17847386AA94B30211D2C0FDE0D3AF9A4610EAD5536E8DD1969631B593F67E381C33F5157F17725E5A636F6BF1491F980C8FC7B90E13E8A2F504B0304140006080800B670623B70102A487D0000009D0000000B0000006662782F636E782E786D6C4DCCD10A83201886E15B91FFDC95A5C30335ACCDFB886521330D
310
A76397BF1A1DECE883878F57749FD5A3B74D2F17830472A901D9F088930B8B849267CC01754AA418F3DF0D5018572BE160506249B16C274D761E8BCFBB7A179E27F65CB39A0F14D396184C9921B81F34C3ACA1B4B99ABB6E6F062A25AA5F69DF23ACBE504B0304140006080800B670623B3610CA3329010000120200003100
310
00006662782F42384135303843342D343331462D343546312D424341352D3532343432364645413344462F636F72652E786D6C8D515B6EC32010BC0AE22B55850D0E446E848992B43E412FE000495162B07854397EA176A4F62F3F2C9A9D991D58BEBB8F37F0AD7D30CE76905418026DA553C65E3A98E219B510EC04F7CEC5
310
3F3408EC30EA0E16180A7EF12E4D0B249D8DDAC68C5AA7F4020E21E80881BCE54B0783FCD2E3500D296646B856D320AFC34557A4CAEDCC133C449F0380794839A138B47B86DB2345744D7A44594FD0E1B867883594369BFE63BF7EEF793D0B054FC9A8456E548E63CE46FB674D8A58F068C6477CE9F510B582A2C1F80D1182
310
70F349E816B32D65AFB8DD62CCEB42FF274A937A52948C8DEB66893BCB021484D7734370E5D2E9F608A3EF93F3119479ABA0E50B14B8C298119A43CCC4FCFCECB8A18B6388CEE7EF5D5D4F994BD86CBBA182D76543B9FCAE2FD7B24DF103504B0304140006080800B670623B1B8617914E0100003303000030000000666278
310
2F42384135303843342D343331462D343546312D424341352D3532343432364645413344462F636E782E786D6CD593C16EC32010447F0571AD6CE3D489D20813A9877E410FBD62D82434182CC055F3F75D1292E692438FBD206B7698593D61BEFD1E2DF982108D773D6D6B460938E5B571FB9ECE6957AD29D90A1EBC4F7736
310
4A9C1CA1A759A682EF839FA72269D8C9D92654AD71C72206887E0E0A22CAF926B15E498B01E0AA19451807D01A34B919F16B070157417138917400F2F6FA41FCF0092A45DEE414C19BDC21783E4BD39D891265658C3D8DEA00A3ACE59CBC8678ACB54CB26EEB6BD7839D7E9348BE70AD9C8321B9BCA7F9A4A26C542347DEE0
310
50F09802D22BA6749A800A394DD62899107273365E3C82CFC6A55557BC06C10774B7ABE7AEC3B0F34CF06446280E154026D0542C187BA9DAB6628BF7B6DBB0E5A65B3EB1F58631DE64BBE083F7B65CC218087E22CABB042E51D1F2268F1FE12B3EA24D40D63E9CFE00120194D60B9D5BC67FE6D39CDF37E20AF817881F504B
310
0304140006080800B670623BBFEF2E3B690500003C100000340000006662782F42384135303843342D343331462D343546312D424341352D3532343432364645413344462F6F626A656374732E786D6CAD575D739B3814FD2B0CFB0C98D84E931D4227B6938EA793B6534F3BFB90198F0099B001899144EAECAFDF231018B0
310
D37A3FFC609090EEE7B94757C1FB7D915B2F54C88CB31BDB7727B64559CC938CA53776A576CE956DBD0F03C1B9EA2DB32D460A7A63EB693B0C52C1ABD24C257447AA5C8D66EF177F5832A68CDA569C13296F6C193FD182B8A4523CA1F2D94D88226EBADBBBBEDB2C1C8A4D05299F46424B222853B014F30C52ACC6287F389C
310
D85E1878FA7B18E87FB36AFAF62AAFF667A83F635211161F291B8999FAB3D5DDC5FCDA99CF6653677679E13B8BFBC5CAF1DF4D27CBCBE5F2FAF6EE1A8AA51290642C117467871F101B91C581D77CEA2C36869F3229E68CD1B8F61F1ED6361B89092D294B90C78C4A68EB793D190E7D1D9BDEE7A91E1B95FDE9F3BCEAEFE809
310
6A6D6F9F7D4B79F4275C90E7A04248AA51D5C4C738DAE06F72885AC4796EBE65D22A88A22223B995679120E2D50EB1542F098381188D4EA111AE3DB043FF20AF6F2B4AE3D7D83D65E5AECA730D4D3BAC91BD05FEA992B565D95F549CD6069B90AB2A63EACA38A45E4B6A87D781574F86817E4C2FCCC72690D62E2729520E37
310
9BAF234797BAF6D62B3BFC781FED37BA1E4F2B2F052FA9501A3E80569BB8F6A9A364D4FA67654E6F803383981F82F21591FF84F23D9882BC896C3FDBCF8C162508933B2E0AE4C69DD43F6BD2BE38DDDBF10BF86CB4FA784D37F3AF16075E67EC9030DECA1FC0A55373F5DFF3378C591FA9BDF485C10B0A8C8BA909E5262639
310
A8E72163488806A595734C81CB77D1DE0ED7604A303B76913CEC0272F412782FF88EFF4636D8AA56DF7B322474C4B767303F625997056C7B032C473C592B36CEBD15F3F9FF5233B7ABCDC74D257624A60F8658567497B14CE1EC3C80B76FD02011038F9EE9EB0F2E12387A9C844D3F09855125116D1D731DF8B43D2CF4E0A0
310
79A020C6BE946BCE0B7EA1E1219331CD73C228AF5A2DDD31A4B1DA918CE91350854D40A71723140BFA92E94E62B0626016CEFA5864A50E5977E8753CEDBEE1CBB7F52780D20E17AF0BA0F5F9B02A3AD07DCC732EB6D1EBB661421BE0C39E21BABF0FE16D22EA6929407C8DE596724C88B749B6DB5512BC7B228ADFD7CB7EA6
310
3A22397E690BA8D5D8D4E40CEC8CDA23C2C0B7D5898640101CEC9C6D331CE328CB93CAFBBAC70A642DF70DF95155945B52F08AA973C23469FD69ADEF84F7BB18F983A8F8C90E37F5D35980B2139A1C523540813E824EF83448CF7C72B598CE97D7CEEDDDDD3B6736BFBC771677EF66CE6A7E7139F7A793E9EDF2B2B3A8B624
310
0CDA13AA5F8388264EC4A0129909F3B7F5A16CEDF08128E97D680ACA4B9BE7B7B58BB638F0B00700EF36AE8B32A705658A68F83EE897FC2B41573190D1CCAF0B92D233A47CFEB019D9809933F67DD1A5467F8CF69AD9A5AE859342D45355448C64F968A371DC2D596ADC6E43D93D1B466F877A64E2893E54F23C4B40388995
310
525E5005DA3983ED45412510D3EFCA13737B3863F74BD30F2A12E5B4B5E489A025CE25500DB855B11ACE5BBFA185D35DD48D8DC3CE7DC69F2944DB42AA6F6CF09BCA622ADD08C7A36E7C6AE18000BAB08E040135C2D21C9D75B3A91B77BB746C403F38018DFE6EC939DD92F16B40BC05294B9CDA035AAD6D330AE27FE4786B
310
8E45145EA34A75BE1C263A676A35A8ACC6297337400BF16C54EF515F3F77CB77EB3583889C754FFA29081AA98E2222ADEF05DA3E63D2EDEA8B8756C05A7FB6CABC4A91CBF325398202CC952E70A008A830324BA200D5E5EF8F5F04C75DB4B0EE3340E071C98B823333B83577596BF3849B69F2085AA0FAFA212F26BEFF5877
310
FDE622B28D88A42E49E43326DA82D31E8CB006401E1DA726059ECEC168F97A6599036306A135688F9AD2E61A6EA178F4CD51974A9F2CCB9F36FE5EBD14601068D9C3BF01504B0304140006080000B670623B000000000000000000000000350000006662782F42384135303843342D343331462D343546312D424341352D35
310
32343432364645413344462F76657274696365732E62696E504B0304140006080800B670623BF270F1330600000004000000360000006662782F42384135303843342D343331462D343546312D424341352D3532343432364645413344462F747269616E676C65732E62696E636660600000504B0304140006080000B67062
310
3B000000000000000000000000370000006662782F42384135303843342D343331462D343546312D424341352D3532343432364645413344462F617474726962757465732E62696E504B0304140006080800B670623B08DA0BD19000000041010000360000006662782F42384135303843342D343331462D343546312D4243
310
41352D3532343432364645413344462F6469726563746F72792E786D6C858F410AC3201045AF22B36F53E9A60B35CBEEBAE80D244E44489C6234F4F835464A48035D0DF398FF9F8AF63D0E6CC63039F212F8F9020C7D47C6792B21C5FE7403D62A1188E2E60C98D7234A5830286103A55745067B9D86B8A3CF9C7F90C11DE6
310
07FB144396D7B6A82D282E9A152AD114D5EF2CB866EEE831B8EEA07A7BB5A8D7D61A2BAAEB7FD5F70921FF497D00504B0304140006080800B670623B3B4606F3FE000000A00100003B0000006662782F42384135303843342D343331462D343546312D424341352D3532343432364645413344462F7265736F75726365732F
310
636F72652E786D6C8D504B6E833010BD0A9A6D65B08134808CA354A427E8052C332156828DFCA97AFC9A40A576D7CDCCE87D344F8F9FBEE647F689CE6B6B7A6039850C8DB2A336530F315C4903D94970676DF82583CCC8197B5861107C72362E3BA4AC096842428D1D7107A5F71820538F74F4E0D50D6799CB1892C2DFF345
310
AABB9C306779A2934E701F5C0A906D4FD609C2A1B7D129F4BCD858C163D4E3AED163FAA9AF1A1D88F67CA98E6D35906AA82A52BFB39ABCD5CD915C86331BD86BD3B665CD8BD52C78D0F34F46E550061C419494B6843142CB0F5677F4D0D58717DA7494F26295FF31C565FCA7296A13AA728FBBD93C0896823C09C18BB5AFB4
310
9E65A6BD762BBE01504B010214000A0000080000B670623B3DEE336E79000000790000001B00000000000000000000000000000000006175746F6465736B2D64657369676E2D7061636B6167652E786D6C504B01021400140006080800B670623BD486FD9CA0000000F40000001300000000000000000000000000B2000000
310
5B436F6E74656E745F54797065735D2E786D6C504B01021400140006080800B670623B28ED286BEB0000007C010000080000000000000000000000000083010000636F72652E786D6C504B01021400140006080800B670623B55019EA25F0000007C000000070000000000000000000000000094020000636E782E786D6C50
310
4B01021400140006080800B670623B7BC41AC871010000D40300000C00000000000000000000000000180300006662782F636F72652E786D6C504B01021400140006080800B670623B70102A487D0000009D0000000B00000000000000000000000000B30400006662782F636E782E786D6C504B01021400140006080800B6
310
70623B3610CA3329010000120200003100000000000000000000000000590500006662782F42384135303843342D343331462D343546312D424341352D3532343432364645413344462F636F72652E786D6C504B01021400140006080800B670623B1B8617914E010000330300003000000000000000000000000000D10600
310
006662782F42384135303843342D343331462D343546312D424341352D3532343432364645413344462F636E782E786D6C504B01021400140006080800B670623BBFEF2E3B690500003C10000034000000000000000000000000006D0800006662782F42384135303843342D343331462D343546312D424341352D35323434
310
32364645413344462F6F626A656374732E786D6C504B01021400140006080000B670623B0000000000000000000000003500000000000000000000000000280E00006662782F42384135303843342D343331462D343546312D424341352D3532343432364645413344462F76657274696365732E62696E504B010214001400
310
06080800B670623BF270F133060000000400000036000000000000000000000000007B0E00006662782F42384135303843342D343331462D343546312D424341352D3532343432364645413344462F747269616E676C65732E62696E504B01021400140006080000B670623B00000000000000000000000037000000000000
310
00000000000000D50E00006662782F42384135303843342D343331462D343546312D424341352D3532343432364645413344462F617474726962757465732E62696E504B01021400140006080800B670623B08DA0BD1900000004101000036000000000000000000000000002A0F00006662782F42384135303843342D3433
310
31462D343546312D424341352D3532343432364645413344462F6469726563746F72792E786D6C504B01021400140006080800B670623B3B4606F3FE000000A00100003B000000000000000000000000000E1000006662782F42384135303843342D343331462D343546312D424341352D3532343432364645413344462F72
310
65736F75726365732F636F72652E786D6C504B0506000000000E000E0080040000651100000000
  0
XRECORD
  5
187
102
{ACAD_REACTORS
330
186
102
}
330
186
100
AcDbXrecord
280
     1
 70
     1
 90
429727718
  1
887D55A9-D0DD-414E-B741-A7DCD4DA2B4C
310
504B03040A0000080000B670623B3DEE336E79000000790000001B0000006175746F6465736B2D64657369676E2D7061636B6167652E786D6C3C3F786D6C2076657273696F6E3D22312E302220656E636F64696E673D227574662D3822203F3E3C666F726D6174733E3C666F726D61743E687474703A2F2F736368656D612E
310
6175746F6465736B2E636F6D2F64657369676E2D7061636B6167652F323030393C2F666F726D61743E3C2F666F726D6174733E504B0304140006080800B670623BD486FD9CA0000000F4000000130000005B436F6E74656E745F54797065735D2E786D6C7D8EC10E82300C865F65E91D8A1E8C310C0EEA1BF002731658846E
310
D98AC1B77784ABF1D8FE5FBFBF75BBCE937A534CCEB38643598122B6FEE978D0B0485F9C41B54DDD7D022595594E1A469170414C76A4D9A4D207E29CF43ECE46F218070CC6BECC4078ACAA135ACF422C856C0E68EA1BF5669944DDD7BCDE7B1F8E415D77AECB980613C2E4AC91FC167A2B244592486606FC29C8FD7F045B9A
310
EF7053A7E60B504B0304140006080800B670623BBC1638F5EC0000007C01000008000000636F72652E786D6C8D90416EC3201045AF82665B61836BE2D8C24471DB9CA01740401C94182C03558F5F9C3852BBEB6A467FFE9B197D7EF89E6EE8CB2CC17AD7032D0820E394D7D68D3DA478C67B4007C117EFE32F1B202727D3C3
310
2A83E0E3E2D3BC49CABB685CCCAAF3DA6CA20CC14440EA969B1E82BA98491632C5EC08D76296EA2A4753D06797E194AC468F2356E77DF66CCD02825543D50CACC62D39ED70FDC68EB8FD68F6F8787A6784342D1DDA1D2F5758F068A7E77DB518198D065111D2624A31A93E69DD11D6D5EC85EC3B4278B9DAFF4069D6FF8492
310
75F1B5DADE7D600104CD8FDC0782976B16B9DC83CA75CD4DFC00504B0304140006080800B670623B55019EA25F0000007C00000007000000636E782E786D6C4DCB3B0E80201045D1AD90E915ED2CF8AC45050C11660C8261F98AB1B07AC9C97D42D718D865D3E909258CFD00CCE24AC6E326A164D74DC0B4128928FF326038
310
472BA13128B1252AC747C6BAB984FC68F0B87FE8960A5C09FE86CFB69FBA01504B0304140006080800B670623B3586FFB671010000D40300000C0000006662782F636F72652E786D6CC553ED6E8320147D15C2DF4541A76D6D90A6DDD627D80B50A4CE54C120983EFEAE1F4DD7A55BBA5FF3879273EEE59E7310B6393735EA
310
95ED2AA3731C851423A5A5292A5DE6D8BB63B0C268C39935C67D29C3488B46E578803167A535BE9D2169B453DA01AA4DA16650749D7218C91A1639EEE4876A4428BC838AEE14B6429E44A9C228041AEA38EB9C0501681A32BC313F1ECE8C4C3867DE57C5CC56054CAB8E95B298A7F12E5EEED224C8E87E11242FE936C8DE96
310
AB60BB7F4D295D66D12E5B30323473E6AAE6A24E5A259C2A308F29CD82280A68FC1E256B9AAE93F489AED694323294DF34F9B678B0C957DA3DC7B3DCA9ADC33C022123F1CD2D44E450277AD04338234388F01913BE0D1A0281909D38D4171F27807A259DB1093085F157AA17B557309586747CD0CF0B46A64E983A6E0EAEEF
310
CE881F9EF1FB8E70D44297604238581EBC1B74B249C31C5AAB6CD0BB33D2C636A27ECCC62F0EFF445DC5DF95244D6DEC7F2922F30191F9F720C37DE49F504B0304140006080800B670623B4220A0FF7D0000009D0000000B0000006662782F636E782E786D6C4DCCD10A83201886E15B91FFDCE542CB0335D0EC3E6259C84A
310
C3E9D8E5AF46073BFAE0E1E315DD675BD1DBA5978F41C2FD4600B9F088930F8B849267CC01754AA418F3DF0D50183727E164506249B1EC174D6E1ECB9A0F5D7D785E68DB8151CD286E5A5363CA6B8A39E90D36D40E96B086F55A43A544F52B1D7B86D517504B0304140006080800B670623B2FA3FEDE290100001202000031
310
0000006662782F45374635344235342D363743322D343832342D383044432D4334454645303536354442422F636F72652E786D6C8D515B6EC32010BC0AE22B55850D2E386E848994D7097A0117488A1283C5A3CAF10BB523B57FF961D1ECCCECC0F2ED7DBC816FED8371B687A4C210682B9D32F6D2C314CFA883602BB8772E
310
FEA141608751F7B0C050F08B77695A20E96CD43666D43AA5177008414708E42D5F7A18E4971E876A483133C2B59A06791D2EBA22556E679EE021FA1C00CC43CA09C5717D6274C7286AD7FB06D1AEA1A8C3873DDAD3E3E98859CB0EBB1DAF67A1E02919B5C88DCA71CCD968FFAC49110B1ECDF8882FBD1EA256503418BF2342
310
106E3E08DD60B6A1EC15771B8C795DE8FF4469524F8A92B1F1AD59E2CEB20005E1F5DC105CB9F4797B84D1F7C9F908CABC55D0F2050A5C61CC1AD2F27A26E6E767C7962E8E213A9FBF7775FDCC5CC266DB960A5E970DE5F2BBBE5CCB36C50F504B0304140006080800B670623B1B8617914E01000033030000300000006662
310
782F45374635344235342D363743322D343832342D383044432D4334454645303536354442422F636E782E786D6CD593C16EC32010447F0571AD6CE3D489D20813A9877E410FBD62D82434182CC055F3F75D1292E692438FBD206B7698593D61BEFD1E2DF982108D773D6D6B460938E5B571FB9ECE6957AD29D90A1EBC4F77
310
364A9C1CA1A759A682EF839FA72269D8C9D92654AD71C72206887E0E0A22CAF926B15E498B01E0AA19451807D01A34B919F16B070157417138917400F2F6FA41FCF0092A45DEE414C19BDC21783E4BD39D891265658C3D8DEA00A3ACE59CBC8678ACB54CB26EEB6BD7839D7E9348BE70AD9C8321B9BCA7F9A4A26C542347DE
310
E050F09802D22BA6749A800A394DD62899107273365E3C82CFC6A55557BC06C10774B7ABE7AEC3B0F34CF06446280E154026D0542C187BA9DAB6628BF7B6DBB0E5A65B3EB1F58631DE64BBE083F7B65CC218087E22CABB042E51D1F2268F1FE12B3EA24D40D63E9CFE00120194D60B9D5BC67FE6D39CDF37E20AF817881F50
310
4B0304140006080800B670623B29652116630500003C100000340000006662782F45374635344235342D363743322D343832342D383044432D4334454645303536354442422F6F626A656374732E786D6CAD575D739B3814FD2B0CFB0C989834C90EA1639B24E3E9A6EDD4D3CE3E64C623834CD8006224913AFDF57B040203
310
B65BEF871F0C12D2FD3CF7E8CA7FBFCB33E3957291B2E2D674ED8969D02262715A24B76625B7D6B569BC0F7CCE98EC2D338D82E4F4D654D366E0279C55A59E8AE99654991CCDDECFFF3444440B6A1A514684B83545F44C7362934AB2988A173B2692D8C97667BB76B3702836E1A47C1E092D09A78584A5982F20C5688C7287
310
C389E904BEA3BE07BEFAD7ABA6A75739B53F43FD69212429A20365233153D70BEF2E2E6FAC4BCF9B5ADEBB0BD79ADFCF43CBBD9A4E16EF168B9BD9DD0D140BC921495BC2E9D60C1E101B9E46BED37CEA2CD6861F3329624541A3DA7F7858DBAC25C6B4A4458C3CA654405BCFEBC970E8AAD8F43E4FD558ABEC4F9FE7557F47
310
4F506B7BFBEC5BCA367FC105710E2AB8A00A554D7CB4A30DFE26FBA86D18CBF4B75418399194A72433B274C3097F33032C554B027F2046A1932B842B0FCCC0DDCBEBDB8AD2F835768F59B9ADB24C41D30C6A64AF817F2A456D59FA83F2E3DA60137255A585BCD60EC9B7929AC18DEFD49381AF1ED30BFDB109A4B1CD488294
310
C3CDE6EBC8D185AABD6568061FEE37BB95AAC7E3CA4BCE4ACAA5820FA0D526AE7DAA2869B5EE5999531BE0CC20E6FBA07C41E43FA27CF7A6206F3CDD793B4F6B919C1462CB788EDCD893FA674CDA17AB7B3B7C019F8D561FAEE966FED562DFE98C1D12C6A9FC015C2A35D7FF3D7FC398F591DA4B5FE0BFA2C0189FEA50AE22
310
92817A1ED3020951A03432862970F976B33383259812CC8E5D240BBA801CBCF8CE2BBEE3BF910DB6AAD5F79E05123AE2DB33981FB1ACCB02B69D00CB014FD68AB573A7627EF9BFD4CC2C5C7D58557C4B22FAA88925A4DBB44825CECE3D78FB060D1231F0E885BE7D673C86A3874958F593906B5502D1563157814FDAC3420D
310
F69A070A22EC4B98E23CFF171A1E5311D12C23056555ABA53B8614563B92D17D02AAB009E8F46284624E5F53D5490C560CCCC2591FF1B45421EB0EBD8EA7ED13BE7C5D7E0428CD60FEF60779EB13E6664FF711CB185F6FDED60D139A001FF60CD1FD6D086F1D51474901E26B2CB794A343BC8ED3EDB612E0DD2351FCB65CF4
310
33D511C9E14B5B40ADC6A6263DB0336A8F700DDF56271A024E70B0B3629DE21847591E55DED73D56206AB927E46FAABC5C939C55853C274C93D69FD6FA4E78BF8B11DF898C9ECD60553FAD39283BA6F18984AA23E8884F83F45C5F5F859797B31B2B9C84A1E5B9DE9D35BFF25C6B76152E422F9C5DCC3D847F5801ED09D5AF
310
41441327A25FF15487F9EB725FB666F048A4701E9A827292E6F97569A32DF61DEC01C0BB8DCBBCCC684E0B49147C1FD54BF685A0AB18C868E6973949E819523E3DAC463660E68C7D9F55A9D1EFA3BD7A76A16AE1A810F95CE59B82A4D968A376DC2E8B44BBDD86B27B368CDE0ED548C7137DA860591A83706223A12CA712B4
310
7306DBF39C0A20A6DF95C7FAF670C6EED7A61F946493D1D6926782963813403548A78AE470DEF80D2D9CEAA26E4D1C76F60BFE74219A06527D6B82DF641A51616F703CAAC6A7160E08A00BEB4810A0274592A1B36E3675E36E978A0DE80727A0D6DF2D39A75BD27E0D8837276589537B40ABB56D5A41F48F1C6FCD3188C4EB
310
A6929D2FFB89CE995A4D00AE813BDD032DC48B56BD437DFDDC2DD7AED70C2272D63DE9A72068A45A92F0A4BE17A8A06B9366E16707AD80B1FC649459952097E74BB23805982B55E0401150A165964402AA8BDF9F3E7386BB686EDCA780C0D382E5392BF460A6EFB2C6EA1937D3F809B440D5F5435C4C5CF7A9EEFAF54564BD
310
2182DA24162F98680B4E7930C21A0079709CEAEB99A372305ABE0C0D7D6078105A83F6A0296DAEE1068A47DD1C55A9F4C9B2FC69E3EFD44B81028E963DF81B504B0304140006080000B670623B000000000000000000000000350000006662782F45374635344235342D363743322D343832342D383044432D433445464530
310
3536354442422F76657274696365732E62696E504B0304140006080800B670623BF270F1330600000004000000360000006662782F45374635344235342D363743322D343832342D383044432D4334454645303536354442422F747269616E676C65732E62696E636660600000504B0304140006080000B670623B00000000
310
0000000000000000370000006662782F45374635344235342D363743322D343832342D383044432D4334454645303536354442422F617474726962757465732E62696E504B0304140006080800B670623B08DA0BD19000000041010000360000006662782F45374635344235342D363743322D343832342D383044432D4334
310
454645303536354442422F6469726563746F72792E786D6C858F410AC3201045AF22B36F53E9A60B35CBEEBAE80D244E44489C6234F4F835464A48035D0DF398FF9F8AF63D0E6CC63039F212F8F9020C7D47C6792B21C5FE7403D62A1188E2E60C98D7234A5830286103A55745067B9D86B8A3CF9C7F90C11DE607FB144396
310
D7B6A82D282E9A152AD114D5EF2CB866EEE831B8EEA07A7BB5A8D7D61A2BAAEB7FD5F70921FF497D00504B0304140006080800B670623B6378F24DFF000000A00100003B0000006662782F45374635344235342D363743322D343832342D383044432D4334454645303536354442422F7265736F75726365732F636F72652E
310
786D6C8D504B6E833010BD0A9A6D65B0094E42641C85B639412F6099496225D8C89FAAC7AF09546A77DDCC8CDE47F3F4C4F16B7C149FE88371B603565228D06A37187BED20C50BD9437194C23B177FC9A0B06AC40E6618A4B87A97A615D2CE46B431A3D60DB8822A048C50E8473E3A08FA86A32A558A5911EEE5A4F45D5DB1
310
6465A6B34E8A107D0E502C4FE609D26370C96B0CA25A58295232C3AA3143FE692E063D485EF7F5AEE71BD2D2F39634AFFC44DAF7DD9E9CCE6F9CD25DCBFA762BAAD92C4534E34F46ED51451C40D694B6843142EB0FD61C283F34FC85EE0F948A6A96FF31A569F8A729191B37F51A77B105902C0779125254735F793DCBCC7B
310
EE567E03504B010214000A0000080000B670623B3DEE336E79000000790000001B00000000000000000000000000000000006175746F6465736B2D64657369676E2D7061636B6167652E786D6C504B01021400140006080800B670623BD486FD9CA0000000F40000001300000000000000000000000000B20000005B436F6E
310
74656E745F54797065735D2E786D6C504B01021400140006080800B670623BBC1638F5EC0000007C010000080000000000000000000000000083010000636F72652E786D6C504B01021400140006080800B670623B55019EA25F0000007C000000070000000000000000000000000095020000636E782E786D6C504B010214
310
00140006080800B670623B3586FFB671010000D40300000C00000000000000000000000000190300006662782F636F72652E786D6C504B01021400140006080800B670623B4220A0FF7D0000009D0000000B00000000000000000000000000B40400006662782F636E782E786D6C504B01021400140006080800B670623B2F
310
A3FEDE290100001202000031000000000000000000000000005A0500006662782F45374635344235342D363743322D343832342D383044432D4334454645303536354442422F636F72652E786D6C504B01021400140006080800B670623B1B8617914E010000330300003000000000000000000000000000D2060000666278
310
2F45374635344235342D363743322D343832342D383044432D4334454645303536354442422F636E782E786D6C504B01021400140006080800B670623B29652116630500003C10000034000000000000000000000000006E0800006662782F45374635344235342D363743322D343832342D383044432D4334454645303536
310
354442422F6F626A656374732E786D6C504B01021400140006080000B670623B0000000000000000000000003500000000000000000000000000230E00006662782F45374635344235342D363743322D343832342D383044432D4334454645303536354442422F76657274696365732E62696E504B01021400140006080800
310
B670623BF270F13306000000040000003600000000000000000000000000760E00006662782F45374635344235342D363743322D343832342D383044432D4334454645303536354442422F747269616E676C65732E62696E504B01021400140006080000B670623B0000000000000000000000003700000000000000000000
310
000000D00E00006662782F45374635344235342D363743322D343832342D383044432D4334454645303536354442422F617474726962757465732E62696E504B01021400140006080800B670623B08DA0BD190000000410100003600000000000000000000000000250F00006662782F45374635344235342D363743322D34
310
3832342D383044432D4334454645303536354442422F6469726563746F72792E786D6C504B01021400140006080800B670623B6378F24DFF000000A00100003B00000000000000000000000000091000006662782F45374635344235342D363743322D343832342D383044432D4334454645303536354442422F7265736F75
310
726365732F636F72652E786D6C504B0506000000000E000E0080040000611100000000
  0
XRECORD
  5
112
102
{ACAD_REACTORS
330
110
102
}
330
110
100
AcDbXrecord
280
     1
270
     1
271
     1
  0
XRECORD
  5
111
102
{ACAD_REACTORS
330
110
102
}
330
110
100
AcDbXrecord
280
     1
270
     1
271
     1
  0
XRECORD
  5
18A
102
{ACAD_REACTORS
330
110
102
}
330
110
100
AcDbXrecord
280
     1
 70
     0
 90
1778669749
  1
9BF507EE-FAF7-4A99-A33D-4EE51894BC40
310
504B03040A0000080000B670623B3DEE336E79000000790000001B0000006175746F6465736B2D64657369676E2D7061636B6167652E786D6C3C3F786D6C2076657273696F6E3D22312E302220656E636F64696E673D227574662D3822203F3E3C666F726D6174733E3C666F726D61743E687474703A2F2F736368656D612E
310
6175746F6465736B2E636F6D2F64657369676E2D7061636B6167652F323030393C2F666F726D61743E3C2F666F726D6174733E504B0304140006080800B670623BD486FD9CA0000000F4000000130000005B436F6E74656E745F54797065735D2E786D6C7D8EC10E82300C865F65E91D8A1E8C310C0EEA1BF002731658846E
310
D98AC1B77784ABF1D8FE5FBFBF75BBCE937A534CCEB38643598122B6FEE978D0B0485F9C41B54DDD7D022595594E1A469170414C76A4D9A4D207E29CF43ECE46F218070CC6BECC4078ACAA135ACF422C856C0E68EA1BF5669944DDD7BCDE7B1F8E415D77AECB980613C2E4AC91FC167A2B244592486606FC29C8FD7F045B9A
310
EF7053A7E60B504B0304140006080800B670623BCA089DFFEC0000007C01000008000000636F72652E786D6C8D90416E83301045AF62CDB632D8402020E32882F604BD80653BC44AB011B6AB1EBF262152BBEB6A467FFE9B197D76FA9EEFE84BAFDE38DB03CD08206DA553C64E3DC470C1474027CE56E7C22F1B202B66DDC3
310
260367D3EAE2B24BD2D9A06D48AA754AEFA2F05E0740F29E9A1EBCBCEA59642286E4F0B76C11F226269DD15797E0188D42CF2346A57DE662F40ABCAEC77628C6120F654571D50C04B7F5B9C1E3997CD4F550BE3745C3F20DE62C98F9755FAE5A04AD801784B498524C8A4F5A75E4D055873772EC0861F966FF03C545FD138A
310
C686B2D8DF7D621E384D8F3C069CE55B16A93C824A75CB8DFF00504B0304140006080800B670623B55019EA25F0000007C00000007000000636E782E786D6C4DCB3B0E80201045D1AD90E915ED2CF8AC45050C11660C8261F98AB1B07AC9C97D42D718D865D3E909258CFD00CCE24AC6E326A164D74DC0B4128928FF326038
310
472BA13128B1252AC747C6BAB984FC68F0B87FE8960A5C09FE86CFB69FBA01504B0304140006080800B670623B68FC0B7272010000D40300000C0000006662782F636F72652E786D6CC5535B6E833010BC8AE5DF0A6C1E8124328E22D29EA01770C0A128602363A31CBFCB234A53A555FA553EC09AD9F5CE8C31DB5DDA060D
310
D2F4B556190E7C8A9154852E6B5565D8D993B7C668C799D1DA7E29C3488956667884316795D1AE5BA0422B2B950554E9522EA0E87B69312A1A5864B82F3E642B7CE12C54F467BF13C55954D20F7CA0A18EB3DE1A1080E621E31BF3D3F1C2C88C73E65C5D2E6C5DC2B4FA544B8379921C36797888BC3C8A032F4E73EA6D927D
310
EA1DF6F42D49F2E8350D5346C666CE6CDD5ED515460A2B4BCC434A375E1078347C0FE22D5D6DE3D50B5D6F2965642CBF6B725DF96493AB958DC245EEDCD6631E809089F8E61622B2A81703E8219C913144F84C09DF070D8140C8561C9BAB8F3340832CAC363130A576376A108D933095FA747AD0CF0B46E64E983A6D0EAE1F
310
CE089F9EF1FB8E70D44255604258581E9D1D75B259C3125A278D37D80B52DAB4A279CEC62F0EFF44DDC43F9454E8469BFF5244960322CBEF41C6FBC83F01504B0304140006080800B670623B0F71DDB67E0000009D0000000B0000006662782F636E782E786D6C4DCCD10A83201886E15B91FFDCA54DB73F502386BB8F5816
310
32D3703976F9ABD1C18E3E78F87855FB990379BBFCF2296AE02706C4C5471A7C9C349475A408A4352AA7B4FEDD80C47E761A7606A3A69CCA72D0E0C6BE8475D3E0E3F3409428EA6B27A84079A782899AA2EC1A7AE3ECCC2FD858CB2D544655BFD2B67BD87C01504B0304140006080800B670623BE134B4FB28010000120200
310
00310000006662782F38353834323741342D343835462D343034322D383541392D4331303331363839454531452F636F72652E786D6C8D515B6EC32010BC0AE22B55850D0EA424C24451959EA0172086A42831583CAA1CBF503B52FB971F16CDCECC0EACD8DFC71BF836215AEF7A481A0C817183D7D65D7A98D3197108F652
310
04EFD31F1A044E8DA6871586525C82CFD3020DDE25E352419DD76601558C264130DCCAA58771F832A36A544E8511AFCDA486ABBA988634A55D7852C4144A00300FA927949C71DABD1D28A29C7D208A6987383B6CD13BC16BB2E1DBE3911C453B0BA5C8D9EA456E758963CFD684674DAA588A64C747FC2118958C86B2C3788B
310
0841B8FB247487D98EB257CC77188BB6D2FF89F2A49F1465EBD2BA5BE2CEB2082511EDDC9042FB7CBA3DC298FBE4430275DE2A9AE1054ADC60CC08E3A29D89E5F9C5714317C7987C28DFBBBA9E0A97B0D97643A568EB864AF95D5FA9759BF207504B0304140006080800B670623B1B8617914E010000330300003000000066
310
62782F38353834323741342D343835462D343034322D383541392D4331303331363839454531452F636E782E786D6CD593C16EC32010447F0571AD6CE3D489D20813A9877E410FBD62D82434182CC055F3F75D1292E692438FBD206B7698593D61BEFD1E2DF982108D773D6D6B460938E5B571FB9ECE6957AD29D90A1EBC4F
310
77364A9C1CA1A759A682EF839FA72269D8C9D92654AD71C72206887E0E0A22CAF926B15E498B01E0AA19451807D01A34B919F16B070157417138917400F2F6FA41FCF0092A45DEE414C19BDC21783E4BD39D891265658C3D8DEA00A3ACE59CBC8678ACB54CB26EEB6BD7839D7E9348BE70AD9C8321B9BCA7F9A4A26C542347
310
DEE050F09802D22BA6749A800A394DD62899107273365E3C82CFC6A55557BC06C10774B7ABE7AEC3B0F34CF06446280E154026D0542C187BA9DAB6628BF7B6DBB0E5A65B3EB1F58631DE64BBE083F7B65CC218087E22CABB042E51D1F2268F1FE12B3EA24D40D63E9CFE00120194D60B9D5BC67FE6D39CDF37E20AF817881F
310
504B0304140006080800B670623B5933D422630500003B100000340000006662782F38353834323741342D343835462D343034322D383541392D4331303331363839454531452F6F626A656374732E786D6CAD575B6FA33814FE2B887D0642934E9B156594264D158D3A534DD4D13E548A0C38942D60649B4EBABF7E3F8321
310
40924EF6928780CDF1B97EE762EFF32E4B8D37CA45C2F21BD3B547A641F39045491EDF98A5DC5AD7A6F1D9F73863B243661A39C9E88DA9B64DDF8B392B0BBD15D12D295339D85DDEFE618890E6D434C2940871638AF08566C426A5641115AF764424B1E3EDCE76ED9AB0CF36E6A47819302D08A7B984A6D8CFC1C5A89572FB
310
CB91E9F89EA3BEFB9EFAD754E3D3544E654F5F7E920B49F2F040D880CDD89D2CEE2E2EA7D6E56432B6269F2E5CEB7679BBB0DCABF168FE693E9FCEEEA6102C240727AD09A75BD3BF876F78127A4EFDA9D5582B7E4CA590E5390D2BFB6161A5B3E618D182E611E2985001691DAB47FDA5AB7CD3F93C566B2DB2BB7D9E55DD13
310
1D468DEECDB3AB290BFE8409E21C54704115AA6AFF68436BFC8DF65E0B184BF5B74418199194272435D224E084BF9B3E481589EFF5D828747285706581E9BB7B7E5D5D911ABFC6EE312DB7659A2A689A7E85EC0DF04FA5A8344BFEA2FCB834E8845895492EAFB541F2BDA0A63FF59C6AD3F7D4637CA13FD68E34B629891172
310
98597F1D183A57B9B75A98FE9765B05BAB7C3C2EBCE0ACA05C2AF8005A4DE09AA7F29216EB9E15397500C6F47CBE77CA7778FE2BD277AF0AE2C693DD6437D1522427B9D8329E2136F6A8FA19A3E6C56ADF0E5F50CF06D48734EDCEBF22F69C56D97EC138153F804B85E6FABFC7AFEFB32E523BE1F3BD372418E363EDCA7548
310
52949E8724474014288D94610BB57C1BEC4C7F854A89CA8E5324F55B871CBC78CE1BBEE3BFE68D6A5589EF3C730474506FCFA8FCF0659516D0ED04580EEA6425581B77CAE797FF4BCECC16EB2FEB926F49481F746159D06D922712BD730FDEAE42BD40F42C7AA5EF3F198F60E86110D6DD20645A9480B795CF95E3E3A659A8
310
C55E724F408873315335CFFB8584874484344D494E59D94869DB90C26A5B64F49C802CAC1D3ABE18A098D3B7444D123D8A9E5AE8F5214F0AE5B2B6E9B575DA3E61CBD3EA2B4009FA940524DD1305FB6A1FB294F14DF0BEA90BA109ECE1481FDC3FFAE8D60E75141700BE82725371B4873751B2DD960265F788137FACE6DD40
310
B575E4F0A5C99F46629D92131467A41EE11ABD8D4CCC039CA0AFB37C93A08B232B8F0AEFCA1E0A1015DF13FC83322B362463652ECF71D3A8B1A7D1BE65DE1D62C44F22C317D35F574FEB16153BA2D13E543D10A80E74C4A65E78A6B7CBCBD1D5DD9DB59C2DAFACC96C3AB566E3F1C29ADCDD5DBAD7D3C9ED7C822ED74F80A6
310
41755310DE4443F44A9E68373FADF6596BFA0F440AE7BECE2727AE9F4F2B1B53B1E7E00CF0DD1E5C65454A339A4BA2D0FBA05ED2EF0443458F47BDBFCA484CCFE0F2ED7E3DD0013B679C7B5499467F0ECEEADDB9CA85A34CE44B99053949D2C1416DB85DE4B136BB7165FBAC0B7AB3542BED4F8CA182A549847A1319316519
310
95A83A67147B9E5101C47487F2485F1ECE38FD568F839204296D3479219888530154036E6528FBFBC66F98E0D4107563A2D7D9AFF8D389681A08F58D89F22693900A3B407754734FC51C10C010D6D640809EE4718AC1BA3ED4AEDB53CA37283F68805A7E4B72CEB0A4EDEAD5DD8C14059A76AFAA56BA6901E13F32BC51C720
310
12AF41295B5BF61BAD3195181FB506E6B40F4C10AF5AF40EF9F5B159AE5DD1F43C72D635E94310D45C2D49785C5D0B94D3B54AB3C5A38349C0587D338AB48C11CBF339599C02CCA54A70A008A8D03C0B2201D5F9EFCF8F9CE12A9A19CB0410789EB32C63B95ECCF455D658BFE0621A3DA32C5075FB101723D77DAE867E7D0F
310
D90444509B44E2151B4DC2290B065803200FBAA9BE9D392A0603F2D5C2D00D6302A615680F66D2FA166E2079D4C551A54AB758161FCEFD4E450A14704CECFEDF504B0304140006080000B670623B000000000000000000000000350000006662782F38353834323741342D343835462D343034322D383541392D4331303331
310
363839454531452F76657274696365732E62696E504B0304140006080800B670623BF270F1330600000004000000360000006662782F38353834323741342D343835462D343034322D383541392D4331303331363839454531452F747269616E676C65732E62696E636660600000504B0304140006080000B670623B000000
310
000000000000000000370000006662782F38353834323741342D343835462D343034322D383541392D4331303331363839454531452F617474726962757465732E62696E504B0304140006080800B670623B08DA0BD19000000041010000360000006662782F38353834323741342D343835462D343034322D383541392D43
310
31303331363839454531452F6469726563746F72792E786D6C858F410AC3201045AF22B36F53E9A60B35CBEEBAE80D244E44489C6234F4F835464A48035D0DF398FF9F8AF63D0E6CC63039F212F8F9020C7D47C6792B21C5FE7403D62A1188E2E60C98D7234A5830286103A55745067B9D86B8A3CF9C7F90C11DE607FB1443
310
96D7B6A82D282E9A152AD114D5EF2CB866EEE831B8EEA07A7BB5A8D7D61A2BAAEB7FD5F70921FF497D00504B0304140006080800B670623BD9A3B367FE000000A00100003B0000006662782F38353834323741342D343835462D343034322D383541392D4331303331363839454531452F7265736F75726365732F636F7265
310
2E786D6C8D504B6E833010BD0A9A6D65B01D0201194711694FD00B586642AD043BF2A7EAF16B122AB5BB6E6646EFA3797AE2F8B5DC8A4FF4C1383B002B291468B59B8C9D0748F1420E501CA5F0CEC55F3228AC5A708015062966EFD27D83B4B3116DCCA875136EA00A012314FA968F0182FEC045952AC5AC08D7F2AEF455CD
310
58B232D3592745883E07289E4FD609D26370C96B0CA27AB252A464A64D63A6FCD35C0C7A904D73EE467EE664DCD58CD4ED4849D79C5A723ED1B7A61977AF2D6F45B59AA58866F9C9A83DAA8813484E6947182394BFB3BAA7FBBEDEBFD0434FA9A856F91F53BA4FFF342563E38E6F719FB60092E5200F428A6AED2BAF479979
310
AFDDCA6F504B010214000A0000080000B670623B3DEE336E79000000790000001B00000000000000000000000000000000006175746F6465736B2D64657369676E2D7061636B6167652E786D6C504B01021400140006080800B670623BD486FD9CA0000000F40000001300000000000000000000000000B20000005B436F6E
310
74656E745F54797065735D2E786D6C504B01021400140006080800B670623BCA089DFFEC0000007C010000080000000000000000000000000083010000636F72652E786D6C504B01021400140006080800B670623B55019EA25F0000007C000000070000000000000000000000000095020000636E782E786D6C504B010214
310
00140006080800B670623B68FC0B7272010000D40300000C00000000000000000000000000190300006662782F636F72652E786D6C504B01021400140006080800B670623B0F71DDB67E0000009D0000000B00000000000000000000000000B50400006662782F636E782E786D6C504B01021400140006080800B670623BE1
310
34B4FB280100001202000031000000000000000000000000005C0500006662782F38353834323741342D343835462D343034322D383541392D4331303331363839454531452F636F72652E786D6C504B01021400140006080800B670623B1B8617914E010000330300003000000000000000000000000000D3060000666278
310
2F38353834323741342D343835462D343034322D383541392D4331303331363839454531452F636E782E786D6C504B01021400140006080800B670623B5933D422630500003B10000034000000000000000000000000006F0800006662782F38353834323741342D343835462D343034322D383541392D4331303331363839
310
454531452F6F626A656374732E786D6C504B01021400140006080000B670623B0000000000000000000000003500000000000000000000000000240E00006662782F38353834323741342D343835462D343034322D383541392D4331303331363839454531452F76657274696365732E62696E504B01021400140006080800
310
B670623BF270F13306000000040000003600000000000000000000000000770E00006662782F38353834323741342D343835462D343034322D383541392D4331303331363839454531452F747269616E676C65732E62696E504B01021400140006080000B670623B0000000000000000000000003700000000000000000000
310
000000D10E00006662782F38353834323741342D343835462D343034322D383541392D4331303331363839454531452F617474726962757465732E62696E504B01021400140006080800B670623B08DA0BD190000000410100003600000000000000000000000000260F00006662782F38353834323741342D343835462D34
310
3034322D383541392D4331303331363839454531452F6469726563746F72792E786D6C504B01021400140006080800B670623BD9A3B367FE000000A00100003B000000000000000000000000000A1000006662782F38353834323741342D343835462D343034322D383541392D4331303331363839454531452F7265736F75
310
726365732F636F72652E786D6C504B0506000000000E000E0080040000611100000000
  0
XRECORD
  5
113
102
{ACAD_REACTORS
330
110
102
}
330
110
100
AcDbXrecord
280
     1
270
     1
271
     1
  0
XRECORD
  5
114
102
{ACAD_REACTORS
330
110
102
}
330
110
100
AcDbXrecord
280
     1
270
     1
271
     1
  0
XRECORD
  5
CAD
102
{ACAD_REACTORS
330
CAC
102
}
330
CAC
100
AcDbXrecord
280
     1
102
ACAD_ROUNDTRIP_2012_MLEADER_STYLE
298
     1
  0
XRECORD
  5
CAB
102
{ACAD_REACTORS
330
CAA
102
}
330
CAA
100
AcDbXrecord
280
     1
102
ACAD_ROUNDTRIP_2012_MLEADER_STYLE
298
     1
  0
CELLSTYLEMAP
  5
CA9
102
{ACAD_REACTORS
330
104
102
}
330
104
100
AcDbCellStyleMap
 90
        3
300
CELLSTYLE
  1
TABLEFORMAT_BEGIN
 90
        5
170
     1
 91
        0
 92
    32768
 62
   257
 93
        1
300
CONTENTFORMAT
  1
CONTENTFORMAT_BEGIN
 90
        0
 91
        0
 92
      512
 93
        0
300

 40
0.0
140
1.0
 94
        5
 62
     0
340
11
144
0.25
309
CONTENTFORMAT_END
171
     1
301
MARGIN
  1
CELLMARGIN_BEGIN
 40
0.06
 40
0.06
 40
0.06
 40
0.06
 40
0.18
 40
0.18
309
CELLMARGIN_END
 94
        6
 95
        1
302
GRIDFORMAT
  1
GRIDFORMAT_BEGIN
 90
        0
 91
        1
 62
     0
 92
       -2
340
0
 93
        0
 40
0.045
309
GRIDFORMAT_END
 95
        2
302
GRIDFORMAT
  1
GRIDFORMAT_BEGIN
 90
        0
 91
        1
 62
     0
 92
       -2
340
0
 93
        0
 40
0.045
309
GRIDFORMAT_END
 95
        4
302
GRIDFORMAT
  1
GRIDFORMAT_BEGIN
 90
        0
 91
        1
 62
     0
 92
       -2
340
0
 93
        0
 40
0.045
309
GRIDFORMAT_END
 95
        8
302
GRIDFORMAT
  1
GRIDFORMAT_BEGIN
 90
        0
 91
        1
 62
     0
 92
       -2
340
0
 93
        0
 40
0.045
309
GRIDFORMAT_END
 95
       16
302
GRIDFORMAT
  1
GRIDFORMAT_BEGIN
 90
        0
 91
        1
 62
     0
 92
       -2
340
0
 93
        0
 40
0.045
309
GRIDFORMAT_END
 95
       32
302
GRIDFORMAT
  1
GRIDFORMAT_BEGIN
 90
        0
 91
        1
 62
     0
 92
       -2
340
0
 93
        0
 40
0.045
309
GRIDFORMAT_END
309
TABLEFORMAT_END
  1
CELLSTYLE_BEGIN
 90
        1
 91
        1
300
_TITLE
309
CELLSTYLE_END
300
CELLSTYLE
  1
TABLEFORMAT_BEGIN
 90
        5
170
     1
 91
        0
 92
        0
 62
   257
 93
        1
300
CONTENTFORMAT
  1
CONTENTFORMAT_BEGIN
 90
        0
 91
        0
 92
      512
 93
        0
300

 40
0.0
140
1.0
 94
        5
 62
     0
340
11
144
0.18
309
CONTENTFORMAT_END
171
     1
301
MARGIN
  1
CELLMARGIN_BEGIN
 40
0.06
 40
0.06
 40
0.06
 40
0.06
 40
0.18
 40
0.18
309
CELLMARGIN_END
 94
        6
 95
        1
302
GRIDFORMAT
  1
GRIDFORMAT_BEGIN
 90
        0
 91
        1
 62
     0
 92
       -2
340
0
 93
        0
 40
0.045
309
GRIDFORMAT_END
 95
        2
302
GRIDFORMAT
  1
GRIDFORMAT_BEGIN
 90
        0
 91
        1
 62
     0
 92
       -2
340
0
 93
        0
 40
0.045
309
GRIDFORMAT_END
 95
        4
302
GRIDFORMAT
  1
GRIDFORMAT_BEGIN
 90
        0
 91
        1
 62
     0
 92
       -2
340
0
 93
        0
 40
0.045
309
GRIDFORMAT_END
 95
        8
302
GRIDFORMAT
  1
GRIDFORMAT_BEGIN
 90
        0
 91
        1
 62
     0
 92
       -2
340
0
 93
        0
 40
0.045
309
GRIDFORMAT_END
 95
       16
302
GRIDFORMAT
  1
GRIDFORMAT_BEGIN
 90
        0
 91
        1
 62
     0
 92
       -2
340
0
 93
        0
 40
0.045
309
GRIDFORMAT_END
 95
       32
302
GRIDFORMAT
  1
GRIDFORMAT_BEGIN
 90
        0
 91
        1
 62
     0
 92
       -2
340
0
 93
        0
 40
0.045
309
GRIDFORMAT_END
309
TABLEFORMAT_END
  1
CELLSTYLE_BEGIN
 90
        2
 91
        1
300
_HEADER
309
CELLSTYLE_END
300
CELLSTYLE
  1
TABLEFORMAT_BEGIN
 90
        5
170
     1
 91
        0
 92
        0
 62
   257
 93
        1
300
CONTENTFORMAT
  1
CONTENTFORMAT_BEGIN
 90
        0
 91
        0
 92
      512
 93
        0
300

 40
0.0
140
1.0
 94
        2
 62
     0
340
11
144
0.18
309
CONTENTFORMAT_END
171
     1
301
MARGIN
  1
CELLMARGIN_BEGIN
 40
0.06
 40
0.06
 40
0.06
 40
0.06
 40
0.18
 40
0.18
309
CELLMARGIN_END
 94
        6
 95
        1
302
GRIDFORMAT
  1
GRIDFORMAT_BEGIN
 90
        0
 91
        1
 62
     0
 92
       -2
340
0
 93
        0
 40
0.045
309
GRIDFORMAT_END
 95
        2
302
GRIDFORMAT
  1
GRIDFORMAT_BEGIN
 90
        0
 91
        1
 62
     0
 92
       -2
340
0
 93
        0
 40
0.045
309
GRIDFORMAT_END
 95
        4
302
GRIDFORMAT
  1
GRIDFORMAT_BEGIN
 90
        0
 91
        1
 62
     0
 92
       -2
340
0
 93
        0
 40
0.045
309
GRIDFORMAT_END
 95
        8
302
GRIDFORMAT
  1
GRIDFORMAT_BEGIN
 90
        0
 91
        1
 62
     0
 92
       -2
340
0
 93
        0
 40
0.045
309
GRIDFORMAT_END
 95
       16
302
GRIDFORMAT
  1
GRIDFORMAT_BEGIN
 90
        0
 91
        1
 62
     0
 92
       -2
340
0
 93
        0
 40
0.045
309
GRIDFORMAT_END
 95
       32
302
GRIDFORMAT
  1
GRIDFORMAT_BEGIN
 90
        0
 91
        1
 62
     0
 92
       -2
340
0
 93
        0
 40
0.045
309
GRIDFORMAT_END
309
TABLEFORMAT_END
  1
CELLSTYLE_BEGIN
 90
        3
 91
        2
300
_DATA
309
CELLSTYLE_END
  0
ENDSEC
  0
EOF
