  0
SECTION
  2
HEADER
  9
$ACADVER
  1
AC1021
  9
$ACADMAINTVER
 70
    25
  9
$DWGCODEPAGE
  3
ANSI_1252
  9
$LASTSAVEDBY
  1
gdseiver
  9
$INSBASE
 10
0.0
 20
0.0
 30
0.0
  9
$EXTMIN
 10
-12.446
 20
-7.518197020887465
 30
0.0
  9
$EXTMAX
 10
10.24028513475259
 20
10.23779848624166
 30
260.1468
  9
$LIMMIN
 10
0.0
 20
0.0
  9
$LIMMAX
 10
12.0
 20
9.0
  9
$ORTHOMODE
 70
     0
  9
$REGENMODE
 70
     1
  9
$FILLMODE
 70
     1
  9
$QTEXTMODE
 70
     0
  9
$MIRRTEXT
 70
     1
  9
$LTSCALE
 40
1.0
  9
$ATTMODE
 70
     1
  9
$TEXTSIZE
 40
0.12
  9
$TRACEWID
 40
0.05
  9
$TEXTSTYLE
  7
STANDARD
  9
$CLAYER
  8
0
  9
$CELTYPE
  6
BYLAYER
  9
$CECOLOR
 62
   256
  9
$CELTSCALE
 40
1.0
  9
$DISPSILH
 70
     0
  9
$DIMSCALE
 40
1.0
  9
$DIMASZ
 40
2.286
  9
$DIMEXO
 40
1.587499999999999
  9
$DIMDLI
 40
9.525
  9
$DIMRND
 40
0.0
  9
$DIMDLE
 40
0.0
  9
$DIMEXE
 40
1.587499999999999
  9
$DIMTP
 40
0.0
  9
$DIMTM
 40
0.0
  9
$DIMTXT
 40
2.286
  9
$DIMCEN
 40
2.286
  9
$DIMTSZ
 40
0.0
  9
$DIMTOL
 70
     0
  9
$DIMLIM
 70
     0
  9
$DIMTIH
 70
     0
  9
$DIMTOH
 70
     1
  9
$DIMSE1
 70
     0
  9
$DIMSE2
 70
     0
  9
$DIMTAD
 70
     0
  9
$DIMZIN
 70
     4
  9
$DIMBLK
  1

  9
$DIMASO
 70
     1
  9
$DIMSHO
 70
     1
  9
$DIMPOST
  1

  9
$DIMAPOST
  1

  9
$DIMALT
 70
     1
  9
$DIMALTD
 70
     6
  9
$DIMALTF
 40
0.03937
  9
$DIMLFAC
 40
1.0
  9
$DIMTOFL
 70
     0
  9
$DIMTVP
 40
0.0
  9
$DIMTIX
 70
     0
  9
$DIMSOXD
 70
     0
  9
$DIMSAH
 70
     0
  9
$DIMBLK1
  1

  9
$DIMBLK2
  1

  9
$DIMSTYLE
  2
ABECAD_3D
  9
$DIMCLRD
 70
     0
  9
$DIMCLRE
 70
     0
  9
$DIMCLRT
 70
     0
  9
$DIMTFAC
 40
1.5
  9
$DIMGAP
 40
2.286
  9
$DIMJUST
 70
     0
  9
$DIMSD1
 70
     0
  9
$DIMSD2
 70
     0
  9
$DIMTOLJ
 70
     1
  9
$DIMTZIN
 70
     4
  9
$DIMALTZ
 70
     4
  9
$DIMALTTZ
 70
     4
  9
$DIMUPT
 70
     1
  9
$DIMDEC
 70
     1
  9
$DIMTDEC
 70
     1
  9
$DIMALTU
 70
     7
  9
$DIMALTTD
 70
     6
  9
$DIMTXSTY
  7
STANDARD
  9
$DIMAUNIT
 70
     0
  9
$DIMADEC
 70
     0
  9
$DIMALTRND
 40
0.0
  9
$DIMAZIN
 70
     0
  9
$DIMDSEP
 70
    46
  9
$DIMATFIT
 70
     2
  9
$DIMFRAC
 70
     2
  9
$DIMLDRBLK
  1

  9
$DIMLUNIT
 70
     2
  9
$DIMLWD
 70
    -2
  9
$DIMLWE
 70
    -2
  9
$DIMTMOVE
 70
     2
  9
$DIMFXL
 40
1.0
  9
$DIMFXLON
 70
     0
  9
$DIMJOGANG
 40
0.7853981633974483
  9
$DIMTFILL
 70
     0
  9
$DIMTFILLCLR
 70
     0
  9
$DIMARCSYM
 70
     0
  9
$DIMLTYPE
  6

  9
$DIMLTEX1
  6

  9
$DIMLTEX2
  6

  9
$LUNITS
 70
     2
  9
$LUPREC
 70
     4
  9
$SKETCHINC
 40
0.1
  9
$FILLETRAD
 40
0.0
  9
$AUNITS
 70
     0
  9
$AUPREC
 70
     0
  9
$MENU
  1
ACAD
  9
$ELEVATION
 40
0.0
  9
$PELEVATION
 40
0.0
  9
$THICKNESS
 40
0.0
  9
$LIMCHECK
 70
     0
  9
$CHAMFERA
 40
0.0
  9
$CHAMFERB
 40
0.0
  9
$CHAMFERC
 40
0.0
  9
$CHAMFERD
 40
0.0
  9
$SKPOLY
 70
     0
  9
$TDCREATE
 40
2451760.470512384
  9
$TDUCREATE
 40
2451760.678845718
  9
$TDUPDATE
 40
2454617.698332581
  9
$TDUUPDATE
 40
2454617.906665915
  9
$TDINDWG
 40
0.0059880093
  9
$TDUSRTIMER
 40
0.0059880093
  9
$USRTIMER
 70
     1
  9
$ANGBASE
 50
0.0
  9
$ANGDIR
 70
     0
  9
$PDMODE
 70
     3
  9
$PDSIZE
 40
2.286
  9
$PLINEWID
 40
0.0
  9
$SPLFRAME
 70
     1
  9
$SPLINETYPE
 70
     6
  9
$SPLINESEGS
 70
     8
  9
$HANDSEED
  5
45B02
  9
$SURFTAB1
 70
     6
  9
$SURFTAB2
 70
     6
  9
$SURFTYPE
 70
     6
  9
$SURFU
 70
     6
  9
$SURFV
 70
     6
  9
$UCSBASE
  2

  9
$UCSNAME
  2

  9
$UCSORG
 10
0.0
 20
0.0
 30
0.0
  9
$UCSXDIR
 10
1.0
 20
0.0
 30
0.0
  9
$UCSYDIR
 10
0.0
 20
1.0
 30
0.0
  9
$UCSORTHOREF
  2

  9
$UCSORTHOVIEW
 70
     1
  9
$UCSORGTOP
 10
0.0
 20
0.0
 30
0.0
  9
$UCSORGBOTTOM
 10
0.0
 20
0.0
 30
0.0
  9
$UCSORGLEFT
 10
0.0
 20
0.0
 30
0.0
  9
$UCSORGRIGHT
 10
0.0
 20
0.0
 30
0.0
  9
$UCSORGFRONT
 10
0.0
 20
0.0
 30
0.0
  9
$UCSORGBACK
 10
0.0
 20
0.0
 30
0.0
  9
$PUCSBASE
  2

  9
$PUCSNAME
  2

  9
$PUCSORG
 10
0.0
 20
0.0
 30
0.0
  9
$PUCSXDIR
 10
1.0
 20
0.0
 30
0.0
  9
$PUCSYDIR
 10
0.0
 20
1.0
 30
0.0
  9
$PUCSORTHOREF
  2

  9
$PUCSORTHOVIEW
 70
     0
  9
$PUCSORGTOP
 10
0.0
 20
0.0
 30
0.0
  9
$PUCSORGBOTTOM
 10
0.0
 20
0.0
 30
0.0
  9
$PUCSORGLEFT
 10
0.0
 20
0.0
 30
0.0
  9
$PUCSORGRIGHT
 10
0.0
 20
0.0
 30
0.0
  9
$PUCSORGFRONT
 10
0.0
 20
0.0
 30
0.0
  9
$PUCSORGBACK
 10
0.0
 20
0.0
 30
0.0
  9
$USERI1
 70
     0
  9
$USERI2
 70
     0
  9
$USERI3
 70
     0
  9
$USERI4
 70
     0
  9
$USERI5
 70
     0
  9
$USERR1
 40
0.0
  9
$USERR2
 40
0.0
  9
$USERR3
 40
0.0
  9
$USERR4
 40
0.0
  9
$USERR5
 40
0.0
  9
$WORLDVIEW
 70
     1
  9
$SHADEDGE
 70
     3
  9
$SHADEDIF
 70
    70
  9
$TILEMODE
 70
     1
  9
$MAXACTVP
 70
    16
  9
$PINSBASE
 10
0.0
 20
0.0
 30
0.0
  9
$PLIMCHECK
 70
     0
  9
$PEXTMIN
 10
1.000000000000000E+20
 20
1.000000000000000E+20
 30
1.000000000000000E+20
  9
$PEXTMAX
 10
-1.000000000000000E+20
 20
-1.000000000000000E+20
 30
-1.000000000000000E+20
  9
$PLIMMIN
 10
0.0
 20
0.0
  9
$PLIMMAX
 10
12.0
 20
9.0
  9
$UNITMODE
 70
     0
  9
$VISRETAIN
 70
     0
  9
$PLINEGEN
 70
     0
  9
$PSLTSCALE
 70
     1
  9
$TREEDEPTH
 70
  3020
  9
$CMLSTYLE
  2
STANDARD
  9
$CMLJUST
 70
     0
  9
$CMLSCALE
 40
1.0
  9
$PROXYGRAPHICS
 70
     1
  9
$MEASUREMENT
 70
     1
  9
$CELWEIGHT
370
    -1
  9
$ENDCAPS
280
     0
  9
$JOINSTYLE
280
     0
  9
$LWDISPLAY
290
     0
  9
$INSUNITS
 70
     0
  9
$HYPERLINKBASE
  1

  9
$STYLESHEET
  1

  9
$XEDIT
290
     1
  9
$CEPSNTYPE
380
     0
  9
$PSTYLEMODE
290
     1
  9
$FINGERPRINTGUID
  2
{6E0CF4B8-225E-11D4-A150-00A0CC3303EC}
  9
$VERSIONGUID
  2
{3C104499-C825-4153-845B-FEDF7995859B}
  9
$EXTNAMES
290
     1
  9
$PSVPSCALE
 40
0.0
  9
$OLESTARTUP
290
     0
  9
$SORTENTS
280
   127
  9
$INDEXCTL
280
     0
  9
$HIDETEXT
280
     0
  9
$XCLIPFRAME
290
     0
  9
$HALOGAP
280
     0
  9
$OBSCOLOR
 70
   257
  9
$OBSLTYPE
280
     0
  9
$INTERSECTIONDISPLAY
280
     0
  9
$INTERSECTIONCOLOR
 70
   257
  9
$DIMASSOC
280
     1
  9
$PROJECTNAME
  1

  9
$CAMERADISPLAY
290
     0
  9
$LENSLENGTH
 40
50.0
  9
$CAMERAHEIGHT
 40
0.0
  9
$STEPSPERSEC
 40
2.0
  9
$STEPSIZE
 40
6.0
  9
$3DDWFPREC
 40
2.0
  9
$PSOLWIDTH
 40
0.25
  9
$PSOLHEIGHT
 40
4.0
  9
$LOFTANG1
 40
1.570796326794896
  9
$LOFTANG2
 40
1.570796326794896
  9
$LOFTMAG1
 40
0.0
  9
$LOFTMAG2
 40
0.0
  9
$LOFTPARAM
 70
     7
  9
$LOFTNORMALS
280
     1
  9
$LATITUDE
 40
37.795
  9
$LONGITUDE
 40
-122.394
  9
$NORTHDIRECTION
 40
0.0
  9
$TIMEZONE
 70
 -8000
  9
$LIGHTGLYPHDISPLAY
280
     1
  9
$TILEMODELIGHTSYNCH
280
     1
  9
$CMATERIAL
347
45A96
  9
$SOLIDHIST
280
     1
  9
$SHOWHIST
280
     1
  9
$DWFFRAME
280
     2
  9
$DGNFRAME
280
     0
  9
$REALWORLDSCALE
290
     1
  9
$INTERFERECOLOR
 62
     1
  9
$INTERFEREOBJVS
345
45AB8
  9
$INTERFEREVPVS
346
45AB5
  9
$CSHADOW
280
     0
  9
$SHADOWPLANELOCATION
 40
0.0
  0
ENDSEC
  0
SECTION
  2
CLASSES
  0
CLASS
  1
DICTIONARYVAR
  2
AcDbDictionaryVar
  3
ObjectDBX Classes
 90
        0
 91
        6
280
     0
281
     0
  0
CLASS
  1
ACDBDICTIONARYWDFLT
  2
AcDbDictionaryWithDefault
  3
ObjectDBX Classes
 90
        0
 91
        1
280
     0
281
     0
  0
CLASS
  1
MATERIAL
  2
AcDbMaterial
  3
ObjectDBX Classes
 90
     1153
 91
        3
280
     0
281
     0
  0
CLASS
  1
VISUALSTYLE
  2
AcDbVisualStyle
  3
ObjectDBX Classes
 90
     4095
 91
       16
280
     0
281
     0
  0
CLASS
  1
TABLESTYLE
  2
AcDbTableStyle
  3
ObjectDBX Classes
 90
     4095
 91
        1
280
     0
281
     0
  0
CLASS
  1
SCALE
  2
AcDbScale
  3
ObjectDBX Classes
 90
     1153
 91
       33
280
     0
281
     0
  0
CLASS
  1
MLEADERSTYLE
  2
AcDbMLeaderStyle
  3
ACDB_MLEADERSTYLE_CLASS
 90
     4095
 91
        1
280
     0
281
     0
  0
CLASS
  1
CELLSTYLEMAP
  2
AcDbCellStyleMap
  3
ObjectDBX Classes
 90
     1152
 91
        2
280
     0
281
     0
  0
ENDSEC
  0
SECTION
  2
TABLES
  0
TABLE
  2
VPORT
  5
458C7
330
0
100
AcDbSymbolTable
 70
     1
  0
VPORT
  5
45A64
330
458C7
100
AcDbSymbolTableRecord
100
AcDbViewportTableRecord
  2
*Active
 70
     0
 10
0.0
 20
0.0
 11
1.0
 21
1.0
 12
-1.102206747866539
 22
1.359420155925505
 13
0.0
 23
0.0
 14
0.25
 24
0.25
 15
0.25
 25
0.25
 16
0.0
 26
0.0
 36
1.0
 17
0.0
 27
0.0
 37
0.0
 40
17.89630017901235
 41
1.469938650306748
 42
50.0
 43
0.0
 44
0.0
 50
0.0
 51
0.0
 71
     0
 72
 20000
 73
     1
 74
     1
 75
     0
 76
     0
 77
     0
 78
     0
281
     0
 65
     1
110
0.0
120
0.0
130
0.0
111
1.0
121
0.0
131
0.0
112
0.0
122
1.0
132
0.0
 79
     0
146
0.0
348
45AB4
 60
     3
 61
     5
292
     1
282
     1
141
0.0
142
0.0
 63
   250
421
  3355443
  0
ENDTAB
  0
TABLE
  2
LTYPE
  5
458C4
330
0
100
AcDbSymbolTable
 70
     1
  0
LTYPE
  5
458D0
330
458C4
100
AcDbSymbolTableRecord
100
AcDbLinetypeTableRecord
  2
BYBLOCK
 70
     0
  3

 72
    65
 73
     0
 40
0.0
  0
LTYPE
  5
458D1
330
458C4
100
AcDbSymbolTableRecord
100
AcDbLinetypeTableRecord
  2
BYLAYER
 70
     0
  3

 72
    65
 73
     0
 40
0.0
  0
LTYPE
  5
458D2
330
458C4
100
AcDbSymbolTableRecord
100
AcDbLinetypeTableRecord
  2
CONTINUOUS
 70
     0
  3
Solid line
 72
    65
 73
     0
 40
0.0
  0
ENDTAB
  0
TABLE
  2
LAYER
  5
458C1
330
0
100
AcDbSymbolTable
 70
     7
  0
LAYER
  5
458CD
102
{ACAD_XDICTIONARY
360
45AE9
102
}
330
458C1
100
AcDbSymbolTableRecord
100
AcDbLayerTableRecord
  2
0
 70
     0
 62
     7
  6
CONTINUOUS
370
    -3
390
458FA
347
45AA6
  0
LAYER
  5
458EA
102
{ACAD_XDICTIONARY
360
45AEB
102
}
330
458C1
100
AcDbSymbolTableRecord
100
AcDbLayerTableRecord
  2
DIMS-MTG-HOLES
 70
     0
 62
     1
  6
CONTINUOUS
370
    -3
390
458FA
347
45AA6
  0
LAYER
  5
458EB
102
{ACAD_XDICTIONARY
360
45AED
102
}
330
458C1
100
AcDbSymbolTableRecord
100
AcDbLayerTableRecord
  2
ATTRIBUTES
 70
     0
 62
     7
  6
CONTINUOUS
370
    -3
390
458FA
347
45AA6
  0
LAYER
  5
4593F
102
{ACAD_XDICTIONARY
360
45AEF
102
}
330
458C1
100
AcDbSymbolTableRecord
100
AcDbLayerTableRecord
  2
AREA1
 70
     1
 62
     7
  6
CONTINUOUS
290
     0
370
    -3
390
458FA
347
45AA6
  0
LAYER
  5
45946
330
458C1
100
AcDbSymbolTableRecord
100
AcDbLayerTableRecord
  2
Defpoints
 70
     1
 62
     7
  6
CONTINUOUS
290
     0
370
    -3
390
458FA
347
45AA6
  0
LAYER
  5
45972
102
{ACAD_XDICTIONARY
360
45AF1
102
}
330
458C1
100
AcDbSymbolTableRecord
100
AcDbLayerTableRecord
  2
SCALE
 70
     1
 62
     7
  6
CONTINUOUS
370
    -3
390
458FA
347
45AA6
  0
LAYER
  5
4597A
102
{ACAD_XDICTIONARY
360
45AF3
102
}
330
458C1
100
AcDbSymbolTableRecord
100
AcDbLayerTableRecord
  2
SNAP_POINTS
 70
     1
 62
     1
  6
CONTINUOUS
370
    -3
390
458FA
347
45AA6
  0
ENDTAB
  0
TABLE
  2
STYLE
  5
458C2
330
0
100
AcDbSymbolTable
 70
     1
  0
STYLE
  5
458CE
330
458C2
100
AcDbSymbolTableRecord
100
AcDbTextStyleTableRecord
  2
STANDARD
 70
     0
 40
0.0
 41
1.0
 50
0.0
 71
     0
 42
0.12
  3
txt
  4

  0
ENDTAB
  0
TABLE
  2
VIEW
  5
458C5
330
0
100
AcDbSymbolTable
 70
     0
  0
ENDTAB
  0
TABLE
  2
UCS
  5
458C6
330
0
100
AcDbSymbolTable
 70
     0
  0
ENDTAB
  0
TABLE
  2
APPID
  5
458C8
330
0
100
AcDbSymbolTable
 70
     2
  0
APPID
  5
458CF
330
458C8
100
AcDbSymbolTableRecord
100
AcDbRegAppTableRecord
  2
ACAD
 70
     0
  0
APPID
  5
45AE6
330
458C8
100
AcDbSymbolTableRecord
100
AcDbRegAppTableRecord
  2
ACAD_MLEADERVER
 70
     0
  0
ENDTAB
  0
TABLE
  2
DIMSTYLE
  5
458C9
330
0
100
AcDbSymbolTable
 70
     2
100
AcDbDimStyleTable
 71
     0
  0
DIMSTYLE
105
458F6
102
{ACAD_REACTORS
330
459D8
330
459D7
102
}
330
458C9
100
AcDbSymbolTableRecord
100
AcDbDimStyleTableRecord
  2
ABECAD_3D
 70
     0
 41
2.286
 42
1.587499999999999
 43
9.525
 44
1.587499999999999
 73
     0
 78
     4
140
2.286
141
2.286
143
0.03937
146
1.5
147
2.286
170
     1
171
     6
271
     1
272
     1
273
     7
274
     6
276
     2
279
     2
284
     4
285
     4
286
     4
288
     1
289
     2
340
458CE
  0
DIMSTYLE
105
459C8
330
458C9
100
AcDbSymbolTableRecord
100
AcDbDimStyleTableRecord
  2
ABECAD
 70
     0
 43
0.375
 73
     0
 78
     4
146
1.5
170
     1
171
     1
271
     6
272
     6
274
     1
276
     2
277
     5
284
     4
285
     4
286
     4
340
458CE
  0
ENDTAB
  0
TABLE
  2
BLOCK_RECORD
  5
458C0
330
0
100
AcDbSymbolTable
 70
     2
  0
BLOCK_RECORD
  5
458D6
102
{ACAD_XDICTIONARY
360
45930
102
}
330
458C0
100
AcDbSymbolTableRecord
100
AcDbBlockTableRecord
  2
*MODEL_SPACE
340
458FD
 70
     0
280
     1
281
     0
  0
BLOCK_RECORD
  5
458D3
102
{ACAD_XDICTIONARY
360
4592E
102
}
330
458C0
100
AcDbSymbolTableRecord
100
AcDbBlockTableRecord
  2
*PAPER_SPACE
340
458FE
 70
     0
280
     1
281
     0
  0
BLOCK_RECORD
  5
4599F
330
458C0
100
AcDbSymbolTableRecord
100
AcDbBlockTableRecord
  2
*D0
340
0
 70
     0
280
     1
281
     0
  0
BLOCK_RECORD
  5
459AD
330
458C0
100
AcDbSymbolTableRecord
100
AcDbBlockTableRecord
  2
*D1
340
0
 70
     0
280
     1
281
     0
  0
ENDTAB
  0
ENDSEC
  0
SECTION
  2
BLOCKS
  0
BLOCK
  5
458DF
330
458D6
100
AcDbEntity
  8
0
100
AcDbBlockBegin
  2
*MODEL_SPACE
 70
     0
 10
0.0
 20
0.0
 30
0.0
  3
*MODEL_SPACE
  1

  0
ENDBLK
  5
458E0
330
458D6
100
AcDbEntity
  8
0
100
AcDbBlockEnd
  0
BLOCK
  5
458DD
330
458D3
100
AcDbEntity
 67
     1
  8
0
100
AcDbBlockBegin
  2
*PAPER_SPACE
 70
     0
 10
0.0
 20
0.0
 30
0.0
  3
*PAPER_SPACE
  1

  0
ENDBLK
  5
458DE
330
458D3
100
AcDbEntity
 67
     1
  8
0
100
AcDbBlockEnd
  0
BLOCK
  5
459AB
330
4599F
100
AcDbEntity
  8
0
100
AcDbBlockBegin
  2
*D0
 70
     1
 10
0.0
 20
0.0
 30
0.0
  3
*D0
  1

  0
LINE
  5
459F5
330
4599F
100
AcDbEntity
  8
AREA1
 62
     0
370
    -2
100
AcDbLine
 10
-3.060699999999997
 20
8.767085134752601
 30
0.0
 11
-19.33454186188221
 21
8.767085134752607
 31
0.0
  0
LINE
  5
459F6
330
4599F
100
AcDbEntity
  8
AREA1
 62
     0
370
    -2
100
AcDbLine
 10
-6.921499999999998
 20
-7.112000000000005
 30
0.0
 11
-19.33454186188222
 21
-7.112000000000001
 31
0.0
  0
LINE
  5
459F7
330
4599F
100
AcDbEntity
  8
AREA1
 62
     0
370
    -2
100
AcDbLine
 10
-17.74704186188222
 20
6.481085134752607
 30
0.0
 11
-17.74704186188222
 21
-4.826000000000002
 31
0.0
  0
MTEXT
  5
459F8
330
4599F
100
AcDbEntity
  8
AREA1
 62
     0
100
AcDbMText
 10
-21.48103899230102
 20
1.004996758934652
 30
0.0
 40
2.286
 41
0.0
 46
0.0
 71
     5
 72
     1
  1
\A1;15.9 [5/8]
 11
0.0000000000000001
 21
1.0
 31
0.0
 73
     1
 44
1.0
  0
SOLID
  5
459F9
330
4599F
100
AcDbEntity
  8
AREA1
 62
     0
100
AcDbTrace
 10
-18.12804186188222
 20
6.481085134752608
 30
0.0
 11
-17.36604186188221
 21
6.481085134752607
 31
0.0
 12
-17.74704186188221
 22
8.767085134752607
 32
0.0
 13
-17.74704186188221
 23
8.767085134752607
 33
0.0
  0
SOLID
  5
459FA
330
4599F
100
AcDbEntity
  8
AREA1
 62
     0
100
AcDbTrace
 10
-18.12804186188222
 20
-4.826000000000001
 30
0.0
 11
-17.36604186188221
 21
-4.826000000000002
 31
0.0
 12
-17.74704186188222
 22
-7.112000000000002
 32
0.0
 13
-17.74704186188222
 23
-7.112000000000002
 33
0.0
  0
POINT
  5
459FB
330
4599F
100
AcDbEntity
  8
Defpoints
 62
     0
100
AcDbPoint
 10
-1.473199999999996
 20
8.767085134752601
 30
253.492
  0
POINT
  5
459FC
330
4599F
100
AcDbEntity
  8
Defpoints
 62
     0
100
AcDbPoint
 10
-5.333999999999998
 20
-7.112000000000006
 30
253.492
  0
POINT
  5
459FD
330
4599F
100
AcDbEntity
  8
Defpoints
 62
     0
100
AcDbPoint
 10
-17.74704186188222
 20
-7.112000000000002
 30
0.0
  0
ENDBLK
  5
459AC
330
4599F
100
AcDbEntity
  8
0
100
AcDbBlockEnd
  0
BLOCK
  5
459B8
330
459AD
100
AcDbEntity
  8
0
100
AcDbBlockBegin
  2
*D1
 70
     1
 10
0.0
 20
0.0
 30
0.0
  3
*D1
  1

  0
LINE
  5
459EC
330
459AD
100
AcDbEntity
  8
AREA1
 62
     0
370
    -2
100
AcDbLine
 10
-8.63833485917166
 20
3.687802564113028
 30
0.0
 11
-8.638334859171658
 21
17.21323991144094
 31
0.0
  0
LINE
  5
459ED
330
459AD
100
AcDbEntity
  8
AREA1
 62
     0
370
    -2
100
AcDbLine
 10
8.638334859171658
 20
3.687802564113018
 30
0.0
 11
8.63833485917166
 21
17.21323991144094
 31
0.0
  0
LINE
  5
459EE
330
459AD
100
AcDbEntity
  8
AREA1
 62
     0
370
    -2
100
AcDbLine
 10
-6.35233485917166
 20
15.62573991144095
 30
0.0
 11
6.352334859171659
 21
15.62573991144095
 31
0.0
  0
MTEXT
  5
459EF
330
459AD
100
AcDbEntity
  8
AREA1
 62
     0
100
AcDbMText
 10
-0.3751337388313232
 20
19.40734591444783
 30
0.0
 40
2.286
 41
0.0
 46
0.0
 71
     5
 72
     1
  1
\A1;17.3 [11/16]
 73
     1
 44
1.0
  0
SOLID
  5
459F0
330
459AD
100
AcDbEntity
  8
AREA1
 62
     0
100
AcDbTrace
 10
-6.35233485917166
 20
16.00673991144094
 30
0.0
 11
-6.35233485917166
 21
15.24473991144095
 31
0.0
 12
-8.63833485917166
 22
15.62573991144095
 32
0.0
 13
-8.63833485917166
 23
15.62573991144095
 33
0.0
  0
SOLID
  5
459F1
330
459AD
100
AcDbEntity
  8
AREA1
 62
     0
100
AcDbTrace
 10
6.352334859171659
 20
16.00673991144094
 30
0.0
 11
6.352334859171659
 21
15.24473991144095
 31
0.0
 12
8.638334859171658
 22
15.62573991144095
 32
0.0
 13
8.638334859171658
 23
15.62573991144095
 33
0.0
  0
POINT
  5
459F2
330
459AD
100
AcDbEntity
  8
Defpoints
 62
     0
100
AcDbPoint
 10
-8.63833485917166
 20
2.100302564113028
 30
253.492
  0
POINT
  5
459F3
330
459AD
100
AcDbEntity
  8
Defpoints
 62
     0
100
AcDbPoint
 10
8.638334859171658
 20
2.100302564113019
 30
253.492
  0
POINT
  5
459F4
330
459AD
100
AcDbEntity
  8
Defpoints
 62
     0
100
AcDbPoint
 10
8.638334859171658
 20
15.62573991144095
 30
0.0
  0
ENDBLK
  5
459B9
330
459AD
100
AcDbEntity
  8
0
100
AcDbBlockEnd
  0
ENDSEC
  0
SECTION
  2
ENTITIES
  0
LINE
  5
45967
330
458D6
100
AcDbEntity
  8
SCALE
100
AcDbLine
 10
-4.701197995351325
 20
-26.35440730819317
 30
0.0
 11
20.69880200464868
 21
-26.35440730819317
 31
0.0
  0
LINE
  5
45968
330
458D6
100
AcDbEntity
  8
SCALE
100
AcDbLine
 10
20.69880200464868
 20
-26.35440730819317
 30
0.0
 11
20.69880200464868
 21
-28.89440730819316
 31
0.0
  0
LINE
  5
45969
330
458D6
100
AcDbEntity
  8
SCALE
100
AcDbLine
 10
20.69880200464868
 20
-28.89440730819316
 30
0.0
 11
20.69880200464868
 21
-23.81440730819313
 31
0.0
  0
LINE
  5
4596A
330
458D6
100
AcDbEntity
  8
SCALE
100
AcDbLine
 10
-4.701197995351325
 20
-28.89440730819316
 30
0.0
 11
-4.701197995351325
 21
-23.81440730819313
 31
0.0
  0
LINE
  5
4596B
330
458D6
100
AcDbEntity
  8
SCALE
100
AcDbLine
 10
-4.701197995351234
 20
-21.16798357089993
 30
0.0
 11
-4.701197995351234
 21
-16.08798357089994
 31
0.0
  0
LINE
  5
4596C
330
458D6
100
AcDbEntity
  8
SCALE
100
AcDbLine
 10
5.298782004648762
 20
-21.16798357089993
 30
0.0
 11
5.298782004648762
 21
-16.08798357089994
 31
0.0
  0
LINE
  5
4596D
330
458D6
100
AcDbEntity
  8
SCALE
100
AcDbLine
 10
-4.701197995351234
 20
-18.62798357089993
 30
0.0
 11
5.298782004648762
 21
-18.62798357089993
 31
0.0
  0
TEXT
  5
4596E
330
458D6
100
AcDbEntity
  8
SCALE
100
AcDbText
 10
-3.191875254577374
 20
-17.46619658093743
 30
0.0
 40
1.587499999999999
  1
10 mm
100
AcDbText
  0
TEXT
  5
4596F
330
458D6
100
AcDbEntity
  8
SCALE
100
AcDbText
 10
2.896694737736675
 20
-24.60057044571386
 30
0.0
 40
1.587499999999999
  1
[1 Inch]
100
AcDbText
  0
TEXT
  5
45970
330
458D6
100
AcDbEntity
  8
SCALE
100
AcDbText
 10
-4.895113915221964
 20
-13.09444595604806
 30
0.0
 40
1.587499999999999
  1
SCALE:
100
AcDbText
  0
LWPOLYLINE
  5
45971
330
458D6
100
AcDbEntity
  8
SCALE
100
AcDbPolyline
 90
        4
 70
     1
 43
0.0
 10
-6.407148723843477
 20
-10.42233554131076
 10
22.43782329252262
 20
-10.42233554131076
 10
22.43782329252262
 20
-31.79921853747233
 10
-6.407148723843477
 20
-31.79921853747233
  0
ATTDEF
  5
459C9
330
458D6
100
AcDbEntity
  8
ATTRIBUTES
100
AcDbText
 10
-5.422113410503867
 20
5.509656922491155
 30
0.0
 40
0.7453172050739019
  1
SPRECHER+SCHUH
100
AcDbAttributeDefinition
  3
MANUFACTURER NAME?
  2
AC_VND_LABEL
 70
     1
280
     0
  0
ATTDEF
  5
459CA
330
458D6
100
AcDbEntity
  8
ATTRIBUTES
100
AcDbText
 10
-5.422113410503867
 20
3.956912745253848
 30
0.0
 40
0.7453172050739019
  1
KT7-HT
100
AcDbAttributeDefinition
  3
CATALOG NUMBER?
  2
AC_PART_NO
 70
     1
280
     0
  0
ATTDEF
  5
459CB
330
458D6
100
AcDbEntity
  8
ATTRIBUTES
100
AcDbText
 10
-5.422113410503867
 20
2.404168568016563
 30
0.0
 40
0.7453172050739019
  1
EXTENSION SHAFT FOR DOOR COUPLING HANDLE FOR KT7
100
AcDbAttributeDefinition
  3
PART DESCRIPTION?
  2
AC_DESCRIPTION
 70
     1
280
     0
  0
ATTDEF
  5
459CC
330
458D6
100
AcDbEntity
  8
ATTRIBUTES
100
AcDbText
 10
-5.422113410503867
 20
0.8514243907792572
 30
0.0
 40
0.7453172050739019
  1

100
AcDbAttributeDefinition
  3
DEVICE ID?
  2
DEVICE_ID
 70
     1
280
     0
  0
ATTDEF
  5
459CD
330
458D6
100
AcDbEntity
  8
ATTRIBUTES
100
AcDbText
 10
-5.422113410503867
 20
-0.7013197864580273
 30
0.0
 40
0.7453172050739019
  1

100
AcDbAttributeDefinition
  3
CUSTOMER PART NUMBER?
  2
AC_CPART_NO
 70
     1
280
     0
  0
ATTDEF
  5
459CE
330
458D6
100
AcDbEntity
  8
ATTRIBUTES
100
AcDbText
 10
-5.422113410503867
 20
-2.254063963695334
 30
0.0
 40
0.7453172050739019
  1

100
AcDbAttributeDefinition
  3
CUSTOMER NOTE?
  2
AC_NOTE
 70
     1
280
     0
  0
ATTDEF
  5
459CF
330
458D6
100
AcDbEntity
  8
ATTRIBUTES
100
AcDbText
 10
-5.422113410503867
 20
-3.806808140932618
 30
0.0
 40
0.7453172050739019
  1

100
AcDbAttributeDefinition
  3
FASTENER DATA?
  2
FASTENER
 70
     1
280
     0
  0
ATTDEF
  5
459D0
330
458D6
100
AcDbEntity
  8
ATTRIBUTES
100
AcDbText
 10
-5.422113410503867
 20
-5.359552318169924
 30
0.0
 40
0.7453172050739019
  1
INCH
100
AcDbAttributeDefinition
  3
UNIT OF SCALE?
  2
AC_SCALE_UNIT
 70
     1
280
     0
  0
ATTDEF
  5
459D1
330
458D6
100
AcDbEntity
  8
ATTRIBUTES
100
AcDbText
 10
-5.422113410503867
 20
-6.912296495407209
 30
0.0
 40
0.7453172050739019
  1
0
100
AcDbAttributeDefinition
  3
VIEW CODE?
  2
AC_VIEW_CODE
 70
     1
280
     0
  0
3DSOLID
  5
459D2
330
458D6
100
AcDbEntity
  8
0
100
AcDbModelerGeometry
 70
     1
  1
mnmoo nnj m mi         
  1
ni ^ *+0;:,4 ^ *+0\^ [ nh ^ LR nmqoqnqgmo QK o  
  1
n fqfffffffffffffffj:rooh n:rono 
  1
>,27:>;:- {rn rn _nn mnmqoqnqgmo |
  1
=0;& {m rn {rn {l {rn {rn |
  1
-:9@)+r:&:r>++-6= {rn rn {rn {rn {n {k {j |
  1
3*2/ {i rn {rn {rn {h {n |
  1
:&:@-:961:2:1+ {rn rn _j 8-6;  n _l +-6 m _k ,*-9 o _l >;5 o _k 8->; o _f /0,+<7:<4 o _k ,+03 oqoomjhlogjkglniljfjm _k 1+03 lo _k ;,63 o _g 93>+1:,, o _h /6'>-:> o _k 72>' o _i 8-6;>- o _j 28-6; jnm _j *8-6; o _j )8-6; o _no :1;@96:3;, o o o o o o o o |
  1
):-+:'@+:2/3>+: {rn rn l o n g |
  1
-:9@)+r:&:r>++-6= {rn rn {rn {rn {l {k {j |
  1
,7:33 {g rn {rn {rn {rn {f {rn {l |
  1
-:9@)+r:&:r>++-6= {rn rn {rn {rn {h {k {j |
  1
9><: {no rn {rn {nn {nm {h {rn {nl 90-(>-; ,6183: |
  1
92:,7r:&:r>++-6= {rn rn {nk {rn {f |
  1
9><: {nj rn {rn {ni {nh {h {rn {ng 90-(>-; ,6183: |
  1
300/ {rn rn {rn {rn {nf {f |
  1
/3>1:r,*-9><: {rn rn {rn rlqokgoooooooooooml lqokgoooooooooooml o o n o o o mjqlfffffffffffffj 90-(>-;@) V V V V |
  1
-:9@)+r:&:r>++-6= {rn rn {rn {no {f {k {j |
  1
92:,7r:&:r>++-6= {rn rn {mo {rn {nn |
  1
9><: {mn rn {rn {mm {ml {h {rn {mk 90-(>-; ,6183: |
  1
300/ {rn rn {rn {rn {mj {nn |
  1
/3>1:r,*-9><: {rn rn {rn lqokgoooooooooooml lqokgoooooooooooml o n o o o o rmjqlfffffffffffffj 90-(>-;@) V V V V |
  1
<0:;8: {rn rn {rn {mi {mh {mg {mf 90-(>-; {nm {rn |
  1
-:9@)+r:&:r>++-6= {rn rn {rn {nj {nn {k {j |
  1
92:,7r:&:r>++-6= {rn rn {lo {rn {ni |
  1
9><: {ln rn {rn {lm {ll {h {rn {lk 90-(>-; ,6183: |
  1
300/ {rn rn {rn {rn {lj {ni |
  1
/3>1:r,*-9><: {rn rn {rn lqokgoooooooooooml rlqokgoooooooooooml o o rn o o o rmjqlfffffffffffffj 90-(>-;@) V V V V |
  1
<0:;8: {rn rn {rn {li {lh {lg {lf 90-(>-; {nh {rn |
  1
<0:;8: {rn rn {rn {ko {nf {lh {kn -:):-,:; {nm {rn |
  1
<0:;8: {rn rn {rn {nf {ko {km {kl 90-(>-; {nm {rn |
  1
<0:;8: {rn rn {rn {kk {lg {nf {mf -:):-,:; {kj {rn |
  1
:;8: {ki rn {rn {kh o {kg oqmkooooooooooooomn {nf {kf 90-(>-; _h *1410(1 |
  1
-:9@)+r:&:r>++-6= {rn rn {rn {mn {ni {k {j |
  1
92:,7r:&:r>++-6= {rn rn {jo {rn {mm |
  1
9><: {jn rn {rn {jm {jl {h {rn {jk -:):-,:; ,6183: |
  1
300/ {rn rn {rn {rn {jj {mm |
  1
/3>1:r,*-9><: {rn rn {rn rlqokgoooooooooooml rlqokgoooooooooooml o rn o o o o mjqlfffffffffffffj 90-(>-;@) V V V V |
  1
<0:;8: {rn rn {rn {ji {jh {jg {jf 90-(>-; {ml {rn |
  1
<0:;8: {rn rn {rn {io {mj {jh {in -:):-,:; {nh {rn |
  1
<0:;8: {rn rn {rn {mj {io {mi {kn 90-(>-; {nh {rn |
  1
<0:;8: {rn rn {rn {mg {jg {mj {lf -:):-,:; {kj {rn |
  1
:;8: {im rn {rn {kg o {il oqmkooooooooooooomn {mj {ik 90-(>-; _h *1410(1 |
  1
<0:;8: {rn rn {rn {mh {mi {ij {ii -:):-,:; {nm {rn |
  1
:;8: {ih rn {rn {ig o {kg fqinmoooooooooooon {lh {if 90-(>-; _h *1410(1 |
  1
<0:;8: {rn rn {rn {ho {jj {mh {kl -:):-,:; {ll {rn |
  1
:;8: {hn rn {rn {hm o {kh fqinmoooooooooooon {mh {hl 90-(>-; _h *1410(1 |
  1
<0:;8: {rn rn {rn {jg {mg {jj {hk -:):-,:; {kj {rn |
  1
300/ {rn rn {rn {rn {mg {jm |
  1
/+36,+r:&:r>++-6= {rn rn {rn {rn {mf |
  1
):-+:' {rn rn {rn {kl m {hj |
  1
):-+:' {rn rn {rn {kn m {hi |
  1
,+->687+r<*-): {rn rn {rn rlqokgoooooooooooml lqokgoooooooooooml mkkqnkkhfffffffffj mjqlfffffffffffffj o o V V |
  1
-:9@)+r:&:r>++-6= {rn rn {rn {ln {mm {k {j |
  1
92:,7r:&:r>++-6= {rn rn {hh {rn {lm |
  1
9><: {hg rn {rn {rn {kj {h {rn {hf 90-(>-; ,6183: |
  1
300/ {rn rn {rn {rn {go {lm |
  1
/3>1:r,*-9><: {rn rn {rn o o o o o n mjqlfffffffffffffj o o 90-(>-;@) V V V V |
  1
<0:;8: {rn rn {rn {km {gn {kk {hk 90-(>-; {ll {rn |
  1
<0:;8: {rn rn {rn {gm {lj {gn {gl -:):-,:; {ml {rn |
  1
<0:;8: {rn rn {rn {lj {gm {li {in 90-(>-; {ml {rn |
  1
<0:;8: {rn rn {rn {lg {kk {lj {jf -:):-,:; {kj {rn |
  1
:;8: {gk rn {rn {il o {gj oqmkooooooooooooomn {lj {gi 90-(>-; _h *1410(1 |
  1
<0:;8: {rn rn {rn {lh {li {gh {gg -:):-,:; {nh {rn |
  1
:;8: {gf rn {rn {fo o {il fqinmoooooooooooon {jh {fn 90-(>-; _h *1410(1 |
  1
/+36,+r:&:r>++-6= {rn rn {rn {rn {lf |
  1
):-+:' {rn rn {rn {in m {fm |
  1
,+->687+r<*-): {rn rn {rn lqokgoooooooooooml lqokgoooooooooooml mkkqnkkhfffffffffj o rmjqlfffffffffffffj o V V |
  1
<0:;8: {rn rn {rn {gh {go {ko {ii 90-(>-; {jl {rn |
  1
:;8: {fl rn {rn {hm o {ig oqmkooooooooooooomn {ko {fk 90-(>-; _h *1410(1 |
  1
/+36,+r:&:r>++-6= {rn rn {rn {rn {kn |
  1
):-+:' {rn rn {rn {ii m {fj |
  1
,+->687+r<*-): {rn rn {rn lqokgoooooooooooml lqokgoooooooooooml o o o mjqlfffffffffffffj V V |
  1
<0:;8: {rn rn {rn {gn {km {go {fi -:):-,:; {ll {rn |
  1
/+36,+r:&:r>++-6= {rn rn {rn {rn {kl |
  1
):-+:' {rn rn {rn {fi m {fh |
  1
,+->687+r<*-): {rn rn {rn rlqokgoooooooooooml lqokgoooooooooooml o o o mjqlfffffffffffffj V V |
  1
:;8: {fg rn {rn {gj o {kh oqmkooooooooooooomn {jj {ff 90-(>-; _h *1410(1 |
  1
/061+ {rn rn {rn rlqokgoooooooooooml lqokgoooooooooooml mkkqnkkhfffffffffj |
  1
/061+ {rn rn {rn lqokgoooooooooooml lqokgoooooooooooml mkkqnkkhfffffffffj |
  1
-:9@)+r:&:r>++-6= {rn rn {rn {jn {lm {k {j |
  1
92:,7r:&:r>++-6= {rn rn {noo {rn {jm |
  1
/3>1:r,*-9><: {rn rn {rn rlqokgoooooooooooml lqokgoooooooooooml mkkqnkkhfffffffffj o o n mjqlfffffffffffffj o o 90-(>-;@) V V V V |
  1
<0:;8: {rn rn {rn {ij {non {ho {fi 90-(>-; {jl {rn |
  1
<0:;8: {rn rn {rn {jj {ho {ji {gl 90-(>-; {ll {rn |
  1
<0:;8: {rn rn {rn {jh {ji {non {nom -:):-,:; {ml {rn |
  1
:;8: {nol rn {rn {nok o {gj fqinmoooooooooooon {gn {noj 90-(>-; _h *1410(1 |
  1
/+36,+r:&:r>++-6= {rn rn {rn {rn {jf |
  1
):-+:' {rn rn {rn {gl m {noi |
  1
,+->687+r<*-): {rn rn {rn lqokgoooooooooooml rlqokgoooooooooooml mkkqnkkhfffffffffj rmjqlfffffffffffffj o o V V |
  1
<0:;8: {rn rn {rn {non {ij {io {gg 90-(>-; {jl {rn |
  1
:;8: {noh rn {rn {ig o {fo oqmkooooooooooooomn {io {nog 90-(>-; _h *1410(1 |
  1
/+36,+r:&:r>++-6= {rn rn {rn {rn {in |
  1
):-+:' {rn rn {rn {gg m {nof |
  1
,+->687+r<*-): {rn rn {rn lqokgoooooooooooml rlqokgoooooooooooml o o o mjqlfffffffffffffj V V |
  1
/061+ {rn rn {rn lqokgoooooooooooml rlqokgoooooooooooml mkkqnkkhfffffffffj |
  1
/+36,+r:&:r>++-6= {rn rn {rn {rn {ii |
  1
,+->687+r<*-): {rn rn {rn rlqokgoooooooooooml lqokgoooooooooooml o mjqlfffffffffffffj o o V V |
  1
/061+ {rn rn {rn lqokgoooooooooooml lqokgoooooooooooml o |
  1
:;8: {nno rn {rn {nok o {hm oqmkooooooooooooomn {ho {nnn 90-(>-; _h *1410(1 |
  1
/061+ {rn rn {rn rlqokgoooooooooooml lqokgoooooooooooml o |
  1
/+36,+r:&:r>++-6= {rn rn {rn {rn {hk |
  1
,+->687+r<*-): {rn rn {rn rlqokgoooooooooooml rlqokgoooooooooooml mkkqnkkhfffffffffj o mjqlfffffffffffffj o V V |
  1
-:9@)+r:&:r>++-6= {rn rn {rn {hg {jm {k {j |
  1
<0:;8: {rn rn {rn {go {gh {gm {nom 90-(>-; {jl {rn |
  1
:;8: {nnm rn {rn {fo o {nok oqmkooooooooooooomn {gm {nnl 90-(>-; _h *1410(1 |
  1
/+36,+r:&:r>++-6= {rn rn {rn {rn {gl |
  1
):-+:' {rn rn {rn {fi m {nnk |
  1
,+->687+r<*-): {rn rn {rn rlqokgoooooooooooml rlqokgoooooooooooml o o o mjqlfffffffffffffj V V |
  1
/061+ {rn rn {rn rlqokgoooooooooooml rlqokgoooooooooooml mkkqnkkhfffffffffj |
  1
/+36,+r:&:r>++-6= {rn rn {rn {rn {gg |
  1
,+->687+r<*-): {rn rn {rn lqokgoooooooooooml lqokgoooooooooooml o o rmjqlfffffffffffffj o V V |
  1
/061+ {rn rn {rn lqokgoooooooooooml rlqokgoooooooooooml o |
  1
/+36,+r:&:r>++-6= {rn rn {rn {rn {fi |
  1
,+->687+r<*-): {rn rn {rn rlqokgoooooooooooml rlqokgoooooooooooml o o mjqlfffffffffffffj o V V |
  1
/+36,+r:&:r>++-6= {rn rn {rn {rn {nom |
  1
,+->687+r<*-): {rn rn {rn lqokgoooooooooooml rlqokgoooooooooooml o rmjqlfffffffffffffj o o V V |
  1
/061+ {rn rn {rn rlqokgoooooooooooml rlqokgoooooooooooml o |
100
AcDb3dSolid
350
0
  0
CIRCLE
  5
459D3
330
458D6
100
AcDbEntity
  8
0
100
AcDbCircle
 10
0.0
 20
0.0
 30
260.1468
 40
4.610099999999999
  0
3DSOLID
  5
459D4
330
458D6
100
AcDbEntity
  8
0
100
AcDbModelerGeometry
 70
     1
  1
mnmoo ngf m mi         
  1
ni ^ *+0;:,4 ^ *+0\^ [ nh ^ LR nmqoqnqgmo QK o  
  1
n fqfffffffffffffffj:rooh n:rono 
  1
>,27:>;:- {rn rn _nn mnmqoqnqgmo |
  1
=0;& {m rn {rn {l {rn {rn |
  1
-:9@)+r:&:r>++-6= {rn rn {rn {rn {n {k {j |
  1
3*2/ {i rn {rn {rn {h {n |
  1
:&:@-:961:2:1+ {rn rn _j 8-6;  n _l +-6 m _k ,*-9 o _l >;5 o _k 8->; o _f /0,+<7:<4 o _k ,+03 oqoomjhlogjkglniljfjm _k 1+03 lo _k ;,63 o _g 93>+1:,, o _h /6'>-:> o _k 72>' o _i 8-6;>- o _j 28-6; jnm _j *8-6; o _j )8-6; o _no :1;@96:3;, o o o o o o o o |
  1
):-+:'@+:2/3>+: {rn rn l o n g |
  1
-:9@)+r:&:r>++-6= {rn rn {rn {rn {l {k {j |
  1
,7:33 {g rn {rn {rn {rn {f {rn {l |
  1
-:9@)+r:&:r>++-6= {rn rn {rn {rn {h {k {j |
  1
9><: {no rn {rn {nn {nm {h {rn {nl 90-(>-; ,6183: |
  1
92:,7r:&:r>++-6= {rn rn {nk {rn {f |
  1
9><: {nj rn {rn {ni {nh {h {rn {ng -:):-,:; ,6183: |
  1
300/ {rn rn {rn {nf {mo {f |
  1
<01:r,*-9><: {rn rn {rn o o mkkqnkkhfffffffffj o o n jqfngnffffffffffgg o o n V V o n jqfngnffffffffffgg 90-(>-; V V V V |
  1
-:9@)+r:&:r>++-6= {rn rn {rn {no {f {k {j |
  1
92:,7r:&:r>++-6= {rn rn {mn {rn {nn |
  1
9><: {mm rn {rn {ml {mk {h {rn {mj 90-(>-; ,6183: |
  1
300/ {rn rn {rn {rn {mi {nn |
  1
/3>1:r,*-9><: {rn rn {rn o o mkkqnkkhfffffffffj o o n mjqlfffffffffffffj o o 90-(>-;@) V V V V |
  1
300/ {rn rn {rn {rn {mh {f |
  1
<0:;8: {rn rn {rn {mo {mo {mi {mg 90-(>-; {nm {rn |
  1
-:9@)+r:&:r>++-6= {rn rn {rn {nj {nn {k {j |
  1
92:,7r:&:r>++-6= {rn rn {mf {rn {ni |
  1
9><: {lo rn {rn {ln {lm {h {rn {ll 90-(>-; ,6183: |
  1
300/ {rn rn {rn {rn {lk {ni |
  1
<01:r,*-9><: {rn rn {rn o o mjlqkfnffffffffffi o o n gqilgllkgjfnhnijif mqnoolomjiknnlonhl o n V V o n gqggffffffffffffjm 90-(>-; V V V V |
  1
<0:;8: {rn rn {rn {mi {mi {mo {mg -:):-,:; {nh {rn |
  1
<0:;8: {rn rn {rn {mh {mh {lj {li -:):-,:; {nf {rn |
  1
:;8: {lh rn {rn {lg o {lg iqmglngjlohnhfjgim {mo {lf 90-(>-; _h *1410(1 |
  1
-:9@)+r:&:r>++-6= {rn rn {rn {mm {ni {k {j |
  1
92:,7r:&:r>++-6= {rn rn {ko {rn {ml |
  1
9><: {kn rn {rn {km {kl {h {rn {kk 90-(>-; ,6183: |
  1
300/ {rn rn {rn {rn {kj {ml |
  1
/3>1:r,*-9><: {rn rn {rn jqlllffffffffffhji rhqnnmoooooooooookj mjlqkfnffffffffffi o rn o o o rmjqlfffffffffffffj 90-(>-;@) V V V V |
  1
<0:;8: {rn rn {rn {ki {kh {kg {kf 90-(>-; {mk {rn |
  1
<0:;8: {rn rn {rn {lj {lj {mh {li 90-(>-; {jo {rn |
  1
:;8: {jn rn {rn {jm rlqnknjfmijljgfgooh {jm lqnknjfmijljgfhgji {lj {jl 90-(>-; _h *1410(1 |
  1
/+36,+r:&:r>++-6= {rn rn {rn {rn {mg |
  1
):-+:' {rn rn {rn {mg m {jk |
  1
:336/,:r<*-): {rn rn {rn o o mkkqnkkhfffffffffj o o n jqfngnffffffffffgg o o n V V |
  1
-:9@)+r:&:r>++-6= {rn rn {rn {lo {ml {k {j |
  1
92:,7r:&:r>++-6= {rn rn {jj {rn {ln |
  1
9><: {ji rn {rn {jh {jg {h {rn {jf 90-(>-; ,6183: |
  1
300/ {rn rn {rn {rn {io {ln |
  1
<01:r,*-9><: {rn rn {rn o o mjlqkfnffffffffffi o o n rgqilgllkgjfnhniiok mqnoolomjiknnlomkk o n V V o n gqgfoooooooooooooi 90-(>-; V V V V |
  1
<0:;8: {rn rn {rn {in {im {il {ik 90-(>-; {lm {rn |
  1
<0:;8: {rn rn {rn {ij {lk {im {ii -:):-,:; {mk {rn |
  1
<0:;8: {rn rn {rn {lk {ij {ih {ig 90-(>-; {mk {rn |
  1
<0:;8: {rn rn {rn {if {il {lk {kf -:):-,:; {ho {rn |
  1
:;8: {hn rn {rn {hm rnqnijgokilghlkmmlk {hl nqnijgokilghlkmmln {lk {hk 90-(>-; _h *1410(1 |
  1
300/ {rn rn {rn {hj {lj {hi |
  1
/+36,+r:&:r>++-6= {rn rn {rn {rn {li |
  1
):-+:' {rn rn {rn {li m {hh |
  1
:336/,:r<*-): {rn rn {rn o o mjlqkfnffffffffffi o o n jqfngnffffffffffgg o o n V V |
  1
/061+ {rn rn {rn jqfngmooooooooonmn o mkkqnkkhfffffffffj |
  1
-:9@)+r:&:r>++-6= {rn rn {rn {kn {ln {k {j |
  1
92:,7r:&:r>++-6= {rn rn {hg {rn {km |
  1
9><: {hf rn {rn {go {gn {h {rn {gm 90-(>-; ,6183: |
  1
300/ {rn rn {rn {rn {gl {km |
  1
/3>1:r,*-9><: {rn rn {rn rnqkhlnffffffffffjk gqhihogjnlkhjmjfgm mjlqkfnffffffffffi n o o o o rmjqlfffffffffffffj 90-(>-;@) V V V V |
  1
<0:;8: {rn rn {rn {gk {gj {gi {gh 90-(>-; {kl {rn |
  1
<0:;8: {rn rn {rn {gg {kj {gj {gf -:):-,:; {lm {rn |
  1
<0:;8: {rn rn {rn {kj {gg {ki {ii 90-(>-; {lm {rn |
  1
<0:;8: {rn rn {rn {kg {gi {kj {ik -:):-,:; {ho {rn |
  1
:;8: {fo rn {rn {hl roqknfffffffffffffn {fn o {kj {fm 90-(>-; _h *1410(1 |
  1
<0:;8: {rn rn {rn {kh {ki {fl {fk 90-(>-; {mk {rn |
  1
:;8: {fj rn {rn {fi o {hl oqmimoooooooooooofj {im {fh 90-(>-; _h *1410(1 |
  1
<0:;8: {rn rn {rn {fg {ff {kh {ig -:):-,:; {noo {rn |
  1
:;8: {non rn {rn {nom o {hm oqmimoooooooooooofj {kh {nol 90-(>-; _h *1410(1 |
  1
<0:;8: {rn rn {rn {nok {kg {ff {noj -:):-,:; {ho {rn |
  1
300/ {rn rn {rn {rn {kg {noi |
  1
/+36,+r:&:r>++-6= {rn rn {rn {rn {kf |
  1
):-+:' {rn rn {rn {ig m {noh |
  1
):-+:' {rn rn {rn {ii m {nog |
  1
:336/,:r<*-): {rn rn {rn o o mioqnkihfffffffffg o o rn gqilgllkgjfnhnijif mqnoolomjiknnlonhl o n Y rnqnijgokilghlkmmlk Y nqnijgokilghlkmmln |
  1
300/ {rn rn {rn {rn {nof {hi |
  1
9><: {nno rn {rn {noi {jo {h {rn {nnn -:):-,:; ,6183: |
  1
/061+ {rn rn {rn rjqfngmooooooooonmn kqjnnfkilhmohiiljl:ronk mjlqkfnffffffffffi |
  1
-:9@)+r:&:r>++-6= {rn rn {rn {ji {km {k {j |
  1
92:,7r:&:r>++-6= {rn rn {nnm {rn {jh |
  1
9><: {nnl rn {rn {hi {noo {h {rn {nnk 90-(>-; ,6183: |
  1
300/ {rn rn {rn {rn {nnj {jh |
  1
/3>1:r,*-9><: {rn rn {rn rnqkhlnffffffffffjk iqmmmffffffffffhgj mjlqkfnffffffffffi o n o o o mjqlfffffffffffffj 90-(>-;@) V V V V |
  1
<0:;8: {rn rn {rn {nni {nnh {nng {nnf 90-(>-; {jg {rn |
  1
<0:;8: {rn rn {rn {nmo {io {nnh {nmn -:):-,:; {kl {rn |
  1
<0:;8: {rn rn {rn {io {nmo {in {gf 90-(>-; {kl {rn |
  1
<0:;8: {rn rn {rn {il {nng {io {gh -:):-,:; {ho {rn |
  1
:;8: {nmm rn {rn {fn rnqnijgokilghlkmmmm {nml nqnijgokilghlkmmmh {io {nmk 90-(>-; _h *1410(1 |
  1
<0:;8: {rn rn {rn {im {in {nmj {nmi 90-(>-; {lm {rn |
  1
:;8: {nmh rn {rn {nmg o {fn oqmimoooooooooooofj {gj {nmf 90-(>-; _h *1410(1 |
  1
/+36,+r:&:r>++-6= {rn rn {rn {rn {ik |
  1
):-+:' {rn rn {rn {gf m {nlo |
  1
,+->687+r<*-): {rn rn {rn rjqlllfffffffffffhf rhqnnmoooooooooookj mioqnkihfffffffffg rmjqlfffffffffffffj o o V V |
  1
<0:;8: {rn rn {rn {nmj {nof {ij {fk -:):-,:; {hj {rn |
  1
:;8: {nln rn {rn {fi rnqnijgokilghlkmmln {nom nqnijgokilghlkmmlk {ij {nlm 90-(>-; _h *1410(1 |
  1
/+36,+r:&:r>++-6= {rn rn {rn {rn {ii |
  1
):-+:' {rn rn {rn {nmi m {nll |
  1
,+->687+r<*-): {rn rn {rn jqlllffffffffffhji rhqnnmoooooooooookj mjlqkfnffffffffffi o o mjqlfffffffffffffj V V |
  1
<0:;8: {rn rn {rn {nlk {ih {nof {nlj 90-(>-; {noo {rn |
  1
<0:;8: {rn rn {rn {ih {nlk {if {noj 90-(>-; {noo {rn |
  1
300/ {rn rn {rn {rn {ff {go |
  1
/+36,+r:&:r>++-6= {rn rn {rn {rn {ig |
  1
):-+:' {rn rn {rn {nlj m {nli |
  1
,+->687+r<*-): {rn rn {rn nqkhlnffffffffffjk gqhihogjnlkhjmjfgm mjlqkfnffffffffffi o o mjqlfffffffffffffj V V |
  1
<0:;8: {rn rn {rn {nng {if {nnj {nlh -:):-,:; {ho {rn |
  1
:;8: {nlg rn {rn {nlf roqnoonioglmohighkg {hm o {ff {nko 90-(>-; _h *1410(1 |
  1
9><: {nkn rn {rn {rn {ho {h {rn {nkm 90-(>-; ,6183: |
  1
/061+ {rn rn {rn nqkhlnffffffffffjk gqhihogjnlkhjmjfgm mioqnkihfffffffffg |
  1
/061+ {rn rn {rn jqlllffffffffffhji rhqnnmoooooooooookj mioqnkihfffffffffg |
  1
<0:;8: {rn rn {rn {fl {nkl {fg {nlj -:):-,:; {hj {rn |
  1
92:,7r:&:r>++-6= {rn rn {nkk {rn {hi |
  1
/3>1:r,*-9><: {rn rn {rn o mqkfkjfifmkhnikofh mjlqkfnffffffffffi o o n mjqlfffffffffffffj o o 90-(>-;@) V V V V |
  1
-:9@)+r:&:r>++-6= {rn rn {rn {hf {jh {k {j |
  1
92:,7r:&:r>++-6= {rn rn {nkj {rn {go |
  1
/3>1:r,*-9><: {rn rn {rn nqkhlnffffffffffjk iqmmmffffffffffhgj mjlqkfnffffffffffi rn o o o o mjqlfffffffffffffj 90-(>-;@) V V V V |
  1
<0:;8: {rn rn {rn {nki {nkh {nok {nlh 90-(>-; {gn {rn |
  1
<0:;8: {rn rn {rn {nkg {gl {nkh {nkf -:):-,:; {jg {rn |
  1
<0:;8: {rn rn {rn {gl {nkg {gk {nmn 90-(>-; {jg {rn |
  1
<0:;8: {rn rn {rn {gi {nok {gl {nnf -:):-,:; {ho {rn |
  1
:;8: {njo rn {rn {nml roqnoonioglmohighkg {njn o {gl {njm 90-(>-; _h *1410(1 |
  1
<0:;8: {rn rn {rn {gj {gk {njl {njk 90-(>-; {kl {rn |
  1
:;8: {njj rn {rn {nji o {nml oqmimoooooooooooofj {nnh {njh 90-(>-; _h *1410(1 |
  1
/+36,+r:&:r>++-6= {rn rn {rn {rn {gh |
  1
):-+:' {rn rn {rn {nmn m {njg |
  1
:336/,:r<*-): {rn rn {rn o o mioqnkihfffffffffg o o rn rgqilgllkgjfnhniiok mqnoolomjiknnlomkk o n Y rnqnijgokilghlkmmmh Y nqnijgokilghlkmmmh |
  1
<0:;8: {rn rn {rn {njl {fl {gg {nmi -:):-,:; {hj {rn |
  1
:;8: {njf rn {rn {nmg o {fi oqknfffffffffffffn {gg {nio 90-(>-; _h *1410(1 |
  1
/+36,+r:&:r>++-6= {rn rn {rn {rn {gf |
  1
):-+:' {rn rn {rn {njk m {nin |
  1
,+->687+r<*-): {rn rn {rn rjqlllfffffffffffhf rhqnnmoooooooooookj mjlqkfnffffffffffi o o mjqlfffffffffffffj V V |
  1
/061+ {rn rn {rn rjqlllfffffffffffhf rhqnnmoooooooooookj mioqnkihfffffffffg |
  1
/+36,+r:&:r>++-6= {rn rn {rn {rn {fk |
  1
:336/,:r<*-): {rn rn {rn o o mjlqkfnffffffffffi o o n gqilgllkgjfnhnijif mqnoolomjiknnlonhl o n Y rnqnijgokilghlkmmln Y nqnijgokilghlkmmlk |
  1
/061+ {rn rn {rn jqlllffffffffffhji rhqnnmoooooooooookj mjlqkfnffffffffffi |
  1
<0:;8: {rn rn {rn {ff {fg {nki {nim 90-(>-; {noo {rn |
  1
:;8: {nil rn {rn {nom o {nik oqnoonioglmohighkg {fg {nij 90-(>-; _h *1410(1 |
  1
/061+ {rn rn {rn nqkhlnffffffffffjk gqhihogjnlkhjmjfgm mjlqkfnffffffffffi |
  1
:;8: {nii rn {rn {njn roqnnjffffffffffffii {nlf o {nnj {nih 90-(>-; _h *1410(1 |
  1
/+36,+r:&:r>++-6= {rn rn {rn {rn {noj |
  1
):-+:' {rn rn {rn {nim m {nig |
  1
,+->687+r<*-): {rn rn {rn nqkhlnffffffffffjk gqhihogjnlkhjmjfgm mioqnkihfffffffffg o mjqlfffffffffffffj o V V |
  1
92:,7r:&:r>++-6= {rn rn {nif {rn {noi |
  1
/3>1:r,*-9><: {rn rn {rn nqkhlnffffffffffjk gqhihogjnlkhjmjfgm mioqnkihfffffffffg o o n mjqlfffffffffffffj o o 90-(>-;@) V V V V |
  1
<0:;8: {rn rn {rn {nof {nho {nhn {nhm -:):-,:; {hj {rn |
  1
-:9@)+r:&:r>++-6= {rn rn {rn {nno {hi {k {j |
  1
-:9@)+r:&:r>++-6= {rn rn {rn {nnl {go {k {j |
  1
<0:;8: {rn rn {rn {nhn {nnj {nlk {nim -:):-,:; {gn {rn |
  1
<0:;8: {rn rn {rn {nnj {nhn {nni {nkf 90-(>-; {gn {rn |
  1
<0:;8: {rn rn {rn {nnh {nni {nho {nhl 90-(>-; {jg {rn |
  1
:;8: {nhk rn {rn {nhj o {njn oqmimoooooooooooofj {nkh {nhi 90-(>-; _h *1410(1 |
  1
/+36,+r:&:r>++-6= {rn rn {rn {rn {nnf |
  1
):-+:' {rn rn {rn {nkf m {nhh |
  1
,+->687+r<*-): {rn rn {rn rnqkhlnffffffffffjk iqmmmffffffffffhgj mioqnkihfffffffffg o rmjqlfffffffffffffj o V V |
  1
<0:;8: {rn rn {rn {nho {nmj {nmo {njk -:):-,:; {hj {rn |
  1
:;8: {nhg rn {rn {nji rnqnijgokilghlkmmmh {nmg nqnijgokilghlkmmmm {nmo {nhf 90-(>-; _h *1410(1 |
  1
/+36,+r:&:r>++-6= {rn rn {rn {rn {nmn |
  1
):-+:' {rn rn {rn {nhl m {ngo |
  1
,+->687+r<*-): {rn rn {rn rnqkhlnffffffffffjk gqhihogjnlkhjmjfgm mjlqkfnffffffffffi o o mjqlfffffffffffffj V V |
  1
/061+ {rn rn {rn rnqkhlnffffffffffjk gqhihogjnlkhjmjfgm mioqnkihfffffffffg |
  1
/+36,+r:&:r>++-6= {rn rn {rn {rn {nmi |
  1
,+->687+r<*-): {rn rn {rn rjqlllfffffffffffhf rhqnnmoooooooooookj mjlqkfnffffffffffi mjqlfffffffffffffj o o V V |
  1
/061+ {rn rn {rn rjqlllfffffffffffhf rhqnnmoooooooooookj mjlqkfnffffffffffi |
  1
:;8: {ngn rn {rn {nik o {nlf oqmimoooooooooooofj {nlk {ngm 90-(>-; _h *1410(1 |
  1
/+36,+r:&:r>++-6= {rn rn {rn {rn {nlj |
  1
):-+:' {rn rn {rn {nlj m {ngl |
  1
,+->687+r<*-): {rn rn {rn nqkhlnffffffffffjk gqhihogjnlkhjmjfgm mjlqkfnffffffffffi o rmjqlfffffffffffffj o V V |
  1
/+36,+r:&:r>++-6= {rn rn {rn {rn {nlh |
  1
,+->687+r<*-): {rn rn {rn nqkhlnffffffffffjk iqmmmffffffffffhgj mioqnkihfffffffffg mjqlfffffffffffffj o o V V |
  1
/061+ {rn rn {rn nqkhlnffffffffffjk iqmmmffffffffffhgj mioqnkihfffffffffg |
  1
-:9@)+r:&:r>++-6= {rn rn {rn {nkn {noi {k {j |
  1
<0:;8: {rn rn {rn {nkl {njl {nkg {nhl -:):-,:; {hj {rn |
  1
<0:;8: {rn rn {rn {nkh {nki {nkl {nhm 90-(>-; {gn {rn |
  1
:;8: {ngk rn {rn {nik o {nhj oqnnjffffffffffffii {nhn {ngj 90-(>-; _h *1410(1 |
  1
:;8: {ngi rn {rn {nhj o {nji oqnoonioglmohighkg {nkg {ngh 90-(>-; _h *1410(1 |
  1
/+36,+r:&:r>++-6= {rn rn {rn {rn {nkf |
  1
):-+:' {rn rn {rn {nhm m {ngg |
  1
,+->687+r<*-): {rn rn {rn rnqkhlnffffffffffjk iqmmmffffffffffhgj mjlqkfnffffffffffi o o mjqlfffffffffffffj V V |
  1
/061+ {rn rn {rn rnqkhlnffffffffffjk iqmmmffffffffffhgj mioqnkihfffffffffg |
  1
/+36,+r:&:r>++-6= {rn rn {rn {rn {njk |
  1
:336/,:r<*-): {rn rn {rn o o mjlqkfnffffffffffi o o n rgqilgllkgjfnhniiok mqnoolomjiknnlomkk o n Y rnqnijgokilghlkmmmh Y nqnijgokilghlkmmmh |
  1
/061+ {rn rn {rn rnqkhlnffffffffffjk gqhihogjnlkhjmjfgm mjlqkfnffffffffffi |
  1
/+36,+r:&:r>++-6= {rn rn {rn {rn {nim |
  1
,+->687+r<*-): {rn rn {rn nqkhlnffffffffffjk iqmmmffffffffffhgj mjlqkfnffffffffffi o o mjqlfffffffffffffj V V |
  1
/061+ {rn rn {rn nqkhlnffffffffffjk iqmmmffffffffffhgj mjlqkfnffffffffffi |
  1
/+36,+r:&:r>++-6= {rn rn {rn {rn {nhm |
  1
,+->687+r<*-): {rn rn {rn nqkhlnffffffffffjk iqmmmffffffffffhgj mjlqkfnffffffffffi rmjqlfffffffffffffj o o V V |
  1
/+36,+r:&:r>++-6= {rn rn {rn {rn {nhl |
  1
,+->687+r<*-): {rn rn {rn rnqkhlnffffffffffjk iqmmmffffffffffhgj mjlqkfnffffffffffi o mjqlfffffffffffffj o V V |
  1
/061+ {rn rn {rn rnqkhlnffffffffffjk iqmmmffffffffffhgj mjlqkfnffffffffffi |
100
AcDb3dSolid
350
0
  0
POINT
  5
459D5
330
458D6
100
AcDbEntity
  8
SNAP_POINTS
100
AcDbPoint
 10
0.0
 20
0.0
 30
260.1468
  0
POINT
  5
459D6
330
458D6
100
AcDbEntity
  8
SNAP_POINTS
100
AcDbPoint
 10
0.0
 20
0.0
 30
0.0
  0
DIMENSION
  5
459D7
330
458D6
100
AcDbEntity
  8
AREA1
100
AcDbDimension
  2
*D0
 10
-17.74704186188222
 20
-7.112000000000002
 30
0.0
 11
-21.48103899230102
 21
1.004996758934652
 31
0.0
 70
   160
 71
     5
 42
-1.0
 73
     0
 74
     0
 75
     0
  3
ABECAD_3D
100
AcDbAlignedDimension
 13
-1.473199999999996
 23
8.767085134752601
 33
253.492
 14
-5.333999999999998
 24
-7.112000000000006
 34
253.492
 50
90.0
100
AcDbRotatedDimension
  0
DIMENSION
  5
459D8
330
458D6
100
AcDbEntity
  8
AREA1
100
AcDbDimension
  2
*D1
 10
8.638334859171658
 20
15.62573991144095
 30
0.0
 11
-0.3751337388313232
 21
19.40734591444783
 31
0.0
 70
   160
 71
     5
 42
-1.0
 73
     0
 74
     0
 75
     0
  3
ABECAD_3D
100
AcDbAlignedDimension
 13
-8.63833485917166
 23
2.100302564113028
 33
253.492
 14
8.638334859171658
 24
2.100302564113019
 34
253.492
100
AcDbRotatedDimension
  0
ENDSEC
  0
SECTION
  2
OBJECTS
  0
DICTIONARY
  5
458CB
330
0
100
AcDbDictionary
281
     1
  3
ACAD_COLOR
350
45ABF
  3
ACAD_GROUP
350
458CC
  3
ACAD_LAYOUT
350
458FB
  3
ACAD_MATERIAL
350
45A95
  3
ACAD_MLEADERSTYLE
350
45AE4
  3
ACAD_MLINESTYLE
350
458D9
  3
ACAD_PLOTSETTINGS
350
458FC
  3
ACAD_PLOTSTYLENAME
350
458F9
  3
ACAD_SCALELIST
350
45AC2
  3
ACAD_TABLESTYLE
350
45AC0
  3
ACAD_VISUALSTYLE
350
45AAE
  3
ACDB_RECOMPOSE_DATA
350
45AF7
  3
ACDBVARIABLEDICTIONARY
350
458E1
  0
DICTIONARY
  5
45AE9
330
458CD
100
AcDbDictionary
280
     1
281
     1
  3
ADSK_XREC_LAYER_RECONCILED
360
45AEA
  0
DICTIONARY
  5
45AEB
330
458EA
100
AcDbDictionary
280
     1
281
     1
  3
ADSK_XREC_LAYER_RECONCILED
360
45AEC
  0
DICTIONARY
  5
45AED
330
458EB
100
AcDbDictionary
280
     1
281
     1
  3
ADSK_XREC_LAYER_RECONCILED
360
45AEE
  0
DICTIONARY
  5
45AEF
330
4593F
100
AcDbDictionary
280
     1
281
     1
  3
ADSK_XREC_LAYER_RECONCILED
360
45AF0
  0
DICTIONARY
  5
45AF1
330
45972
100
AcDbDictionary
280
     1
281
     1
  3
ADSK_XREC_LAYER_RECONCILED
360
45AF2
  0
DICTIONARY
  5
45AF3
330
4597A
100
AcDbDictionary
280
     1
281
     1
  3
ADSK_XREC_LAYER_RECONCILED
360
45AF4
  0
DICTIONARY
  5
45930
330
458D6
100
AcDbDictionary
280
     1
281
     1
  3
ACAD_LAYOUTSELFREF
360
45A8B
  0
DICTIONARY
  5
4592E
330
458D3
100
AcDbDictionary
280
     1
281
     1
  3
ACAD_LAYOUTSELFREF
360
45A8A
  0
DICTIONARY
  5
45ABF
102
{ACAD_REACTORS
330
458CB
102
}
330
458CB
100
AcDbDictionary
281
     1
  0
DICTIONARY
  5
458CC
102
{ACAD_REACTORS
330
458CB
102
}
330
458CB
100
AcDbDictionary
281
     1
  0
DICTIONARY
  5
458FB
102
{ACAD_REACTORS
330
458CB
102
}
330
458CB
100
AcDbDictionary
281
     1
  3
Layout1
350
458FE
  3
Model
350
458FD
  0
DICTIONARY
  5
45A95
102
{ACAD_REACTORS
330
458CB
102
}
330
458CB
100
AcDbDictionary
281
     1
  3
ByBlock
350
45A9E
  3
ByLayer
350
45A96
  3
Global
350
45AA6
  0
DICTIONARY
  5
45AE4
102
{ACAD_REACTORS
330
458CB
102
}
330
458CB
100
AcDbDictionary
281
     1
  3
Standard
350
45AE5
  0
DICTIONARY
  5
458D9
102
{ACAD_REACTORS
330
458CB
102
}
330
458CB
100
AcDbDictionary
281
     1
  3
STANDARD
350
458DA
  0
DICTIONARY
  5
458FC
102
{ACAD_REACTORS
330
458CB
102
}
330
458CB
100
AcDbDictionary
281
     1
  0
ACDBDICTIONARYWDFLT
  5
458F9
102
{ACAD_REACTORS
330
458CB
102
}
330
458CB
100
AcDbDictionary
281
     1
  3
Normal
350
458FA
100
AcDbDictionaryWithDefault
340
458FA
  0
DICTIONARY
  5
45AC2
102
{ACAD_REACTORS
330
458CB
102
}
330
458CB
100
AcDbDictionary
281
     1
  3
A0
350
45AC3
  3
A1
350
45AC4
  3
A2
350
45AC5
  3
A3
350
45AC6
  3
A4
350
45AC7
  3
A5
350
45AC8
  3
A6
350
45AC9
  3
A7
350
45ACA
  3
A8
350
45ACB
  3
A9
350
45ACC
  3
B0
350
45ACD
  3
B1
350
45ACE
  3
B2
350
45ACF
  3
B3
350
45AD0
  3
B4
350
45AD1
  3
B5
350
45AD2
  3
B6
350
45AD3
  3
B7
350
45AD4
  3
B8
350
45AD5
  3
B9
350
45AD6
  3
C0
350
45AD7
  3
C1
350
45AD8
  3
C2
350
45AD9
  3
C3
350
45ADA
  3
C4
350
45ADB
  3
C5
350
45ADC
  3
C6
350
45ADD
  3
C7
350
45ADE
  3
C8
350
45ADF
  3
C9
350
45AE0
  3
D0
350
45AE1
  3
D1
350
45AE2
  3
D2
350
45AE3
  0
DICTIONARY
  5
45AC0
102
{ACAD_REACTORS
330
458CB
102
}
330
458CB
100
AcDbDictionary
281
     1
  3
Standard
350
45AC1
  0
DICTIONARY
  5
45AAE
102
{ACAD_REACTORS
330
458CB
102
}
330
458CB
100
AcDbDictionary
281
     1
  3
2dWireframe
350
45AB4
  3
3D Hidden
350
45AB6
  3
3dWireframe
350
45AB5
  3
Basic
350
45AB3
  3
Brighten
350
45ABA
  3
ColorChange
350
45ABE
  3
Conceptual
350
45AB7
  3
Dim
350
45AB9
  3
Facepattern
350
45ABD
  3
Flat
350
45AAF
  3
FlatWithEdges
350
45AB0
  3
Gouraud
350
45AB1
  3
GouraudWithEdges
350
45AB2
  3
Linepattern
350
45ABC
  3
Realistic
350
45AB8
  3
Thicken
350
45ABB
  0
XRECORD
  5
45AF7
102
{ACAD_REACTORS
330
458CB
102
}
330
458CB
100
AcDbXrecord
280
     1
 90
        1
330
45AC1
  0
DICTIONARY
  5
458E1
102
{ACAD_REACTORS
330
458CB
102
}
330
458CB
100
AcDbDictionary
281
     1
  3
CANNOSCALE
350
45AFB
  3
CMLEADERSTYLE
350
45AF9
  3
CTABLESTYLE
350
45AF8
  3
DIMADEC
350
458E2
  3
LIGHTINGUNITS
350
45AFC
  3
MSLTSCALE
350
45AFA
  0
XRECORD
  5
45AEA
102
{ACAD_REACTORS
330
45AE9
102
}
330
45AE9
100
AcDbXrecord
280
     1
290
     1
  0
XRECORD
  5
45AEC
102
{ACAD_REACTORS
330
45AEB
102
}
330
45AEB
100
AcDbXrecord
280
     1
290
     1
  0
XRECORD
  5
45AEE
102
{ACAD_REACTORS
330
45AED
102
}
330
45AED
100
AcDbXrecord
280
     1
290
     1
  0
XRECORD
  5
45AF0
102
{ACAD_REACTORS
330
45AEF
102
}
330
45AEF
100
AcDbXrecord
280
     1
290
     1
  0
XRECORD
  5
45AF2
102
{ACAD_REACTORS
330
45AF1
102
}
330
45AF1
100
AcDbXrecord
280
     1
290
     1
  0
XRECORD
  5
45AF4
102
{ACAD_REACTORS
330
45AF3
102
}
330
45AF3
100
AcDbXrecord
280
     1
290
     1
  0
XRECORD
  5
45A8B
102
{ACAD_REACTORS
330
45930
102
}
330
45930
100
AcDbXrecord
280
     1
340
458D6
  0
XRECORD
  5
45A8A
102
{ACAD_REACTORS
330
4592E
102
}
330
4592E
100
AcDbXrecord
280
     1
340
458D3
  0
LAYOUT
  5
458FE
102
{ACAD_REACTORS
330
458FB
102
}
330
458FB
100
AcDbPlotSettings
  1

  2
HP LaserJet 5000 Series PCL 6
  4

  6

 40
0.0
 41
0.0
 42
0.0
 43
0.0
 44
0.0
 45
0.0
 46
0.0
 47
0.0
 48
0.0
 49
0.0
140
0.0
141
0.0
142
1.0
143
1.0
 70
   688
 72
     0
 73
     0
 74
     5
  7
Default R14 pen assignments.ctb
 75
    16
147
1.0
 76
     0
 77
     2
 78
   300
148
0.0
149
0.0
100
AcDbLayout
  1
Layout1
 70
     1
 71
     1
 10
0.0
 20
0.0
 11
12.0
 21
9.0
 12
0.0
 22
0.0
 32
0.0
 14
1.000000000000000E+20
 24
1.000000000000000E+20
 34
1.000000000000000E+20
 15
-1.000000000000000E+20
 25
-1.000000000000000E+20
 35
-1.000000000000000E+20
146
0.0
 13
0.0
 23
0.0
 33
0.0
 16
1.0
 26
0.0
 36
0.0
 17
0.0
 27
1.0
 37
0.0
 76
     0
330
458D3
  0
LAYOUT
  5
458FD
102
{ACAD_REACTORS
330
458FB
102
}
330
458FB
100
AcDbPlotSettings
  1

  2
HP LaserJet 5000 Series PCL 6
  4

  6

 40
0.0
 41
0.0
 42
0.0
 43
0.0
 44
0.0
 45
0.0
 46
0.0
 47
0.0
 48
0.0
 49
0.0
140
0.0
141
0.0
142
1.0
143
1.0
 70
  1712
 72
     0
 73
     0
 74
     0
  7
Default R14 pen assignments.ctb
 75
     0
147
1.0
 76
     0
 77
     2
 78
   300
148
0.0
149
0.0
100
AcDbLayout
  1
Model
 70
     1
 71
     0
 10
0.0
 20
0.0
 11
12.0
 21
9.0
 12
0.0
 22
0.0
 32
0.0
 14
0.0
 24
0.0
 34
0.0
 15
0.0
 25
0.0
 35
0.0
146
0.0
 13
0.0
 23
0.0
 33
0.0
 16
1.0
 26
0.0
 36
0.0
 17
0.0
 27
1.0
 37
0.0
 76
     0
330
458D6
331
45A64
  0
MATERIAL
  5
45A9E
102
{ACAD_XDICTIONARY
360
45A9F
102
}
102
{ACAD_REACTORS
330
45A95
102
}
330
45A95
100
AcDbMaterial
  1
ByBlock
 72
     0
 43
0.0208333333333333
 43
0.0
 43
0.0
 43
0.0
 43
0.0
 43
0.0208333333333333
 43
0.0
 43
0.0
 43
0.0
 43
0.0
 43
1.0
 43
0.0
 43
0.0
 43
0.0
 43
0.0
 43
1.0
 77
     0
 47
0.0208333333333333
 47
0.0
 47
0.0
 47
0.0
 47
0.0
 47
0.0208333333333333
 47
0.0
 47
0.0
 47
0.0
 47
0.0
 47
1.0
 47
0.0
 47
0.0
 47
0.0
 47
0.0
 47
1.0
171
     0
 49
0.0208333333333333
 49
0.0
 49
0.0
 49
0.0
 49
0.0
 49
0.0208333333333333
 49
0.0
 49
0.0
 49
0.0
 49
0.0
 49
1.0
 49
0.0
 49
0.0
 49
0.0
 49
0.0
 49
1.0
175
     0
142
0.0208333333333333
142
0.0
142
0.0
142
0.0
142
0.0
142
0.0208333333333333
142
0.0
142
0.0
142
0.0
142
0.0
142
1.0
142
0.0
142
0.0
142
0.0
142
0.0
142
1.0
179
     0
144
0.0208333333333333
144
0.0
144
0.0
144
0.0
144
0.0
144
0.0208333333333333
144
0.0
144
0.0
144
0.0
144
0.0
144
1.0
144
0.0
144
0.0
144
0.0
144
0.0
144
1.0
147
0.0208333333333333
147
0.0
147
0.0
147
0.0
147
0.0
147
0.0208333333333333
147
0.0
147
0.0
147
0.0
147
0.0
147
1.0
147
0.0
147
0.0
147
0.0
147
0.0
147
1.0
  0
MATERIAL
  5
45A96
102
{ACAD_XDICTIONARY
360
45A97
102
}
102
{ACAD_REACTORS
330
45A95
102
}
330
45A95
100
AcDbMaterial
  1
ByLayer
 72
     0
 43
0.0208333333333333
 43
0.0
 43
0.0
 43
0.0
 43
0.0
 43
0.0208333333333333
 43
0.0
 43
0.0
 43
0.0
 43
0.0
 43
1.0
 43
0.0
 43
0.0
 43
0.0
 43
0.0
 43
1.0
 77
     0
 47
0.0208333333333333
 47
0.0
 47
0.0
 47
0.0
 47
0.0
 47
0.0208333333333333
 47
0.0
 47
0.0
 47
0.0
 47
0.0
 47
1.0
 47
0.0
 47
0.0
 47
0.0
 47
0.0
 47
1.0
171
     0
 49
0.0208333333333333
 49
0.0
 49
0.0
 49
0.0
 49
0.0
 49
0.0208333333333333
 49
0.0
 49
0.0
 49
0.0
 49
0.0
 49
1.0
 49
0.0
 49
0.0
 49
0.0
 49
0.0
 49
1.0
175
     0
142
0.0208333333333333
142
0.0
142
0.0
142
0.0
142
0.0
142
0.0208333333333333
142
0.0
142
0.0
142
0.0
142
0.0
142
1.0
142
0.0
142
0.0
142
0.0
142
0.0
142
1.0
179
     0
144
0.0208333333333333
144
0.0
144
0.0
144
0.0
144
0.0
144
0.0208333333333333
144
0.0
144
0.0
144
0.0
144
0.0
144
1.0
144
0.0
144
0.0
144
0.0
144
0.0
144
1.0
147
0.0208333333333333
147
0.0
147
0.0
147
0.0
147
0.0
147
0.0208333333333333
147
0.0
147
0.0
147
0.0
147
0.0
147
1.0
147
0.0
147
0.0
147
0.0
147
0.0
147
1.0
  0
MATERIAL
  5
45AA6
102
{ACAD_XDICTIONARY
360
45AA7
102
}
102
{ACAD_REACTORS
330
45A95
102
}
330
45A95
100
AcDbMaterial
  1
Global
 72
     0
 43
0.0208333333333333
 43
0.0
 43
0.0
 43
0.0
 43
0.0
 43
0.0208333333333333
 43
0.0
 43
0.0
 43
0.0
 43
0.0
 43
1.0
 43
0.0
 43
0.0
 43
0.0
 43
0.0
 43
1.0
 77
     0
 47
0.0208333333333333
 47
0.0
 47
0.0
 47
0.0
 47
0.0
 47
0.0208333333333333
 47
0.0
 47
0.0
 47
0.0
 47
0.0
 47
1.0
 47
0.0
 47
0.0
 47
0.0
 47
0.0
 47
1.0
171
     0
 49
0.0208333333333333
 49
0.0
 49
0.0
 49
0.0
 49
0.0
 49
0.0208333333333333
 49
0.0
 49
0.0
 49
0.0
 49
0.0
 49
1.0
 49
0.0
 49
0.0
 49
0.0
 49
0.0
 49
1.0
175
     0
142
0.0208333333333333
142
0.0
142
0.0
142
0.0
142
0.0
142
0.0208333333333333
142
0.0
142
0.0
142
0.0
142
0.0
142
1.0
142
0.0
142
0.0
142
0.0
142
0.0
142
1.0
179
     0
144
0.0208333333333333
144
0.0
144
0.0
144
0.0
144
0.0
144
0.0208333333333333
144
0.0
144
0.0
144
0.0
144
0.0
144
1.0
144
0.0
144
0.0
144
0.0
144
0.0
144
1.0
147
0.0208333333333333
147
0.0
147
0.0
147
0.0
147
0.0
147
0.0208333333333333
147
0.0
147
0.0
147
0.0
147
0.0
147
1.0
147
0.0
147
0.0
147
0.0
147
0.0
147
1.0
  0
MLEADERSTYLE
  5
45AE5
102
{ACAD_REACTORS
330
45AE4
102
}
330
45AE4
100
AcDbMLeaderStyle
170
     2
171
     1
172
     0
 90
        2
 40
0.0
 41
0.0
173
     1
 91
-1056964608
340
458D0
 92
       -2
290
     1
 42
2.0
291
     1
 43
0.36
  3
Standard
 44
4.0
300

342
458CE
174
     1
178
     6
175
     1
176
     0
 93
-1056964608
 45
4.0
292
     0
297
     0
 46
4.0
 94
-1056964608
 47
1.0
 49
1.0
140
1.0
293
     1
141
0.0
294
     1
177
     0
142
1.0
295
     1
296
     0
143
0.125
1001
ACAD_MLEADERVER
1070
     2
  0
MLINESTYLE
  5
458DA
102
{ACAD_REACTORS
330
458D9
102
}
330
458D9
100
AcDbMlineStyle
  2
STANDARD
 70
     0
  3

 62
   256
 51
90.0
 52
90.0
 71
     2
 49
0.5
 62
   256
  6
BYLAYER
 49
-0.5
 62
   256
  6
BYLAYER
  0
ACDBPLACEHOLDER
  5
458FA
102
{ACAD_REACTORS
330
458F9
102
}
330
458F9
  0
SCALE
  5
45AC3
102
{ACAD_REACTORS
330
45AC2
102
}
330
45AC2
100
AcDbScale
 70
     0
300
1:1
140
1.0
141
1.0
290
     1
  0
SCALE
  5
45AC4
102
{ACAD_REACTORS
330
45AC2
102
}
330
45AC2
100
AcDbScale
 70
     0
300
1:2
140
1.0
141
2.0
290
     0
  0
SCALE
  5
45AC5
102
{ACAD_REACTORS
330
45AC2
102
}
330
45AC2
100
AcDbScale
 70
     0
300
1:4
140
1.0
141
4.0
290
     0
  0
SCALE
  5
45AC6
102
{ACAD_REACTORS
330
45AC2
102
}
330
45AC2
100
AcDbScale
 70
     0
300
1:5
140
1.0
141
5.0
290
     0
  0
SCALE
  5
45AC7
102
{ACAD_REACTORS
330
45AC2
102
}
330
45AC2
100
AcDbScale
 70
     0
300
1:8
140
1.0
141
8.0
290
     0
  0
SCALE
  5
45AC8
102
{ACAD_REACTORS
330
45AC2
102
}
330
45AC2
100
AcDbScale
 70
     0
300
1:10
140
1.0
141
10.0
290
     0
  0
SCALE
  5
45AC9
102
{ACAD_REACTORS
330
45AC2
102
}
330
45AC2
100
AcDbScale
 70
     0
300
1:16
140
1.0
141
16.0
290
     0
  0
SCALE
  5
45ACA
102
{ACAD_REACTORS
330
45AC2
102
}
330
45AC2
100
AcDbScale
 70
     0
300
1:20
140
1.0
141
20.0
290
     0
  0
SCALE
  5
45ACB
102
{ACAD_REACTORS
330
45AC2
102
}
330
45AC2
100
AcDbScale
 70
     0
300
1:30
140
1.0
141
30.0
290
     0
  0
SCALE
  5
45ACC
102
{ACAD_REACTORS
330
45AC2
102
}
330
45AC2
100
AcDbScale
 70
     0
300
1:40
140
1.0
141
40.0
290
     0
  0
SCALE
  5
45ACD
102
{ACAD_REACTORS
330
45AC2
102
}
330
45AC2
100
AcDbScale
 70
     0
300
1:50
140
1.0
141
50.0
290
     0
  0
SCALE
  5
45ACE
102
{ACAD_REACTORS
330
45AC2
102
}
330
45AC2
100
AcDbScale
 70
     0
300
1:100
140
1.0
141
100.0
290
     0
  0
SCALE
  5
45ACF
102
{ACAD_REACTORS
330
45AC2
102
}
330
45AC2
100
AcDbScale
 70
     0
300
2:1
140
2.0
141
1.0
290
     0
  0
SCALE
  5
45AD0
102
{ACAD_REACTORS
330
45AC2
102
}
330
45AC2
100
AcDbScale
 70
     0
300
4:1
140
4.0
141
1.0
290
     0
  0
SCALE
  5
45AD1
102
{ACAD_REACTORS
330
45AC2
102
}
330
45AC2
100
AcDbScale
 70
     0
300
8:1
140
8.0
141
1.0
290
     0
  0
SCALE
  5
45AD2
102
{ACAD_REACTORS
330
45AC2
102
}
330
45AC2
100
AcDbScale
 70
     0
300
10:1
140
10.0
141
1.0
290
     0
  0
SCALE
  5
45AD3
102
{ACAD_REACTORS
330
45AC2
102
}
330
45AC2
100
AcDbScale
 70
     0
300
100:1
140
100.0
141
1.0
290
     0
  0
SCALE
  5
45AD4
102
{ACAD_REACTORS
330
45AC2
102
}
330
45AC2
100
AcDbScale
 70
     0
300
1/128" = 1'-0"
140
0.0078125
141
12.0
290
     0
  0
SCALE
  5
45AD5
102
{ACAD_REACTORS
330
45AC2
102
}
330
45AC2
100
AcDbScale
 70
     0
300
1/64" = 1'-0"
140
0.015625
141
12.0
290
     0
  0
SCALE
  5
45AD6
102
{ACAD_REACTORS
330
45AC2
102
}
330
45AC2
100
AcDbScale
 70
     0
300
1/32" = 1'-0"
140
0.03125
141
12.0
290
     0
  0
SCALE
  5
45AD7
102
{ACAD_REACTORS
330
45AC2
102
}
330
45AC2
100
AcDbScale
 70
     0
300
1/16" = 1'-0"
140
0.0625
141
12.0
290
     0
  0
SCALE
  5
45AD8
102
{ACAD_REACTORS
330
45AC2
102
}
330
45AC2
100
AcDbScale
 70
     0
300
3/32" = 1'-0"
140
0.09375
141
12.0
290
     0
  0
SCALE
  5
45AD9
102
{ACAD_REACTORS
330
45AC2
102
}
330
45AC2
100
AcDbScale
 70
     0
300
1/8" = 1'-0"
140
0.125
141
12.0
290
     0
  0
SCALE
  5
45ADA
102
{ACAD_REACTORS
330
45AC2
102
}
330
45AC2
100
AcDbScale
 70
     0
300
3/16" = 1'-0"
140
0.1875
141
12.0
290
     0
  0
SCALE
  5
45ADB
102
{ACAD_REACTORS
330
45AC2
102
}
330
45AC2
100
AcDbScale
 70
     0
300
1/4" = 1'-0"
140
0.25
141
12.0
290
     0
  0
SCALE
  5
45ADC
102
{ACAD_REACTORS
330
45AC2
102
}
330
45AC2
100
AcDbScale
 70
     0
300
3/8" = 1'-0"
140
0.375
141
12.0
290
     0
  0
SCALE
  5
45ADD
102
{ACAD_REACTORS
330
45AC2
102
}
330
45AC2
100
AcDbScale
 70
     0
300
1/2" = 1'-0"
140
0.5
141
12.0
290
     0
  0
SCALE
  5
45ADE
102
{ACAD_REACTORS
330
45AC2
102
}
330
45AC2
100
AcDbScale
 70
     0
300
3/4" = 1'-0"
140
0.75
141
12.0
290
     0
  0
SCALE
  5
45ADF
102
{ACAD_REACTORS
330
45AC2
102
}
330
45AC2
100
AcDbScale
 70
     0
300
1" = 1'-0"
140
1.0
141
12.0
290
     0
  0
SCALE
  5
45AE0
102
{ACAD_REACTORS
330
45AC2
102
}
330
45AC2
100
AcDbScale
 70
     0
300
1-1/2" = 1'-0"
140
1.5
141
12.0
290
     0
  0
SCALE
  5
45AE1
102
{ACAD_REACTORS
330
45AC2
102
}
330
45AC2
100
AcDbScale
 70
     0
300
3" = 1'-0"
140
3.0
141
12.0
290
     0
  0
SCALE
  5
45AE2
102
{ACAD_REACTORS
330
45AC2
102
}
330
45AC2
100
AcDbScale
 70
     0
300
6" = 1'-0"
140
6.0
141
12.0
290
     0
  0
SCALE
  5
45AE3
102
{ACAD_REACTORS
330
45AC2
102
}
330
45AC2
100
AcDbScale
 70
     0
300
1'-0" = 1'-0"
140
12.0
141
12.0
290
     0
  0
TABLESTYLE
  5
45AC1
102
{ACAD_XDICTIONARY
360
45AF5
102
}
102
{ACAD_REACTORS
330
45AC0
102
}
330
45AC0
100
AcDbTableStyle
  3
Standard
 70
     0
 71
     0
 40
1.5
 41
1.5
280
     0
281
     0
  7
STANDARD
140
4.5
170
     2
 62
     0
 63
     7
283
     0
 90
      512
 91
        0
  1

274
    -2
284
     1
 64
     0
275
    -2
285
     1
 65
     0
276
    -2
286
     1
 66
     0
277
    -2
287
     1
 67
     0
278
    -2
288
     1
 68
     0
279
    -2
289
     1
 69
     0
  7
STANDARD
140
6.0
170
     5
 62
     0
 63
     7
283
     0
 90
      512
 91
        0
  1

274
    -2
284
     1
 64
     0
275
    -2
285
     1
 65
     0
276
    -2
286
     1
 66
     0
277
    -2
287
     1
 67
     0
278
    -2
288
     1
 68
     0
279
    -2
289
     1
 69
     0
  7
STANDARD
140
4.5
170
     5
 62
     0
 63
     7
283
     0
 90
      512
 91
        0
  1

274
    -2
284
     1
 64
     0
275
    -2
285
     1
 65
     0
276
    -2
286
     1
 66
     0
277
    -2
287
     1
 67
     0
278
    -2
288
     1
 68
     0
279
    -2
289
     1
 69
     0
  0
VISUALSTYLE
  5
45AB4
102
{ACAD_REACTORS
330
45AAE
102
}
330
45AAE
100
AcDbVisualStyle
  2
2dWireframe
 70
     4
 71
     0
 72
     2
 73
     0
 90
        0
 40
-0.6
 41
-30.0
 62
     5
 63
     7
421
 16777215
 74
     1
 91
        4
 64
     7
 65
   257
 75
     1
175
     1
 42
1.0
 92
        0
 66
   257
 43
1.0
 76
     1
 77
     6
 78
     2
 67
     7
 79
     5
170
     0
171
     0
290
     0
174
     0
 93
        1
 44
0.0
173
     0
291
     0
 45
0.0
  0
VISUALSTYLE
  5
45AB6
102
{ACAD_REACTORS
330
45AAE
102
}
330
45AAE
100
AcDbVisualStyle
  2
3D Hidden
 70
     6
 71
     1
 72
     2
 73
     2
 90
        0
 40
-0.6
 41
-30.0
 62
     5
 63
     7
421
 16777215
 74
     2
 91
        2
 64
     7
 65
   257
 75
     2
175
     1
 42
40.0
 92
        0
 66
   257
 43
1.0
 76
     1
 77
     6
 78
     2
 67
     7
 79
     3
170
     0
171
     0
290
     0
174
     0
 93
        1
 44
0.0
173
     0
291
     0
 45
0.0
  0
VISUALSTYLE
  5
45AB5
102
{ACAD_REACTORS
330
45AAE
102
}
330
45AAE
100
AcDbVisualStyle
  2
3dWireframe
 70
     5
 71
     0
 72
     2
 73
     0
 90
        0
 40
-0.6
 41
-30.0
 62
     5
 63
     7
421
 16777215
 74
     1
 91
        4
 64
     7
 65
   257
 75
     1
175
     1
 42
1.0
 92
        0
 66
   257
 43
1.0
 76
     1
 77
     6
 78
     2
 67
     7
 79
     5
170
     0
171
     0
290
     0
174
     0
 93
        1
 44
0.0
173
     0
291
     0
 45
0.0
  0
VISUALSTYLE
  5
45AB3
102
{ACAD_REACTORS
330
45AAE
102
}
330
45AAE
100
AcDbVisualStyle
  2
Basic
 70
     7
 71
     1
 72
     0
 73
     1
 90
        0
 40
-0.6
 41
-30.0
 62
     5
 63
     7
421
 16777215
 74
     0
 91
        4
 64
     7
 65
   257
 75
     1
175
     1
 42
1.0
 92
        8
 66
     7
 43
1.0
 76
     1
 77
     6
 78
     2
 67
     7
 79
     5
170
     0
171
     0
290
     0
174
     0
 93
        1
 44
0.0
173
     0
291
     1
 45
0.0
  0
VISUALSTYLE
  5
45ABA
102
{ACAD_REACTORS
330
45AAE
102
}
330
45AAE
100
AcDbVisualStyle
  2
Brighten
 70
    12
 71
     2
 72
     2
 73
     0
 90
        0
 40
-0.6
 41
-30.0
 62
     5
 63
     7
421
 16777215
 74
     1
 91
        4
 64
     7
 65
   257
 75
     1
175
     1
 42
1.0
 92
        8
 66
     7
 43
1.0
 76
     1
 77
     6
 78
     2
 67
     7
 79
     5
170
     0
171
     0
290
     0
174
     0
 93
        1
 44
50.0
173
     0
291
     1
 45
0.0
  0
VISUALSTYLE
  5
45ABE
102
{ACAD_REACTORS
330
45AAE
102
}
330
45AAE
100
AcDbVisualStyle
  2
ColorChange
 70
    16
 71
     2
 72
     2
 73
     3
 90
        0
 40
-0.6
 41
-30.0
 62
     5
 63
     8
421
  8421504
 74
     1
 91
        4
 64
     7
 65
   257
 75
     1
175
     1
 42
1.0
 92
        8
 66
     8
424
  8421504
 43
1.0
 76
     1
 77
     6
 78
     2
 67
     7
 79
     5
170
     0
171
     0
290
     0
174
     0
 93
        1
 44
0.0
173
     0
291
     1
 45
0.0
  0
VISUALSTYLE
  5
45AB7
102
{ACAD_REACTORS
330
45AAE
102
}
330
45AAE
100
AcDbVisualStyle
  2
Conceptual
 70
     9
 71
     3
 72
     2
 73
     0
 90
        0
 40
-0.6
 41
-30.0
 62
     5
 63
     7
421
 16777215
 74
     2
 91
        2
 64
     7
 65
   257
 75
     1
175
     1
 42
40.0
 92
        8
 66
     7
 43
1.0
 76
     1
 77
     6
 78
     2
 67
     7
 79
     3
170
     0
171
     0
290
     0
174
     0
 93
        1
 44
0.0
173
     0
291
     0
 45
0.0
  0
VISUALSTYLE
  5
45AB9
102
{ACAD_REACTORS
330
45AAE
102
}
330
45AAE
100
AcDbVisualStyle
  2
Dim
 70
    11
 71
     2
 72
     2
 73
     0
 90
        0
 40
-0.6
 41
-30.0
 62
     5
 63
     7
421
 16777215
 74
     1
 91
        4
 64
     7
 65
   257
 75
     1
175
     1
 42
1.0
 92
        8
 66
     7
 43
1.0
 76
     1
 77
     6
 78
     2
 67
     7
 79
     5
170
     0
171
     0
290
     0
174
     0
 93
        1
 44
-50.0
173
     0
291
     1
 45
0.0
  0
VISUALSTYLE
  5
45ABD
102
{ACAD_REACTORS
330
45AAE
102
}
330
45AAE
100
AcDbVisualStyle
  2
Facepattern
 70
    15
 71
     2
 72
     2
 73
     0
 90
        0
 40
-0.6
 41
-30.0
 62
     5
 63
     7
421
 16777215
 74
     1
 91
        4
 64
     7
 65
   257
 75
     1
175
     1
 42
1.0
 92
        8
 66
     7
 43
1.0
 76
     1
 77
     6
 78
     2
 67
     7
 79
     5
170
     0
171
     0
290
     0
174
     0
 93
        1
 44
0.0
173
     0
291
     1
 45
0.0
  0
VISUALSTYLE
  5
45AAF
102
{ACAD_REACTORS
330
45AAE
102
}
330
45AAE
100
AcDbVisualStyle
  2
Flat
 70
     0
 71
     2
 72
     1
 73
     1
 90
        2
 40
-0.6
 41
30.0
 62
     5
 63
     7
421
 16777215
 74
     0
 91
        4
 64
     7
 65
   257
 75
     1
175
     1
 42
1.0
 92
        8
 66
     7
 43
1.0
 76
     1
 77
     6
 78
     2
 67
     7
 79
     5
170
     0
171
     0
290
     0
174
     0
 93
       13
 44
0.0
173
     0
291
     1
 45
0.0
  0
VISUALSTYLE
  5
45AB0
102
{ACAD_REACTORS
330
45AAE
102
}
330
45AAE
100
AcDbVisualStyle
  2
FlatWithEdges
 70
     1
 71
     2
 72
     1
 73
     1
 90
        2
 40
-0.6
 41
30.0
 62
     5
 63
     7
421
 16777215
 74
     1
 91
        4
 64
     7
 65
   257
 75
     1
175
     1
 42
1.0
 92
        0
 66
   257
 43
1.0
 76
     1
 77
     6
 78
     2
 67
     7
 79
     5
170
     0
171
     0
290
     0
174
     0
 93
       13
 44
0.0
173
     0
291
     1
 45
0.0
  0
VISUALSTYLE
  5
45AB1
102
{ACAD_REACTORS
330
45AAE
102
}
330
45AAE
100
AcDbVisualStyle
  2
Gouraud
 70
     2
 71
     2
 72
     2
 73
     1
 90
        2
 40
-0.6
 41
30.0
 62
     5
 63
     7
421
 16777215
 74
     0
 91
        4
 64
     7
 65
   257
 75
     1
175
     1
 42
1.0
 92
        0
 66
     7
 43
1.0
 76
     1
 77
     6
 78
     2
 67
     7
 79
     5
170
     0
171
     0
290
     0
174
     0
 93
       13
 44
0.0
173
     0
291
     1
 45
0.0
  0
VISUALSTYLE
  5
45AB2
102
{ACAD_REACTORS
330
45AAE
102
}
330
45AAE
100
AcDbVisualStyle
  2
GouraudWithEdges
 70
     3
 71
     2
 72
     2
 73
     1
 90
        2
 40
-0.6
 41
30.0
 62
     5
 63
     7
421
 16777215
 74
     1
 91
        4
 64
     7
 65
   257
 75
     1
175
     1
 42
1.0
 92
        0
 66
   257
 43
1.0
 76
     1
 77
     6
 78
     2
 67
     7
 79
     5
170
     0
171
     0
290
     0
174
     0
 93
       13
 44
0.0
173
     0
291
     1
 45
0.0
  0
VISUALSTYLE
  5
45ABC
102
{ACAD_REACTORS
330
45AAE
102
}
330
45AAE
100
AcDbVisualStyle
  2
Linepattern
 70
    14
 71
     2
 72
     2
 73
     0
 90
        0
 40
-0.6
 41
-30.0
 62
     5
 63
     7
421
 16777215
 74
     1
 91
        4
 64
     7
 65
   257
 75
     7
175
     7
 42
1.0
 92
        8
 66
     7
 43
1.0
 76
     1
 77
     6
 78
     2
 67
     7
 79
     5
170
     0
171
     0
290
     0
174
     0
 93
        1
 44
0.0
173
     0
291
     1
 45
0.0
  0
VISUALSTYLE
  5
45AB8
102
{ACAD_REACTORS
330
45AAE
102
}
330
45AAE
100
AcDbVisualStyle
  2
Realistic
 70
     8
 71
     2
 72
     2
 73
     0
 90
        0
 40
-0.6
 41
-30.0
 62
     5
 63
     7
421
 16777215
 74
     1
 91
        0
 64
     7
 65
   257
 75
     1
175
     1
 42
1.0
 92
        8
 66
     8
424
  7895160
 43
1.0
 76
     1
 77
     6
 78
     2
 67
     7
 79
     5
170
     0
171
     0
290
     0
174
     0
 93
       13
 44
0.0
173
     0
291
     0
 45
0.0
  0
VISUALSTYLE
  5
45ABB
102
{ACAD_REACTORS
330
45AAE
102
}
330
45AAE
100
AcDbVisualStyle
  2
Thicken
 70
    13
 71
     2
 72
     2
 73
     0
 90
        0
 40
-0.6
 41
-30.0
 62
     5
 63
     7
421
 16777215
 74
     1
 91
        4
 64
     7
 65
   257
 75
     1
175
     1
 42
1.0
 92
       12
 66
     7
 43
1.0
 76
     1
 77
     6
 78
     2
 67
     7
 79
     5
170
     0
171
     0
290
     0
174
     0
 93
        1
 44
0.0
173
     0
291
     1
 45
0.0
  0
DICTIONARYVAR
  5
45AFB
102
{ACAD_REACTORS
330
458E1
102
}
330
458E1
100
DictionaryVariables
280
     0
  1
1:1
  0
DICTIONARYVAR
  5
45AF9
102
{ACAD_REACTORS
330
458E1
102
}
330
458E1
100
DictionaryVariables
280
     0
  1
STANDARD
  0
DICTIONARYVAR
  5
45AF8
102
{ACAD_REACTORS
330
458E1
102
}
330
458E1
100
DictionaryVariables
280
     0
  1
STANDARD
  0
DICTIONARYVAR
  5
458E2
102
{ACAD_REACTORS
330
458E1
102
}
330
458E1
100
DictionaryVariables
280
     0
  1
0
  0
DICTIONARYVAR
  5
45AFC
102
{ACAD_REACTORS
330
458E1
102
}
330
458E1
100
DictionaryVariables
280
     0
  1
0
  0
DICTIONARYVAR
  5
45AFA
102
{ACAD_REACTORS
330
458E1
102
}
330
458E1
100
DictionaryVariables
280
     0
  1
0
  0
DICTIONARY
  5
45A9F
330
45A9E
100
AcDbDictionary
280
     1
281
     1
  3
BUMPTILE
360
45AA1
  3
DIFFUSETILE
360
45AA0
  3
OPACITYTILE
360
45AA4
  3
REFLECTIONTILE
360
45AA3
  3
REFRACTIONTILE
360
45AA5
  3
SPECULARTILE
360
45AA2
  0
DICTIONARY
  5
45A97
330
45A96
100
AcDbDictionary
280
     1
281
     1
  3
BUMPTILE
360
45A99
  3
DIFFUSETILE
360
45A98
  3
OPACITYTILE
360
45A9C
  3
REFLECTIONTILE
360
45A9B
  3
REFRACTIONTILE
360
45A9D
  3
SPECULARTILE
360
45A9A
  0
DICTIONARY
  5
45AA7
330
45AA6
100
AcDbDictionary
280
     1
281
     1
  3
BUMPTILE
360
45AA9
  3
DIFFUSETILE
360
45AA8
  3
OPACITYTILE
360
45AAC
  3
REFLECTIONTILE
360
45AAB
  3
REFRACTIONTILE
360
45AAD
  3
SPECULARTILE
360
45AAA
  0
DICTIONARY
  5
45AF5
330
45AC1
100
AcDbDictionary
280
     1
281
     1
  3
ACAD_ROUNDTRIP_2008_TABLESTYLE_CELLSTYLEMAP
360
45B01
  0
XRECORD
  5
45AA1
102
{ACAD_REACTORS
330
45A9F
102
}
330
45A9F
100
AcDbXrecord
280
     1
270
     1
271
     1
  0
XRECORD
  5
45AA0
102
{ACAD_REACTORS
330
45A9F
102
}
330
45A9F
100
AcDbXrecord
280
     1
270
     1
271
     1
  0
XRECORD
  5
45AA4
102
{ACAD_REACTORS
330
45A9F
102
}
330
45A9F
100
AcDbXrecord
280
     1
270
     1
271
     1
  0
XRECORD
  5
45AA3
102
{ACAD_REACTORS
330
45A9F
102
}
330
45A9F
100
AcDbXrecord
280
     1
270
     1
271
     1
  0
XRECORD
  5
45AA5
102
{ACAD_REACTORS
330
45A9F
102
}
330
45A9F
100
AcDbXrecord
280
     1
270
     1
271
     1
  0
XRECORD
  5
45AA2
102
{ACAD_REACTORS
330
45A9F
102
}
330
45A9F
100
AcDbXrecord
280
     1
270
     1
271
     1
  0
XRECORD
  5
45A99
102
{ACAD_REACTORS
330
45A97
102
}
330
45A97
100
AcDbXrecord
280
     1
270
     1
271
     1
  0
XRECORD
  5
45A98
102
{ACAD_REACTORS
330
45A97
102
}
330
45A97
100
AcDbXrecord
280
     1
270
     1
271
     1
  0
XRECORD
  5
45A9C
102
{ACAD_REACTORS
330
45A97
102
}
330
45A97
100
AcDbXrecord
280
     1
270
     1
271
     1
  0
XRECORD
  5
45A9B
102
{ACAD_REACTORS
330
45A97
102
}
330
45A97
100
AcDbXrecord
280
     1
270
     1
271
     1
  0
XRECORD
  5
45A9D
102
{ACAD_REACTORS
330
45A97
102
}
330
45A97
100
AcDbXrecord
280
     1
270
     1
271
     1
  0
XRECORD
  5
45A9A
102
{ACAD_REACTORS
330
45A97
102
}
330
45A97
100
AcDbXrecord
280
     1
270
     1
271
     1
  0
XRECORD
  5
45AA9
102
{ACAD_REACTORS
330
45AA7
102
}
330
45AA7
100
AcDbXrecord
280
     1
270
     1
271
     1
  0
XRECORD
  5
45AA8
102
{ACAD_REACTORS
330
45AA7
102
}
330
45AA7
100
AcDbXrecord
280
     1
270
     1
271
     1
  0
XRECORD
  5
45AAC
102
{ACAD_REACTORS
330
45AA7
102
}
330
45AA7
100
AcDbXrecord
280
     1
270
     1
271
     1
  0
XRECORD
  5
45AAB
102
{ACAD_REACTORS
330
45AA7
102
}
330
45AA7
100
AcDbXrecord
280
     1
270
     1
271
     1
  0
XRECORD
  5
45AAD
102
{ACAD_REACTORS
330
45AA7
102
}
330
45AA7
100
AcDbXrecord
280
     1
270
     1
271
     1
  0
XRECORD
  5
45AAA
102
{ACAD_REACTORS
330
45AA7
102
}
330
45AA7
100
AcDbXrecord
280
     1
270
     1
271
     1
  0
CELLSTYLEMAP
  5
45B01
102
{ACAD_REACTORS
330
45AF5
102
}
330
45AF5
100
AcDbCellStyleMap
 90
        3
300
CELLSTYLE
  1
TABLEFORMAT_BEGIN
 90
        5
170
     1
 91
        0
 92
    32768
 62
   257
 93
        1
300
CONTENTFORMAT
  1
CONTENTFORMAT_BEGIN
 90
        0
 91
        0
 92
      512
 93
        0
300

 40
0.0
140
1.0
 94
        5
 62
     0
340
458CE
144
6.0
309
CONTENTFORMAT_END
171
     1
301
MARGIN
  1
CELLMARGIN_BEGIN
 40
1.5
 40
1.5
 40
1.5
 40
1.5
 40
4.5
 40
4.5
309
CELLMARGIN_END
 94
        6
 95
        1
302
GRIDFORMAT
  1
GRIDFORMAT_BEGIN
 90
        0
 91
        1
 62
     0
 92
       -2
340
0
 93
        0
 40
1.125
309
GRIDFORMAT_END
 95
        2
302
GRIDFORMAT
  1
GRIDFORMAT_BEGIN
 90
        0
 91
        1
 62
     0
 92
       -2
340
0
 93
        0
 40
1.125
309
GRIDFORMAT_END
 95
        4
302
GRIDFORMAT
  1
GRIDFORMAT_BEGIN
 90
        0
 91
        1
 62
     0
 92
       -2
340
0
 93
        0
 40
1.125
309
GRIDFORMAT_END
 95
        8
302
GRIDFORMAT
  1
GRIDFORMAT_BEGIN
 90
        0
 91
        1
 62
     0
 92
       -2
340
0
 93
        0
 40
1.125
309
GRIDFORMAT_END
 95
       16
302
GRIDFORMAT
  1
GRIDFORMAT_BEGIN
 90
        0
 91
        1
 62
     0
 92
       -2
340
0
 93
        0
 40
1.125
309
GRIDFORMAT_END
 95
       32
302
GRIDFORMAT
  1
GRIDFORMAT_BEGIN
 90
        0
 91
        1
 62
     0
 92
       -2
340
0
 93
        0
 40
1.125
309
GRIDFORMAT_END
309
TABLEFORMAT_END
  1
CELLSTYLE_BEGIN
 90
        1
 91
        1
300
_TITLE
309
CELLSTYLE_END
300
CELLSTYLE
  1
TABLEFORMAT_BEGIN
 90
        5
170
     1
 91
        0
 92
        0
 62
   257
 93
        1
300
CONTENTFORMAT
  1
CONTENTFORMAT_BEGIN
 90
        0
 91
        0
 92
      512
 93
        0
300

 40
0.0
140
1.0
 94
        5
 62
     0
340
458CE
144
4.5
309
CONTENTFORMAT_END
171
     1
301
MARGIN
  1
CELLMARGIN_BEGIN
 40
1.5
 40
1.5
 40
1.5
 40
1.5
 40
4.5
 40
4.5
309
CELLMARGIN_END
 94
        6
 95
        1
302
GRIDFORMAT
  1
GRIDFORMAT_BEGIN
 90
        0
 91
        1
 62
     0
 92
       -2
340
0
 93
        0
 40
1.125
309
GRIDFORMAT_END
 95
        2
302
GRIDFORMAT
  1
GRIDFORMAT_BEGIN
 90
        0
 91
        1
 62
     0
 92
       -2
340
0
 93
        0
 40
1.125
309
GRIDFORMAT_END
 95
        4
302
GRIDFORMAT
  1
GRIDFORMAT_BEGIN
 90
        0
 91
        1
 62
     0
 92
       -2
340
0
 93
        0
 40
1.125
309
GRIDFORMAT_END
 95
        8
302
GRIDFORMAT
  1
GRIDFORMAT_BEGIN
 90
        0
 91
        1
 62
     0
 92
       -2
340
0
 93
        0
 40
1.125
309
GRIDFORMAT_END
 95
       16
302
GRIDFORMAT
  1
GRIDFORMAT_BEGIN
 90
        0
 91
        1
 62
     0
 92
       -2
340
0
 93
        0
 40
1.125
309
GRIDFORMAT_END
 95
       32
302
GRIDFORMAT
  1
GRIDFORMAT_BEGIN
 90
        0
 91
        1
 62
     0
 92
       -2
340
0
 93
        0
 40
1.125
309
GRIDFORMAT_END
309
TABLEFORMAT_END
  1
CELLSTYLE_BEGIN
 90
        2
 91
        1
300
_HEADER
309
CELLSTYLE_END
300
CELLSTYLE
  1
TABLEFORMAT_BEGIN
 90
        5
170
     1
 91
        0
 92
        0
 62
   257
 93
        1
300
CONTENTFORMAT
  1
CONTENTFORMAT_BEGIN
 90
        0
 91
        0
 92
      512
 93
        0
300

 40
0.0
140
1.0
 94
        2
 62
     0
340
458CE
144
4.5
309
CONTENTFORMAT_END
171
     1
301
MARGIN
  1
CELLMARGIN_BEGIN
 40
1.5
 40
1.5
 40
1.5
 40
1.5
 40
4.5
 40
4.5
309
CELLMARGIN_END
 94
        6
 95
        1
302
GRIDFORMAT
  1
GRIDFORMAT_BEGIN
 90
        0
 91
        1
 62
     0
 92
       -2
340
0
 93
        0
 40
1.125
309
GRIDFORMAT_END
 95
        2
302
GRIDFORMAT
  1
GRIDFORMAT_BEGIN
 90
        0
 91
        1
 62
     0
 92
       -2
340
0
 93
        0
 40
1.125
309
GRIDFORMAT_END
 95
        4
302
GRIDFORMAT
  1
GRIDFORMAT_BEGIN
 90
        0
 91
        1
 62
     0
 92
       -2
340
0
 93
        0
 40
1.125
309
GRIDFORMAT_END
 95
        8
302
GRIDFORMAT
  1
GRIDFORMAT_BEGIN
 90
        0
 91
        1
 62
     0
 92
       -2
340
0
 93
        0
 40
1.125
309
GRIDFORMAT_END
 95
       16
302
GRIDFORMAT
  1
GRIDFORMAT_BEGIN
 90
        0
 91
        1
 62
     0
 92
       -2
340
0
 93
        0
 40
1.125
309
GRIDFORMAT_END
 95
       32
302
GRIDFORMAT
  1
GRIDFORMAT_BEGIN
 90
        0
 91
        1
 62
     0
 92
       -2
340
0
 93
        0
 40
1.125
309
GRIDFORMAT_END
309
TABLEFORMAT_END
  1
CELLSTYLE_BEGIN
 90
        3
 91
        2
300
_DATA
309
CELLSTYLE_END
  0
ENDSEC
  0
EOF
