  0
SECTION
  2
HEADER
  9
$ACADVER
  1
AC1018
  9
$ACADMAINTVER
 70
   104
  9
$DWGCODEPAGE
  3
ANSI_1252
  9
$LASTSAVEDBY
  1
mburright
  9
$INSBASE
 10
0.0
 20
0.0
 30
0.0
  9
$EXTMIN
 10
-80.53752584511149
 20
-154.876223170687
 30
0.0
  9
$EXTMAX
 10
131.3813008943155
 20
186.316783642058
 30
0.0
  9
$LIMMIN
 10
0.0
 20
0.0
  9
$LIMMAX
 10
12.0
 20
9.0
  9
$ORTHOMODE
 70
     0
  9
$REGENMODE
 70
     1
  9
$FILLMODE
 70
     1
  9
$QTEXTMODE
 70
     0
  9
$MIRRTEXT
 70
     0
  9
$LTSCALE
 40
1.0
  9
$ATTMODE
 70
     1
  9
$TEXTSIZE
 40
0.2
  9
$TRACEWID
 40
0.05
  9
$TEXTSTYLE
  7
Standard
  9
$CLAYER
  8
0
  9
$CELTYPE
  6
ByLayer
  9
$CECOLOR
 62
   256
  9
$CELTSCALE
 40
1.0
  9
$DISPSILH
 70
     0
  9
$DIMSCALE
 40
1.0
  9
$DIMASZ
 40
0.18
  9
$DIMEXO
 40
0.0625
  9
$DIMDLI
 40
0.38
  9
$DIMRND
 40
0.0
  9
$DIMDLE
 40
0.0
  9
$DIMEXE
 40
0.18
  9
$DIMTP
 40
0.0
  9
$DIMTM
 40
0.0
  9
$DIMTXT
 40
0.18
  9
$DIMCEN
 40
0.09
  9
$DIMTSZ
 40
0.0
  9
$DIMTOL
 70
     0
  9
$DIMLIM
 70
     0
  9
$DIMTIH
 70
     1
  9
$DIMTOH
 70
     1
  9
$DIMSE1
 70
     0
  9
$DIMSE2
 70
     0
  9
$DIMTAD
 70
     0
  9
$DIMZIN
 70
     0
  9
$DIMBLK
  1

  9
$DIMASO
 70
     1
  9
$DIMSHO
 70
     1
  9
$DIMPOST
  1

  9
$DIMAPOST
  1

  9
$DIMALT
 70
     0
  9
$DIMALTD
 70
     2
  9
$DIMALTF
 40
25.4
  9
$DIMLFAC
 40
1.0
  9
$DIMTOFL
 70
     0
  9
$DIMTVP
 40
0.0
  9
$DIMTIX
 70
     0
  9
$DIMSOXD
 70
     0
  9
$DIMSAH
 70
     0
  9
$DIMBLK1
  1

  9
$DIMBLK2
  1

  9
$DIMSTYLE
  2
Standard
  9
$DIMCLRD
 70
     0
  9
$DIMCLRE
 70
     0
  9
$DIMCLRT
 70
     0
  9
$DIMTFAC
 40
1.0
  9
$DIMGAP
 40
0.09
  9
$DIMJUST
 70
     0
  9
$DIMSD1
 70
     0
  9
$DIMSD2
 70
     0
  9
$DIMTOLJ
 70
     1
  9
$DIMTZIN
 70
     0
  9
$DIMALTZ
 70
     0
  9
$DIMALTTZ
 70
     0
  9
$DIMUPT
 70
     0
  9
$DIMDEC
 70
     4
  9
$DIMTDEC
 70
     4
  9
$DIMALTU
 70
     2
  9
$DIMALTTD
 70
     2
  9
$DIMTXSTY
  7
Standard
  9
$DIMAUNIT
 70
     0
  9
$DIMADEC
 70
     0
  9
$DIMALTRND
 40
0.0
  9
$DIMAZIN
 70
     0
  9
$DIMDSEP
 70
    46
  9
$DIMATFIT
 70
     3
  9
$DIMFRAC
 70
     0
  9
$DIMLDRBLK
  1

  9
$DIMLUNIT
 70
     2
  9
$DIMLWD
 70
    -2
  9
$DIMLWE
 70
    -2
  9
$DIMTMOVE
 70
     0
  9
$LUNITS
 70
     2
  9
$LUPREC
 70
     4
  9
$SKETCHINC
 40
0.1
  9
$FILLETRAD
 40
0.0
  9
$AUNITS
 70
     0
  9
$AUPREC
 70
     0
  9
$MENU
  1
.
  9
$ELEVATION
 40
0.0
  9
$PELEVATION
 40
0.0
  9
$THICKNESS
 40
0.0
  9
$LIMCHECK
 70
     0
  9
$CHAMFERA
 40
0.0
  9
$CHAMFERB
 40
0.0
  9
$CHAMFERC
 40
0.0
  9
$CHAMFERD
 40
0.0
  9
$SKPOLY
 70
     0
  9
$TDCREATE
 40
2455623.641689155
  9
$TDUCREATE
 40
2455623.891689155
  9
$TDUPDATE
 40
2455623.674134051
  9
$TDUUPDATE
 40
2455623.924134051
  9
$TDINDWG
 40
0.0044783796
  9
$TDUSRTIMER
 40
0.0044781944
  9
$USRTIMER
 70
     1
  9
$ANGBASE
 50
0.0
  9
$ANGDIR
 70
     0
  9
$PDMODE
 70
     0
  9
$PDSIZE
 40
0.0
  9
$PLINEWID
 40
0.0
  9
$SPLFRAME
 70
     0
  9
$SPLINETYPE
 70
     6
  9
$SPLINESEGS
 70
     8
  9
$HANDSEED
  5
646
  9
$SURFTAB1
 70
     6
  9
$SURFTAB2
 70
     6
  9
$SURFTYPE
 70
     6
  9
$SURFU
 70
     6
  9
$SURFV
 70
     6
  9
$UCSBASE
  2

  9
$UCSNAME
  2

  9
$UCSORG
 10
0.0
 20
0.0
 30
0.0
  9
$UCSXDIR
 10
1.0
 20
0.0
 30
0.0
  9
$UCSYDIR
 10
0.0
 20
1.0
 30
0.0
  9
$UCSORTHOREF
  2

  9
$UCSORTHOVIEW
 70
     0
  9
$UCSORGTOP
 10
0.0
 20
0.0
 30
0.0
  9
$UCSORGBOTTOM
 10
0.0
 20
0.0
 30
0.0
  9
$UCSORGLEFT
 10
0.0
 20
0.0
 30
0.0
  9
$UCSORGRIGHT
 10
0.0
 20
0.0
 30
0.0
  9
$UCSORGFRONT
 10
0.0
 20
0.0
 30
0.0
  9
$UCSORGBACK
 10
0.0
 20
0.0
 30
0.0
  9
$PUCSBASE
  2

  9
$PUCSNAME
  2

  9
$PUCSORG
 10
0.0
 20
0.0
 30
0.0
  9
$PUCSXDIR
 10
1.0
 20
0.0
 30
0.0
  9
$PUCSYDIR
 10
0.0
 20
1.0
 30
0.0
  9
$PUCSORTHOREF
  2

  9
$PUCSORTHOVIEW
 70
     0
  9
$PUCSORGTOP
 10
0.0
 20
0.0
 30
0.0
  9
$PUCSORGBOTTOM
 10
0.0
 20
0.0
 30
0.0
  9
$PUCSORGLEFT
 10
0.0
 20
0.0
 30
0.0
  9
$PUCSORGRIGHT
 10
0.0
 20
0.0
 30
0.0
  9
$PUCSORGFRONT
 10
0.0
 20
0.0
 30
0.0
  9
$PUCSORGBACK
 10
0.0
 20
0.0
 30
0.0
  9
$USERI1
 70
     0
  9
$USERI2
 70
     0
  9
$USERI3
 70
     0
  9
$USERI4
 70
     0
  9
$USERI5
 70
     0
  9
$USERR1
 40
0.0
  9
$USERR2
 40
0.0
  9
$USERR3
 40
0.0
  9
$USERR4
 40
0.0
  9
$USERR5
 40
0.0
  9
$WORLDVIEW
 70
     1
  9
$SHADEDGE
 70
     3
  9
$SHADEDIF
 70
    70
  9
$TILEMODE
 70
     1
  9
$MAXACTVP
 70
    64
  9
$PINSBASE
 10
0.0
 20
0.0
 30
0.0
  9
$PLIMCHECK
 70
     0
  9
$PEXTMIN
 10
0.0
 20
0.0
 30
0.0
  9
$PEXTMAX
 10
0.0
 20
0.0
 30
0.0
  9
$PLIMMIN
 10
0.0
 20
0.0
  9
$PLIMMAX
 10
12.0
 20
9.0
  9
$UNITMODE
 70
     0
  9
$VISRETAIN
 70
     1
  9
$PLINEGEN
 70
     0
  9
$PSLTSCALE
 70
     1
  9
$TREEDEPTH
 70
  3020
  9
$CMLSTYLE
  2
Standard
  9
$CMLJUST
 70
     0
  9
$CMLSCALE
 40
1.0
  9
$PROXYGRAPHICS
 70
     1
  9
$MEASUREMENT
 70
     0
  9
$CELWEIGHT
370
    -1
  9
$ENDCAPS
280
     0
  9
$JOINSTYLE
280
     0
  9
$LWDISPLAY
290
     0
  9
$INSUNITS
 70
     1
  9
$HYPERLINKBASE
  1

  9
$STYLESHEET
  1

  9
$XEDIT
290
     1
  9
$CEPSNTYPE
380
     0
  9
$PSTYLEMODE
290
     1
  9
$FINGERPRINTGUID
  2
{335E6064-5E3C-4AE8-B4D8-93A34A113F41}
  9
$VERSIONGUID
  2
{44D9AAEB-7822-462A-9293-C916BCA72ABB}
  9
$EXTNAMES
290
     1
  9
$PSVPSCALE
 40
0.0
  9
$OLESTARTUP
290
     0
  9
$SORTENTS
280
   127
  9
$INDEXCTL
280
     0
  9
$HIDETEXT
280
     1
  9
$XCLIPFRAME
290
     0
  9
$HALOGAP
280
     0
  9
$OBSCOLOR
 70
   257
  9
$OBSLTYPE
280
     0
  9
$INTERSECTIONDISPLAY
280
     0
  9
$INTERSECTIONCOLOR
 70
   257
  9
$DIMASSOC
280
     2
  9
$PROJECTNAME
  1

  0
ENDSEC
  0
SECTION
  2
CLASSES
  0
CLASS
  1
ACDBDICTIONARYWDFLT
  2
AcDbDictionaryWithDefault
  3
ObjectDBX Classes
 90
        0
 91
        1
280
     0
281
     0
  0
CLASS
  1
DICTIONARYVAR
  2
AcDbDictionaryVar
  3
ObjectDBX Classes
 90
        0
 91
       11
280
     0
281
     0
  0
CLASS
  1
TABLESTYLE
  2
AcDbTableStyle
  3
ObjectDBX Classes
 90
     4095
 91
        1
280
     0
281
     0
  0
CLASS
  1
MATERIAL
  2
AcDbMaterial
  3
ObjectDBX Classes
 90
     1153
 91
        3
280
     0
281
     0
  0
CLASS
  1
VISUALSTYLE
  2
AcDbVisualStyle
  3
ObjectDBX Classes
 90
     4095
 91
       19
280
     0
281
     0
  0
CLASS
  1
SCALE
  2
AcDbScale
  3
ObjectDBX Classes
 90
     1153
 91
       33
280
     0
281
     0
  0
CLASS
  1
MLEADERSTYLE
  2
AcDbMLeaderStyle
  3
ACDB_MLEADERSTYLE_CLASS
 90
     4095
 91
        2
280
     0
281
     0
  0
CLASS
  1
CELLSTYLEMAP
  2
AcDbCellStyleMap
  3
ObjectDBX Classes
 90
     1152
 91
        2
280
     0
281
     0
  0
CLASS
  1
EXACXREFPANELOBJECT
  2
ExAcXREFPanelObject
  3
EXAC_ESW
 90
     1025
 91
        1
280
     0
281
     0
  0
CLASS
  1
NPOCOLLECTION
  2
AcDbImpNonPersistentObjectsCollection
  3
ObjectDBX Classes
 90
     1153
 91
        1
280
     0
281
     0
  0
CLASS
  1
LAYER_INDEX
  2
AcDbLayerIndex
  3
ObjectDBX Classes
 90
        0
 91
        0
280
     0
281
     0
  0
CLASS
  1
SPATIAL_INDEX
  2
AcDbSpatialIndex
  3
ObjectDBX Classes
 90
        0
 91
        0
280
     0
281
     0
  0
CLASS
  1
IDBUFFER
  2
AcDbIdBuffer
  3
ObjectDBX Classes
 90
        0
 91
        0
280
     0
281
     0
  0
CLASS
  1
ACAD_EVALUATION_GRAPH
  2
AcDbEvalGraph
  3
ObjectDBX Classes
 90
     1153
 91
        0
280
     0
281
     0
  0
CLASS
  1
ACAECUSTOBJ
  2
AcAeEditorObj
  3
AcAeEditorObj
 90
     1024
 91
        0
280
     0
281
     0
  0
CLASS
  1
ACDB_DYNAMICBLOCKPURGEPREVENTER_VERSION
  2
AcDbDynamicBlockPurgePreventer
  3
ObjectDBX Classes
 90
     1153
 91
        0
280
     0
281
     0
  0
CLASS
  1
DIMASSOC
  2
AcDbDimAssoc
  3
"AcDbDimAssoc|Product Desc:     AcDim ARX App For Dimension|Company:          Autodesk, Inc.|WEB Address:      www.autodesk.com"
 90
        0
 91
        1
280
     0
281
     0
  0
ENDSEC
  0
SECTION
  2
TABLES
  0
TABLE
  2
VPORT
  5
8
102
{ACAD_XDICTIONARY
360
5AE
102
}
330
0
100
AcDbSymbolTable
 70
     1
  0
VPORT
  5
94
330
8
100
AcDbSymbolTableRecord
100
AcDbViewportTableRecord
  2
*Active
 70
     0
 10
0.0
 20
0.0
 11
1.0
 21
1.0
 12
25.42346204261247
 22
15.72200449712196
 13
0.0
 23
0.0
 14
0.5
 24
0.5
 15
0.5
 25
0.5
 16
0.0
 26
0.0
 36
1.0
 17
0.0
 27
0.0
 37
0.0
 40
343.7537148180339
 41
1.524813895781637
 42
50.0
 43
0.0
 44
0.0
 50
0.0
 51
0.0
 71
     0
 72
  1000
 73
     1
 74
     3
 75
     0
 76
     0
 77
     0
 78
     0
281
     0
 65
     1
110
0.0
120
0.0
130
0.0
111
1.0
121
0.0
131
0.0
112
0.0
122
1.0
132
0.0
 79
     0
146
0.0
  0
ENDTAB
  0
TABLE
  2
LTYPE
  5
5
330
0
100
AcDbSymbolTable
 70
     6
  0
LTYPE
  5
14
330
5
100
AcDbSymbolTableRecord
100
AcDbLinetypeTableRecord
  2
ByBlock
 70
     0
  3

 72
    65
 73
     0
 40
0.0
  0
LTYPE
  5
15
330
5
100
AcDbSymbolTableRecord
100
AcDbLinetypeTableRecord
  2
ByLayer
 70
     0
  3

 72
    65
 73
     0
 40
0.0
  0
LTYPE
  5
16
330
5
100
AcDbSymbolTableRecord
100
AcDbLinetypeTableRecord
  2
Continuous
 70
     0
  3
Solid line
 72
    65
 73
     0
 40
0.0
  0
LTYPE
  5
35F
330
5
100
AcDbSymbolTableRecord
100
AcDbLinetypeTableRecord
  2
GESTRICHELT2
 70
     0
  3
_ _ _ _ _ _ _ _ _ _ _ _ _ _ _ _ _ _ _ _ _ _ _ _
 72
    65
 73
     2
 40
0.375
 49
0.25
 74
     0
 49
-0.125
 74
     0
  0
LTYPE
  5
360
330
5
100
AcDbSymbolTableRecord
100
AcDbLinetypeTableRecord
  2
MITTE2
 70
     0
  3
Mitte (.5x) ___ _ ___ _ ___ _ ___ _ ___ _ ___
 72
    65
 73
     4
 40
1.125
 49
0.75
 74
     0
 49
-0.125
 74
     0
 49
0.125
 74
     0
 49
-0.125
 74
     0
  0
LTYPE
  5
361
330
5
100
AcDbSymbolTableRecord
100
AcDbLinetypeTableRecord
  2
VERDECKT
 70
     0
  3
__ __ __ __ __ __ __ __ __ __ __ __ __ __ __ __
 72
    65
 73
     2
 40
0.375
 49
0.25
 74
     0
 49
-0.125
 74
     0
  0
LTYPE
  5
362
330
5
100
AcDbSymbolTableRecord
100
AcDbLinetypeTableRecord
  2
STRICHLINIE
 70
     0
  3
Strichlinie __ __ __ __ __ __ __ __ __ __ __ __
 72
    65
 73
     2
 40
0.75
 49
0.5
 74
     0
 49
-0.25
 74
     0
  0
LTYPE
  5
363
330
5
100
AcDbSymbolTableRecord
100
AcDbLinetypeTableRecord
  2
CENTER2
 70
     0
  3
___ _ ___ _ ___ _ ___ _ ___ _ ___ _ ___ _ ___ _
 72
    65
 73
     4
 40
1.125
 49
0.75
 74
     0
 49
-0.125
 74
     0
 49
0.125
 74
     0
 49
-0.125
 74
     0
  0
ENDTAB
  0
TABLE
  2
LAYER
  5
2
330
0
100
AcDbSymbolTable
 70
    11
  0
LAYER
  5
10
102
{ACAD_XDICTIONARY
360
E6
102
}
330
2
100
AcDbSymbolTableRecord
100
AcDbLayerTableRecord
  2
0
 70
     0
 62
     7
  6
Continuous
370
    -3
390
F
  0
LAYER
  5
364
330
2
100
AcDbSymbolTableRecord
100
AcDbLayerTableRecord
  2
COMPONENTS
 70
     0
 62
     1
  6
Continuous
370
    -3
390
F
  0
LAYER
  5
365
330
2
100
AcDbSymbolTableRecord
100
AcDbLayerTableRecord
  2
GESTRICHELT
 70
     0
 62
     6
  6
GESTRICHELT2
370
    -3
390
F
  0
LAYER
  5
366
330
2
100
AcDbSymbolTableRecord
100
AcDbLayerTableRecord
  2
1
 70
     0
 62
    -7
  6
Continuous
370
    -3
390
F
  0
LAYER
  5
367
330
2
100
AcDbSymbolTableRecord
100
AcDbLayerTableRecord
  2
100-S
 70
     0
 62
     4
  6
GESTRICHELT2
370
    -3
390
F
  0
LAYER
  5
368
330
2
100
AcDbSymbolTableRecord
100
AcDbLayerTableRecord
  2
Screwholes
 70
     0
 62
    -1
  6
Continuous
370
    -3
390
F
  0
LAYER
  5
369
330
2
100
AcDbSymbolTableRecord
100
AcDbLayerTableRecord
  2
Busbars
 70
     0
 62
     4
  6
Continuous
370
    -3
390
F
  0
LAYER
  5
36A
330
2
100
AcDbSymbolTableRecord
100
AcDbLayerTableRecord
  2
Defpoints
 70
     0
 62
     7
  6
Continuous
290
     0
370
    -3
390
F
  0
LAYER
  5
36B
330
2
100
AcDbSymbolTableRecord
100
AcDbLayerTableRecord
  2
Measures
 70
     0
 62
     5
  6
Continuous
370
    -3
390
F
  0
LAYER
  5
36C
330
2
100
AcDbSymbolTableRecord
100
AcDbLayerTableRecord
  2
140-AS
 70
     0
 62
     6
  6
GESTRICHELT2
370
    -3
390
F
  0
LAYER
  5
36D
330
2
100
AcDbSymbolTableRecord
100
AcDbLayerTableRecord
  2
Mitte
 70
     0
 62
     3
  6
CENTER2
370
    15
390
F
  0
ENDTAB
  0
TABLE
  2
STYLE
  5
3
330
0
100
AcDbSymbolTable
 70
     3
  0
STYLE
  5
11
330
3
100
AcDbSymbolTableRecord
100
AcDbTextStyleTableRecord
  2
Standard
 70
     0
 40
0.0
 41
1.0
 50
0.0
 71
     0
 42
0.2
  3
ARIAL.TTF
  4

1001
ACAD
1000
Arial
1071
       34
  0
STYLE
  5
DC
330
3
100
AcDbSymbolTableRecord
100
AcDbTextStyleTableRecord
  2
Annotative
 70
     0
 40
0.0
 41
1.0
 50
0.0
 71
     0
 42
0.2
  3
ARIAL.TTF
  4

1001
AcadAnnotative
1000
AnnotativeData
1002
{
1070
     1
1070
     1
1002
}
1001
ACAD
1000
Arial
1071
       34
  0
STYLE
  5
36E
330
3
100
AcDbSymbolTableRecord
100
AcDbTextStyleTableRecord
  2
ARIAL
 70
     0
 40
5.0
 41
1.0
 50
0.0
 71
     0
 42
5.0
  3
ARIAL.TTF
  4

1001
ACAD
1000
Arial
1071
       34
  0
ENDTAB
  0
TABLE
  2
VIEW
  5
6
330
0
100
AcDbSymbolTable
 70
     0
  0
ENDTAB
  0
TABLE
  2
UCS
  5
7
330
0
100
AcDbSymbolTable
 70
     0
  0
ENDTAB
  0
TABLE
  2
APPID
  5
9
330
0
100
AcDbSymbolTable
 70
    10
  0
APPID
  5
12
330
9
100
AcDbSymbolTableRecord
100
AcDbRegAppTableRecord
  2
ACAD
 70
     0
  0
APPID
  5
DD
330
9
100
AcDbSymbolTableRecord
100
AcDbRegAppTableRecord
  2
AcadAnnoPO
 70
     0
  0
APPID
  5
DE
330
9
100
AcDbSymbolTableRecord
100
AcDbRegAppTableRecord
  2
AcadAnnotative
 70
     0
  0
APPID
  5
DF
330
9
100
AcDbSymbolTableRecord
100
AcDbRegAppTableRecord
  2
ACAD_DSTYLE_DIMJAG
 70
     0
  0
APPID
  5
E0
330
9
100
AcDbSymbolTableRecord
100
AcDbRegAppTableRecord
  2
ACAD_DSTYLE_DIMTALN
 70
     0
  0
APPID
  5
107
330
9
100
AcDbSymbolTableRecord
100
AcDbRegAppTableRecord
  2
ACAD_MLEADERVER
 70
     0
  0
APPID
  5
47F
330
9
100
AcDbSymbolTableRecord
100
AcDbRegAppTableRecord
  2
ACAUTHENVIRON
 70
     0
  0
APPID
  5
483
330
9
100
AcDbSymbolTableRecord
100
AcDbRegAppTableRecord
  2
AcDbDynamicBlockTrueName
 70
     0
  0
APPID
  5
484
330
9
100
AcDbSymbolTableRecord
100
AcDbRegAppTableRecord
  2
AcDbDynamicBlockGUID
 70
     0
  0
APPID
  5
538
330
9
100
AcDbSymbolTableRecord
100
AcDbRegAppTableRecord
  2
ACAD_EXEMPT_FROM_CAD_STANDARDS
 70
     0
  0
ENDTAB
  0
TABLE
  2
DIMSTYLE
  5
A
330
0
100
AcDbSymbolTable
 70
     3
100
AcDbDimStyleTable
 71
     3
340
36F
340
27
340
E1
  0
DIMSTYLE
105
27
330
A
100
AcDbSymbolTableRecord
100
AcDbDimStyleTableRecord
  2
Standard
 70
     0
340
11
  0
DIMSTYLE
105
E1
330
A
100
AcDbSymbolTableRecord
100
AcDbDimStyleTableRecord
  2
Annotative
 70
     0
 40
0.0
340
11
1001
AcadAnnotative
1000
AnnotativeData
1002
{
1070
     1
1070
     1
1002
}
1001
ACAD_DSTYLE_DIMJAG
1070
   388
1040
1.5
1001
ACAD_DSTYLE_DIMTALN
1070
   392
1070
     0
  0
DIMSTYLE
105
36F
102
{ACAD_REACTORS
330
393
330
394
330
395
330
396
330
39C
330
39D
330
3AF
330
3B0
330
589
102
}
330
A
100
AcDbSymbolTableRecord
100
AcDbDimStyleTableRecord
  2
ARIAL
 70
     0
 41
5.0
 42
1.0
 43
15.0
 44
2.5
 73
     0
 74
     0
 77
     1
 78
     8
140
5.0
141
2.5
143
0.0394
147
1.0
171
     4
172
     1
273
     8
274
     4
277
     6
289
     1
340
36E
  0
ENDTAB
  0
TABLE
  2
BLOCK_RECORD
  5
1
330
0
100
AcDbSymbolTable
 70
    23
  0
BLOCK_RECORD
  5
1F
102
{ACAD_XDICTIONARY
360
15D
102
}
330
1
100
AcDbSymbolTableRecord
100
AcDbBlockTableRecord
  2
*Model_Space
340
22
  0
BLOCK_RECORD
  5
58
330
1
100
AcDbSymbolTableRecord
100
AcDbBlockTableRecord
  2
*Paper_Space
340
59
  0
BLOCK_RECORD
  5
5D
330
1
100
AcDbSymbolTableRecord
100
AcDbBlockTableRecord
  2
*Paper_Space0
340
5E
  0
BLOCK_RECORD
  5
183
102
{ACAD_XDICTIONARY
360
4DA
102
}
330
1
100
AcDbSymbolTableRecord
100
AcDbBlockTableRecord
  2
CRI7E-24
340
0
102
{BLKREFS
331
39E
331
3A1
102
}
1001
AcDbDynamicBlockGUID
1000
{A452F999-B5BD-4C90-A3D5-0FD343E1C1D4}
  0
BLOCK_RECORD
  5
194
330
1
100
AcDbSymbolTableRecord
100
AcDbBlockTableRecord
  2
CA7-PV-11
340
0
102
{BLKREFS
331
3A8
331
3A9
102
}
  0
BLOCK_RECORD
  5
1B0
102
{ACAD_XDICTIONARY
360
4B2
102
}
330
1
100
AcDbSymbolTableRecord
100
AcDbBlockTableRecord
  2
CA7-PV-22
340
0
102
{BLKREFS
331
39F
331
3A0
102
}
1001
AcDbDynamicBlockGUID
1000
{FB10F0B2-6A43-4410-95EA-A8C7E4233180}
  0
BLOCK_RECORD
  5
1DC
330
1
100
AcDbSymbolTableRecord
100
AcDbBlockTableRecord
  2
CM7
340
0
102
{BLKREFS
331
3A7
102
}
  0
BLOCK_RECORD
  5
1E7
330
1
100
AcDbSymbolTableRecord
100
AcDbBlockTableRecord
  2
*X5
340
0
102
{BLKREFS
331
20E
102
}
  0
BLOCK_RECORD
  5
20A
330
1
100
AcDbSymbolTableRecord
100
AcDbBlockTableRecord
  2
LOCH_4MM
340
0
102
{BLKREFS
331
2FD
331
30A
102
}
  0
BLOCK_RECORD
  5
215
102
{ACAD_XDICTIONARY
360
4C5
102
}
330
1
100
AcDbSymbolTableRecord
100
AcDbBlockTableRecord
  2
CA7-PA-11
340
0
102
{BLKREFS
331
3AB
331
3AC
102
}
1001
AcDbDynamicBlockGUID
1000
{0D6199AB-E1E9-4EED-A33F-6AE2616EC241}
  0
BLOCK_RECORD
  5
260
330
1
100
AcDbSymbolTableRecord
100
AcDbBlockTableRecord
  2
KTA7-45H
340
0
102
{BLKREFS
331
3A4
102
}
  0
BLOCK_RECORD
  5
288
102
{ACAD_XDICTIONARY
360
480
102
}
330
1
100
AcDbSymbolTableRecord
100
AcDbBlockTableRecord
  2
KT7-PAF1
340
0
102
{BLKREFS
331
3AA
102
}
1001
AcDbDynamicBlockGUID
1000
{F2165543-504F-4151-A9C1-BADEC25C64B8}
  0
BLOCK_RECORD
  5
299
330
1
100
AcDbSymbolTableRecord
100
AcDbBlockTableRecord
  2
W-32490
340
0
102
{BLKREFS
331
3A2
102
}
  0
BLOCK_RECORD
  5
2D5
330
1
100
AcDbSymbolTableRecord
100
AcDbBlockTableRecord
  2
DIN RAIL
340
0
102
{BLKREFS
331
398
331
399
331
39A
331
39B
102
}
  0
BLOCK_RECORD
  5
2F9
330
1
100
AcDbSymbolTableRecord
100
AcDbBlockTableRecord
  2
CA7-30...37
340
0
102
{BLKREFS
331
3A5
331
3A6
102
}
  0
BLOCK_RECORD
  5
310
330
1
100
AcDbSymbolTableRecord
100
AcDbBlockTableRecord
  2
W-32489
340
0
102
{BLKREFS
331
3A3
102
}
  0
BLOCK_RECORD
  5
3B1
330
1
100
AcDbSymbolTableRecord
100
AcDbBlockTableRecord
  2
*D14
340
0
  0
BLOCK_RECORD
  5
3BD
330
1
100
AcDbSymbolTableRecord
100
AcDbBlockTableRecord
  2
*D15
340
0
  0
BLOCK_RECORD
  5
3C9
330
1
100
AcDbSymbolTableRecord
100
AcDbBlockTableRecord
  2
*D16
340
0
  0
BLOCK_RECORD
  5
3D5
330
1
100
AcDbSymbolTableRecord
100
AcDbBlockTableRecord
  2
*D17
340
0
  0
BLOCK_RECORD
  5
3ED
330
1
100
AcDbSymbolTableRecord
100
AcDbBlockTableRecord
  2
*D18
340
0
  0
BLOCK_RECORD
  5
3F9
330
1
100
AcDbSymbolTableRecord
100
AcDbBlockTableRecord
  2
*D19
340
0
  0
BLOCK_RECORD
  5
405
330
1
100
AcDbSymbolTableRecord
100
AcDbBlockTableRecord
  2
*D20
340
0
  0
BLOCK_RECORD
  5
411
330
1
100
AcDbSymbolTableRecord
100
AcDbBlockTableRecord
  2
*D21
340
0
  0
BLOCK_RECORD
  5
58A
330
1
100
AcDbSymbolTableRecord
100
AcDbBlockTableRecord
  2
*D22
340
0
  0
ENDTAB
  0
ENDSEC
  0
SECTION
  2
BLOCKS
  0
BLOCK
  5
20
330
1F
100
AcDbEntity
  8
0
100
AcDbBlockBegin
  2
*Model_Space
 70
     0
 10
0.0
 20
0.0
 30
0.0
  3
*Model_Space
  1

  0
ENDBLK
  5
21
330
1F
100
AcDbEntity
  8
0
100
AcDbBlockEnd
  0
BLOCK
  5
5A
330
58
100
AcDbEntity
 67
     1
  8
0
100
AcDbBlockBegin
  2
*Paper_Space
 70
     0
 10
0.0
 20
0.0
 30
0.0
  3
*Paper_Space
  1

  0
ENDBLK
  5
5B
330
58
100
AcDbEntity
 67
     1
  8
0
100
AcDbBlockEnd
  0
BLOCK
  5
5F
330
5D
100
AcDbEntity
 67
     1
  8
0
100
AcDbBlockBegin
  2
*Paper_Space0
 70
     0
 10
0.0
 20
0.0
 30
0.0
  3
*Paper_Space0
  1

  0
ENDBLK
  5
60
330
5D
100
AcDbEntity
 67
     1
  8
0
100
AcDbBlockEnd
  0
BLOCK
  5
184
330
183
100
AcDbEntity
  8
0
100
AcDbBlockBegin
  2
CRI7E-24
 70
     0
 10
0.0
 20
0.0
 30
0.0
  3
CRI7E-24
  1

  0
LINE
  5
4CC
330
183
100
AcDbEntity
  8
0
  6
STRICHLINIE
 48
6.0
100
AcDbLine
 10
-14.99999999999997
 20
-8.999999500000003
 30
0.0
 11
22.5
 21
-8.999999500000003
 31
0.0
  0
CIRCLE
  5
4CD
330
183
100
AcDbEntity
  8
0
  6
STRICHLINIE
 48
6.0
100
AcDbCircle
 10
17.0
 20
-3.499999500000001
 30
0.0
 40
3.0
  0
CIRCLE
  5
4CE
330
183
100
AcDbEntity
  8
0
  6
STRICHLINIE
 48
6.0
100
AcDbCircle
 10
-10.0
 20
-3.499999500000001
 30
0.0
 40
3.0
  0
LINE
  5
4CF
330
183
100
AcDbEntity
  8
0
  6
STRICHLINIE
 48
6.0
100
AcDbLine
 10
-14.99999999999998
 20
-8.999999499999972
 30
0.0
 11
-15.0
 21
9.5
 31
0.0
  0
CIRCLE
  5
4D0
330
183
100
AcDbEntity
  8
0
  6
STRICHLINIE
 48
6.0
100
AcDbCircle
 10
0.0
 20
-3.499999500000001
 30
0.0
 40
3.0
  0
LINE
  5
4D1
330
183
100
AcDbEntity
  8
1
  6
STRICHLINIE
 48
6.0
100
AcDbLine
 10
0.0
 20
1.0
 30
0.0
 11
0.0
 21
-1.0
 31
0.0
  0
LINE
  5
4D2
330
183
100
AcDbEntity
  8
0
  6
STRICHLINIE
 48
6.0
100
AcDbLine
 10
11.80000000000007
 20
-6.799999499999983
 30
0.0
 11
5.200000000000044
 21
-6.799999499999983
 31
0.0
  0
LINE
  5
4D3
330
183
100
AcDbEntity
  8
0
  6
STRICHLINIE
 48
6.0
100
AcDbLine
 10
5.200000000000044
 20
-8.999999500000003
 30
0.0
 11
5.200000000000044
 21
-6.799999499999983
 31
0.0
  0
ARC
  5
4D4
330
183
100
AcDbEntity
  8
0
  6
STRICHLINIE
 48
6.0
100
AcDbCircle
 10
7.700000000000045
 20
-7.499999500000001
 30
0.0
 40
1.44999995
100
AcDbArc
 50
180.0
 51
0.0
  0
LINE
  5
4D5
330
183
100
AcDbEntity
  8
0
  6
STRICHLINIE
 48
6.0
100
AcDbLine
 10
11.80000000000007
 20
-8.999999500000003
 30
0.0
 11
11.80000000000007
 21
-6.799999499999983
 31
0.0
  0
LINE
  5
4D6
330
183
100
AcDbEntity
  8
0
  6
STRICHLINIE
 48
6.0
100
AcDbLine
 10
22.5
 20
-8.999999500000003
 30
0.0
 11
22.5
 21
9.5
 31
0.0
  0
LINE
  5
4D7
330
183
100
AcDbEntity
  8
1
  6
STRICHLINIE
 48
6.0
100
AcDbLine
 10
-1.0
 20
0.0
 30
0.0
 11
1.0
 21
0.0
 31
0.0
  0
LINE
  5
4D8
330
183
100
AcDbEntity
  8
0
  6
STRICHLINIE
 48
6.0
100
AcDbLine
 10
14.0
 20
9.5
 30
0.0
 11
-15.0
 21
9.5
 31
0.0
  0
LINE
  5
4D9
330
183
100
AcDbEntity
  8
0
  6
STRICHLINIE
 48
6.0
100
AcDbLine
 10
22.5
 20
9.5
 30
0.0
 11
14.0
 21
9.5
 31
0.0
  0
ENDBLK
  5
193
330
183
100
AcDbEntity
  8
0
100
AcDbBlockEnd
  0
BLOCK
  5
195
330
194
100
AcDbEntity
  8
0
100
AcDbBlockBegin
  2
CA7-PV-11
 70
     0
 10
0.0
 20
0.0
 30
0.0
  3
CA7-PV-11
  1

  0
LWPOLYLINE
  5
196
330
194
100
AcDbEntity
  8
0
100
AcDbPolyline
 90
        4
 70
     1
 43
0.0
 10
-12.5
 20
19.0
 10
-12.5
 20
-19.0
 10
12.5
 20
-19.0
 10
12.5
 20
19.0
  0
LINE
  5
197
330
194
100
AcDbEntity
  8
0
  6
Continuous
100
AcDbLine
 10
1.506701114575605
 20
-23.30802562330143
 30
0.0
 11
1.506701114575605
 21
-18.98882513651591
 31
0.0
  0
LINE
  5
198
330
194
100
AcDbEntity
  8
0
  6
Continuous
100
AcDbLine
 10
-1.506691069935015
 20
-23.30802562330143
 30
0.0
 11
-1.506691069935015
 21
-18.98882513651591
 31
0.0
  0
LINE
  5
199
330
194
100
AcDbEntity
  8
0
  6
Continuous
100
AcDbLine
 10
-1.506691069935015
 20
-23.30802562330143
 30
0.0
 11
1.506701114575605
 21
-23.30802562330143
 31
0.0
  0
CIRCLE
  5
19A
330
194
100
AcDbEntity
  8
0
100
AcDbCircle
 10
5.5
 20
-14.5
 30
0.0
 40
3.0
  0
CIRCLE
  5
19B
330
194
100
AcDbEntity
  8
0
100
AcDbCircle
 10
-5.5
 20
-14.5
 30
0.0
 40
3.0
  0
LINE
  5
19C
330
194
100
AcDbEntity
  8
0
  6
Continuous
100
AcDbLine
 10
-10.99286252391419
 20
-22.0
 30
0.0
 11
-12.59999999999957
 21
-22.0
 31
0.0
  0
LINE
  5
19D
330
194
100
AcDbEntity
  8
0
  6
Continuous
100
AcDbLine
 10
-10.99286252391419
 20
-22.0
 30
0.0
 11
-10.99286252391419
 21
-18.98884522579715
 31
0.0
  0
LINE
  5
19E
330
194
100
AcDbEntity
  8
0
100
AcDbLine
 10
-12.5
 20
-19.0
 30
0.0
 11
-12.5
 21
-22.0
 31
0.0
  0
LINE
  5
19F
330
194
100
AcDbEntity
  8
1
100
AcDbLine
 10
0.0
 20
1.0
 30
0.0
 11
0.0
 21
-1.0
 31
0.0
  0
LINE
  5
1A0
330
194
100
AcDbEntity
  8
1
100
AcDbLine
 10
-1.0
 20
0.0
 30
0.0
 11
1.0
 21
0.0
 31
0.0
  0
LINE
  5
1A1
330
194
100
AcDbEntity
  8
0
  6
Continuous
100
AcDbLine
 10
12.5
 20
-22.0
 30
0.0
 11
10.99284745695325
 21
-22.0
 31
0.0
  0
LINE
  5
1A2
330
194
100
AcDbEntity
  8
0
  6
Continuous
100
AcDbLine
 10
10.99284745695325
 20
-22.0
 30
0.0
 11
10.99284745695325
 21
-18.98884522579715
 31
0.0
  0
LINE
  5
1A3
330
194
100
AcDbEntity
  8
0
100
AcDbLine
 10
12.5
 20
-19.0
 30
0.0
 11
12.5
 21
-22.0
 31
0.0
  0
CIRCLE
  5
1A4
330
194
100
AcDbEntity
  8
0
100
AcDbCircle
 10
5.5
 20
14.5
 30
0.0
 40
3.0
  0
CIRCLE
  5
1A5
330
194
100
AcDbEntity
  8
0
100
AcDbCircle
 10
-5.5
 20
14.5
 30
0.0
 40
3.0
  0
LINE
  5
1A6
330
194
100
AcDbEntity
  8
0
100
AcDbLine
 10
-12.5
 20
19.0
 30
0.0
 11
-12.5
 21
22.0
 31
0.0
  0
LINE
  5
1A7
330
194
100
AcDbEntity
  8
0
  6
Continuous
100
AcDbLine
 10
-10.99286252391419
 20
22.0
 30
0.0
 11
-10.99286252391419
 21
18.98884522579715
 31
0.0
  0
LINE
  5
1A8
330
194
100
AcDbEntity
  8
0
  6
Continuous
100
AcDbLine
 10
-10.99286252391419
 20
22.0
 30
0.0
 11
-12.59999999999957
 21
22.0
 31
0.0
  0
LINE
  5
1A9
330
194
100
AcDbEntity
  8
0
  6
Continuous
100
AcDbLine
 10
-1.506691069935015
 20
23.30802562330143
 30
0.0
 11
1.506701114575605
 21
23.30802562330143
 31
0.0
  0
LINE
  5
1AA
330
194
100
AcDbEntity
  8
0
  6
Continuous
100
AcDbLine
 10
-1.506691069935015
 20
23.30802562330143
 30
0.0
 11
-1.506691069935015
 21
18.98882513651591
 31
0.0
  0
LINE
  5
1AB
330
194
100
AcDbEntity
  8
0
  6
Continuous
100
AcDbLine
 10
1.506701114575605
 20
23.30802562330143
 30
0.0
 11
1.506701114575605
 21
18.98882513651591
 31
0.0
  0
LINE
  5
1AC
330
194
100
AcDbEntity
  8
0
100
AcDbLine
 10
12.5
 20
19.0
 30
0.0
 11
12.5
 21
22.0
 31
0.0
  0
LINE
  5
1AD
330
194
100
AcDbEntity
  8
0
  6
Continuous
100
AcDbLine
 10
10.99284745695325
 20
22.0
 30
0.0
 11
10.99284745695325
 21
18.98884522579715
 31
0.0
  0
LINE
  5
1AE
330
194
100
AcDbEntity
  8
0
  6
Continuous
100
AcDbLine
 10
12.5
 20
22.0
 30
0.0
 11
10.99284745695325
 21
22.0
 31
0.0
  0
ENDBLK
  5
1AF
330
194
100
AcDbEntity
  8
0
100
AcDbBlockEnd
  0
BLOCK
  5
1B1
330
1B0
100
AcDbEntity
  8
0
100
AcDbBlockBegin
  2
CA7-PV-22
 70
     0
 10
0.0
 20
0.0
 30
0.0
  3
CA7-PV-22
  1

  0
LWPOLYLINE
  5
489
330
1B0
100
AcDbEntity
  8
0
  6
STRICHLINIE
 48
6.0
100
AcDbPolyline
 90
        4
 70
     1
 43
0.0
 10
-22.5
 20
19.0
 10
-22.5
 20
-19.0
 10
22.5
 20
-19.0
 10
22.5
 20
19.0
  0
CIRCLE
  5
48A
330
1B0
100
AcDbEntity
  8
0
  6
STRICHLINIE
 48
6.0
100
AcDbCircle
 10
16.5
 20
-14.5
 30
0.0
 40
3.0
  0
LINE
  5
48B
330
1B0
100
AcDbEntity
  8
0
  6
STRICHLINIE
 48
6.0
100
AcDbLine
 10
12.45535938496414
 20
-23.30802526606527
 30
0.0
 11
12.45535938496414
 21
-18.98882477927975
 31
0.0
  0
LINE
  5
48C
330
1B0
100
AcDbEntity
  8
0
  6
STRICHLINIE
 48
6.0
100
AcDbLine
 10
9.441967200453516
 20
-23.30802526606527
 30
0.0
 11
9.441967200453516
 21
-18.98882980160005
 31
0.0
  0
LINE
  5
48D
330
1B0
100
AcDbEntity
  8
0
  6
STRICHLINIE
 48
6.0
100
AcDbLine
 10
1.506701114575661
 20
-23.30803028838557
 30
0.0
 11
1.506701114575661
 21
-18.98882980160005
 31
0.0
  0
LINE
  5
48E
330
1B0
100
AcDbEntity
  8
0
  6
STRICHLINIE
 48
6.0
100
AcDbLine
 10
-1.506691069934959
 20
-23.30803028838557
 30
0.0
 11
-1.506691069934959
 21
-18.98882980160005
 31
0.0
  0
LINE
  5
48F
330
1B0
100
AcDbEntity
  8
0
  6
STRICHLINIE
 48
6.0
100
AcDbLine
 10
-9.441957155812817
 20
-23.30802966059554
 30
0.0
 11
-9.441957155812817
 21
-18.98883482392034
 31
0.0
  0
LINE
  5
490
330
1B0
100
AcDbEntity
  8
0
  6
STRICHLINIE
 48
6.0
100
AcDbLine
 10
-12.45534934032344
 20
-23.30803593849589
 30
0.0
 11
-12.45534934032344
 21
-18.98883482392034
 31
0.0
  0
LINE
  5
491
330
1B0
100
AcDbEntity
  8
0
  6
STRICHLINIE
 48
6.0
100
AcDbLine
 10
-12.45534934032344
 20
-23.30803593849589
 30
0.0
 11
-9.441957155812817
 21
-23.30802966059554
 31
0.0
  0
LINE
  5
492
330
1B0
100
AcDbEntity
  8
0
  6
STRICHLINIE
 48
6.0
100
AcDbLine
 10
-1.506691069934959
 20
-23.30803028838557
 30
0.0
 11
1.506701114575661
 21
-23.30803028838557
 31
0.0
  0
LINE
  5
493
330
1B0
100
AcDbEntity
  8
0
  6
STRICHLINIE
 48
6.0
100
AcDbLine
 10
9.441967200453516
 20
-23.30802526606527
 30
0.0
 11
12.45535938496414
 21
-23.30802526606527
 31
0.0
  0
CIRCLE
  5
494
330
1B0
100
AcDbEntity
  8
0
  6
STRICHLINIE
 48
6.0
100
AcDbCircle
 10
-5.5
 20
-14.5
 30
0.0
 40
3.0
  0
CIRCLE
  5
495
330
1B0
100
AcDbEntity
  8
0
  6
STRICHLINIE
 48
6.0
100
AcDbCircle
 10
-16.5
 20
-14.5
 30
0.0
 40
3.0
  0
LINE
  5
496
330
1B0
100
AcDbEntity
  8
0
  6
STRICHLINIE
 48
6.0
100
AcDbLine
 10
-20.89286252391412
 20
-22.0
 30
0.0
 11
-22.49999999999955
 21
-22.0
 31
0.0
  0
LINE
  5
497
330
1B0
100
AcDbEntity
  8
0
  6
STRICHLINIE
 48
6.0
100
AcDbLine
 10
-20.89286252391413
 20
-21.99999999999997
 30
0.0
 11
-20.89286252391412
 21
-18.98884989088128
 31
0.0
  0
LINE
  5
498
330
1B0
100
AcDbEntity
  8
0
  6
STRICHLINIE
 48
6.0
100
AcDbLine
 10
-22.5
 20
-19.0
 30
0.0
 11
-22.5
 21
-22.0
 31
0.0
  0
CIRCLE
  5
499
330
1B0
100
AcDbEntity
  8
0
  6
STRICHLINIE
 48
6.0
100
AcDbCircle
 10
5.5
 20
-14.5
 30
0.0
 40
3.0
  0
LINE
  5
49A
330
1B0
100
AcDbEntity
  8
1
  6
STRICHLINIE
 48
6.0
100
AcDbLine
 10
-1.0
 20
0.0
 30
0.0
 11
1.0
 21
0.0
 31
0.0
  0
LINE
  5
49B
330
1B0
100
AcDbEntity
  8
1
  6
STRICHLINIE
 48
6.0
100
AcDbLine
 10
0.0
 20
1.0
 30
0.0
 11
0.0
 21
-1.0
 31
0.0
  0
LINE
  5
49C
330
1B0
100
AcDbEntity
  8
0
  6
STRICHLINIE
 48
6.0
100
AcDbLine
 10
22.49998982143265
 20
-22.0
 30
0.0
 11
20.89284745695329
 21
-22.0
 31
0.0
  0
LINE
  5
49D
330
1B0
100
AcDbEntity
  8
0
  6
STRICHLINIE
 48
6.0
100
AcDbLine
 10
20.89284745695329
 20
-22.0
 30
0.0
 11
20.89284745695329
 21
-18.98884989088128
 31
0.0
  0
LINE
  5
49E
330
1B0
100
AcDbEntity
  8
0
  6
STRICHLINIE
 48
6.0
100
AcDbLine
 10
22.5
 20
-19.0
 30
0.0
 11
22.5
 21
-22.0
 31
0.0
  0
CIRCLE
  5
49F
330
1B0
100
AcDbEntity
  8
0
  6
STRICHLINIE
 48
6.0
100
AcDbCircle
 10
16.5
 20
14.5
 30
0.0
 40
3.0
  0
CIRCLE
  5
4A0
330
1B0
100
AcDbEntity
  8
0
  6
STRICHLINIE
 48
6.0
100
AcDbCircle
 10
-5.5
 20
14.5
 30
0.0
 40
3.0
  0
CIRCLE
  5
4A1
330
1B0
100
AcDbEntity
  8
0
  6
STRICHLINIE
 48
6.0
100
AcDbCircle
 10
-16.5
 20
14.5
 30
0.0
 40
3.0
  0
LINE
  5
4A2
330
1B0
100
AcDbEntity
  8
0
  6
STRICHLINIE
 48
6.0
100
AcDbLine
 10
-22.5
 20
19.0
 30
0.0
 11
-22.5
 21
22.0
 31
0.0
  0
LINE
  5
4A3
330
1B0
100
AcDbEntity
  8
0
  6
STRICHLINIE
 48
6.0
100
AcDbLine
 10
-20.89286252391413
 20
21.99999999999997
 30
0.0
 11
-20.89286252391412
 21
18.98884989088128
 31
0.0
  0
LINE
  5
4A4
330
1B0
100
AcDbEntity
  8
0
  6
STRICHLINIE
 48
6.0
100
AcDbLine
 10
-20.89286252391412
 20
22.0
 30
0.0
 11
-22.49999999999955
 21
22.0
 31
0.0
  0
LINE
  5
4A5
330
1B0
100
AcDbEntity
  8
0
  6
STRICHLINIE
 48
6.0
100
AcDbLine
 10
-12.45534934032344
 20
23.30803593849589
 30
0.0
 11
-9.441957155812817
 21
23.30802966059554
 31
0.0
  0
LINE
  5
4A6
330
1B0
100
AcDbEntity
  8
0
  6
STRICHLINIE
 48
6.0
100
AcDbLine
 10
-12.45534934032344
 20
23.30803593849589
 30
0.0
 11
-12.45534934032344
 21
18.98883482392034
 31
0.0
  0
LINE
  5
4A7
330
1B0
100
AcDbEntity
  8
0
  6
STRICHLINIE
 48
6.0
100
AcDbLine
 10
-9.441957155812817
 20
23.30802966059554
 30
0.0
 11
-9.441957155812817
 21
18.98883482392034
 31
0.0
  0
CIRCLE
  5
4A8
330
1B0
100
AcDbEntity
  8
0
  6
STRICHLINIE
 48
6.0
100
AcDbCircle
 10
5.5
 20
14.5
 30
0.0
 40
3.0
  0
LINE
  5
4A9
330
1B0
100
AcDbEntity
  8
0
  6
STRICHLINIE
 48
6.0
100
AcDbLine
 10
-1.506691069934959
 20
23.30803028838557
 30
0.0
 11
1.506701114575661
 21
23.30803028838557
 31
0.0
  0
LINE
  5
4AA
330
1B0
100
AcDbEntity
  8
0
  6
STRICHLINIE
 48
6.0
100
AcDbLine
 10
-1.506691069934959
 20
23.30803028838557
 30
0.0
 11
-1.506691069934959
 21
18.98882980160005
 31
0.0
  0
LINE
  5
4AB
330
1B0
100
AcDbEntity
  8
0
  6
STRICHLINIE
 48
6.0
100
AcDbLine
 10
1.506701114575661
 20
23.30803028838557
 30
0.0
 11
1.506701114575661
 21
18.98882980160005
 31
0.0
  0
LINE
  5
4AC
330
1B0
100
AcDbEntity
  8
0
  6
STRICHLINIE
 48
6.0
100
AcDbLine
 10
9.441967200453516
 20
23.30802526606527
 30
0.0
 11
12.45535938496414
 21
23.30802526606527
 31
0.0
  0
LINE
  5
4AD
330
1B0
100
AcDbEntity
  8
0
  6
STRICHLINIE
 48
6.0
100
AcDbLine
 10
9.441967200453516
 20
23.30802526606527
 30
0.0
 11
9.441967200453516
 21
18.98882980160005
 31
0.0
  0
LINE
  5
4AE
330
1B0
100
AcDbEntity
  8
0
  6
STRICHLINIE
 48
6.0
100
AcDbLine
 10
12.45535938496414
 20
23.30802526606527
 30
0.0
 11
12.45535938496414
 21
18.98882477927975
 31
0.0
  0
LINE
  5
4AF
330
1B0
100
AcDbEntity
  8
0
  6
STRICHLINIE
 48
6.0
100
AcDbLine
 10
22.5
 20
19.0
 30
0.0
 11
22.5
 21
22.0
 31
0.0
  0
LINE
  5
4B0
330
1B0
100
AcDbEntity
  8
0
  6
STRICHLINIE
 48
6.0
100
AcDbLine
 10
20.89284745695329
 20
22.0
 30
0.0
 11
20.89284745695329
 21
18.98884989088128
 31
0.0
  0
LINE
  5
4B1
330
1B0
100
AcDbEntity
  8
0
  6
STRICHLINIE
 48
6.0
100
AcDbLine
 10
22.49998982143265
 20
22.0
 30
0.0
 11
20.89284745695329
 21
22.0
 31
0.0
  0
ENDBLK
  5
1DB
330
1B0
100
AcDbEntity
  8
0
100
AcDbBlockEnd
  0
BLOCK
  5
1DD
330
1DC
100
AcDbEntity
  8
0
100
AcDbBlockBegin
  2
CM7
 70
     0
 10
0.0
 20
0.0
 30
0.0
  3
CM7
  1

  0
LINE
  5
1DE
330
1DC
100
AcDbEntity
  8
0
100
AcDbLine
 10
-0.0000133333530812
 20
-36.0
 30
0.0
 11
0.0000133333275301
 21
35.99993094167182
 31
0.0
  0
LINE
  5
1DF
330
1DC
100
AcDbEntity
  8
0
100
AcDbLine
 10
8.999986666646918
 20
-36.0
 30
0.0
 11
9.00001333332753
 21
35.99993094167182
 31
0.0
  0
LINE
  5
1E0
330
1DC
100
AcDbEntity
  8
0
100
AcDbLine
 10
8.999986666646918
 20
-36.0
 30
0.0
 11
-0.0000133333530812
 21
-36.0
 31
0.0
  0
LINE
  5
1E1
330
1DC
100
AcDbEntity
  8
0
100
AcDbLine
 10
8.999991666654324
 20
-22.5
 30
0.0
 11
-0.0000083333456757
 21
-22.5
 31
0.0
  0
LINE
  5
1E2
330
1DC
100
AcDbEntity
  8
1
100
AcDbLine
 10
7.999991666654324
 20
0.0
 30
0.0
 11
9.999991666654324
 21
0.0
 31
0.0
  0
LINE
  5
1E3
330
1DC
100
AcDbEntity
  8
1
100
AcDbLine
 10
-1.000008333345675
 20
0.0
 30
0.0
 11
0.999991666654324
 21
0.0
 31
0.0
  0
LINE
  5
1E4
330
1DC
100
AcDbEntity
  8
0
100
AcDbLine
 10
0.0000083333453063
 20
22.499999
 30
0.0
 11
9.000008333345306
 21
22.49999899999997
 31
0.0
  0
LINE
  5
1E5
330
1DC
100
AcDbEntity
  8
0
100
AcDbLine
 10
0.0000133333275301
 20
35.99993094167182
 30
0.0
 11
9.00001333316905
 21
35.99950305601808
 31
0.0
  0
ENDBLK
  5
1E6
330
1DC
100
AcDbEntity
  8
0
100
AcDbBlockEnd
  0
BLOCK
  5
1E8
330
1E7
100
AcDbEntity
  8
0
100
AcDbBlockBegin
  2
*X5
 70
     1
 10
0.0
 20
0.0
 30
0.0
  3
*X5
  1

  0
LINE
  5
1E9
330
1E7
100
AcDbEntity
  8
0
 62
     0
100
AcDbLine
 10
89.82679464217154
 20
20.0
 30
0.0
 11
90.0
 21
20.17320535782844
 31
0.0
  0
LINE
  5
1EA
330
1E7
100
AcDbEntity
  8
0
 62
     0
100
AcDbLine
 10
89.65001794687493
 20
20.0
 30
0.0
 11
90.0
 21
20.34998205312507
 31
0.0
  0
LINE
  5
1EB
330
1E7
100
AcDbEntity
  8
0
 62
     0
100
AcDbLine
 10
89.47324125157829
 20
20.0
 30
0.0
 11
90.0
 21
20.52675874842171
 31
0.0
  0
LINE
  5
1EC
330
1E7
100
AcDbEntity
  8
0
 62
     0
100
AcDbLine
 10
89.29646455628164
 20
20.0
 30
0.0
 11
90.0
 21
20.70353544371835
 31
0.0
  0
LINE
  5
1ED
330
1E7
100
AcDbEntity
  8
0
 62
     0
100
AcDbLine
 10
89.11968786098501
 20
20.0
 30
0.0
 11
90.0
 21
20.88031213901498
 31
0.0
  0
LINE
  5
1EE
330
1E7
100
AcDbEntity
  8
0
 62
     0
100
AcDbLine
 10
88.94291116568838
 20
20.0
 30
0.0
 11
90.0
 21
21.05708883431162
 31
0.0
  0
LINE
  5
1EF
330
1E7
100
AcDbEntity
  8
0
 62
     0
100
AcDbLine
 10
88.76613447039174
 20
20.0
 30
0.0
 11
90.0
 21
21.23386552960826
 31
0.0
  0
LINE
  5
1F0
330
1E7
100
AcDbEntity
  8
0
 62
     0
100
AcDbLine
 10
88.58935777509509
 20
20.0
 30
0.0
 11
90.0
 21
21.4106422249049
 31
0.0
  0
LINE
  5
1F1
330
1E7
100
AcDbEntity
  8
0
 62
     0
100
AcDbLine
 10
88.41258107979847
 20
20.0
 30
0.0
 11
90.0
 21
21.58741892020153
 31
0.0
  0
LINE
  5
1F2
330
1E7
100
AcDbEntity
  8
0
 62
     0
100
AcDbLine
 10
88.23580438450184
 20
20.0
 30
0.0
 11
90.0
 21
21.76419561549817
 31
0.0
  0
LINE
  5
1F3
330
1E7
100
AcDbEntity
  8
0
 62
     0
100
AcDbLine
 10
88.05902768920519
 20
20.0
 30
0.0
 11
90.0
 21
21.94097231079481
 31
0.0
  0
LINE
  5
1F4
330
1E7
100
AcDbEntity
  8
0
 62
     0
100
AcDbLine
 10
88.00369027956605
 20
20.12143928565751
 30
0.0
 11
89.87856071434249
 21
21.99630972043393
 31
0.0
  0
LINE
  5
1F5
330
1E7
100
AcDbEntity
  8
0
 62
     0
100
AcDbLine
 10
88.02582243095988
 20
20.32034813234795
 30
0.0
 11
89.67965186765203
 21
21.97417756904012
 31
0.0
  0
LINE
  5
1F6
330
1E7
100
AcDbEntity
  8
0
 62
     0
100
AcDbLine
 10
88.0764780899428
 20
20.5477804866275
 30
0.0
 11
89.4522195133725
 21
21.92352191005721
 31
0.0
  0
LINE
  5
1F7
330
1E7
100
AcDbEntity
  8
0
 62
     0
100
AcDbLine
 10
88.17905072311971
 20
20.82712981510105
 30
0.0
 11
89.17287018489895
 21
21.82094927688031
 31
0.0
  0
LINE
  5
1F8
330
1E7
100
AcDbEntity
  8
0
 62
     0
100
AcDbLine
 10
88.51652673163108
 20
21.34138251890909
 30
0.0
 11
88.65861748109091
 21
21.4834732683689
 31
0.0
  0
LINE
  5
1F9
330
1E7
100
AcDbEntity
  8
0
 62
     0
100
AcDbLine
 10
90.0
 20
19.9964286625318
 30
0.0
 11
90.0035713374682
 21
20.0
 31
0.0
  0
LINE
  5
1FA
330
1E7
100
AcDbEntity
  8
0
 62
     0
100
AcDbLine
 10
90.0
 20
19.81965196723516
 30
0.0
 11
90.18034803276483
 21
20.0
 31
0.0
  0
LINE
  5
1FB
330
1E7
100
AcDbEntity
  8
0
 62
     0
100
AcDbLine
 10
90.0
 20
19.64287527193851
 30
0.0
 11
90.35712472806148
 21
20.0
 31
0.0
  0
LINE
  5
1FC
330
1E7
100
AcDbEntity
  8
0
 62
     0
100
AcDbLine
 10
90.0
 20
19.46609857664189
 30
0.0
 11
90.53390142335812
 21
20.0
 31
0.0
  0
LINE
  5
1FD
330
1E7
100
AcDbEntity
  8
0
 62
     0
100
AcDbLine
 10
90.0
 20
19.28932188134525
 30
0.0
 11
90.71067811865477
 21
20.0
 31
0.0
  0
LINE
  5
1FE
330
1E7
100
AcDbEntity
  8
0
 62
     0
100
AcDbLine
 10
90.0
 20
19.11254518604861
 30
0.0
 11
90.88745481395138
 21
20.0
 31
0.0
  0
LINE
  5
1FF
330
1E7
100
AcDbEntity
  8
0
 62
     0
100
AcDbLine
 10
90.0
 20
18.93576849075198
 30
0.0
 11
91.06423150924801
 21
20.0
 31
0.0
  0
LINE
  5
200
330
1E7
100
AcDbEntity
  8
0
 62
     0
100
AcDbLine
 10
90.0
 20
18.75899179545534
 30
0.0
 11
91.24100820454463
 21
20.0
 31
0.0
  0
LINE
  5
201
330
1E7
100
AcDbEntity
  8
0
 62
     0
100
AcDbLine
 10
90.0
 20
18.5822151001587
 30
0.0
 11
91.4177848998413
 21
20.0
 31
0.0
  0
LINE
  5
202
330
1E7
100
AcDbEntity
  8
0
 62
     0
100
AcDbLine
 10
90.0
 20
18.40543840486207
 30
0.0
 11
91.59456159513792
 21
20.0
 31
0.0
  0
LINE
  5
203
330
1E7
100
AcDbEntity
  8
0
 62
     0
100
AcDbLine
 10
90.0
 20
18.22866170956543
 30
0.0
 11
91.77133829043457
 21
20.0
 31
0.0
  0
LINE
  5
204
330
1E7
100
AcDbEntity
  8
0
 62
     0
100
AcDbLine
 10
90.0
 20
18.05188501426879
 30
0.0
 11
91.9481149857312
 21
20.0
 31
0.0
  0
LINE
  5
205
330
1E7
100
AcDbEntity
  8
0
 62
     0
100
AcDbLine
 10
90.12906015604333
 20
18.00416847501547
 30
0.0
 11
91.99583152498451
 21
19.87093984395668
 31
0.0
  0
LINE
  5
206
330
1E7
100
AcDbEntity
  8
0
 62
     0
100
AcDbLine
 10
90.32889704253795
 20
18.0272286662135
 30
0.0
 11
91.97277133378651
 21
19.67110295746202
 31
0.0
  0
LINE
  5
207
330
1E7
100
AcDbEntity
  8
0
 62
     0
100
AcDbLine
 10
90.55780672535469
 20
18.07936165373355
 30
0.0
 11
91.92063834626644
 21
19.44219327464532
 31
0.0
  0
LINE
  5
208
330
1E7
100
AcDbEntity
  8
0
 62
     0
100
AcDbLine
 10
90.84032314287684
 20
18.18510137595909
 30
0.0
 11
91.8148986240409
 21
19.15967685712315
 31
0.0
  0
ENDBLK
  5
209
330
1E7
100
AcDbEntity
  8
0
100
AcDbBlockEnd
  0
BLOCK
  5
20B
330
20A
100
AcDbEntity
  8
0
100
AcDbBlockBegin
  2
LOCH_4MM
 70
     0
 10
0.0
 20
0.0
 30
0.0
  3
LOCH_4MM
  1

  0
LINE
  5
20C
330
20A
100
AcDbEntity
  8
0
 62
     1
100
AcDbLine
 10
3.0
 20
0.0
 30
0.0
 11
7.0
 21
0.0
 31
0.0
  0
LINE
  5
20D
330
20A
100
AcDbEntity
  8
0
  6
ByBlock
 62
     1
100
AcDbLine
 10
0.0
 20
-7.0
 30
0.0
 11
0.0
 21
-3.0
 31
0.0
  0
INSERT
  5
20E
330
20A
100
AcDbEntity
  8
0
 62
     1
100
AcDbBlockReference
  2
*X5
 10
-90.0
 20
-20.0
 30
0.0
1001
ACAD
1000
HATCH
1002
{
1070
    16
1000
ANSI31,I
1040
1.0
1040
0.0
1002
}
  0
CIRCLE
  5
20F
330
20A
100
AcDbEntity
  8
0
 62
     1
100
AcDbCircle
 10
0.0
 20
0.0
 30
0.0
 40
2.0
  0
LINE
  5
210
330
20A
100
AcDbEntity
  8
0
 62
     1
100
AcDbLine
 10
-2.0
 20
0.0
 30
0.0
 11
2.0
 21
0.0
 31
0.0
  0
LINE
  5
211
330
20A
100
AcDbEntity
  8
0
  6
ByBlock
 62
     1
100
AcDbLine
 10
-7.0
 20
0.0
 30
0.0
 11
-3.0
 21
0.0
 31
0.0
  0
LINE
  5
212
330
20A
100
AcDbEntity
  8
0
 62
     1
100
AcDbLine
 10
0.0
 20
-2.0
 30
0.0
 11
0.0
 21
2.0
 31
0.0
  0
LINE
  5
213
330
20A
100
AcDbEntity
  8
0
 62
     1
100
AcDbLine
 10
0.0
 20
3.0
 30
0.0
 11
0.0
 21
7.0
 31
0.0
  0
ENDBLK
  5
214
330
20A
100
AcDbEntity
  8
0
100
AcDbBlockEnd
  0
BLOCK
  5
216
330
215
100
AcDbEntity
  8
0
100
AcDbBlockBegin
  2
CA7-PA-11
 70
     0
 10
0.0
 20
0.0
 30
0.0
  3
CA7-PA-11
  1

  0
LINE
  5
4B9
330
215
100
AcDbEntity
  8
0
  6
STRICHLINIE
 48
6.0
100
AcDbLine
 10
-0.0000133333530812
 20
-36.0
 30
0.0
 11
0.0000133333275159
 21
35.99993094167178
 31
0.0
  0
LINE
  5
4BA
330
215
100
AcDbEntity
  8
0
  6
STRICHLINIE
 48
6.0
100
AcDbLine
 10
8.999986666646918
 20
-36.0
 30
0.0
 11
9.00001333332753
 21
35.99993094167178
 31
0.0
  0
CIRCLE
  5
4BB
330
215
100
AcDbEntity
  8
0
  6
STRICHLINIE
 48
6.0
100
AcDbCircle
 10
4.499991666654337
 20
-27.7
 30
0.0
 40
3.0
  0
LINE
  5
4BC
330
215
100
AcDbEntity
  8
0
  6
STRICHLINIE
 48
6.0
100
AcDbLine
 10
8.999991666654324
 20
-22.5
 30
0.0
 11
-0.0000083333456757
 21
-22.5
 31
0.0
  0
LINE
  5
4BD
330
215
100
AcDbEntity
  8
0
  6
STRICHLINIE
 48
6.0
100
AcDbLine
 10
8.999986666646918
 20
-36.0
 30
0.0
 11
-0.0000133333530812
 21
-36.0
 31
0.0
  0
CIRCLE
  5
4BE
330
215
100
AcDbEntity
  8
0
  6
STRICHLINIE
 48
6.0
100
AcDbCircle
 10
4.499991666654337
 20
12.30000000000001
 30
0.0
 40
3.0
  0
CIRCLE
  5
4BF
330
215
100
AcDbEntity
  8
0
  6
STRICHLINIE
 48
6.0
100
AcDbCircle
 10
4.499991666654337
 20
-12.30000000000001
 30
0.0
 40
3.0
  0
LINE
  5
4C0
330
215
100
AcDbEntity
  8
1
  6
STRICHLINIE
 48
6.0
100
AcDbLine
 10
-1.000008333345675
 20
0.0
 30
0.0
 11
0.999991666654324
 21
0.0
 31
0.0
  0
LINE
  5
4C1
330
215
100
AcDbEntity
  8
1
  6
STRICHLINIE
 48
6.0
100
AcDbLine
 10
7.999991666654324
 20
0.0
 30
0.0
 11
9.999991666654324
 21
0.0
 31
0.0
  0
CIRCLE
  5
4C2
330
215
100
AcDbEntity
  8
0
  6
STRICHLINIE
 48
6.0
100
AcDbCircle
 10
4.499991666654337
 20
27.7
 30
0.0
 40
3.0
  0
LINE
  5
4C3
330
215
100
AcDbEntity
  8
0
  6
STRICHLINIE
 48
6.0
100
AcDbLine
 10
0.0000083333453205
 20
22.499999
 30
0.0
 11
9.000008333345306
 21
22.49999899999997
 31
0.0
  0
LINE
  5
4C4
330
215
100
AcDbEntity
  8
0
  6
STRICHLINIE
 48
6.0
100
AcDbLine
 10
0.0000133333275159
 20
35.99993094167178
 30
0.0
 11
9.00001333316905
 21
35.99950305601812
 31
0.0
  0
ENDBLK
  5
223
330
215
100
AcDbEntity
  8
0
100
AcDbBlockEnd
  0
BLOCK
  5
261
330
260
100
AcDbEntity
  8
0
100
AcDbBlockBegin
  2
KTA7-45H
 70
     0
 10
0.0
 20
0.0
 30
0.0
  3
KTA7-45H
  1

  0
LINE
  5
262
330
260
100
AcDbEntity
  8
0
100
AcDbLine
 10
0.0
 20
54.850001
 30
0.0
 11
53.99999999999989
 21
54.850001
 31
0.0
  0
LINE
  5
263
330
260
100
AcDbEntity
  8
0
100
AcDbLine
 10
0.0000000000000284
 20
22.450001
 30
0.0
 11
53.99999999999989
 21
22.45000099999999
 31
0.0
  0
LINE
  5
264
330
260
100
AcDbEntity
  8
0
100
AcDbLine
 10
53.99999999999991
 20
-54.850001
 30
0.0
 11
-0.0000000000000142
 21
-54.850001
 31
0.0
  0
LINE
  5
265
330
260
100
AcDbEntity
  8
0
100
AcDbLine
 10
53.99999999999989
 20
-22.44999899999999
 30
0.0
 11
0.0000000000000142
 21
-22.44999899999999
 31
0.0
  0
LINE
  5
266
330
260
100
AcDbEntity
  8
0
100
AcDbLine
 10
-0.0000000000000142
 20
-54.850001
 30
0.0
 11
0.0
 21
54.850001
 31
0.0
  0
LINE
  5
267
330
260
100
AcDbEntity
  8
1
100
AcDbLine
 10
-1.0
 20
0.0
 30
0.0
 11
1.0
 21
0.0
 31
0.0
  0
LINE
  5
268
330
260
100
AcDbEntity
  8
0
100
AcDbLine
 10
53.99999999999989
 20
-54.850001
 30
0.0
 11
53.99999999999989
 21
54.85000100000004
 31
0.0
  0
LINE
  5
269
330
260
100
AcDbEntity
  8
0
100
AcDbLine
 10
26.99999999999997
 20
-31.550001
 30
0.0
 11
26.99999999999997
 21
-22.44999899999999
 31
0.0
  0
LINE
  5
26A
330
260
100
AcDbEntity
  8
0
100
AcDbLine
 10
49.34999999999993
 20
-31.550001
 30
0.0
 11
49.34999999999993
 21
-22.44999899999999
 31
0.0
  0
LINE
  5
26B
330
260
100
AcDbEntity
  8
0
100
AcDbLine
 10
4.65
 20
-31.55000099999998
 30
0.0
 11
4.649999999999986
 21
-22.44999899999999
 31
0.0
  0
CIRCLE
  5
26C
330
260
100
AcDbEntity
  8
0
  6
STRICHLINIE
100
AcDbCircle
 10
31.9
 20
-26.95000099999999
 30
0.0
 40
3.299999999999998
  0
LINE
  5
26D
330
260
100
AcDbEntity
  8
0
100
AcDbLine
 10
49.34999999999993
 20
-31.550001
 30
0.0
 11
4.649999999999986
 21
-31.55000099999998
 31
0.0
  0
CIRCLE
  5
26E
330
260
100
AcDbEntity
  8
0
100
AcDbCircle
 10
22.09999999999993
 20
-26.95000099999999
 30
0.0
 40
3.299999999999998
  0
CIRCLE
  5
26F
330
260
100
AcDbEntity
  8
0
100
AcDbCircle
 10
9.900009999999976
 20
-40.89999999999998
 30
0.0
 40
3.799999999999998
  0
CIRCLE
  5
270
330
260
100
AcDbEntity
  8
0
100
AcDbCircle
 10
9.499999999999966
 20
-26.95000099999999
 30
0.0
 40
3.299999999999998
  0
CIRCLE
  5
271
330
260
100
AcDbEntity
  8
0
100
AcDbCircle
 10
27.00000499999995
 20
-40.89999999999998
 30
0.0
 40
3.799999999999998
  0
CIRCLE
  5
272
330
260
100
AcDbEntity
  8
0
100
AcDbCircle
 10
44.09999999999993
 20
-40.89999999999998
 30
0.0
 40
3.799999999999998
  0
CIRCLE
  5
273
330
260
100
AcDbEntity
  8
0
  6
STRICHLINIE
100
AcDbCircle
 10
44.50000000000001
 20
-26.95000099999999
 30
0.0
 40
3.299999999999998
  0
LINE
  5
274
330
260
100
AcDbEntity
  8
0
100
AcDbLine
 10
33.84999999999996
 20
12.97031100000001
 30
0.0
 11
51.84999999999993
 21
12.97031100000004
 31
0.0
  0
LINE
  5
275
330
260
100
AcDbEntity
  8
0
100
AcDbLine
 10
51.84999999999993
 20
20.93108100000003
 30
0.0
 11
33.84999999999996
 21
20.93108100000002
 31
0.0
  0
ARC
  5
276
330
260
100
AcDbEntity
  8
0
100
AcDbCircle
 10
29.4
 20
-4.499998999999988
 30
0.0
 40
10.5
100
AcDbArc
 50
292.98823
 51
67.02421999999997
  0
LINE
  5
277
330
260
100
AcDbEntity
  8
0
100
AcDbLine
 10
33.4
 20
6.500001000000011
 30
0.0
 11
33.4
 21
-20.49999899999999
 31
0.0
  0
LINE
  5
278
330
260
100
AcDbEntity
  8
0
100
AcDbLine
 10
25.4
 20
6.500001000000011
 30
0.0
 11
25.4
 21
-20.49999899999999
 31
0.0
  0
ARC
  5
279
330
260
100
AcDbEntity
  8
0
100
AcDbCircle
 10
29.4
 20
-4.499998999999988
 30
0.0
 40
10.5
100
AcDbArc
 50
112.9867
 51
247.00609
  0
CIRCLE
  5
27A
330
260
100
AcDbEntity
  8
0
100
AcDbCircle
 10
11.99999999999996
 20
0.0000010000000117
 30
0.0
 40
3.75
  0
LINE
  5
27B
330
260
100
AcDbEntity
  8
0
100
AcDbLine
 10
32.4
 20
-21.49999899999999
 30
0.0
 11
26.4
 21
-21.49999899999999
 31
0.0
  0
ARC
  5
27C
330
260
100
AcDbEntity
  8
0
100
AcDbCircle
 10
26.4
 20
-20.49999899999999
 30
0.0
 40
1.0
100
AcDbArc
 50
180.0
 51
270.0
  0
ARC
  5
27D
330
260
100
AcDbEntity
  8
0
100
AcDbCircle
 10
32.4
 20
-20.49999899999999
 30
0.0
 40
0.9999999899999998
100
AcDbArc
 50
270.0
 51
0.0
  0
LINE
  5
27E
330
260
100
AcDbEntity
  8
0
100
AcDbLine
 10
33.84999999999993
 20
12.97031100000002
 30
0.0
 11
33.84999999999993
 21
20.93108100000002
 31
0.0
  0
LINE
  5
27F
330
260
100
AcDbEntity
  8
0
100
AcDbLine
 10
26.4
 20
7.500001000000011
 30
0.0
 11
32.4
 21
7.500001000000011
 31
0.0
  0
ARC
  5
280
330
260
100
AcDbEntity
  8
0
100
AcDbCircle
 10
26.4
 20
6.500001000000011
 30
0.0
 40
1.0
100
AcDbArc
 50
90.0
 51
180.0
  0
ARC
  5
281
330
260
100
AcDbEntity
  8
0
100
AcDbCircle
 10
32.4
 20
6.500001000000011
 30
0.0
 40
0.9999999899999998
100
AcDbArc
 50
0.000002648
 51
89.999999
  0
LINE
  5
282
330
260
100
AcDbEntity
  8
1
100
AcDbLine
 10
52.9999999999999
 20
0.0000000000000142
 30
0.0
 11
54.99999999999989
 21
0.0000000000000142
 31
0.0
  0
LINE
  5
283
330
260
100
AcDbEntity
  8
0
100
AcDbLine
 10
51.84999999999993
 20
20.93108100000005
 30
0.0
 11
51.84999999999996
 21
12.97031100000005
 31
0.0
  0
CIRCLE
  5
284
330
260
100
AcDbEntity
  8
0
100
AcDbCircle
 10
9.900009999999976
 20
40.90000100000001
 30
0.0
 40
3.799999999999998
  0
CIRCLE
  5
285
330
260
100
AcDbEntity
  8
0
100
AcDbCircle
 10
27.00000499999995
 20
40.90000100000001
 30
0.0
 40
3.799999999999998
  0
CIRCLE
  5
286
330
260
100
AcDbEntity
  8
0
100
AcDbCircle
 10
44.09999999999993
 20
40.90000100000001
 30
0.0
 40
3.799999999999998
  0
ENDBLK
  5
287
330
260
100
AcDbEntity
  8
0
100
AcDbBlockEnd
  0
BLOCK
  5
289
330
288
100
AcDbEntity
  8
0
100
AcDbBlockBegin
  2
KT7-PAF1
 70
     0
 10
0.0
 20
0.0
 30
0.0
  3
KT7-PAF1
  1

  0
CIRCLE
  5
471
330
288
100
AcDbEntity
  8
0
  6
STRICHLINIE
 48
6.0
100
AcDbCircle
 10
4.500009999999996
 20
-37.00000599999999
 30
0.0
 40
3.299999999999998
  0
LINE
  5
472
330
288
100
AcDbEntity
  8
0
  6
STRICHLINIE
 48
6.0
100
AcDbLine
 10
0.0000099999999748
 20
-45.95000500000002
 30
0.0
 11
0.0000099999999748
 21
45.94999
 31
0.0
  0
LINE
  5
473
330
288
100
AcDbEntity
  8
0
  6
STRICHLINIE
 48
6.0
100
AcDbLine
 10
9.000010000000019
 20
-45.95000500000001
 30
0.0
 11
9.000010000000024
 21
45.94999
 31
0.0
  0
LINE
  5
474
330
288
100
AcDbEntity
  8
0
  6
STRICHLINIE
 48
6.0
100
AcDbLine
 10
0.0000099999999748
 20
-45.95000500000001
 30
0.0
 11
9.000010000000019
 21
-45.950005
 31
0.0
  0
CIRCLE
  5
475
330
288
100
AcDbEntity
  8
0
  6
STRICHLINIE
 48
6.0
100
AcDbCircle
 10
4.500009999999996
 20
-26.00000599999999
 30
0.0
 40
3.299999999999998
  0
LINE
  5
476
330
288
100
AcDbEntity
  8
0
  6
STRICHLINIE
 48
6.0
100
AcDbLine
 10
0.0000099999999748
 20
45.94999
 30
0.0
 11
9.000010000000024
 21
45.94999
 31
0.0
  0
LINE
  5
477
330
288
100
AcDbEntity
  8
0
  6
STRICHLINIE
 48
6.0
100
AcDbLine
 10
0.0000099999999748
 20
-33.60000500000001
 30
0.0
 11
9.000010000000019
 21
-33.600005
 31
0.0
  0
LINE
  5
478
330
288
100
AcDbEntity
  8
0
  6
STRICHLINIE
 48
6.0
100
AcDbLine
 10
0.0000099999999748
 20
-22.50000499999998
 30
0.0
 11
9.000010000000024
 21
-22.50000499999999
 31
0.0
  0
CIRCLE
  5
479
330
288
100
AcDbEntity
  8
0
  6
STRICHLINIE
 48
6.0
100
AcDbCircle
 10
4.500009999999996
 20
36.99999099999998
 30
0.0
 40
3.299999999999998
  0
CIRCLE
  5
47A
330
288
100
AcDbEntity
  8
0
  6
STRICHLINIE
 48
6.0
100
AcDbCircle
 10
4.500009999999996
 20
25.99999099999998
 30
0.0
 40
3.299999999999998
  0
LINE
  5
47B
330
288
100
AcDbEntity
  8
0
  6
STRICHLINIE
 48
6.0
100
AcDbLine
 10
0.0000099999999748
 20
33.59999000000001
 30
0.0
 11
9.000010000000024
 21
33.59999000000001
 31
0.0
  0
LINE
  5
47C
330
288
100
AcDbEntity
  8
0
  6
STRICHLINIE
 48
6.0
100
AcDbLine
 10
0.0000099999999748
 20
22.49998999999998
 30
0.0
 11
9.000010000000024
 21
22.49998999999998
 31
0.0
  0
LINE
  5
47D
330
288
100
AcDbEntity
  8
1
  6
STRICHLINIE
 48
6.0
100
AcDbLine
 10
-1.0
 20
-0.0000075000000024
 30
0.0
 11
1.0
 21
-0.0000075000000024
 31
0.0
  0
LINE
  5
47E
330
288
100
AcDbEntity
  8
1
  6
STRICHLINIE
 48
6.0
100
AcDbLine
 10
8.000000000000046
 20
-0.0000074999999988
 30
0.0
 11
10.00000000000004
 21
-0.0000074999999988
 31
0.0
  0
ENDBLK
  5
298
330
288
100
AcDbEntity
  8
0
100
AcDbBlockEnd
  0
BLOCK
  5
29A
330
299
100
AcDbEntity
  8
0
100
AcDbBlockBegin
  2
W-32490
 70
     0
 10
0.0
 20
0.0
 30
0.0
  3
W-32490
  1

  0
LINE
  5
29B
330
299
100
AcDbEntity
  8
0
  6
Continuous
100
AcDbLine
 10
0.0000000000000284
 20
-218.7745166004056
 30
0.0
 11
0.0
 21
0.0
 31
0.0
  0
LINE
  5
29C
330
299
100
AcDbEntity
  8
0
  6
Continuous
100
AcDbLine
 10
54.0
 20
-228.0
 30
0.0
 11
54.00000000000003
 21
-0.0000000000000213
 31
0.0
  0
LINE
  5
29D
330
299
100
AcDbEntity
  8
0
  6
Continuous
100
AcDbLine
 10
3.40000000000009
 20
-228.0
 30
0.0
 11
54.00000000000003
 21
-228.0
 31
0.0
  0
LINE
  5
29E
330
299
100
AcDbEntity
  8
0
  6
Continuous
100
AcDbLine
 10
5.000000000000028
 20
-216.2499999999997
 30
0.0
 11
7.999999999614174
 21
-216.2506731062591
 31
0.0
  0
LINE
  5
29F
330
299
100
AcDbEntity
  8
0
  6
Continuous
100
AcDbLine
 10
0.0000000000000284
 20
-214.0
 30
0.0
 11
10.49999999999997
 21
-214.0
 31
0.0
  0
LINE
  5
2A0
330
299
100
AcDbEntity
  8
0
  6
Continuous
100
AcDbLine
 10
6.075483399592768
 20
-221.75
 30
0.0
 11
8.060840606689481
 21
-221.75
 31
0.0
  0
LINE
  5
2A1
330
299
100
AcDbEntity
  8
Mitte
 62
     3
100
AcDbLine
 10
3.0
 20
-219.0
 30
0.0
 11
11.0
 21
-219.0
 31
0.0
  0
LINE
  5
2A2
330
299
100
AcDbEntity
  8
1
  6
MITTE2
 62
     3
100
AcDbLine
 10
-4.0
 20
-189.0
 30
0.0
 11
58.0
 21
-189.0
 31
0.0
  0
LINE
  5
2A3
330
299
100
AcDbEntity
  8
Mitte
 62
     3
100
AcDbLine
 10
7.000000000000027
 20
-223.0
 30
0.0
 11
7.000000000000027
 21
-215.0
 31
0.0
  0
LINE
  5
2A4
330
299
100
AcDbEntity
  8
0
  6
Continuous
100
AcDbLine
 10
3.40000000000009
 20
-228.0
 30
0.0
 11
3.400000000000147
 21
-224.4254833995926
 31
0.0
  0
LINE
  5
2A5
330
299
100
AcDbEntity
  8
0
  6
Continuous
100
AcDbLine
 10
3.605023384545376
 20
-223.9305105213862
 30
0.0
 11
5.580509186242153
 21
-221.9550247196894
 31
0.0
  0
LINE
  5
2A6
330
299
100
AcDbEntity
  8
0
  6
Continuous
100
AcDbLine
 10
3.605025253169543
 20
-223.930508652762
 30
0.0
 11
5.580508652762205
 21
-221.9550252531694
 31
0.0
  0
ARC
  5
2A7
330
299
100
AcDbEntity
  8
0
  6
Continuous
100
AcDbCircle
 10
4.100000000000136
 20
-224.4254833995926
 30
0.0
 40
0.7
100
AcDbArc
 50
135.0000000000003
 51
179.9999999999992
  0
ARC
  5
2A8
330
299
100
AcDbEntity
  8
0
  6
Continuous
100
AcDbCircle
 10
6.075483399592768
 20
-222.4499999999999
 30
0.0
 40
0.7
100
AcDbArc
 50
90.0
 51
134.9999999999982
  0
ARC
  5
2A9
330
299
100
AcDbEntity
  8
0
  6
Continuous
100
AcDbCircle
 10
5.000000000000142
 20
-219.0000000000003
 30
0.0
 40
2.750000000000254
100
AcDbArc
 50
90.0
 51
159.6200236591096
  0
ARC
  5
2AA
330
299
100
AcDbEntity
  8
0
  6
Continuous
100
AcDbCircle
 10
0.7000000000001876
 20
-218.7745166004056
 30
0.0
 40
0.7000000000001311
100
AcDbArc
 50
179.9997253276037
 51
314.9999072034843
  0
LINE
  5
2AB
330
299
100
AcDbEntity
  8
0
  6
Continuous
100
AcDbLine
 10
1.194973945166025
 20
-219.2694921489013
 30
0.0
 11
2.422139167333995
 21
-218.0423269267333
 31
0.0
  0
ARC
  5
2AC
330
299
100
AcDbEntity
  8
0
  6
Continuous
100
AcDbCircle
 10
0.7000000000000739
 20
-218.7745166004051
 30
0.0
 40
0.7000000000000175
100
AcDbArc
 50
179.9997253249494
 51
314.9999072034658
  0
LINE
  5
2AD
330
299
100
AcDbEntity
  8
0
  6
Continuous
100
AcDbLine
 10
1.194973945166025
 20
-219.2694921489013
 30
0.0
 11
2.422139167333995
 21
-218.0423269267333
 31
0.0
  0
LINE
  5
2AE
330
299
100
AcDbEntity
  8
1
100
AcDbLine
 10
-0.9999999999999715
 20
-174.0
 30
0.0
 11
1.000000000000027
 21
-174.0
 31
0.0
  0
LINE
  5
2AF
330
299
100
AcDbEntity
  8
1
100
AcDbLine
 10
-0.9999999999999715
 20
-166.5
 30
0.0
 11
1.000000000000027
 21
-166.5
 31
0.0
  0
ARC
  5
2B0
330
299
100
AcDbEntity
  8
0
  6
Continuous
100
AcDbCircle
 10
8.000000000000255
 20
-219.0006731062594
 30
0.0
 40
2.749999999999884
100
AcDbArc
 50
271.2677070664679
 51
90.0
  0
LINE
  5
2B1
330
299
100
AcDbEntity
  8
0
  6
Continuous
100
AcDbLine
 10
13.00000000000003
 20
-222.4999999999998
 30
0.0
 11
13.00000000000003
 21
-216.5
 31
0.0
  0
ARC
  5
2B2
330
299
100
AcDbEntity
  8
0
  6
Continuous
100
AcDbCircle
 10
47.00000000000001
 20
-219.0
 30
0.0
 40
2.75
100
AcDbArc
 50
270.0
 51
90.0
  0
ARC
  5
2B3
330
299
100
AcDbEntity
  8
0
  6
Continuous
100
AcDbCircle
 10
45.9999999999998
 20
-219.0
 30
0.0
 40
2.75
100
AcDbArc
 50
90.0
 51
270.0
  0
LINE
  5
2B4
330
299
100
AcDbEntity
  8
0
  6
Continuous
100
AcDbLine
 10
41.00000000000004
 20
-222.500000000002
 30
0.0
 11
41.00000000000004
 21
-216.5
 31
0.0
  0
LINE
  5
2B5
330
299
100
AcDbEntity
  8
Mitte
 62
     3
100
AcDbLine
 10
47.00000000000014
 20
-223.0
 30
0.0
 11
47.00000000000014
 21
-215.0
 31
0.0
  0
LINE
  5
2B6
330
299
100
AcDbEntity
  8
0
  6
Continuous
100
AcDbLine
 10
12.00000000000014
 20
-228.0
 30
0.0
 11
12.00000000000014
 21
-223.4999999999996
 31
0.0
  0
LINE
  5
2B7
330
299
100
AcDbEntity
  8
0
  6
Continuous
100
AcDbLine
 10
12.00000000000014
 20
-223.4999999999996
 30
0.0
 11
13.00000000000003
 21
-222.4999999999998
 31
0.0
  0
LINE
  5
2B8
330
299
100
AcDbEntity
  8
0
  6
Continuous
100
AcDbLine
 10
41.99999999999991
 20
-228.0
 30
0.0
 11
41.99999999999991
 21
-223.5000000000019
 31
0.0
  0
LINE
  5
2B9
330
299
100
AcDbEntity
  8
0
  6
Continuous
100
AcDbLine
 10
41.00000000000004
 20
-222.500000000002
 30
0.0
 11
41.99999999999991
 21
-223.5000000000019
 31
0.0
  0
LINE
  5
2BA
330
299
100
AcDbEntity
  8
0
  6
Continuous
100
AcDbLine
 10
46.00000000000003
 20
-221.7499999999998
 30
0.0
 11
47.00000000000001
 21
-221.7499999999998
 31
0.0
  0
LINE
  5
2BB
330
299
100
AcDbEntity
  8
0
  6
Continuous
100
AcDbLine
 10
43.50000000000007
 20
-214.0
 30
0.0
 11
54.00000000000005
 21
-214.0
 31
0.0
  0
LINE
  5
2BC
330
299
100
AcDbEntity
  8
0
  6
Continuous
100
AcDbLine
 10
10.49999999999997
 20
-214.0
 30
0.0
 11
13.00000000000003
 21
-216.5
 31
0.0
  0
LINE
  5
2BD
330
299
100
AcDbEntity
  8
0
  6
Continuous
100
AcDbLine
 10
41.00000000000004
 20
-216.5
 30
0.0
 11
43.50000000000007
 21
-214.0
 31
0.0
  0
LINE
  5
2BE
330
299
100
AcDbEntity
  8
0
  6
Continuous
100
AcDbLine
 10
46.00000000000003
 20
-216.2499999999997
 30
0.0
 11
47.00000000000001
 21
-216.2499999999997
 31
0.0
  0
LINE
  5
2BF
330
299
100
AcDbEntity
  8
0
  6
Continuous
100
AcDbLine
 10
0.0000000000000284
 20
-14.00000000000001
 30
0.0
 11
10.4999999999998
 21
-14.00000000000001
 31
0.0
  0
CIRCLE
  5
2C0
330
299
100
AcDbEntity
  8
0
  6
Continuous
100
AcDbCircle
 10
7.000000000000027
 20
-8.999999999999722
 30
0.0
 40
2.75
  0
LINE
  5
2C1
330
299
100
AcDbEntity
  8
0
  6
Continuous
100
AcDbLine
 10
0.0000000000000284
 20
0.0
 30
0.0
 11
54.00000000000003
 21
-0.0000000000000213
 31
0.0
  0
LINE
  5
2C2
330
299
100
AcDbEntity
  8
Mitte
 62
     3
100
AcDbLine
 10
3.0
 20
-9.0
 30
0.0
 11
11.0
 21
-9.0
 31
0.0
  0
LINE
  5
2C3
330
299
100
AcDbEntity
  8
1
  6
MITTE2
 62
     3
100
AcDbLine
 10
-4.0
 20
-64.0
 30
0.0
 11
58.0
 21
-64.0
 31
0.0
  0
LINE
  5
2C4
330
299
100
AcDbEntity
  8
1
100
AcDbLine
 10
-0.9999999999999715
 20
-69.00000000000002
 30
0.0
 11
1.000000000000027
 21
-69.00000000000002
 31
0.0
  0
LINE
  5
2C5
330
299
100
AcDbEntity
  8
Mitte
 62
     3
100
AcDbLine
 10
7.000000000000027
 20
-13.0
 30
0.0
 11
7.000000000000027
 21
-5.0
 31
0.0
  0
LINE
  5
2C6
330
299
100
AcDbEntity
  8
0
  6
Continuous
100
AcDbLine
 10
54.00000000000003
 20
-136.4167709350586
 30
0.0
 11
54.00000000000003
 21
-136.3186683654785
 31
0.0
  0
LINE
  5
2C7
330
299
100
AcDbEntity
  8
0
  6
Continuous
100
AcDbLine
 10
13.00000000000003
 20
-11.49999999999986
 30
0.0
 11
13.00000000000003
 21
-5.50000000000046
 31
0.0
  0
CIRCLE
  5
2C8
330
299
100
AcDbEntity
  8
0
  6
Continuous
100
AcDbCircle
 10
47.00000000000014
 20
-9.000000000000177
 30
0.0
 40
2.750000000000081
  0
LINE
  5
2C9
330
299
100
AcDbEntity
  8
0
  6
Continuous
100
AcDbLine
 10
41.00000000000004
 20
-11.49999999999973
 30
0.0
 11
41.00000000000004
 21
-5.499999999998919
 31
0.0
  0
LINE
  5
2CA
330
299
100
AcDbEntity
  8
Mitte
 62
     3
100
AcDbLine
 10
47.00000000000014
 20
-13.0
 30
0.0
 11
47.00000000000014
 21
-5.0
 31
0.0
  0
LINE
  5
2CB
330
299
100
AcDbEntity
  8
0
  6
Continuous
100
AcDbLine
 10
43.50000000000017
 20
-14.00000000000001
 30
0.0
 11
54.00000000000003
 21
-14.00000000000001
 31
0.0
  0
LINE
  5
2CC
330
299
100
AcDbEntity
  8
0
  6
Continuous
100
AcDbLine
 10
10.4999999999998
 20
-14.00000000000001
 30
0.0
 11
13.00000000000003
 21
-11.49999999999986
 31
0.0
  0
LINE
  5
2CD
330
299
100
AcDbEntity
  8
0
  6
Continuous
100
AcDbLine
 10
41.00000000000004
 20
-11.49999999999973
 30
0.0
 11
43.50000000000017
 21
-14.00000000000001
 31
0.0
  0
LINE
  5
2CE
330
299
100
AcDbEntity
  8
0
  6
Continuous
100
AcDbLine
 10
12.00000000000003
 20
-4.500000000000433
 30
0.0
 11
13.00000000000003
 21
-5.50000000000046
 31
0.0
  0
LINE
  5
2CF
330
299
100
AcDbEntity
  8
0
  6
Continuous
100
AcDbLine
 10
12.00000000000003
 20
-4.500000000000433
 30
0.0
 11
12.0
 21
0.0
 31
0.0
  0
LINE
  5
2D0
330
299
100
AcDbEntity
  8
0
  6
Continuous
100
AcDbLine
 10
41.00000000000004
 20
-5.499999999998919
 30
0.0
 11
42.00000000000001
 21
-4.499999999998735
 31
0.0
  0
LINE
  5
2D1
330
299
100
AcDbEntity
  8
0
  6
Continuous
100
AcDbLine
 10
42.00000000000001
 20
-4.499999999998735
 30
0.0
 11
42.00000000000001
 21
-0.0000000000000213
 31
0.0
  0
LINE
  5
2D2
330
299
100
AcDbEntity
  8
Mitte
 62
     3
100
AcDbLine
 10
43.0
 20
-9.0
 30
0.0
 11
51.0
 21
-9.0
 31
0.0
  0
LINE
  5
2D3
330
299
100
AcDbEntity
  8
Mitte
 62
     3
100
AcDbLine
 10
43.0
 20
-219.0
 30
0.0
 11
51.0
 21
-219.0
 31
0.0
  0
ENDBLK
  5
2D4
330
299
100
AcDbEntity
  8
0
100
AcDbBlockEnd
  0
BLOCK
  5
2D6
330
2D5
100
AcDbEntity
  8
0
100
AcDbBlockBegin
  2
DIN RAIL
 70
     0
 10
0.0
 20
0.0
 30
0.0
  3
DIN RAIL
  1

  0
LINE
  5
2D7
330
2D5
100
AcDbEntity
  8
Busbars
100
AcDbLine
 10
19.9999991196878
 20
-17.50000059560153
 30
0.0
 11
0.0
 21
-17.50000059560153
 31
0.0
  0
LINE
  5
2D8
330
2D5
100
AcDbEntity
  8
Busbars
100
AcDbLine
 10
22.69858160559994
 20
-12.50000059560153
 30
0.0
 11
0.0
 21
-12.50000059560153
 31
0.0
  0
LINE
  5
2D9
330
2D5
100
AcDbEntity
  8
Busbars
100
AcDbLine
 10
17.30141663377571
 20
12.49999940439846
 30
0.0
 11
0.0
 21
12.49999940439846
 31
0.0
  0
LINE
  5
2DA
330
2D5
100
AcDbEntity
  8
Busbars
100
AcDbLine
 10
19.9999991196878
 20
17.49999940439846
 30
0.0
 11
0.0
 21
17.49999940439846
 31
0.0
  0
LINE
  5
2DB
330
2D5
100
AcDbEntity
  8
Busbars
100
AcDbLine
 10
0.0
 20
17.49999940439846
 30
0.0
 11
0.0
 21
-17.50000059560153
 31
0.0
  0
LINE
  5
2DC
330
2D5
100
AcDbEntity
  8
1
100
AcDbLine
 10
-1.0
 20
-0.0000005956015343
 30
0.0
 11
1.0
 21
-0.0000005956015343
 31
0.0
  0
ARC
  5
2DD
330
2D5
100
AcDbEntity
  8
Busbars
100
AcDbCircle
 10
30.23086159192849
 20
8.749999404398351
 30
0.0
 40
13.46228238174729
100
AcDbArc
 50
139.4611061902023
 51
220.5388938097977
  0
ARC
  5
2DE
330
2D5
100
AcDbEntity
  8
Busbars
100
AcDbCircle
 10
9.769136647447112
 20
-8.750000595601646
 30
0.0
 40
13.46228238174729
100
AcDbArc
 50
319.4611061902023
 51
40.5388938097977
  0
LINE
  5
2DF
330
2D5
100
AcDbEntity
  8
Mitte
100
AcDbLine
 10
0.0
 20
-0.0000005956015343
 30
0.0
 11
24.0
 21
-0.0000005956015343
 31
0.0
  0
ENDBLK
  5
2E0
330
2D5
100
AcDbEntity
  8
0
100
AcDbBlockEnd
  0
BLOCK
  5
2FA
330
2F9
100
AcDbEntity
  8
0
100
AcDbBlockBegin
  2
CA7-30...37
 70
     0
 10
0.0
 20
0.0
 30
0.0
  3
CA7-30...37
  1

  0
LWPOLYLINE
  5
2FB
330
2F9
100
AcDbEntity
  8
0
100
AcDbPolyline
 90
        4
 70
     1
 43
0.0
 10
45.0
 20
31.5
 10
45.0
 20
-31.5
 10
0.0
 20
-31.5
 10
0.0
 20
31.5
  0
CIRCLE
  5
2FC
330
2F9
100
AcDbEntity
  8
0
100
AcDbCircle
 10
14.0
 20
-37.0
 30
0.0
 40
3.0
  0
INSERT
  5
2FD
330
2F9
100
AcDbEntity
  8
Screwholes
100
AcDbBlockReference
  2
LOCH_4MM
 10
5.0
 20
-30.0
 30
0.0
 50
180.0
  0
LWPOLYLINE
  5
2FE
330
2F9
100
AcDbEntity
  8
0
100
AcDbPolyline
 90
        4
 70
     1
 43
0.0
 10
36.5
 20
-31.5
 10
36.5
 20
-43.0
 10
8.5
 20
-43.0
 10
8.5
 20
-31.5
  0
LWPOLYLINE
  5
2FF
330
2F9
100
AcDbEntity
  8
0
100
AcDbPolyline
 90
        4
 70
     0
 43
0.0
 10
8.5
 20
-37.0
 10
0.0
 20
-37.0
 10
0.0
 20
-31.5
 10
45.0
 20
-31.5
  0
CIRCLE
  5
300
330
2F9
100
AcDbEntity
  8
0
100
AcDbCircle
 10
8.0
 20
-26.0
 30
0.0
 40
3.0
  0
CIRCLE
  5
301
330
2F9
100
AcDbEntity
  8
0
100
AcDbCircle
 10
37.0
 20
-26.0
 30
0.0
 40
3.0
  0
CIRCLE
  5
302
330
2F9
100
AcDbEntity
  8
0
100
AcDbCircle
 10
31.0
 20
-37.0
 30
0.0
 40
3.0
  0
CIRCLE
  5
303
330
2F9
100
AcDbEntity
  8
0
100
AcDbCircle
 10
22.5
 20
-26.0
 30
0.0
 40
3.0
  0
LWPOLYLINE
  5
304
330
2F9
100
AcDbEntity
  8
0
100
AcDbPolyline
 90
        3
 70
     0
 43
0.0
 10
45.0
 20
-31.5
 10
45.0
 20
-37.0
 10
36.5
 20
-37.0
  0
LWPOLYLINE
  5
305
330
2F9
100
AcDbEntity
  8
0
100
AcDbPolyline
 90
        4
 70
     0
 43
0.0
 10
17.5
 20
37.0
 10
0.0
 20
37.0
 10
0.0
 20
31.5
 10
45.0
 20
31.5
  0
LINE
  5
306
330
2F9
100
AcDbEntity
  8
1
100
AcDbLine
 10
-1.0
 20
0.0
 30
0.0
 11
1.0
 21
0.0
 31
0.0
  0
CIRCLE
  5
307
330
2F9
100
AcDbEntity
  8
0
100
AcDbCircle
 10
8.0
 20
26.0
 30
0.0
 40
3.0
  0
CIRCLE
  5
308
330
2F9
100
AcDbEntity
  8
0
100
AcDbCircle
 10
37.0
 20
26.0
 30
0.0
 40
3.0
  0
LWPOLYLINE
  5
309
330
2F9
100
AcDbEntity
  8
0
100
AcDbPolyline
 90
        3
 70
     0
 43
0.0
 10
45.0
 20
31.5
 10
45.0
 20
37.0
 10
27.5
 20
37.0
  0
INSERT
  5
30A
330
2F9
100
AcDbEntity
  8
Screwholes
100
AcDbBlockReference
  2
LOCH_4MM
 10
40.0
 20
30.0
 30
0.0
 50
180.0
  0
CIRCLE
  5
30B
330
2F9
100
AcDbEntity
  8
0
100
AcDbCircle
 10
22.5
 20
26.0
 30
0.0
 40
3.0
  0
LWPOLYLINE
  5
30C
330
2F9
100
AcDbEntity
  8
0
100
AcDbPolyline
 90
        4
 70
     1
 43
0.0
 10
27.5
 20
31.5
 10
27.5
 20
38.5
 10
17.5
 20
38.5
 10
17.5
 20
31.5
  0
LINE
  5
30D
330
2F9
100
AcDbEntity
  8
1
100
AcDbLine
 10
44.0
 20
0.0
 30
0.0
 11
46.0
 21
0.0
 31
0.0
  0
LINE
  5
30E
330
2F9
100
AcDbEntity
  8
1
100
AcDbLine
 10
22.5
 20
-42.0
 30
0.0
 11
22.5
 21
-44.0
 31
0.0
  0
ENDBLK
  5
30F
330
2F9
100
AcDbEntity
  8
0
100
AcDbBlockEnd
  0
BLOCK
  5
311
330
310
100
AcDbEntity
  8
0
100
AcDbBlockBegin
  2
W-32489
 70
     0
 10
0.0
 20
0.0
 30
0.0
  3
W-32489
  1

  0
LINE
  5
312
330
310
100
AcDbEntity
  8
0
  6
Continuous
100
AcDbLine
 10
44.99999999999997
 20
-228.0
 30
0.0
 11
44.99999999999997
 21
0.0000000000000142
 31
0.0
  0
LINE
  5
313
330
310
100
AcDbEntity
  8
0
  6
Continuous
100
AcDbLine
 10
0.0
 20
-218.7745166004061
 30
0.0
 11
0.0
 21
0.0000000000000142
 31
0.0
  0
LINE
  5
314
330
310
100
AcDbEntity
  8
0
  6
Continuous
100
AcDbLine
 10
8.499999999999772
 20
-214.0
 30
0.0
 11
11.0
 21
-216.5
 31
0.0
  0
LINE
  5
315
330
310
100
AcDbEntity
  8
0
  6
Continuous
100
AcDbLine
 10
8.400000000000089
 20
-224.0999999999998
 30
0.0
 11
10.99999999999994
 21
-221.5
 31
0.0
  0
LINE
  5
316
330
310
100
AcDbEntity
  8
0
  6
Continuous
100
AcDbLine
 10
3.40000000000009
 20
-228.0
 30
0.0
 11
44.99999999999997
 21
-228.0
 31
0.0
  0
ARC
  5
317
330
310
100
AcDbEntity
  8
0
  6
Continuous
100
AcDbCircle
 10
6.0
 20
-219.0
 30
0.0
 40
2.749999999999968
100
AcDbArc
 50
271.267715956222
 51
90.0
  0
LINE
  5
318
330
310
100
AcDbEntity
  8
Mitte
 62
     3
100
AcDbLine
 10
1.0
 20
-219.0
 30
0.0
 11
9.0
 21
-219.0
 31
0.0
  0
LINE
  5
319
330
310
100
AcDbEntity
  8
1
  6
MITTE2
 62
     3
100
AcDbLine
 10
-4.0
 20
-189.0
 30
0.0
 11
49.0
 21
-189.0
 31
0.0
  0
LINE
  5
31A
330
310
100
AcDbEntity
  8
Mitte
 62
     3
100
AcDbLine
 10
5.0
 20
-223.0
 30
0.0
 11
5.0
 21
-215.0
 31
0.0
  0
LINE
  5
31B
330
310
100
AcDbEntity
  8
0
  6
Continuous
100
AcDbLine
 10
8.400000000000089
 20
-228.0
 30
0.0
 11
8.400000000000089
 21
-224.0999999999998
 31
0.0
  0
LINE
  5
31C
330
310
100
AcDbEntity
  8
0
  6
Continuous
100
AcDbLine
 10
3.40000000000009
 20
-228.0
 30
0.0
 11
3.40000000000009
 21
-224.4254833995938
 31
0.0
  0
LINE
  5
31D
330
310
100
AcDbEntity
  8
0
  6
Continuous
100
AcDbLine
 10
3.605025253169457
 20
-223.9305086527632
 30
0.0
 11
5.581353095160692
 21
-221.954180810772
 31
0.0
  0
ARC
  5
31E
330
310
100
AcDbEntity
  8
0
  6
Continuous
100
AcDbCircle
 10
4.100000000000078
 20
-224.4254833995938
 30
0.0
 40
0.7000000000000137
100
AcDbArc
 50
135.0000000000049
 51
180.0
  0
ARC
  5
31F
330
310
100
AcDbEntity
  8
0
  6
Continuous
100
AcDbCircle
 10
6.076327841991314
 20
-222.4491555576026
 30
0.0
 40
0.6999999999999879
100
AcDbArc
 50
91.26771595622534
 51
135.0000000000003
  0
LINE
  5
320
330
310
100
AcDbEntity
  8
0
  6
Continuous
100
AcDbLine
 10
0.0
 20
-214.0
 30
0.0
 11
8.499999999999772
 21
-214.0
 31
0.0
  0
ARC
  5
321
330
310
100
AcDbEntity
  8
0
  6
Continuous
100
AcDbCircle
 10
5.0
 20
-219.0
 30
0.0
 40
2.75
100
AcDbArc
 50
90.0
 51
159.6199773286435
  0
LINE
  5
322
330
310
100
AcDbEntity
  8
0
  6
Continuous
100
AcDbLine
 10
1.19497474683061
 20
-219.2694913472366
 30
0.0
 11
2.4221404597331
 21
-218.0423256343341
 31
0.0
  0
ARC
  5
323
330
310
100
AcDbEntity
  8
0
  6
Continuous
100
AcDbCircle
 10
0.6999999999999888
 20
-218.7745166004061
 30
0.0
 40
0.6999999999999888
100
AcDbArc
 50
180.0
 51
315.0000000000006
  0
LINE
  5
324
330
310
100
AcDbEntity
  8
0
  6
Continuous
100
AcDbLine
 10
4.999999999998351
 20
-216.2499999999997
 30
0.0
 11
5.999999999998351
 21
-216.2499999999997
 31
0.0
  0
LINE
  5
325
330
310
100
AcDbEntity
  8
1
100
AcDbLine
 10
-1.0
 20
-174.0
 30
0.0
 11
1.0
 21
-174.0
 31
0.0
  0
LINE
  5
326
330
310
100
AcDbEntity
  8
1
100
AcDbLine
 10
-1.0
 20
-166.5
 30
0.0
 11
1.0
 21
-166.5
 31
0.0
  0
LINE
  5
327
330
310
100
AcDbEntity
  8
0
  6
Continuous
100
AcDbLine
 10
10.99999999999994
 20
-221.5
 30
0.0
 11
11.0
 21
-216.5
 31
0.0
  0
ARC
  5
328
330
310
100
AcDbEntity
  8
0
  6
Continuous
100
AcDbCircle
 10
40.0
 20
-219.0
 30
0.0
 40
2.75
100
AcDbArc
 50
270.0
 51
90.0
  0
LINE
  5
329
330
310
100
AcDbEntity
  8
0
  6
Continuous
100
AcDbLine
 10
34.0
 20
-221.5
 30
0.0
 11
34.0
 21
-216.5
 31
0.0
  0
ARC
  5
32A
330
310
100
AcDbEntity
  8
0
  6
Continuous
100
AcDbCircle
 10
39.0
 20
-219.0
 30
0.0
 40
2.75
100
AcDbArc
 50
90.0
 51
270.0
  0
LINE
  5
32B
330
310
100
AcDbEntity
  8
Mitte
 62
     3
100
AcDbLine
 10
40.0
 20
-223.0
 30
0.0
 11
40.0
 21
-215.0
 31
0.0
  0
LINE
  5
32C
330
310
100
AcDbEntity
  8
0
  6
Continuous
100
AcDbLine
 10
36.59999999999994
 20
-228.0
 30
0.0
 11
36.5999999999999
 21
-224.0999999999999
 31
0.0
  0
LINE
  5
32D
330
310
100
AcDbEntity
  8
0
  6
Continuous
100
AcDbLine
 10
34.0
 20
-221.5
 30
0.0
 11
36.5999999999999
 21
-224.0999999999999
 31
0.0
  0
LINE
  5
32E
330
310
100
AcDbEntity
  8
0
  6
Continuous
100
AcDbLine
 10
39.00000000000165
 20
-221.7499999999997
 30
0.0
 11
40.00000000000165
 21
-221.7499999999997
 31
0.0
  0
LINE
  5
32F
330
310
100
AcDbEntity
  8
0
  6
Continuous
100
AcDbLine
 10
36.50000000000011
 20
-214.0
 30
0.0
 11
45.0
 21
-214.0
 31
0.0
  0
LINE
  5
330
330
310
100
AcDbEntity
  8
0
  6
Continuous
100
AcDbLine
 10
34.0
 20
-216.5
 30
0.0
 11
36.50000000000011
 21
-214.0
 31
0.0
  0
LINE
  5
331
330
310
100
AcDbEntity
  8
0
  6
Continuous
100
AcDbLine
 10
39.00000000000165
 20
-216.2499999999997
 30
0.0
 11
40.00000000000165
 21
-216.2499999999997
 31
0.0
  0
LINE
  5
332
330
310
100
AcDbEntity
  8
1
  6
MITTE2
 62
     3
100
AcDbLine
 10
-4.0
 20
-63.99999999999998
 30
0.0
 11
49.0
 21
-63.99999999999998
 31
0.0
  0
LINE
  5
333
330
310
100
AcDbEntity
  8
1
100
AcDbLine
 10
-1.0
 20
-69.0
 30
0.0
 11
1.0
 21
-69.0
 31
0.0
  0
LINE
  5
334
330
310
100
AcDbEntity
  8
0
  6
Continuous
100
AcDbLine
 10
7.499999999999943
 20
-13.99999999999998
 30
0.0
 11
10.0
 21
-11.49999999999995
 31
0.0
  0
LINE
  5
335
330
310
100
AcDbEntity
  8
0
  6
Continuous
100
AcDbLine
 10
0.0
 20
0.0000000000000142
 30
0.0
 11
44.99999999999997
 21
0.0000000000000142
 31
0.0
  0
LINE
  5
336
330
310
100
AcDbEntity
  8
0
  6
Continuous
100
AcDbLine
 10
8.400000000000089
 20
-3.900000000000153
 30
0.0
 11
10.0
 21
-5.500000000000021
 31
0.0
  0
LINE
  5
337
330
310
100
AcDbEntity
  8
Mitte
 62
     3
100
AcDbLine
 10
1.0
 20
-9.0
 30
0.0
 11
9.0
 21
-9.0
 31
0.0
  0
LINE
  5
338
330
310
100
AcDbEntity
  8
Mitte
 62
     3
100
AcDbLine
 10
5.0
 20
-13.0
 30
0.0
 11
5.0
 21
-5.0
 31
0.0
  0
CIRCLE
  5
339
330
310
100
AcDbEntity
  8
0
  6
Continuous
100
AcDbCircle
 10
5.0
 20
-8.999999999999984
 30
0.0
 40
2.75
  0
LINE
  5
33A
330
310
100
AcDbEntity
  8
0
  6
Continuous
100
AcDbLine
 10
0.0
 20
-13.99999999999998
 30
0.0
 11
7.499999999999943
 21
-13.99999999999998
 31
0.0
  0
LINE
  5
33B
330
310
100
AcDbEntity
  8
0
  6
Continuous
100
AcDbLine
 10
8.400000000000089
 20
-3.900000000000153
 30
0.0
 11
8.400000000000089
 21
0.0000000000000142
 31
0.0
  0
LINE
  5
33C
330
310
100
AcDbEntity
  8
Mitte
 62
     3
100
AcDbLine
 10
40.0
 20
-13.0
 30
0.0
 11
40.0
 21
-5.0
 31
0.0
  0
CIRCLE
  5
33D
330
310
100
AcDbEntity
  8
0
  6
Continuous
100
AcDbCircle
 10
40.0
 20
-8.999999999999984
 30
0.0
 40
2.75
  0
LINE
  5
33E
330
310
100
AcDbEntity
  8
0
  6
Continuous
100
AcDbLine
 10
10.0
 20
-11.49999999999995
 30
0.0
 11
10.0
 21
-5.500000000000021
 31
0.0
  0
LINE
  5
33F
330
310
100
AcDbEntity
  8
0
  6
Continuous
100
AcDbLine
 10
35.0
 20
-11.49999999999988
 30
0.0
 11
35.00000000000006
 21
-5.500000000000021
 31
0.0
  0
LINE
  5
340
330
310
100
AcDbEntity
  8
0
  6
Continuous
100
AcDbLine
 10
37.50000000000007
 20
-13.99999999999998
 30
0.0
 11
45.0
 21
-13.99999999999998
 31
0.0
  0
LINE
  5
341
330
310
100
AcDbEntity
  8
0
  6
Continuous
100
AcDbLine
 10
35.0
 20
-11.49999999999988
 30
0.0
 11
37.50000000000007
 21
-13.99999999999998
 31
0.0
  0
LINE
  5
342
330
310
100
AcDbEntity
  8
0
  6
Continuous
100
AcDbLine
 10
36.5999999999999
 20
-3.900000000000112
 30
0.0
 11
36.59999999999994
 21
0.0000000000000142
 31
0.0
  0
LINE
  5
343
330
310
100
AcDbEntity
  8
0
  6
Continuous
100
AcDbLine
 10
35.00000000000006
 20
-5.500000000000021
 30
0.0
 11
36.5999999999999
 21
-3.900000000000112
 31
0.0
  0
LINE
  5
344
330
310
100
AcDbEntity
  8
Mitte
 62
     3
100
AcDbLine
 10
36.0
 20
-9.0
 30
0.0
 11
44.0
 21
-9.0
 31
0.0
  0
LINE
  5
345
330
310
100
AcDbEntity
  8
Mitte
 62
     3
100
AcDbLine
 10
36.0
 20
-219.0
 30
0.0
 11
44.0
 21
-219.0
 31
0.0
  0
ENDBLK
  5
346
330
310
100
AcDbEntity
  8
0
100
AcDbBlockEnd
  0
BLOCK
  5
3B2
330
3B1
100
AcDbEntity
  8
0
100
AcDbBlockBegin
  2
*D14
 70
     1
 10
0.0
 20
0.0
 30
0.0
  3
*D14
  1

  0
LINE
  5
41D
330
3B1
100
AcDbEntity
  8
Measures
 62
     0
370
    -2
100
AcDbLine
 10
76.88130089431552
 20
124.0997512099685
 30
0.0
 11
116.3813008943155
 21
124.0997512099685
 31
0.0
  0
LINE
  5
41E
330
3B1
100
AcDbEntity
  8
Measures
 62
     0
370
    -2
100
AcDbLine
 10
100.881315114217
 20
60.09975077867991
 30
0.0
 11
116.3813008943155
 21
60.09975077867991
 31
0.0
  0
LINE
  5
41F
330
3B1
100
AcDbEntity
  8
Measures
 62
     0
370
    -2
100
AcDbLine
 10
113.8813008943155
 20
119.0997512099685
 30
0.0
 11
113.8813008943155
 21
65.09975077867991
 31
0.0
  0
SOLID
  5
420
330
3B1
100
AcDbEntity
  8
Measures
 62
     0
100
AcDbTrace
 10
113.0479675609822
 20
119.0997512099685
 30
0.0
 11
114.7146342276488
 21
119.0997512099685
 31
0.0
 12
113.8813008943155
 22
124.0997512099685
 32
0.0
 13
113.8813008943155
 23
124.0997512099685
 33
0.0
  0
SOLID
  5
421
330
3B1
100
AcDbEntity
  8
Measures
 62
     0
100
AcDbTrace
 10
113.0479675609822
 20
65.09975077867991
 30
0.0
 11
114.7146342276488
 21
65.09975077867991
 31
0.0
 12
113.8813008943155
 22
60.09975077867991
 32
0.0
 13
113.8813008943155
 23
60.09975077867991
 33
0.0
  0
MTEXT
  5
422
330
3B1
100
AcDbEntity
  8
Measures
 62
     0
100
AcDbMText
 10
110.328435955707
 20
92.09975099432423
 30
0.0
 40
5.0
 41
0.0
 71
     5
 72
     1
  1
\A1;64
  7
ARIAL
 11
0.0000000000000001
 21
1.0
 31
0.0
 73
     1
 44
1.0
  0
POINT
  5
423
330
3B1
100
AcDbEntity
  8
Defpoints
 62
     0
100
AcDbPoint
 10
75.88130089431551
 20
124.0997512099685
 30
0.0
  0
POINT
  5
424
330
3B1
100
AcDbEntity
  8
Defpoints
 62
     0
100
AcDbPoint
 10
99.88131511421698
 20
60.09975077867991
 30
0.0
  0
POINT
  5
425
330
3B1
100
AcDbEntity
  8
Defpoints
 62
     0
100
AcDbPoint
 10
113.8813008943155
 20
60.09975077867991
 30
0.0
  0
ENDBLK
  5
3B3
330
3B1
100
AcDbEntity
  8
0
100
AcDbBlockEnd
  0
BLOCK
  5
3BE
330
3BD
100
AcDbEntity
  8
0
100
AcDbBlockBegin
  2
*D15
 70
     1
 10
0.0
 20
0.0
 30
0.0
  3
*D15
  1

  0
LINE
  5
426
330
3BD
100
AcDbEntity
  8
Measures
 62
     0
370
    -2
100
AcDbLine
 10
100.881315114217
 20
60.099751969883
 30
0.0
 11
116.3813008943155
 21
60.09975196988297
 31
0.0
  0
LINE
  5
427
330
3BD
100
AcDbEntity
  8
Measures
 62
     0
370
    -2
100
AcDbLine
 10
100.8813095586531
 20
-64.90024922132008
 30
0.0
 11
116.3813008943155
 21
-64.90024922132008
 31
0.0
  0
LINE
  5
428
330
3BD
100
AcDbEntity
  8
Measures
 62
     0
370
    -2
100
AcDbLine
 10
113.8813008943155
 20
55.09975196988297
 30
0.0
 11
113.8813008943155
 21
-59.90024922132008
 31
0.0
  0
SOLID
  5
429
330
3BD
100
AcDbEntity
  8
Measures
 62
     0
100
AcDbTrace
 10
113.0479675609822
 20
55.09975196988297
 30
0.0
 11
114.7146342276488
 21
55.09975196988297
 31
0.0
 12
113.8813008943155
 22
60.09975196988297
 32
0.0
 13
113.8813008943155
 23
60.09975196988297
 33
0.0
  0
SOLID
  5
42A
330
3BD
100
AcDbEntity
  8
Measures
 62
     0
100
AcDbTrace
 10
113.0479675609822
 20
-59.90024922132008
 30
0.0
 11
114.7146342276488
 21
-59.90024922132008
 31
0.0
 12
113.8813008943155
 22
-64.90024922132008
 32
0.0
 13
113.8813008943155
 23
-64.90024922132008
 33
0.0
  0
MTEXT
  5
42B
330
3BD
100
AcDbEntity
  8
Measures
 62
     0
100
AcDbMText
 10
110.328435955707
 20
-2.400248625718528
 30
0.0
 40
5.0
 41
0.0
 71
     5
 72
     1
  1
\A1;125
  7
ARIAL
 11
0.0000000000000001
 21
1.0
 31
0.0
 73
     1
 44
1.0
  0
POINT
  5
42C
330
3BD
100
AcDbEntity
  8
Defpoints
 62
     0
100
AcDbPoint
 10
99.88131511421698
 20
60.099751969883
 30
0.0
  0
POINT
  5
42D
330
3BD
100
AcDbEntity
  8
Defpoints
 62
     0
100
AcDbPoint
 10
99.88130955865315
 20
-64.90024922132008
 30
0.0
  0
POINT
  5
42E
330
3BD
100
AcDbEntity
  8
Defpoints
 62
     0
100
AcDbPoint
 10
113.8813008943155
 20
-64.90024922132008
 30
0.0
  0
ENDBLK
  5
3BF
330
3BD
100
AcDbEntity
  8
0
100
AcDbBlockEnd
  0
BLOCK
  5
3CA
330
3C9
100
AcDbEntity
  8
0
100
AcDbBlockBegin
  2
*D16
 70
     1
 10
0.0
 20
0.0
 30
0.0
  3
*D16
  1

  0
LINE
  5
42F
330
3C9
100
AcDbEntity
  8
Measures
 62
     0
370
    -2
100
AcDbLine
 10
76.88131511421699
 20
-103.9002486257185
 30
0.0
 11
131.3813008943155
 21
-103.9002486257185
 31
0.0
  0
LINE
  5
430
330
3C9
100
AcDbEntity
  8
Measures
 62
     0
370
    -2
100
AcDbLine
 10
76.88130089431552
 20
124.0997508554588
 30
0.0
 11
131.3813008943155
 21
124.0997508554588
 31
0.0
  0
LINE
  5
431
330
3C9
100
AcDbEntity
  8
Measures
 62
     0
370
    -2
100
AcDbLine
 10
128.8813008943154
 20
-98.90024862571856
 30
0.0
 11
128.8813008943155
 21
119.0997508554588
 31
0.0
  0
SOLID
  5
432
330
3C9
100
AcDbEntity
  8
Measures
 62
     0
100
AcDbTrace
 10
128.0479675609821
 20
-98.90024862571856
 30
0.0
 11
129.7146342276488
 21
-98.90024862571856
 31
0.0
 12
128.8813008943154
 22
-103.9002486257185
 32
0.0
 13
128.8813008943154
 23
-103.9002486257185
 33
0.0
  0
SOLID
  5
433
330
3C9
100
AcDbEntity
  8
Measures
 62
     0
100
AcDbTrace
 10
128.0479675609822
 20
119.0997508554588
 30
0.0
 11
129.7146342276489
 21
119.0997508554588
 31
0.0
 12
128.8813008943155
 22
124.0997508554588
 32
0.0
 13
128.8813008943155
 23
124.0997508554588
 33
0.0
  0
MTEXT
  5
434
330
3C9
100
AcDbEntity
  8
Measures
 62
     0
100
AcDbMText
 10
125.328435955707
 20
10.09975111487015
 30
0.0
 40
5.0
 41
0.0
 71
     5
 72
     1
  1
\A1;228
  7
ARIAL
 11
0.0000000000000001
 21
1.0
 31
0.0
 73
     1
 44
1.0
  0
POINT
  5
435
330
3C9
100
AcDbEntity
  8
Defpoints
 62
     0
100
AcDbPoint
 10
75.88131511421696
 20
-103.9002486257185
 30
0.0
  0
POINT
  5
436
330
3C9
100
AcDbEntity
  8
Defpoints
 62
     0
100
AcDbPoint
 10
75.88130089431551
 20
124.0997508554588
 30
0.0
  0
POINT
  5
437
330
3C9
100
AcDbEntity
  8
Defpoints
 62
     0
100
AcDbPoint
 10
128.8813008943155
 20
124.0997508554588
 30
0.0
  0
ENDBLK
  5
3CB
330
3C9
100
AcDbEntity
  8
0
100
AcDbBlockEnd
  0
BLOCK
  5
3D6
330
3D5
100
AcDbEntity
  8
0
100
AcDbBlockBegin
  2
*D17
 70
     1
 10
0.0
 20
0.0
 30
0.0
  3
*D17
  1

  0
LINE
  5
4DE
330
3D5
100
AcDbEntity
  8
Measures
 62
     0
370
    -2
100
AcDbLine
 10
-23.11869910568448
 20
-95.9002487900315
 30
0.0
 11
-23.11869910568449
 21
-138.8460542933517
 31
0.0
  0
LINE
  5
4DF
330
3D5
100
AcDbEntity
  8
Measures
 62
     0
370
    -2
100
AcDbLine
 10
75.88132185402971
 20
-104.9002496118768
 30
0.0
 11
75.88132185402971
 21
-138.8460542933517
 31
0.0
  0
LINE
  5
4E0
330
3D5
100
AcDbEntity
  8
Measures
 62
     0
370
    -2
100
AcDbLine
 10
-18.11869910568448
 20
-136.3460542933517
 30
0.0
 11
70.88132185402971
 21
-136.3460542933517
 31
0.0
  0
SOLID
  5
4E1
330
3D5
100
AcDbEntity
  8
Measures
 62
     0
100
AcDbTrace
 10
-18.11869910568448
 20
-135.5127209600184
 30
0.0
 11
-18.11869910568448
 21
-137.179387626685
 31
0.0
 12
-23.11869910568449
 22
-136.3460542933517
 32
0.0
 13
-23.11869910568449
 23
-136.3460542933517
 33
0.0
  0
SOLID
  5
4E2
330
3D5
100
AcDbEntity
  8
Measures
 62
     0
100
AcDbTrace
 10
70.88132185402971
 20
-135.5127209600184
 30
0.0
 11
70.88132185402971
 21
-137.179387626685
 31
0.0
 12
75.88132185402971
 22
-136.3460542933517
 32
0.0
 13
75.88132185402971
 23
-136.3460542933517
 33
0.0
  0
MTEXT
  5
4E3
330
3D5
100
AcDbEntity
  8
Measures
 62
     0
100
AcDbMText
 10
26.38131137417261
 20
-132.7931893547432
 30
0.0
 40
5.0
 41
0.0
 71
     5
 72
     1
  1
\A1;99
  7
ARIAL
 73
     1
 44
1.0
  0
POINT
  5
4E4
330
3D5
100
AcDbEntity
  8
Defpoints
 62
     0
100
AcDbPoint
 10
-23.11869910568448
 20
-94.90024879003149
 30
0.0
  0
POINT
  5
4E5
330
3D5
100
AcDbEntity
  8
Defpoints
 62
     0
100
AcDbPoint
 10
75.88132185402971
 20
-103.9002496118768
 30
0.0
  0
POINT
  5
4E6
330
3D5
100
AcDbEntity
  8
Defpoints
 62
     0
100
AcDbPoint
 10
75.88132185402971
 20
-136.3460542933517
 30
0.0
  0
ENDBLK
  5
3D7
330
3D5
100
AcDbEntity
  8
0
100
AcDbBlockEnd
  0
BLOCK
  5
3EE
330
3ED
100
AcDbEntity
  8
0
100
AcDbBlockBegin
  2
*D18
 70
     1
 10
0.0
 20
0.0
 30
0.0
  3
*D18
  1

  0
LINE
  5
44A
330
3ED
100
AcDbEntity
  8
Measures
 62
     0
370
    -2
100
AcDbLine
 10
-21.11867814597026
 20
115.0997503881231
 30
0.0
 11
-75.61869910568443
 21
115.0997503881232
 31
0.0
  0
LINE
  5
44B
330
3ED
100
AcDbEntity
  8
Measures
 62
     0
370
    -2
100
AcDbLine
 10
-21.11867814597026
 20
-94.90024961187684
 30
0.0
 11
-75.61869910568448
 21
-94.90024961187682
 31
0.0
  0
LINE
  5
44C
330
3ED
100
AcDbEntity
  8
Measures
 62
     0
370
    -2
100
AcDbLine
 10
-73.11869910568443
 20
110.0997503881232
 30
0.0
 11
-73.11869910568448
 21
-89.90024961187682
 31
0.0
  0
SOLID
  5
44D
330
3ED
100
AcDbEntity
  8
Measures
 62
     0
100
AcDbTrace
 10
-73.95203243901775
 20
110.0997503881232
 30
0.0
 11
-72.28536577235111
 21
110.0997503881232
 31
0.0
 12
-73.11869910568443
 22
115.0997503881232
 32
0.0
 13
-73.11869910568443
 23
115.0997503881232
 33
0.0
  0
SOLID
  5
44E
330
3ED
100
AcDbEntity
  8
Measures
 62
     0
100
AcDbTrace
 10
-73.95203243901781
 20
-89.90024961187682
 30
0.0
 11
-72.28536577235115
 21
-89.90024961187682
 31
0.0
 12
-73.11869910568448
 22
-94.90024961187682
 32
0.0
 13
-73.11869910568448
 23
-94.90024961187682
 33
0.0
  0
MTEXT
  5
44F
330
3ED
100
AcDbEntity
  8
Measures
 62
     0
100
AcDbMText
 10
-76.67156404429293
 20
10.09975038812317
 30
0.0
 40
5.0
 41
0.0
 71
     5
 72
     1
  1
\A1;210
  7
ARIAL
 11
0.0000000000000001
 21
1.0
 31
0.0
 73
     1
 44
1.0
  0
POINT
  5
450
330
3ED
100
AcDbEntity
  8
Defpoints
 62
     0
100
AcDbPoint
 10
-20.11867814597026
 20
115.0997503881231
 30
0.0
  0
POINT
  5
451
330
3ED
100
AcDbEntity
  8
Defpoints
 62
     0
100
AcDbPoint
 10
-20.11867814597026
 20
-94.90024961187684
 30
0.0
  0
POINT
  5
452
330
3ED
100
AcDbEntity
  8
Defpoints
 62
     0
100
AcDbPoint
 10
-73.11869910568448
 20
-94.90024961187682
 30
0.0
  0
ENDBLK
  5
3EF
330
3ED
100
AcDbEntity
  8
0
100
AcDbBlockEnd
  0
BLOCK
  5
3FA
330
3F9
100
AcDbEntity
  8
0
100
AcDbBlockBegin
  2
*D19
 70
     1
 10
0.0
 20
0.0
 30
0.0
  3
*D19
  1

  0
LINE
  5
4F0
330
3F9
100
AcDbEntity
  8
Measures
 62
     0
370
    -2
100
AcDbLine
 10
-16.11867814597023
 20
120.0997503881231
 30
0.0
 11
-16.11867814597023
 21
157.3226543368322
 31
0.0
  0
LINE
  5
4F1
330
3F9
100
AcDbEntity
  8
Measures
 62
     0
370
    -2
100
AcDbLine
 10
70.88132185402973
 20
120.0997503881231
 30
0.0
 11
70.88132185402973
 21
157.3226543368322
 31
0.0
  0
LINE
  5
4F2
330
3F9
100
AcDbEntity
  8
Measures
 62
     0
370
    -2
100
AcDbLine
 10
-11.11867814597023
 20
154.8226543368322
 30
0.0
 11
65.88132185402972
 21
154.8226543368322
 31
0.0
  0
SOLID
  5
4F3
330
3F9
100
AcDbEntity
  8
Measures
 62
     0
100
AcDbTrace
 10
-11.11867814597023
 20
155.6559876701655
 30
0.0
 11
-11.11867814597023
 21
153.9893210034988
 31
0.0
 12
-16.11867814597023
 22
154.8226543368322
 32
0.0
 13
-16.11867814597023
 23
154.8226543368322
 33
0.0
  0
SOLID
  5
4F4
330
3F9
100
AcDbEntity
  8
Measures
 62
     0
100
AcDbTrace
 10
65.88132185402972
 20
155.6559876701655
 30
0.0
 11
65.88132185402972
 21
153.9893210034988
 31
0.0
 12
70.88132185402973
 22
154.8226543368322
 32
0.0
 13
70.88132185402973
 23
154.8226543368322
 33
0.0
  0
MTEXT
  5
4F5
330
3F9
100
AcDbEntity
  8
Measures
 62
     0
100
AcDbMText
 10
27.38132185402975
 20
158.3755192754406
 30
0.0
 40
5.0
 41
0.0
 71
     5
 72
     1
  1
\A1;87
  7
ARIAL
 73
     1
 44
1.0
  0
POINT
  5
4F6
330
3F9
100
AcDbEntity
  8
Defpoints
 62
     0
100
AcDbPoint
 10
-16.11867814597023
 20
119.0997503881231
 30
0.0
  0
POINT
  5
4F7
330
3F9
100
AcDbEntity
  8
Defpoints
 62
     0
100
AcDbPoint
 10
70.88132185402973
 20
119.0997503881231
 30
0.0
  0
POINT
  5
4F8
330
3F9
100
AcDbEntity
  8
Defpoints
 62
     0
100
AcDbPoint
 10
70.88132185402973
 20
154.8226543368322
 30
0.0
  0
ENDBLK
  5
3FB
330
3F9
100
AcDbEntity
  8
0
100
AcDbBlockEnd
  0
BLOCK
  5
406
330
405
100
AcDbEntity
  8
0
100
AcDbBlockBegin
  2
*D20
 70
     1
 10
0.0
 20
0.0
 30
0.0
  3
*D20
  1

  0
LINE
  5
45C
330
405
100
AcDbEntity
  8
Measures
 62
     0
370
    -2
100
AcDbLine
 10
-24.11867814597027
 20
124.0997503881231
 30
0.0
 11
-60.61869910568447
 21
124.0997503881231
 31
0.0
  0
LINE
  5
45D
330
405
100
AcDbEntity
  8
Measures
 62
     0
370
    -2
100
AcDbLine
 10
-29.11869910568448
 20
55.0997512099685
 30
0.0
 11
-60.61869910568447
 21
55.09975120996851
 31
0.0
  0
LINE
  5
45E
330
405
100
AcDbEntity
  8
Measures
 62
     0
370
    -2
100
AcDbLine
 10
-58.11869910568447
 20
119.0997503881232
 30
0.0
 11
-58.11869910568447
 21
60.09975120996851
 31
0.0
  0
SOLID
  5
45F
330
405
100
AcDbEntity
  8
Measures
 62
     0
100
AcDbTrace
 10
-58.9520324390178
 20
119.0997503881232
 30
0.0
 11
-57.28536577235114
 21
119.0997503881232
 31
0.0
 12
-58.11869910568447
 22
124.0997503881231
 32
0.0
 13
-58.11869910568447
 23
124.0997503881231
 33
0.0
  0
SOLID
  5
460
330
405
100
AcDbEntity
  8
Measures
 62
     0
100
AcDbTrace
 10
-58.95203243901782
 20
60.09975120996851
 30
0.0
 11
-57.28536577235114
 21
60.09975120996851
 31
0.0
 12
-58.11869910568447
 22
55.09975120996851
 32
0.0
 13
-58.11869910568447
 23
55.09975120996851
 33
0.0
  0
MTEXT
  5
461
330
405
100
AcDbEntity
  8
Measures
 62
     0
100
AcDbMText
 10
-61.67156404429295
 20
89.59975079904586
 30
0.0
 40
5.0
 41
0.0
 71
     5
 72
     1
  1
\A1;69
  7
ARIAL
 11
0.0000000000000001
 21
1.0
 31
0.0
 73
     1
 44
1.0
  0
POINT
  5
462
330
405
100
AcDbEntity
  8
Defpoints
 62
     0
100
AcDbPoint
 10
-23.11867814597027
 20
124.0997503881231
 30
0.0
  0
POINT
  5
463
330
405
100
AcDbEntity
  8
Defpoints
 62
     0
100
AcDbPoint
 10
-28.11869910568449
 20
55.0997512099685
 30
0.0
  0
POINT
  5
464
330
405
100
AcDbEntity
  8
Defpoints
 62
     0
100
AcDbPoint
 10
-58.11869910568447
 20
55.09975120996851
 30
0.0
  0
ENDBLK
  5
407
330
405
100
AcDbEntity
  8
0
100
AcDbBlockEnd
  0
BLOCK
  5
412
330
411
100
AcDbEntity
  8
0
100
AcDbBlockBegin
  2
*D21
 70
     1
 10
0.0
 20
0.0
 30
0.0
  3
*D21
  1

  0
LINE
  5
465
330
411
100
AcDbEntity
  8
Measures
 62
     0
370
    -2
100
AcDbLine
 10
-29.11869910568448
 20
55.0997512099685
 30
0.0
 11
-60.61869910568447
 21
55.09975120996851
 31
0.0
  0
LINE
  5
466
330
411
100
AcDbEntity
  8
Measures
 62
     0
370
    -2
100
AcDbLine
 10
-29.11869910568448
 20
-49.9002487900315
 30
0.0
 11
-60.6186991056845
 21
-49.90024879003149
 31
0.0
  0
LINE
  5
467
330
411
100
AcDbEntity
  8
Measures
 62
     0
370
    -2
100
AcDbLine
 10
-58.11869910568447
 20
50.09975120996851
 30
0.0
 11
-58.11869910568449
 21
-44.90024879003149
 31
0.0
  0
SOLID
  5
468
330
411
100
AcDbEntity
  8
Measures
 62
     0
100
AcDbTrace
 10
-58.9520324390178
 20
50.09975120996851
 30
0.0
 11
-57.28536577235114
 21
50.09975120996851
 31
0.0
 12
-58.11869910568447
 22
55.09975120996851
 32
0.0
 13
-58.11869910568447
 23
55.09975120996851
 33
0.0
  0
SOLID
  5
469
330
411
100
AcDbEntity
  8
Measures
 62
     0
100
AcDbTrace
 10
-58.95203243901782
 20
-44.90024879003149
 30
0.0
 11
-57.28536577235114
 21
-44.90024879003149
 31
0.0
 12
-58.1186991056845
 22
-49.90024879003149
 32
0.0
 13
-58.1186991056845
 23
-49.90024879003149
 33
0.0
  0
MTEXT
  5
46A
330
411
100
AcDbEntity
  8
Measures
 62
     0
100
AcDbMText
 10
-61.67156404429293
 20
2.599751209968498
 30
0.0
 40
5.0
 41
0.0
 71
     5
 72
     1
  1
\A1;105
  7
ARIAL
 11
0.0000000000000001
 21
1.0
 31
0.0
 73
     1
 44
1.0
  0
POINT
  5
46B
330
411
100
AcDbEntity
  8
Defpoints
 62
     0
100
AcDbPoint
 10
-28.11869910568449
 20
55.0997512099685
 30
0.0
  0
POINT
  5
46C
330
411
100
AcDbEntity
  8
Defpoints
 62
     0
100
AcDbPoint
 10
-28.11869910568449
 20
-49.9002487900315
 30
0.0
  0
POINT
  5
46D
330
411
100
AcDbEntity
  8
Defpoints
 62
     0
100
AcDbPoint
 10
-58.1186991056845
 20
-49.90024879003149
 30
0.0
  0
ENDBLK
  5
413
330
411
100
AcDbEntity
  8
0
100
AcDbBlockEnd
  0
BLOCK
  5
58B
330
58A
100
AcDbEntity
  8
0
100
AcDbBlockBegin
  2
*D22
 70
     1
 10
0.0
 20
0.0
 30
0.0
  3
*D22
  1

  0
LINE
  5
5A3
330
58A
100
AcDbEntity
  8
Measures
 62
     0
370
    -2
100
AcDbLine
 10
-32.11869981266905
 20
-86.90024961187683
 30
0.0
 11
-32.11869981266906
 21
-154.876223170687
 31
0.0
  0
LINE
  5
5A4
330
58A
100
AcDbEntity
  8
Measures
 62
     0
370
    -2
100
AcDbLine
 10
84.88132185398811
 20
-86.9002929452824
 30
0.0
 11
84.88132185398811
 21
-154.876223170687
 31
0.0
  0
LINE
  5
5A5
330
58A
100
AcDbEntity
  8
Measures
 62
     0
370
    -2
100
AcDbLine
 10
-27.11869981266906
 20
-152.376223170687
 30
0.0
 11
79.88132185398811
 21
-152.376223170687
 31
0.0
  0
SOLID
  5
5A6
330
58A
100
AcDbEntity
  8
Measures
 62
     0
100
AcDbTrace
 10
-27.11869981266906
 20
-151.5428898373536
 30
0.0
 11
-27.11869981266906
 21
-153.2095565040203
 31
0.0
 12
-32.11869981266906
 22
-152.376223170687
 32
0.0
 13
-32.11869981266906
 23
-152.376223170687
 33
0.0
  0
SOLID
  5
5A7
330
58A
100
AcDbEntity
  8
Measures
 62
     0
100
AcDbTrace
 10
79.88132185398811
 20
-151.5428898373536
 30
0.0
 11
79.88132185398811
 21
-153.2095565040203
 31
0.0
 12
84.88132185398811
 22
-152.376223170687
 32
0.0
 13
84.88132185398811
 23
-152.376223170687
 33
0.0
  0
MTEXT
  5
5A8
330
58A
100
AcDbEntity
  8
Measures
 62
     0
100
AcDbMText
 10
26.38131102065953
 20
-148.8659912470854
 30
0.0
 40
5.0
 41
0.0
 71
     5
 72
     1
  1
\A1;117
  7
ARIAL
 73
     1
 44
1.0
  0
POINT
  5
5A9
330
58A
100
AcDbEntity
  8
Defpoints
 62
     0
100
AcDbPoint
 10
-32.11869981266905
 20
-85.90024961187683
 30
0.0
  0
POINT
  5
5AA
330
58A
100
AcDbEntity
  8
Defpoints
 62
     0
100
AcDbPoint
 10
84.88132185398811
 20
-85.90029294528241
 30
0.0
  0
POINT
  5
5AB
330
58A
100
AcDbEntity
  8
Defpoints
 62
     0
100
AcDbPoint
 10
84.88132185398811
 20
-152.376223170687
 30
0.0
  0
ENDBLK
  5
58C
330
58A
100
AcDbEntity
  8
0
100
AcDbBlockEnd
  0
ENDSEC
  0
SECTION
  2
ENTITIES
  0
DIMENSION
  5
393
330
1F
100
AcDbEntity
  8
Measures
100
AcDbDimension
  2
*D14
 10
113.8813008943155
 20
60.09975077867991
 30
0.0
 11
110.328435955707
 21
92.09975099432423
 31
0.0
 70
    32
 71
     5
 42
64.00000043128859
  3
ARIAL
100
AcDbAlignedDimension
 13
75.88130089431551
 23
124.0997512099685
 33
0.0
 14
99.88131511421698
 24
60.09975077867991
 34
0.0
 50
90.0
100
AcDbRotatedDimension
  0
DIMENSION
  5
394
330
1F
100
AcDbEntity
  8
Measures
100
AcDbDimension
  2
*D15
 10
113.8813008943155
 20
-64.90024922132008
 30
0.0
 11
110.328435955707
 21
-2.400248625718528
 31
0.0
 70
    32
 71
     5
 42
125.000001191203
  3
ARIAL
100
AcDbAlignedDimension
 13
99.88131511421698
 23
60.099751969883
 33
0.0
 14
99.88130955865315
 24
-64.90024922132008
 34
0.0
 50
90.0
100
AcDbRotatedDimension
  0
DIMENSION
  5
395
330
1F
100
AcDbEntity
  8
Measures
100
AcDbDimension
  2
*D16
 10
128.8813008943155
 20
124.0997508554588
 30
0.0
 11
125.328435955707
 21
10.09975111487015
 31
0.0
 70
    32
 71
     5
 42
227.9999994811774
  3
ARIAL
100
AcDbAlignedDimension
 13
75.88131511421696
 23
-103.9002486257185
 33
0.0
 14
75.88130089431551
 24
124.0997508554588
 34
0.0
 50
90.0
100
AcDbRotatedDimension
  0
DIMENSION
  5
396
330
1F
100
AcDbEntity
  8
Measures
100
AcDbDimension
  2
*D17
 10
75.88132185402971
 20
-136.3460542933517
 30
0.0
 11
26.38131137417261
 21
-132.7931893547432
 31
0.0
 70
    32
 71
     5
 42
99.00002095971421
  3
ARIAL
100
AcDbAlignedDimension
 13
-23.11869910568448
 23
-94.90024879003149
 33
0.0
 14
75.88132185402971
 24
-103.9002496118768
 34
0.0
100
AcDbRotatedDimension
  0
INSERT
  5
398
330
1F
100
AcDbEntity
  8
Busbars
100
AcDbBlockReference
  2
DIN RAIL
 10
75.88131511421696
 20
60.09975137428146
 30
0.0
  0
INSERT
  5
399
330
1F
100
AcDbEntity
  8
Busbars
100
AcDbBlockReference
  2
DIN RAIL
 10
75.88130955865317
 20
-64.90024862571853
 30
0.0
  0
INSERT
  5
39A
330
1F
100
AcDbEntity
  8
Busbars
100
AcDbBlockReference
  2
DIN RAIL
 10
-23.11868488578303
 20
60.09975137428146
 30
0.0
 50
180.0
  0
INSERT
  5
39B
330
1F
100
AcDbEntity
  8
Busbars
100
AcDbBlockReference
  2
DIN RAIL
 10
-23.118684885783
 20
-64.90024862571853
 30
0.0
 50
180.0
  0
DIMENSION
  5
39C
330
1F
100
AcDbEntity
  8
Measures
100
AcDbDimension
  2
*D18
 10
-73.11869910568448
 20
-94.90024961187682
 30
0.0
 11
-76.67156404429293
 21
10.09975038812317
 31
0.0
 70
    32
 71
     5
 42
210.0
  3
ARIAL
100
AcDbAlignedDimension
 13
-20.11867814597026
 23
115.0997503881231
 33
0.0
 14
-20.11867814597026
 24
-94.90024961187684
 34
0.0
 50
90.0
100
AcDbRotatedDimension
  0
DIMENSION
  5
39D
330
1F
100
AcDbEntity
  8
Measures
100
AcDbDimension
  2
*D19
 10
70.88132185402973
 20
154.8226543368322
 30
0.0
 11
27.38132185402975
 21
158.3755192754406
 31
0.0
 70
    32
 71
     5
 42
86.99999999999995
  3
ARIAL
100
AcDbAlignedDimension
 13
-16.11867814597023
 23
119.0997503881231
 33
0.0
 14
70.88132185402973
 24
119.0997503881231
 34
0.0
100
AcDbRotatedDimension
  0
INSERT
  5
39E
330
1F
100
AcDbEntity
  8
GESTRICHELT
100
AcDbBlockReference
  2
CRI7E-24
 10
-0.6186864793159687
 20
-92.90024961187684
 30
0.0
  0
INSERT
  5
39F
330
1F
100
AcDbEntity
  8
GESTRICHELT
100
AcDbBlockReference
  2
CA7-PV-22
 10
-0.6186781459702644
 20
-49.90024961187683
 30
0.0
  0
INSERT
  5
3A0
330
1F
100
AcDbEntity
  8
GESTRICHELT
100
AcDbBlockReference
  2
CA7-PV-22
 10
53.38133518735722
 20
-49.90031867020505
 30
0.0
  0
INSERT
  5
3A1
330
1F
100
AcDbEntity
  8
GESTRICHELT
100
AcDbBlockReference
  2
CRI7E-24
 10
53.38131352068403
 20
-92.90024961187684
 30
0.0
  0
INSERT
  5
3A2
330
1F
100
AcDbEntity
  8
0
100
AcDbBlockReference
  2
W-32490
 10
-23.11867814597027
 20
124.0997503881231
 30
0.0
  0
INSERT
  5
3A3
330
1F
100
AcDbEntity
  8
0
100
AcDbBlockReference
  2
W-32489
 10
30.88132185402974
 20
124.0997503881231
 30
0.0
  0
INSERT
  5
3A4
330
1F
100
AcDbEntity
  8
COMPONENTS
100
AcDbBlockReference
  2
KTA7-45H
 10
-23.11867814597027
 20
55.09975038812317
 30
0.0
  0
INSERT
  5
3A5
330
1F
100
AcDbEntity
  8
COMPONENTS
100
AcDbBlockReference
  2
CA7-30...37
 10
-23.11868647931597
 20
-49.90024961187683
 30
0.0
  0
INSERT
  5
3A6
330
1F
100
AcDbEntity
  8
COMPONENTS
100
AcDbBlockReference
  2
CA7-30...37
 10
30.88131352068403
 20
-49.90024961187683
 30
0.0
  0
INSERT
  5
3A7
330
1F
100
AcDbEntity
  8
COMPONENTS
100
AcDbBlockReference
  2
CM7
 10
21.88131352068403
 20
-49.90024961187683
 30
0.0
  0
INSERT
  5
3A8
330
1F
100
AcDbEntity
  8
COMPONENTS
100
AcDbBlockReference
  2
CA7-PV-11
 10
-0.6186781459702644
 20
-49.90024961187683
 30
0.0
  0
INSERT
  5
3A9
330
1F
100
AcDbEntity
  8
COMPONENTS
100
AcDbBlockReference
  2
CA7-PV-11
 10
53.38133518735722
 20
-49.90031867020505
 30
0.0
  0
INSERT
  5
3AA
330
1F
100
AcDbEntity
  8
140-AS
100
AcDbBlockReference
  2
KT7-PAF1
 10
30.88132185402974
 20
55.09975788812315
 30
0.0
  0
INSERT
  5
3AB
102
{ACAD_REACTORS
330
5A2
102
}
330
1F
100
AcDbEntity
  8
100-S
100
AcDbBlockReference
  2
CA7-PA-11
 10
75.88133518735723
 20
-49.90024961187683
 30
0.0
  0
INSERT
  5
3AC
102
{ACAD_REACTORS
330
5A2
102
}
330
1F
100
AcDbEntity
  8
100-S
100
AcDbBlockReference
  2
CA7-PA-11
 10
-32.11868647931597
 20
-49.90024961187683
 30
0.0
  0
LINE
  5
3AD
330
1F
100
AcDbEntity
  8
Mitte
100
AcDbLine
 10
-28.11869910568449
 20
55.0997512099685
 30
0.0
 11
35.88130089431551
 21
55.0997512099685
 31
0.0
  0
LINE
  5
3AE
330
1F
100
AcDbEntity
  8
Mitte
100
AcDbLine
 10
-28.11869910568449
 20
-49.9002487900315
 30
0.0
 11
80.88130089431551
 21
-49.9002487900315
 31
0.0
  0
DIMENSION
  5
3AF
330
1F
100
AcDbEntity
  8
Measures
100
AcDbDimension
  2
*D20
 10
-58.11869910568447
 20
55.09975120996851
 30
0.0
 11
-61.67156404429295
 21
89.59975079904586
 31
0.0
 70
    32
 71
     5
 42
68.99999917815467
  3
ARIAL
100
AcDbAlignedDimension
 13
-23.11867814597027
 23
124.0997503881231
 33
0.0
 14
-28.11869910568449
 24
55.0997512099685
 34
0.0
 50
90.0
100
AcDbRotatedDimension
  0
DIMENSION
  5
3B0
330
1F
100
AcDbEntity
  8
Measures
100
AcDbDimension
  2
*D21
 10
-58.1186991056845
 20
-49.90024879003149
 30
0.0
 11
-61.67156404429293
 21
2.599751209968498
 31
0.0
 70
    32
 71
     5
 42
105.0
  3
ARIAL
100
AcDbAlignedDimension
 13
-28.11869910568449
 23
55.0997512099685
 33
0.0
 14
-28.11869910568449
 24
-49.9002487900315
 34
0.0
 50
90.0
100
AcDbRotatedDimension
1001
ACAD
1000
DSTYLE
1002
{
1070
   279
1070
     1
1002
}
  0
MTEXT
  5
53A
330
1F
100
AcDbEntity
  8
0
100
AcDbMText
 10
-7.191206300946178
 20
184.1365213377106
 30
0.0
 40
8.805136468796961
 41
1.262415068739754
 71
     1
 72
     5
  1
CLU7-30...37
 73
     1
 44
1.0
1001
ACAD
1000
ACAD_MTEXT_COLUMN_INFO_BEGIN
1070
    75
1070
     2
1070
    79
1070
     0
1070
    76
1070
     1
1070
    78
1070
     0
1070
    48
1040
1.262415068739754
1070
    49
1040
1.0
1070
    50
1070
     1
1040
0.0
1000
ACAD_MTEXT_COLUMN_INFO_END
  0
DIMENSION
  5
589
102
{ACAD_XDICTIONARY
360
597
102
}
102
{ACAD_REACTORS
330
5A2
102
}
330
1F
100
AcDbEntity
  8
Measures
100
AcDbDimension
  2
*D22
 10
84.88132185398811
 20
-152.376223170687
 30
0.0
 11
26.38131102065953
 21
-148.8659912470854
 31
0.0
 70
    32
 71
     5
 42
117.0000216666571
  3
ARIAL
100
AcDbAlignedDimension
 13
-32.11869981266905
 23
-85.90024961187683
 33
0.0
 14
84.88132185398811
 24
-85.90029294528241
 34
0.0
100
AcDbRotatedDimension
  0
ENDSEC
  0
SECTION
  2
OBJECTS
  0
DICTIONARY
  5
C
330
0
100
AcDbDictionary
281
     1
  3
ACAD_COLOR
350
73
  3
ACAD_GROUP
350
D
  3
ACAD_LAYOUT
350
1A
  3
ACAD_MATERIAL
350
72
  3
ACAD_MLEADERSTYLE
350
D7
  3
ACAD_MLINESTYLE
350
17
  3
ACAD_PLOTSETTINGS
350
19
  3
ACAD_PLOTSTYLENAME
350
E
  3
ACAD_SCALELIST
350
B6
  3
ACAD_TABLESTYLE
350
86
  3
ACAD_VISUALSTYLE
350
99
  3
ACDB_RECOMPOSE_DATA
350
61E
  3
AcDbVariableDictionary
350
66
  0
DICTIONARY
  5
5AE
330
8
100
AcDbDictionary
280
     1
281
     1
  0
DICTIONARY
  5
E6
330
10
100
AcDbDictionary
280
     1
281
     1
  0
DICTIONARY
  5
15D
330
1F
100
AcDbDictionary
280
     1
281
     1
  0
DICTIONARY
  5
4DA
330
183
100
AcDbDictionary
280
     1
281
     1
  0
DICTIONARY
  5
4B2
330
1B0
100
AcDbDictionary
280
     1
281
     1
  0
DICTIONARY
  5
4C5
330
215
100
AcDbDictionary
280
     1
281
     1
  0
DICTIONARY
  5
480
330
288
100
AcDbDictionary
280
     1
281
     1
  0
DICTIONARY
  5
597
330
589
100
AcDbDictionary
280
     1
281
     1
  3
ACAD_DIMASSOC
360
5A2
  0
DICTIONARY
  5
73
102
{ACAD_REACTORS
330
C
102
}
330
C
100
AcDbDictionary
281
     1
  0
DICTIONARY
  5
D
102
{ACAD_REACTORS
330
C
102
}
330
C
100
AcDbDictionary
281
     1
  0
DICTIONARY
  5
1A
102
{ACAD_REACTORS
330
C
102
}
330
C
100
AcDbDictionary
281
     1
  3
Layout1
350
59
  3
Layout2
350
5E
  3
Model
350
22
  0
DICTIONARY
  5
72
102
{ACAD_REACTORS
330
C
102
}
330
C
100
AcDbDictionary
281
     1
  3
ByBlock
350
97
  3
ByLayer
350
96
  3
Global
350
98
  0
DICTIONARY
  5
D7
102
{ACAD_REACTORS
330
C
102
}
330
C
100
AcDbDictionary
281
     1
  3
Annotative
350
E5
  3
Standard
350
D8
  0
DICTIONARY
  5
17
102
{ACAD_REACTORS
330
C
102
}
330
C
100
AcDbDictionary
281
     1
  3
Standard
350
18
  0
DICTIONARY
  5
19
102
{ACAD_REACTORS
330
C
102
}
330
C
100
AcDbDictionary
281
     1
  0
ACDBDICTIONARYWDFLT
  5
E
102
{ACAD_REACTORS
330
C
102
}
330
C
100
AcDbDictionary
281
     1
  3
Normal
350
F
100
AcDbDictionaryWithDefault
340
F
  0
DICTIONARY
  5
B6
102
{ACAD_REACTORS
330
C
102
}
330
C
100
AcDbDictionary
281
     1
  3
A0
350
B7
  3
A1
350
124
  3
A2
350
125
  3
A3
350
126
  3
A4
350
127
  3
A5
350
128
  3
A6
350
129
  3
A7
350
12A
  3
A8
350
12B
  3
A9
350
12C
  3
B0
350
12D
  3
B1
350
12E
  3
B2
350
12F
  3
B3
350
130
  3
B4
350
131
  3
B5
350
132
  3
B6
350
133
  3
B7
350
134
  3
B8
350
135
  3
B9
350
136
  3
C0
350
137
  3
C1
350
138
  3
C2
350
139
  3
C3
350
13A
  3
C4
350
13B
  3
C5
350
13C
  3
C6
350
13D
  3
C7
350
13E
  3
C8
350
13F
  3
C9
350
140
  3
D0
350
141
  3
D1
350
142
  3
D2
350
143
  0
DICTIONARY
  5
86
102
{ACAD_REACTORS
330
C
102
}
330
C
100
AcDbDictionary
281
     1
  3
Standard
350
87
  0
DICTIONARY
  5
99
102
{ACAD_REACTORS
330
C
102
}
330
C
100
AcDbDictionary
281
     1
  3
2dWireframe
350
9F
  3
3D Hidden
350
A1
  3
3dWireframe
350
A0
  3
Basic
350
9E
  3
Brighten
350
A5
  3
ColorChange
350
A9
  3
Conceptual
350
A2
  3
Dim
350
A4
  3
EdgeColorOff
350
175
  3
Facepattern
350
A8
  3
Flat
350
9A
  3
FlatWithEdges
350
9B
  3
Gouraud
350
9C
  3
GouraudWithEdges
350
9D
  3
JitterOff
350
173
  3
Linepattern
350
A7
  3
OverhangOff
350
174
  3
Realistic
350
A3
  3
Thicken
350
A6
  0
XRECORD
  5
61E
102
{ACAD_REACTORS
330
C
102
}
330
C
100
AcDbXrecord
280
     1
 90
        1
330
87
330
53A
  0
DICTIONARY
  5
66
102
{ACAD_REACTORS
330
C
102
}
330
C
100
AcDbDictionary
281
     1
  3
CANNOSCALE
350
F0
  3
CMLEADERSTYLE
350
EF
  3
CTABLESTYLE
350
89
  3
DIMASSOC
350
67
  3
HIDETEXT
350
6B
  3
LAYEREVAL
350
14D
  3
LAYERNOTIFY
350
14E
  3
LIGHTINGUNITS
350
5DD
  3
MSLTSCALE
350
5DC
  3
XCLIPFRAME
350
61C
  0
DIMASSOC
  5
5A2
102
{ACAD_REACTORS
330
597
102
}
330
597
100
AcDbDimAssoc
330
589
 90
        3
 70
     0
 71
     0
  1
AcDbOsnapPointRef
 72
    13
331
3AC
331
4B9
 73
     2
 91
        0
 40
0.0
 10
0.0
 20
0.0
 30
2.000000000000000E+50
 75
     0
  1
AcDbOsnapPointRef
 72
     8
331
3AB
331
4BA
 73
     2
 91
        0
 40
-0.0000006018534324
 10
0.0
 20
0.0
 30
0.0
 75
     1
  1
AcDbOsnapPointRef
 72
    13
331
3AC
331
4B9
 73
     2
 91
        0
 40
0.0
 10
0.0
 20
0.0
 30
2.000000000000000E+50
 75
     0
  0
LAYOUT
  5
59
102
{ACAD_REACTORS
330
1A
102
}
330
1A
100
AcDbPlotSettings
  1

  2
None
  4

  6

 40
0.0
 41
0.0
 42
0.0
 43
0.0
 44
0.0
 45
0.0
 46
0.0
 47
0.0
 48
0.0
 49
0.0
140
0.0
141
0.0
142
1.0
143
1.0
 70
   688
 72
     0
 73
     0
 74
     5
  7

 75
    16
147
1.0
 76
     0
 77
     2
 78
   300
148
0.0
149
0.0
100
AcDbLayout
  1
Layout1
 70
     1
 71
     1
 10
0.0
 20
0.0
 11
12.0
 21
9.0
 12
0.0
 22
0.0
 32
0.0
 14
0.0
 24
0.0
 34
0.0
 15
0.0
 25
0.0
 35
0.0
146
0.0
 13
0.0
 23
0.0
 33
0.0
 16
1.0
 26
0.0
 36
0.0
 17
0.0
 27
1.0
 37
0.0
 76
     0
330
58
  0
LAYOUT
  5
5E
102
{ACAD_REACTORS
330
1A
102
}
330
1A
100
AcDbPlotSettings
  1

  2
None
  4

  6

 40
0.0
 41
0.0
 42
0.0
 43
0.0
 44
0.0
 45
0.0
 46
0.0
 47
0.0
 48
0.0
 49
0.0
140
0.0
141
0.0
142
1.0
143
1.0
 70
   688
 72
     0
 73
     0
 74
     5
  7

 75
    16
147
1.0
 76
     0
 77
     2
 78
   300
148
0.0
149
0.0
100
AcDbLayout
  1
Layout2
 70
     1
 71
     2
 10
0.0
 20
0.0
 11
12.0
 21
9.0
 12
0.0
 22
0.0
 32
0.0
 14
0.0
 24
0.0
 34
0.0
 15
0.0
 25
0.0
 35
0.0
146
0.0
 13
0.0
 23
0.0
 33
0.0
 16
1.0
 26
0.0
 36
0.0
 17
0.0
 27
1.0
 37
0.0
 76
     0
330
5D
  0
LAYOUT
  5
22
102
{ACAD_REACTORS
330
1A
102
}
330
1A
100
AcDbPlotSettings
  1

  2
none_device
  4
ANSI_A_(8.50_x_11.00_Inches)
  6

 40
6.349999904632567
 41
19.04999923706055
 42
6.350006103515625
 43
19.04998779296875
 44
215.8999938964844
 45
279.3999938964844
 46
0.0
 47
0.0
 48
0.0
 49
0.0
140
0.0
141
0.0
142
1.0
143
2.584895464708373
 70
 11952
 72
     0
 73
     1
 74
     0
  7

 75
     0
147
0.3868628397755418
 76
     0
 77
     2
 78
   300
148
0.0
149
0.0
100
AcDbLayout
  1
Model
 70
     1
 71
     0
 10
0.0
 20
0.0
 11
12.0
 21
9.0
 12
0.0
 22
0.0
 32
0.0
 14
0.0
 24
0.0
 34
0.0
 15
0.0
 25
0.0
 35
0.0
146
0.0
 13
0.0
 23
0.0
 33
0.0
 16
1.0
 26
0.0
 36
0.0
 17
0.0
 27
1.0
 37
0.0
 76
     0
330
1F
331
94
  0
MATERIAL
  5
97
102
{ACAD_XDICTIONARY
360
5EC
102
}
102
{ACAD_REACTORS
330
72
102
}
330
72
100
AcDbMaterial
  1
ByBlock
  0
MATERIAL
  5
96
102
{ACAD_XDICTIONARY
360
5EA
102
}
102
{ACAD_REACTORS
330
72
102
}
330
72
100
AcDbMaterial
  1
ByLayer
  0
MATERIAL
  5
98
102
{ACAD_XDICTIONARY
360
110
102
}
102
{ACAD_REACTORS
330
72
102
}
330
72
100
AcDbMaterial
  1
Global
 43
0.0208000000566244
 43
0.0
 43
0.0
 43
0.0
 43
0.0
 43
0.0208000000566244
 43
0.0
 43
0.0
 43
0.0
 43
0.0
 43
1.0
 43
0.0
 43
0.0
 43
0.0
 43
0.0
 43
1.0
 49
0.0208000000566244
 49
0.0
 49
0.0
 49
0.0
 49
0.0
 49
0.0208000000566244
 49
0.0
 49
0.0
 49
0.0
 49
0.0
 49
1.0
 49
0.0
 49
0.0
 49
0.0
 49
0.0
 49
1.0
142
0.0208000000566244
142
0.0
142
0.0
142
0.0
142
0.0
142
0.0208000000566244
142
0.0
142
0.0
142
0.0
142
0.0
142
1.0
142
0.0
142
0.0
142
0.0
142
0.0
142
1.0
144
0.0208000000566244
144
0.0
144
0.0
144
0.0
144
0.0
144
0.0208000000566244
144
0.0
144
0.0
144
0.0
144
0.0
144
1.0
144
0.0
144
0.0
144
0.0
144
0.0
144
1.0
1001
ACAD
1070
    -1
1070
     3
1070
     0
1000

1071
        0
1070
     0
  0
MLEADERSTYLE
  5
E5
102
{ACAD_REACTORS
330
D7
102
}
330
D7
100
AcDbMLeaderStyle
170
     2
171
     1
172
     0
 90
        2
 40
0.0
 41
0.0
173
     1
 91
-1056964608
340
14
 92
       -2
290
     1
 42
0.09
291
     1
 43
0.36
  3
Standard
 44
0.18
300

342
11
174
     1
178
     1
175
     1
176
     0
 93
-1056964608
 45
0.18
292
     0
297
     0
 46
0.18
 94
-1056964608
 47
1.0
 49
1.0
140
1.0
293
     1
141
0.0
294
     1
177
     0
142
1.0
295
     0
296
     1
143
0.125
1001
ACAD_MLEADERVER
1070
     2
  0
MLEADERSTYLE
  5
D8
102
{ACAD_REACTORS
330
D7
102
}
330
D7
100
AcDbMLeaderStyle
170
     2
171
     1
172
     0
 90
        2
 40
0.0
 41
0.0
173
     1
 91
-1056964608
340
14
 92
       -2
290
     1
 42
0.09
291
     1
 43
0.36
  3
Standard
 44
0.18
300

342
11
174
     1
178
     1
175
     1
176
     0
 93
-1056964608
 45
0.18
292
     0
297
     0
 46
0.18
 94
-1056964608
 47
1.0
 49
1.0
140
1.0
293
     1
141
0.0
294
     1
177
     0
142
1.0
295
     0
296
     0
143
0.125
1001
ACAD_MLEADERVER
1070
     2
  0
MLINESTYLE
  5
18
102
{ACAD_REACTORS
330
17
102
}
330
17
100
AcDbMlineStyle
  2
STANDARD
 70
     0
  3

 62
   256
 51
90.0
 52
90.0
 71
     2
 49
0.5
 62
   256
  6
BYLAYER
 49
-0.5
 62
   256
  6
BYLAYER
  0
ACDBPLACEHOLDER
  5
F
102
{ACAD_REACTORS
330
E
102
}
330
E
  0
SCALE
  5
B7
102
{ACAD_REACTORS
330
B6
102
}
330
B6
100
AcDbScale
 70
     0
300
1:1
140
1.0
141
1.0
290
     1
  0
SCALE
  5
124
102
{ACAD_REACTORS
330
B6
102
}
330
B6
100
AcDbScale
 70
     0
300
1:2
140
1.0
141
2.0
290
     0
  0
SCALE
  5
125
102
{ACAD_REACTORS
330
B6
102
}
330
B6
100
AcDbScale
 70
     0
300
1:4
140
1.0
141
4.0
290
     0
  0
SCALE
  5
126
102
{ACAD_REACTORS
330
B6
102
}
330
B6
100
AcDbScale
 70
     0
300
1:5
140
1.0
141
5.0
290
     0
  0
SCALE
  5
127
102
{ACAD_REACTORS
330
B6
102
}
330
B6
100
AcDbScale
 70
     0
300
1:8
140
1.0
141
8.0
290
     0
  0
SCALE
  5
128
102
{ACAD_REACTORS
330
B6
102
}
330
B6
100
AcDbScale
 70
     0
300
1:10
140
1.0
141
10.0
290
     0
  0
SCALE
  5
129
102
{ACAD_REACTORS
330
B6
102
}
330
B6
100
AcDbScale
 70
     0
300
1:16
140
1.0
141
16.0
290
     0
  0
SCALE
  5
12A
102
{ACAD_REACTORS
330
B6
102
}
330
B6
100
AcDbScale
 70
     0
300
1:20
140
1.0
141
20.0
290
     0
  0
SCALE
  5
12B
102
{ACAD_REACTORS
330
B6
102
}
330
B6
100
AcDbScale
 70
     0
300
1:30
140
1.0
141
30.0
290
     0
  0
SCALE
  5
12C
102
{ACAD_REACTORS
330
B6
102
}
330
B6
100
AcDbScale
 70
     0
300
1:40
140
1.0
141
40.0
290
     0
  0
SCALE
  5
12D
102
{ACAD_REACTORS
330
B6
102
}
330
B6
100
AcDbScale
 70
     0
300
1:50
140
1.0
141
50.0
290
     0
  0
SCALE
  5
12E
102
{ACAD_REACTORS
330
B6
102
}
330
B6
100
AcDbScale
 70
     0
300
1:100
140
1.0
141
100.0
290
     0
  0
SCALE
  5
12F
102
{ACAD_REACTORS
330
B6
102
}
330
B6
100
AcDbScale
 70
     0
300
2:1
140
2.0
141
1.0
290
     0
  0
SCALE
  5
130
102
{ACAD_REACTORS
330
B6
102
}
330
B6
100
AcDbScale
 70
     0
300
4:1
140
4.0
141
1.0
290
     0
  0
SCALE
  5
131
102
{ACAD_REACTORS
330
B6
102
}
330
B6
100
AcDbScale
 70
     0
300
8:1
140
8.0
141
1.0
290
     0
  0
SCALE
  5
132
102
{ACAD_REACTORS
330
B6
102
}
330
B6
100
AcDbScale
 70
     0
300
10:1
140
10.0
141
1.0
290
     0
  0
SCALE
  5
133
102
{ACAD_REACTORS
330
B6
102
}
330
B6
100
AcDbScale
 70
     0
300
100:1
140
100.0
141
1.0
290
     0
  0
SCALE
  5
134
102
{ACAD_REACTORS
330
B6
102
}
330
B6
100
AcDbScale
 70
     0
300
1/128" = 1'-0"
140
0.0078125
141
12.0
290
     0
  0
SCALE
  5
135
102
{ACAD_REACTORS
330
B6
102
}
330
B6
100
AcDbScale
 70
     0
300
1/64" = 1'-0"
140
0.015625
141
12.0
290
     0
  0
SCALE
  5
136
102
{ACAD_REACTORS
330
B6
102
}
330
B6
100
AcDbScale
 70
     0
300
1/32" = 1'-0"
140
0.03125
141
12.0
290
     0
  0
SCALE
  5
137
102
{ACAD_REACTORS
330
B6
102
}
330
B6
100
AcDbScale
 70
     0
300
1/16" = 1'-0"
140
0.0625
141
12.0
290
     0
  0
SCALE
  5
138
102
{ACAD_REACTORS
330
B6
102
}
330
B6
100
AcDbScale
 70
     0
300
3/32" = 1'-0"
140
0.09375
141
12.0
290
     0
  0
SCALE
  5
139
102
{ACAD_REACTORS
330
B6
102
}
330
B6
100
AcDbScale
 70
     0
300
1/8" = 1'-0"
140
0.125
141
12.0
290
     0
  0
SCALE
  5
13A
102
{ACAD_REACTORS
330
B6
102
}
330
B6
100
AcDbScale
 70
     0
300
3/16" = 1'-0"
140
0.1875
141
12.0
290
     0
  0
SCALE
  5
13B
102
{ACAD_REACTORS
330
B6
102
}
330
B6
100
AcDbScale
 70
     0
300
1/4" = 1'-0"
140
0.25
141
12.0
290
     0
  0
SCALE
  5
13C
102
{ACAD_REACTORS
330
B6
102
}
330
B6
100
AcDbScale
 70
     0
300
3/8" = 1'-0"
140
0.375
141
12.0
290
     0
  0
SCALE
  5
13D
102
{ACAD_REACTORS
330
B6
102
}
330
B6
100
AcDbScale
 70
     0
300
1/2" = 1'-0"
140
0.5
141
12.0
290
     0
  0
SCALE
  5
13E
102
{ACAD_REACTORS
330
B6
102
}
330
B6
100
AcDbScale
 70
     0
300
3/4" = 1'-0"
140
0.75
141
12.0
290
     0
  0
SCALE
  5
13F
102
{ACAD_REACTORS
330
B6
102
}
330
B6
100
AcDbScale
 70
     0
300
1" = 1'-0"
140
1.0
141
12.0
290
     0
  0
SCALE
  5
140
102
{ACAD_REACTORS
330
B6
102
}
330
B6
100
AcDbScale
 70
     0
300
1-1/2" = 1'-0"
140
1.5
141
12.0
290
     0
  0
SCALE
  5
141
102
{ACAD_REACTORS
330
B6
102
}
330
B6
100
AcDbScale
 70
     0
300
3" = 1'-0"
140
3.0
141
12.0
290
     0
  0
SCALE
  5
142
102
{ACAD_REACTORS
330
B6
102
}
330
B6
100
AcDbScale
 70
     0
300
6" = 1'-0"
140
6.0
141
12.0
290
     0
  0
SCALE
  5
143
102
{ACAD_REACTORS
330
B6
102
}
330
B6
100
AcDbScale
 70
     0
300
1'-0" = 1'-0"
140
12.0
141
12.0
290
     0
  0
TABLESTYLE
  5
87
102
{ACAD_XDICTIONARY
360
104
102
}
102
{ACAD_REACTORS
330
86
102
}
330
86
100
AcDbTableStyle
  3
Standard
 70
     0
 71
     0
 40
0.06
 41
0.06
280
     0
281
     0
  7
Standard
140
0.18
170
     2
 62
     0
 63
     7
283
     0
274
    -2
284
     1
 64
     0
275
    -2
285
     1
 65
     0
276
    -2
286
     1
 66
     0
277
    -2
287
     1
 67
     0
278
    -2
288
     1
 68
     0
279
    -2
289
     1
 69
     0
  7
Standard
140
0.25
170
     5
 62
     0
 63
     7
283
     0
274
    -2
284
     1
 64
     0
275
    -2
285
     1
 65
     0
276
    -2
286
     1
 66
     0
277
    -2
287
     1
 67
     0
278
    -2
288
     1
 68
     0
279
    -2
289
     1
 69
     0
  7
Standard
140
0.18
170
     5
 62
     0
 63
     7
283
     0
274
    -2
284
     1
 64
     0
275
    -2
285
     1
 65
     0
276
    -2
286
     1
 66
     0
277
    -2
287
     1
 67
     0
278
    -2
288
     1
 68
     0
279
    -2
289
     1
 69
     0
  0
VISUALSTYLE
  5
9F
102
{ACAD_XDICTIONARY
360
62A
102
}
102
{ACAD_REACTORS
330
99
102
}
330
99
100
AcDbVisualStyle
  2

 70
     4
 71
     0
 72
     2
 73
     1
 90
        0
 40
-0.6
 41
-30.0
 62
     5
 63
     7
421
 16777215
 74
     1
 91
        4
 64
     7
 65
   257
 75
     1
175
     1
 42
1.0
 92
        0
 66
   257
 43
1.0
 76
     1
 77
     6
 78
     2
 67
     7
 79
     5
170
     0
171
     0
290
     0
174
     0
 93
        1
 44
0.0
173
     0
291
     0
 45
0.0
1001
ACAD
1000
AcDbSavedByObjectVersion
1070
     0
  0
VISUALSTYLE
  5
A1
102
{ACAD_XDICTIONARY
360
62E
102
}
102
{ACAD_REACTORS
330
99
102
}
330
99
100
AcDbVisualStyle
  2

 70
     6
 71
     1
 72
     2
 73
     2
 90
        0
 40
-0.6
 41
-30.0
 62
     5
 63
     7
421
 16777215
 74
     2
 91
        2
 64
     7
 65
   257
 75
     2
175
     1
 42
40.0
 92
        0
 66
   257
 43
1.0
 76
     1
 77
     6
 78
     2
 67
     7
 79
     3
170
     0
171
     0
290
     0
174
     0
 93
        1
 44
0.0
173
     0
291
     0
 45
0.0
1001
ACAD
1000
AcDbSavedByObjectVersion
1070
     0
  0
VISUALSTYLE
  5
A0
102
{ACAD_XDICTIONARY
360
62C
102
}
102
{ACAD_REACTORS
330
99
102
}
330
99
100
AcDbVisualStyle
  2

 70
     5
 71
     0
 72
     2
 73
     1
 90
        0
 40
-0.6
 41
-30.0
 62
     5
 63
     7
421
 16777215
 74
     1
 91
        4
 64
     7
 65
   257
 75
     1
175
     1
 42
1.0
 92
        0
 66
   257
 43
1.0
 76
     1
 77
     6
 78
     2
 67
     7
 79
     5
170
     0
171
     0
290
     0
174
     0
 93
        1
 44
0.0
173
     0
291
     0
 45
0.0
1001
ACAD
1000
AcDbSavedByObjectVersion
1070
     0
  0
VISUALSTYLE
  5
9E
102
{ACAD_XDICTIONARY
360
628
102
}
102
{ACAD_REACTORS
330
99
102
}
330
99
100
AcDbVisualStyle
  2

 70
     7
 71
     1
 72
     0
 73
     1
 90
        0
 40
-0.6
 41
-30.0
 62
     5
 63
     7
421
 16777215
 74
     0
 91
        4
 64
     7
 65
   257
 75
     1
175
     1
 42
1.0
 92
        8
 66
     7
 43
1.0
 76
     1
 77
     6
 78
     2
 67
     7
 79
     5
170
     0
171
     0
290
     0
174
     0
 93
        1
 44
0.0
173
     0
291
     1
 45
0.0
1001
ACAD
1000
AcDbSavedByObjectVersion
1070
     0
  0
VISUALSTYLE
  5
A5
102
{ACAD_XDICTIONARY
360
636
102
}
102
{ACAD_REACTORS
330
99
102
}
330
99
100
AcDbVisualStyle
  2

 70
    12
 71
     2
 72
     2
 73
     1
 90
        0
 40
-0.6
 41
-30.0
 62
     5
 63
     7
421
 16777215
 74
     1
 91
        4
 64
     7
 65
   257
 75
     1
175
     1
 42
1.0
 92
        8
 66
     7
 43
1.0
 76
     1
 77
     6
 78
     2
 67
     7
 79
     5
170
     0
171
     0
290
     0
174
     0
 93
        1
 44
50.0
173
     0
291
     1
 45
0.0
1001
ACAD
1000
AcDbSavedByObjectVersion
1070
     0
  0
VISUALSTYLE
  5
A9
102
{ACAD_XDICTIONARY
360
63E
102
}
102
{ACAD_REACTORS
330
99
102
}
330
99
100
AcDbVisualStyle
  2

 70
    16
 71
     2
 72
     2
 73
     3
 90
        0
 40
-0.6
 41
-30.0
 62
     5
 63
     8
421
  8421504
 74
     1
 91
        4
 64
     7
 65
   257
 75
     1
175
     1
 42
1.0
 92
        8
 66
     8
424
  8421504
 43
1.0
 76
     1
 77
     6
 78
     2
 67
     7
 79
     5
170
     0
171
     0
290
     0
174
     0
 93
        1
 44
0.0
173
     0
291
     1
 45
0.0
1001
ACAD
1000
AcDbSavedByObjectVersion
1070
     0
  0
VISUALSTYLE
  5
A2
102
{ACAD_XDICTIONARY
360
630
102
}
102
{ACAD_REACTORS
330
99
102
}
330
99
100
AcDbVisualStyle
  2

 70
     9
 71
     3
 72
     2
 73
     1
 90
        0
 40
-0.6
 41
-30.0
 62
     5
 63
     7
421
 16777215
 74
     2
 91
        2
 64
     7
 65
   257
 75
     1
175
     1
 42
40.0
 92
        8
 66
     7
 43
1.0
 76
     1
 77
     6
 78
     2
 67
     7
 79
     3
170
     0
171
     0
290
     0
174
     0
 93
        1
 44
0.0
173
     0
291
     0
 45
0.0
1001
ACAD
1000
AcDbSavedByObjectVersion
1070
     0
  0
VISUALSTYLE
  5
A4
102
{ACAD_XDICTIONARY
360
634
102
}
102
{ACAD_REACTORS
330
99
102
}
330
99
100
AcDbVisualStyle
  2

 70
    11
 71
     2
 72
     2
 73
     1
 90
        0
 40
-0.6
 41
-30.0
 62
     5
 63
     7
421
 16777215
 74
     1
 91
        4
 64
     7
 65
   257
 75
     1
175
     1
 42
1.0
 92
        8
 66
     7
 43
1.0
 76
     1
 77
     6
 78
     2
 67
     7
 79
     5
170
     0
171
     0
290
     0
174
     0
 93
        1
 44
-50.0
173
     0
291
     1
 45
0.0
1001
ACAD
1000
AcDbSavedByObjectVersion
1070
     0
  0
VISUALSTYLE
  5
175
102
{ACAD_XDICTIONARY
360
644
102
}
102
{ACAD_REACTORS
330
99
102
}
330
99
100
AcDbVisualStyle
  2

 70
    22
 71
     2
 72
     2
 73
     0
 90
        0
 40
-0.6
 41
-30.0
 62
     5
 63
     7
421
 16777215
 74
     1
 91
        4
 64
     7
 65
   257
 75
     1
175
     1
 42
1.0
 92
        8
 66
     7
 43
1.0
 76
     1
 77
     6
 78
     2
 67
     7
 79
     5
170
     0
171
     0
290
     0
174
     0
 93
        1
 44
0.0
173
     0
291
     1
 45
0.0
1001
ACAD
1000
AcDbSavedByObjectVersion
1070
     0
  0
VISUALSTYLE
  5
A8
102
{ACAD_XDICTIONARY
360
63C
102
}
102
{ACAD_REACTORS
330
99
102
}
330
99
100
AcDbVisualStyle
  2

 70
    15
 71
     2
 72
     2
 73
     1
 90
        0
 40
-0.6
 41
-30.0
 62
     5
 63
     7
421
 16777215
 74
     1
 91
        4
 64
     7
 65
   257
 75
     1
175
     1
 42
1.0
 92
        8
 66
     7
 43
1.0
 76
     1
 77
     6
 78
     2
 67
     7
 79
     5
170
     0
171
     0
290
     0
174
     0
 93
        1
 44
0.0
173
     0
291
     1
 45
0.0
1001
ACAD
1000
AcDbSavedByObjectVersion
1070
     0
  0
VISUALSTYLE
  5
9A
102
{ACAD_XDICTIONARY
360
620
102
}
102
{ACAD_REACTORS
330
99
102
}
330
99
100
AcDbVisualStyle
  2

 70
     0
 71
     2
 72
     1
 73
     1
 90
        2
 40
-0.6
 41
30.0
 62
     5
 63
     7
421
 16777215
 74
     0
 91
        4
 64
     7
 65
   257
 75
     1
175
     1
 42
1.0
 92
        8
 66
     7
 43
1.0
 76
     1
 77
     6
 78
     2
 67
     7
 79
     5
170
     0
171
     0
290
     0
174
     0
 93
        1
 44
0.0
173
     0
291
     1
 45
0.0
1001
ACAD
1000
AcDbSavedByObjectVersion
1070
     0
  0
VISUALSTYLE
  5
9B
102
{ACAD_XDICTIONARY
360
622
102
}
102
{ACAD_REACTORS
330
99
102
}
330
99
100
AcDbVisualStyle
  2

 70
     1
 71
     2
 72
     1
 73
     1
 90
        2
 40
-0.6
 41
30.0
 62
     5
 63
     7
421
 16777215
 74
     1
 91
        4
 64
     7
 65
   257
 75
     1
175
     1
 42
1.0
 92
        0
 66
   257
 43
1.0
 76
     1
 77
     6
 78
     2
 67
     7
 79
     5
170
     0
171
     0
290
     0
174
     0
 93
        1
 44
0.0
173
     0
291
     1
 45
0.0
1001
ACAD
1000
AcDbSavedByObjectVersion
1070
     0
  0
VISUALSTYLE
  5
9C
102
{ACAD_XDICTIONARY
360
624
102
}
102
{ACAD_REACTORS
330
99
102
}
330
99
100
AcDbVisualStyle
  2

 70
     2
 71
     2
 72
     2
 73
     1
 90
        2
 40
-0.6
 41
30.0
 62
     5
 63
     7
421
 16777215
 74
     0
 91
        4
 64
     7
 65
   257
 75
     1
175
     1
 42
1.0
 92
        0
 66
     7
 43
1.0
 76
     1
 77
     6
 78
     2
 67
     7
 79
     5
170
     0
171
     0
290
     0
174
     0
 93
        1
 44
0.0
173
     0
291
     1
 45
0.0
1001
ACAD
1000
AcDbSavedByObjectVersion
1070
     0
  0
VISUALSTYLE
  5
9D
102
{ACAD_XDICTIONARY
360
626
102
}
102
{ACAD_REACTORS
330
99
102
}
330
99
100
AcDbVisualStyle
  2

 70
     3
 71
     2
 72
     2
 73
     1
 90
        2
 40
-0.6
 41
30.0
 62
     5
 63
     7
421
 16777215
 74
     1
 91
        4
 64
     7
 65
   257
 75
     1
175
     1
 42
1.0
 92
        0
 66
   257
 43
1.0
 76
     1
 77
     6
 78
     2
 67
     7
 79
     5
170
     0
171
     0
290
     0
174
     0
 93
        1
 44
0.0
173
     0
291
     1
 45
0.0
1001
ACAD
1000
AcDbSavedByObjectVersion
1070
     0
  0
VISUALSTYLE
  5
173
102
{ACAD_XDICTIONARY
360
640
102
}
102
{ACAD_REACTORS
330
99
102
}
330
99
100
AcDbVisualStyle
  2

 70
    20
 71
     2
 72
     2
 73
     0
 90
        0
 40
-0.6
 41
-30.0
 62
     5
 63
     7
421
 16777215
 74
     1
 91
        4
 64
     7
 65
   257
 75
     1
175
     1
 42
1.0
 92
       10
 66
     7
 43
1.0
 76
     1
 77
     6
 78
     2
 67
     7
 79
     5
170
     0
171
     0
290
     0
174
     0
 93
        1
 44
0.0
173
     0
291
     1
 45
0.0
1001
ACAD
1000
AcDbSavedByObjectVersion
1070
     0
  0
VISUALSTYLE
  5
A7
102
{ACAD_XDICTIONARY
360
63A
102
}
102
{ACAD_REACTORS
330
99
102
}
330
99
100
AcDbVisualStyle
  2

 70
    14
 71
     2
 72
     2
 73
     1
 90
        0
 40
-0.6
 41
-30.0
 62
     5
 63
     7
421
 16777215
 74
     1
 91
        4
 64
     7
 65
   257
 75
     7
175
     7
 42
1.0
 92
        8
 66
     7
 43
1.0
 76
     1
 77
     6
 78
     2
 67
     7
 79
     5
170
     0
171
     0
290
     0
174
     0
 93
        1
 44
0.0
173
     0
291
     1
 45
0.0
1001
ACAD
1000
AcDbSavedByObjectVersion
1070
     0
  0
VISUALSTYLE
  5
174
102
{ACAD_XDICTIONARY
360
642
102
}
102
{ACAD_REACTORS
330
99
102
}
330
99
100
AcDbVisualStyle
  2

 70
    21
 71
     2
 72
     2
 73
     0
 90
        0
 40
-0.6
 41
-30.0
 62
     5
 63
     7
421
 16777215
 74
     1
 91
        4
 64
     7
 65
   257
 75
     1
175
     1
 42
1.0
 92
        9
 66
     7
 43
1.0
 76
     1
 77
     6
 78
     2
 67
     7
 79
     5
170
     0
171
     0
290
     0
174
     0
 93
        1
 44
0.0
173
     0
291
     1
 45
0.0
1001
ACAD
1000
AcDbSavedByObjectVersion
1070
     0
  0
VISUALSTYLE
  5
A3
102
{ACAD_XDICTIONARY
360
632
102
}
102
{ACAD_REACTORS
330
99
102
}
330
99
100
AcDbVisualStyle
  2

 70
     8
 71
     2
 72
     2
 73
     1
 90
        0
 40
-0.6
 41
-30.0
 62
     5
 63
     7
421
 16777215
 74
     1
 91
        0
 64
     7
 65
   257
 75
     1
175
     1
 42
1.0
 92
        8
 66
     8
424
  7895160
 43
1.0
 76
     1
 77
     6
 78
     2
 67
     7
 79
     5
170
     0
171
     0
290
     0
174
     0
 93
       13
 44
0.0
173
     0
291
     0
 45
0.0
1001
ACAD
1000
AcDbSavedByObjectVersion
1070
     0
  0
VISUALSTYLE
  5
A6
102
{ACAD_XDICTIONARY
360
638
102
}
102
{ACAD_REACTORS
330
99
102
}
330
99
100
AcDbVisualStyle
  2

 70
    13
 71
     2
 72
     2
 73
     1
 90
        0
 40
-0.6
 41
-30.0
 62
     5
 63
     7
421
 16777215
 74
     1
 91
        4
 64
     7
 65
   257
 75
     1
175
     1
 42
1.0
 92
       12
 66
     7
 43
1.0
 76
     1
 77
     6
 78
     2
 67
     7
 79
     5
170
     0
171
     0
290
     0
174
     0
 93
        1
 44
0.0
173
     0
291
     1
 45
0.0
1001
ACAD
1000
AcDbSavedByObjectVersion
1070
     0
  0
DICTIONARYVAR
  5
F0
102
{ACAD_REACTORS
330
66
102
}
330
66
100
DictionaryVariables
280
     0
  1
1:1
  0
DICTIONARYVAR
  5
EF
102
{ACAD_REACTORS
330
66
102
}
330
66
100
DictionaryVariables
280
     0
  1
STANDARD
  0
DICTIONARYVAR
  5
89
102
{ACAD_REACTORS
330
66
102
}
330
66
100
DictionaryVariables
280
     0
  1
STANDARD
  0
DICTIONARYVAR
  5
67
102
{ACAD_REACTORS
330
66
102
}
330
66
100
DictionaryVariables
280
     0
  1
2
  0
DICTIONARYVAR
  5
6B
102
{ACAD_REACTORS
330
66
102
}
330
66
100
DictionaryVariables
280
     0
  1
1
  0
DICTIONARYVAR
  5
14D
102
{ACAD_REACTORS
330
66
102
}
330
66
100
DictionaryVariables
280
     0
  1
0
  0
DICTIONARYVAR
  5
14E
102
{ACAD_REACTORS
330
66
102
}
330
66
100
DictionaryVariables
280
     0
  1
0
  0
DICTIONARYVAR
  5
5DD
102
{ACAD_REACTORS
330
66
102
}
330
66
100
DictionaryVariables
280
     0
  1
2
  0
DICTIONARYVAR
  5
5DC
102
{ACAD_REACTORS
330
66
102
}
330
66
100
DictionaryVariables
280
     0
  1
1
  0
DICTIONARYVAR
  5
61C
102
{ACAD_REACTORS
330
66
102
}
330
66
100
DictionaryVariables
280
     0
  1
2
  0
DICTIONARY
  5
5EC
330
97
100
AcDbDictionary
280
     1
281
     1
  3
ACAD_XREC_ROUNDTRIP
360
5ED
  0
DICTIONARY
  5
5EA
330
96
100
AcDbDictionary
280
     1
281
     1
  3
ACAD_XREC_ROUNDTRIP
360
5EB
  0
DICTIONARY
  5
110
330
98
100
AcDbDictionary
280
     1
281
     1
  3
ACAD_XREC_ROUNDTRIP
360
5EE
  3
BUMPTILE
360
112
  3
DIFFUSETILE
360
111
  3
OPACITYTILE
360
113
  3
REFLECTIONTILE
360
114
  0
DICTIONARY
  5
104
330
87
100
AcDbDictionary
280
     1
281
     1
  3
ACAD_ROUNDTRIP_2008_TABLESTYLE_CELLSTYLEMAP
360
61D
  3
ACAD_XREC_ROUNDTRIP
360
61F
  0
DICTIONARY
  5
62A
330
9F
100
AcDbDictionary
280
     1
281
     1
  3
ACAD_XREC_ROUNDTRIP
360
62B
  0
DICTIONARY
  5
62E
330
A1
100
AcDbDictionary
280
     1
281
     1
  3
ACAD_XREC_ROUNDTRIP
360
62F
  0
DICTIONARY
  5
62C
330
A0
100
AcDbDictionary
280
     1
281
     1
  3
ACAD_XREC_ROUNDTRIP
360
62D
  0
DICTIONARY
  5
628
330
9E
100
AcDbDictionary
280
     1
281
     1
  3
ACAD_XREC_ROUNDTRIP
360
629
  0
DICTIONARY
  5
636
330
A5
100
AcDbDictionary
280
     1
281
     1
  3
ACAD_XREC_ROUNDTRIP
360
637
  0
DICTIONARY
  5
63E
330
A9
100
AcDbDictionary
280
     1
281
     1
  3
ACAD_XREC_ROUNDTRIP
360
63F
  0
DICTIONARY
  5
630
330
A2
100
AcDbDictionary
280
     1
281
     1
  3
ACAD_XREC_ROUNDTRIP
360
631
  0
DICTIONARY
  5
634
330
A4
100
AcDbDictionary
280
     1
281
     1
  3
ACAD_XREC_ROUNDTRIP
360
635
  0
DICTIONARY
  5
644
330
175
100
AcDbDictionary
280
     1
281
     1
  3
ACAD_XREC_ROUNDTRIP
360
645
  0
DICTIONARY
  5
63C
330
A8
100
AcDbDictionary
280
     1
281
     1
  3
ACAD_XREC_ROUNDTRIP
360
63D
  0
DICTIONARY
  5
620
330
9A
100
AcDbDictionary
280
     1
281
     1
  3
ACAD_XREC_ROUNDTRIP
360
621
  0
DICTIONARY
  5
622
330
9B
100
AcDbDictionary
280
     1
281
     1
  3
ACAD_XREC_ROUNDTRIP
360
623
  0
DICTIONARY
  5
624
330
9C
100
AcDbDictionary
280
     1
281
     1
  3
ACAD_XREC_ROUNDTRIP
360
625
  0
DICTIONARY
  5
626
330
9D
100
AcDbDictionary
280
     1
281
     1
  3
ACAD_XREC_ROUNDTRIP
360
627
  0
DICTIONARY
  5
640
330
173
100
AcDbDictionary
280
     1
281
     1
  3
ACAD_XREC_ROUNDTRIP
360
641
  0
DICTIONARY
  5
63A
330
A7
100
AcDbDictionary
280
     1
281
     1
  3
ACAD_XREC_ROUNDTRIP
360
63B
  0
DICTIONARY
  5
642
330
174
100
AcDbDictionary
280
     1
281
     1
  3
ACAD_XREC_ROUNDTRIP
360
643
  0
DICTIONARY
  5
632
330
A3
100
AcDbDictionary
280
     1
281
     1
  3
ACAD_XREC_ROUNDTRIP
360
633
  0
DICTIONARY
  5
638
330
A6
100
AcDbDictionary
280
     1
281
     1
  3
ACAD_XREC_ROUNDTRIP
360
639
  0
XRECORD
  5
5ED
102
{ACAD_REACTORS
330
5EC
102
}
330
5EC
100
AcDbXrecord
280
     1
102
MATERIAL
148
0.0
149
0.0
149
0.0
 93
        0
 94
      127
282
     0
 72
     1
 77
     1
171
     1
175
     1
179
     1
273
     0
  0
XRECORD
  5
5EB
102
{ACAD_REACTORS
330
5EA
102
}
330
5EA
100
AcDbXrecord
280
     1
102
MATERIAL
148
0.0
149
0.0
149
0.0
 93
        0
 94
      127
282
     0
 72
     1
 77
     1
171
     1
175
     1
179
     1
273
     0
  0
XRECORD
  5
5EE
102
{ACAD_REACTORS
330
110
102
}
330
110
100
AcDbXrecord
280
     1
102
MATERIAL
148
0.0
149
0.0
149
0.0
 93
        0
 94
      127
282
     0
 72
     1
 77
     1
171
     1
175
     1
179
     1
273
     0
  0
XRECORD
  5
112
102
{ACAD_REACTORS
330
110
102
}
330
110
100
AcDbXrecord
280
     1
270
     1
271
     1
  0
XRECORD
  5
111
102
{ACAD_REACTORS
330
110
102
}
330
110
100
AcDbXrecord
280
     1
270
     1
271
     1
  0
XRECORD
  5
113
102
{ACAD_REACTORS
330
110
102
}
330
110
100
AcDbXrecord
280
     1
270
     1
271
     1
  0
XRECORD
  5
114
102
{ACAD_REACTORS
330
110
102
}
330
110
100
AcDbXrecord
280
     1
270
     1
271
     1
  0
CELLSTYLEMAP
  5
61D
102
{ACAD_REACTORS
330
104
102
}
330
104
100
AcDbCellStyleMap
 90
        3
300
CELLSTYLE
  1
TABLEFORMAT_BEGIN
 90
        5
170
     1
 91
        0
 92
    32768
 62
   257
 93
        1
300
CONTENTFORMAT
  1
CONTENTFORMAT_BEGIN
 90
        0
 91
        0
 92
      512
 93
        0
300

 40
0.0
140
1.0
 94
        5
 62
     0
340
11
144
0.25
309
CONTENTFORMAT_END
171
     1
301
MARGIN
  1
CELLMARGIN_BEGIN
 40
0.06
 40
0.06
 40
0.06
 40
0.06
 40
0.18
 40
0.18
309
CELLMARGIN_END
 94
        6
 95
        1
302
GRIDFORMAT
  1
GRIDFORMAT_BEGIN
 90
        0
 91
        1
 62
     0
 92
       -2
340
0
 93
        0
 40
0.045
309
GRIDFORMAT_END
 95
        2
302
GRIDFORMAT
  1
GRIDFORMAT_BEGIN
 90
        0
 91
        1
 62
     0
 92
       -2
340
0
 93
        0
 40
0.045
309
GRIDFORMAT_END
 95
        4
302
GRIDFORMAT
  1
GRIDFORMAT_BEGIN
 90
        0
 91
        1
 62
     0
 92
       -2
340
0
 93
        0
 40
0.045
309
GRIDFORMAT_END
 95
        8
302
GRIDFORMAT
  1
GRIDFORMAT_BEGIN
 90
        0
 91
        1
 62
     0
 92
       -2
340
0
 93
        0
 40
0.045
309
GRIDFORMAT_END
 95
       16
302
GRIDFORMAT
  1
GRIDFORMAT_BEGIN
 90
        0
 91
        1
 62
     0
 92
       -2
340
0
 93
        0
 40
0.045
309
GRIDFORMAT_END
 95
       32
302
GRIDFORMAT
  1
GRIDFORMAT_BEGIN
 90
        0
 91
        1
 62
     0
 92
       -2
340
0
 93
        0
 40
0.045
309
GRIDFORMAT_END
309
TABLEFORMAT_END
  1
CELLSTYLE_BEGIN
 90
        1
 91
        1
300
_TITLE
309
CELLSTYLE_END
300
CELLSTYLE
  1
TABLEFORMAT_BEGIN
 90
        5
170
     1
 91
        0
 92
        0
 62
   257
 93
        1
300
CONTENTFORMAT
  1
CONTENTFORMAT_BEGIN
 90
        0
 91
        0
 92
      512
 93
        0
300

 40
0.0
140
1.0
 94
        5
 62
     0
340
11
144
0.18
309
CONTENTFORMAT_END
171
     1
301
MARGIN
  1
CELLMARGIN_BEGIN
 40
0.06
 40
0.06
 40
0.06
 40
0.06
 40
0.18
 40
0.18
309
CELLMARGIN_END
 94
        6
 95
        1
302
GRIDFORMAT
  1
GRIDFORMAT_BEGIN
 90
        0
 91
        1
 62
     0
 92
       -2
340
0
 93
        0
 40
0.045
309
GRIDFORMAT_END
 95
        2
302
GRIDFORMAT
  1
GRIDFORMAT_BEGIN
 90
        0
 91
        1
 62
     0
 92
       -2
340
0
 93
        0
 40
0.045
309
GRIDFORMAT_END
 95
        4
302
GRIDFORMAT
  1
GRIDFORMAT_BEGIN
 90
        0
 91
        1
 62
     0
 92
       -2
340
0
 93
        0
 40
0.045
309
GRIDFORMAT_END
 95
        8
302
GRIDFORMAT
  1
GRIDFORMAT_BEGIN
 90
        0
 91
        1
 62
     0
 92
       -2
340
0
 93
        0
 40
0.045
309
GRIDFORMAT_END
 95
       16
302
GRIDFORMAT
  1
GRIDFORMAT_BEGIN
 90
        0
 91
        1
 62
     0
 92
       -2
340
0
 93
        0
 40
0.045
309
GRIDFORMAT_END
 95
       32
302
GRIDFORMAT
  1
GRIDFORMAT_BEGIN
 90
        0
 91
        1
 62
     0
 92
       -2
340
0
 93
        0
 40
0.045
309
GRIDFORMAT_END
309
TABLEFORMAT_END
  1
CELLSTYLE_BEGIN
 90
        2
 91
        1
300
_HEADER
309
CELLSTYLE_END
300
CELLSTYLE
  1
TABLEFORMAT_BEGIN
 90
        5
170
     1
 91
        0
 92
        0
 62
   257
 93
        1
300
CONTENTFORMAT
  1
CONTENTFORMAT_BEGIN
 90
        0
 91
        0
 92
      512
 93
        0
300

 40
0.0
140
1.0
 94
        2
 62
     0
340
11
144
0.18
309
CONTENTFORMAT_END
171
     1
301
MARGIN
  1
CELLMARGIN_BEGIN
 40
0.06
 40
0.06
 40
0.06
 40
0.06
 40
0.18
 40
0.18
309
CELLMARGIN_END
 94
        6
 95
        1
302
GRIDFORMAT
  1
GRIDFORMAT_BEGIN
 90
        0
 91
        1
 62
     0
 92
       -2
340
0
 93
        0
 40
0.045
309
GRIDFORMAT_END
 95
        2
302
GRIDFORMAT
  1
GRIDFORMAT_BEGIN
 90
        0
 91
        1
 62
     0
 92
       -2
340
0
 93
        0
 40
0.045
309
GRIDFORMAT_END
 95
        4
302
GRIDFORMAT
  1
GRIDFORMAT_BEGIN
 90
        0
 91
        1
 62
     0
 92
       -2
340
0
 93
        0
 40
0.045
309
GRIDFORMAT_END
 95
        8
302
GRIDFORMAT
  1
GRIDFORMAT_BEGIN
 90
        0
 91
        1
 62
     0
 92
       -2
340
0
 93
        0
 40
0.045
309
GRIDFORMAT_END
 95
       16
302
GRIDFORMAT
  1
GRIDFORMAT_BEGIN
 90
        0
 91
        1
 62
     0
 92
       -2
340
0
 93
        0
 40
0.045
309
GRIDFORMAT_END
 95
       32
302
GRIDFORMAT
  1
GRIDFORMAT_BEGIN
 90
        0
 91
        1
 62
     0
 92
       -2
340
0
 93
        0
 40
0.045
309
GRIDFORMAT_END
309
TABLEFORMAT_END
  1
CELLSTYLE_BEGIN
 90
        3
 91
        2
300
_DATA
309
CELLSTYLE_END
  0
XRECORD
  5
61F
102
{ACAD_REACTORS
330
104
102
}
330
104
100
AcDbXrecord
280
     1
102
ACAD_ROUNDTRIP_PRE2007_TABLESTYLE
 90
      512
 91
        0
  1

 92
      512
 93
        0
  2

 94
      512
 95
        0
  3

  0
XRECORD
  5
62B
102
{ACAD_REACTORS
330
62A
102
}
330
62A
100
AcDbXrecord
280
     1
102
RTVSPropertyOp0
 70
     1
102
RTVSPropertyOp1
 70
     1
102
RTVSPropertyOp2
 70
     1
102
RTVSPropertyOp3
 70
     1
102
RTVSPropertyOp4
 70
     1
102
RTVSPropertyOp5
 70
     1
102
RTVSPropertyOp6
 70
     1
102
RTVSPropertyOp7
 70
     1
102
RTVSPropertyOp8
 70
     1
102
RTVSPropertyOp9
 70
     1
102
RTVSPropertyOp10
 70
     1
102
RTVSPropertyOp11
 70
     1
102
RTVSPropertyOp12
 70
     1
102
RTVSPropertyOp13
 70
     1
102
RTVSPropertyOp14
 70
     1
102
RTVSPropertyOp15
 70
     1
102
RTVSPropertyOp16
 70
     1
102
RTVSPropertyOp17
 70
     1
102
RTVSPropertyOp18
 70
     1
102
RTVSPropertyOp19
 70
     1
102
RTVSPropertyOp20
 70
     1
102
RTVSPropertyOp21
 70
     1
102
RTVSPropertyOp22
 70
     1
102
RTVSPropertyOp23
 70
     1
102
RTVSPropertyOp24
 70
     1
102
RTVSPropertyOp25
 70
     1
102
RTVSPropertyOp26
 70
     1
102
RTVSPropertyOp27
 70
     1
  0
XRECORD
  5
62F
102
{ACAD_REACTORS
330
62E
102
}
330
62E
100
AcDbXrecord
280
     1
102
RTVSPropertyOp0
 70
     1
102
RTVSPropertyOp1
 70
     1
102
RTVSPropertyOp2
 70
     1
102
RTVSPropertyOp3
 70
     1
102
RTVSPropertyOp4
 70
     1
102
RTVSPropertyOp5
 70
     1
102
RTVSPropertyOp6
 70
     1
102
RTVSPropertyOp7
 70
     1
102
RTVSPropertyOp8
 70
     1
102
RTVSPropertyOp9
 70
     1
102
RTVSPropertyOp10
 70
     1
102
RTVSPropertyOp11
 70
     1
102
RTVSPropertyOp12
 70
     1
102
RTVSPropertyOp13
 70
     1
102
RTVSPropertyOp14
 70
     1
102
RTVSPropertyOp15
 70
     1
102
RTVSPropertyOp16
 70
     1
102
RTVSPropertyOp17
 70
     1
102
RTVSPropertyOp18
 70
     1
102
RTVSPropertyOp19
 70
     1
102
RTVSPropertyOp20
 70
     1
102
RTVSPropertyOp21
 70
     1
102
RTVSPropertyOp22
 70
     1
102
RTVSPropertyOp23
 70
     1
102
RTVSPropertyOp24
 70
     1
102
RTVSPropertyOp25
 70
     1
102
RTVSPropertyOp26
 70
     1
102
RTVSPropertyOp27
 70
     1
  0
XRECORD
  5
62D
102
{ACAD_REACTORS
330
62C
102
}
330
62C
100
AcDbXrecord
280
     1
102
RTVSPropertyOp0
 70
     1
102
RTVSPropertyOp1
 70
     1
102
RTVSPropertyOp2
 70
     1
102
RTVSPropertyOp3
 70
     1
102
RTVSPropertyOp4
 70
     1
102
RTVSPropertyOp5
 70
     1
102
RTVSPropertyOp6
 70
     1
102
RTVSPropertyOp7
 70
     1
102
RTVSPropertyOp8
 70
     1
102
RTVSPropertyOp9
 70
     1
102
RTVSPropertyOp10
 70
     1
102
RTVSPropertyOp11
 70
     1
102
RTVSPropertyOp12
 70
     1
102
RTVSPropertyOp13
 70
     1
102
RTVSPropertyOp14
 70
     1
102
RTVSPropertyOp15
 70
     1
102
RTVSPropertyOp16
 70
     1
102
RTVSPropertyOp17
 70
     1
102
RTVSPropertyOp18
 70
     1
102
RTVSPropertyOp19
 70
     1
102
RTVSPropertyOp20
 70
     1
102
RTVSPropertyOp21
 70
     1
102
RTVSPropertyOp22
 70
     1
102
RTVSPropertyOp23
 70
     1
102
RTVSPropertyOp24
 70
     1
102
RTVSPropertyOp25
 70
     1
102
RTVSPropertyOp26
 70
     1
102
RTVSPropertyOp27
 70
     1
  0
XRECORD
  5
629
102
{ACAD_REACTORS
330
628
102
}
330
628
100
AcDbXrecord
280
     1
102
RTVSPropertyOp0
 70
     1
102
RTVSPropertyOp1
 70
     1
102
RTVSPropertyOp2
 70
     1
102
RTVSPropertyOp3
 70
     1
102
RTVSPropertyOp4
 70
     1
102
RTVSPropertyOp5
 70
     1
102
RTVSPropertyOp6
 70
     1
102
RTVSPropertyOp7
 70
     1
102
RTVSPropertyOp8
 70
     1
102
RTVSPropertyOp9
 70
     1
102
RTVSPropertyOp10
 70
     1
102
RTVSPropertyOp11
 70
     1
102
RTVSPropertyOp12
 70
     1
102
RTVSPropertyOp13
 70
     1
102
RTVSPropertyOp14
 70
     1
102
RTVSPropertyOp15
 70
     1
102
RTVSPropertyOp16
 70
     1
102
RTVSPropertyOp17
 70
     1
102
RTVSPropertyOp18
 70
     1
102
RTVSPropertyOp19
 70
     1
102
RTVSPropertyOp20
 70
     1
102
RTVSPropertyOp21
 70
     1
102
RTVSPropertyOp22
 70
     1
102
RTVSPropertyOp23
 70
     1
102
RTVSPropertyOp24
 70
     1
102
RTVSPropertyOp25
 70
     1
102
RTVSPropertyOp26
 70
     1
102
RTVSPropertyOp27
 70
     1
  0
XRECORD
  5
637
102
{ACAD_REACTORS
330
636
102
}
330
636
100
AcDbXrecord
280
     1
102
RTVSPropertyOp0
 70
     1
102
RTVSPropertyOp1
 70
     1
102
RTVSPropertyOp2
 70
     1
102
RTVSPropertyOp3
 70
     1
102
RTVSPropertyOp4
 70
     1
102
RTVSPropertyOp5
 70
     1
102
RTVSPropertyOp6
 70
     1
102
RTVSPropertyOp7
 70
     1
102
RTVSPropertyOp8
 70
     1
102
RTVSPropertyOp9
 70
     1
102
RTVSPropertyOp10
 70
     1
102
RTVSPropertyOp11
 70
     1
102
RTVSPropertyOp12
 70
     1
102
RTVSPropertyOp13
 70
     1
102
RTVSPropertyOp14
 70
     1
102
RTVSPropertyOp15
 70
     1
102
RTVSPropertyOp16
 70
     1
102
RTVSPropertyOp17
 70
     1
102
RTVSPropertyOp18
 70
     1
102
RTVSPropertyOp19
 70
     1
102
RTVSPropertyOp20
 70
     1
102
RTVSPropertyOp21
 70
     1
102
RTVSPropertyOp22
 70
     1
102
RTVSPropertyOp23
 70
     1
102
RTVSPropertyOp24
 70
     1
102
RTVSPropertyOp25
 70
     1
102
RTVSPropertyOp26
 70
     1
102
RTVSPropertyOp27
 70
     1
  0
XRECORD
  5
63F
102
{ACAD_REACTORS
330
63E
102
}
330
63E
100
AcDbXrecord
280
     1
102
RTVSPropertyOp0
 70
     1
102
RTVSPropertyOp1
 70
     1
102
RTVSPropertyOp2
 70
     1
102
RTVSPropertyOp3
 70
     1
102
RTVSPropertyOp4
 70
     1
102
RTVSPropertyOp5
 70
     1
102
RTVSPropertyOp6
 70
     1
102
RTVSPropertyOp7
 70
     1
102
RTVSPropertyOp8
 70
     1
102
RTVSPropertyOp9
 70
     1
102
RTVSPropertyOp10
 70
     1
102
RTVSPropertyOp11
 70
     1
102
RTVSPropertyOp12
 70
     1
102
RTVSPropertyOp13
 70
     1
102
RTVSPropertyOp14
 70
     1
102
RTVSPropertyOp15
 70
     1
102
RTVSPropertyOp16
 70
     1
102
RTVSPropertyOp17
 70
     1
102
RTVSPropertyOp18
 70
     1
102
RTVSPropertyOp19
 70
     1
102
RTVSPropertyOp20
 70
     1
102
RTVSPropertyOp21
 70
     1
102
RTVSPropertyOp22
 70
     1
102
RTVSPropertyOp23
 70
     1
102
RTVSPropertyOp24
 70
     1
102
RTVSPropertyOp25
 70
     1
102
RTVSPropertyOp26
 70
     1
102
RTVSPropertyOp27
 70
     1
  0
XRECORD
  5
631
102
{ACAD_REACTORS
330
630
102
}
330
630
100
AcDbXrecord
280
     1
102
RTVSPropertyOp0
 70
     1
102
RTVSPropertyOp1
 70
     1
102
RTVSPropertyOp2
 70
     1
102
RTVSPropertyOp3
 70
     1
102
RTVSPropertyOp4
 70
     1
102
RTVSPropertyOp5
 70
     1
102
RTVSPropertyOp6
 70
     1
102
RTVSPropertyOp7
 70
     1
102
RTVSPropertyOp8
 70
     1
102
RTVSPropertyOp9
 70
     1
102
RTVSPropertyOp10
 70
     1
102
RTVSPropertyOp11
 70
     1
102
RTVSPropertyOp12
 70
     1
102
RTVSPropertyOp13
 70
     1
102
RTVSPropertyOp14
 70
     1
102
RTVSPropertyOp15
 70
     1
102
RTVSPropertyOp16
 70
     1
102
RTVSPropertyOp17
 70
     1
102
RTVSPropertyOp18
 70
     1
102
RTVSPropertyOp19
 70
     1
102
RTVSPropertyOp20
 70
     1
102
RTVSPropertyOp21
 70
     1
102
RTVSPropertyOp22
 70
     1
102
RTVSPropertyOp23
 70
     1
102
RTVSPropertyOp24
 70
     1
102
RTVSPropertyOp25
 70
     1
102
RTVSPropertyOp26
 70
     1
102
RTVSPropertyOp27
 70
     1
  0
XRECORD
  5
635
102
{ACAD_REACTORS
330
634
102
}
330
634
100
AcDbXrecord
280
     1
102
RTVSPropertyOp0
 70
     1
102
RTVSPropertyOp1
 70
     1
102
RTVSPropertyOp2
 70
     1
102
RTVSPropertyOp3
 70
     1
102
RTVSPropertyOp4
 70
     1
102
RTVSPropertyOp5
 70
     1
102
RTVSPropertyOp6
 70
     1
102
RTVSPropertyOp7
 70
     1
102
RTVSPropertyOp8
 70
     1
102
RTVSPropertyOp9
 70
     1
102
RTVSPropertyOp10
 70
     1
102
RTVSPropertyOp11
 70
     1
102
RTVSPropertyOp12
 70
     1
102
RTVSPropertyOp13
 70
     1
102
RTVSPropertyOp14
 70
     1
102
RTVSPropertyOp15
 70
     1
102
RTVSPropertyOp16
 70
     1
102
RTVSPropertyOp17
 70
     1
102
RTVSPropertyOp18
 70
     1
102
RTVSPropertyOp19
 70
     1
102
RTVSPropertyOp20
 70
     1
102
RTVSPropertyOp21
 70
     1
102
RTVSPropertyOp22
 70
     1
102
RTVSPropertyOp23
 70
     1
102
RTVSPropertyOp24
 70
     1
102
RTVSPropertyOp25
 70
     1
102
RTVSPropertyOp26
 70
     1
102
RTVSPropertyOp27
 70
     1
  0
XRECORD
  5
645
102
{ACAD_REACTORS
330
644
102
}
330
644
100
AcDbXrecord
280
     1
102
RTVSPropertyOp0
 70
     0
102
RTVSPropertyOp1
 70
     0
102
RTVSPropertyOp2
 70
     0
102
RTVSPropertyOp3
 70
     0
102
RTVSPropertyOp4
 70
     0
102
RTVSPropertyOp5
 70
     0
102
RTVSPropertyOp6
 70
     0
102
RTVSPropertyOp7
 70
     0
102
RTVSPropertyOp8
 70
     0
102
RTVSPropertyOp9
 70
     0
102
RTVSPropertyOp10
 70
     0
102
RTVSPropertyOp11
 70
     0
102
RTVSPropertyOp12
 70
     0
102
RTVSPropertyOp13
 70
     0
102
RTVSPropertyOp14
 70
     2
102
RTVSPropertyOp15
 70
     0
102
RTVSPropertyOp16
 70
     0
102
RTVSPropertyOp17
 70
     0
102
RTVSPropertyOp18
 70
     0
102
RTVSPropertyOp19
 70
     0
102
RTVSPropertyOp20
 70
     0
102
RTVSPropertyOp21
 70
     0
102
RTVSPropertyOp22
 70
     0
102
RTVSPropertyOp23
 70
     0
102
RTVSPropertyOp24
 70
     0
102
RTVSPropertyOp25
 70
     0
102
RTVSPropertyOp26
 70
     0
102
RTVSPropertyOp27
 70
     0
  0
XRECORD
  5
63D
102
{ACAD_REACTORS
330
63C
102
}
330
63C
100
AcDbXrecord
280
     1
102
RTVSPropertyOp0
 70
     1
102
RTVSPropertyOp1
 70
     1
102
RTVSPropertyOp2
 70
     1
102
RTVSPropertyOp3
 70
     1
102
RTVSPropertyOp4
 70
     1
102
RTVSPropertyOp5
 70
     1
102
RTVSPropertyOp6
 70
     1
102
RTVSPropertyOp7
 70
     1
102
RTVSPropertyOp8
 70
     1
102
RTVSPropertyOp9
 70
     1
102
RTVSPropertyOp10
 70
     1
102
RTVSPropertyOp11
 70
     1
102
RTVSPropertyOp12
 70
     1
102
RTVSPropertyOp13
 70
     1
102
RTVSPropertyOp14
 70
     1
102
RTVSPropertyOp15
 70
     1
102
RTVSPropertyOp16
 70
     1
102
RTVSPropertyOp17
 70
     1
102
RTVSPropertyOp18
 70
     1
102
RTVSPropertyOp19
 70
     1
102
RTVSPropertyOp20
 70
     1
102
RTVSPropertyOp21
 70
     1
102
RTVSPropertyOp22
 70
     1
102
RTVSPropertyOp23
 70
     1
102
RTVSPropertyOp24
 70
     1
102
RTVSPropertyOp25
 70
     1
102
RTVSPropertyOp26
 70
     1
102
RTVSPropertyOp27
 70
     1
  0
XRECORD
  5
621
102
{ACAD_REACTORS
330
620
102
}
330
620
100
AcDbXrecord
280
     1
102
RTVSPropertyOp0
 70
     1
102
RTVSPropertyOp1
 70
     1
102
RTVSPropertyOp2
 70
     1
102
RTVSPropertyOp3
 70
     1
102
RTVSPropertyOp4
 70
     1
102
RTVSPropertyOp5
 70
     1
102
RTVSPropertyOp6
 70
     1
102
RTVSPropertyOp7
 70
     1
102
RTVSPropertyOp8
 70
     1
102
RTVSPropertyOp9
 70
     1
102
RTVSPropertyOp10
 70
     1
102
RTVSPropertyOp11
 70
     1
102
RTVSPropertyOp12
 70
     1
102
RTVSPropertyOp13
 70
     1
102
RTVSPropertyOp14
 70
     1
102
RTVSPropertyOp15
 70
     1
102
RTVSPropertyOp16
 70
     1
102
RTVSPropertyOp17
 70
     1
102
RTVSPropertyOp18
 70
     1
102
RTVSPropertyOp19
 70
     1
102
RTVSPropertyOp20
 70
     1
102
RTVSPropertyOp21
 70
     1
102
RTVSPropertyOp22
 70
     1
102
RTVSPropertyOp23
 70
     1
102
RTVSPropertyOp24
 70
     1
102
RTVSPropertyOp25
 70
     1
102
RTVSPropertyOp26
 70
     1
102
RTVSPropertyOp27
 70
     1
  0
XRECORD
  5
623
102
{ACAD_REACTORS
330
622
102
}
330
622
100
AcDbXrecord
280
     1
102
RTVSPropertyOp0
 70
     1
102
RTVSPropertyOp1
 70
     1
102
RTVSPropertyOp2
 70
     1
102
RTVSPropertyOp3
 70
     1
102
RTVSPropertyOp4
 70
     1
102
RTVSPropertyOp5
 70
     1
102
RTVSPropertyOp6
 70
     1
102
RTVSPropertyOp7
 70
     1
102
RTVSPropertyOp8
 70
     1
102
RTVSPropertyOp9
 70
     1
102
RTVSPropertyOp10
 70
     1
102
RTVSPropertyOp11
 70
     1
102
RTVSPropertyOp12
 70
     1
102
RTVSPropertyOp13
 70
     1
102
RTVSPropertyOp14
 70
     1
102
RTVSPropertyOp15
 70
     1
102
RTVSPropertyOp16
 70
     1
102
RTVSPropertyOp17
 70
     1
102
RTVSPropertyOp18
 70
     1
102
RTVSPropertyOp19
 70
     1
102
RTVSPropertyOp20
 70
     1
102
RTVSPropertyOp21
 70
     1
102
RTVSPropertyOp22
 70
     1
102
RTVSPropertyOp23
 70
     1
102
RTVSPropertyOp24
 70
     1
102
RTVSPropertyOp25
 70
     1
102
RTVSPropertyOp26
 70
     1
102
RTVSPropertyOp27
 70
     1
  0
XRECORD
  5
625
102
{ACAD_REACTORS
330
624
102
}
330
624
100
AcDbXrecord
280
     1
102
RTVSPropertyOp0
 70
     1
102
RTVSPropertyOp1
 70
     1
102
RTVSPropertyOp2
 70
     1
102
RTVSPropertyOp3
 70
     1
102
RTVSPropertyOp4
 70
     1
102
RTVSPropertyOp5
 70
     1
102
RTVSPropertyOp6
 70
     1
102
RTVSPropertyOp7
 70
     1
102
RTVSPropertyOp8
 70
     1
102
RTVSPropertyOp9
 70
     1
102
RTVSPropertyOp10
 70
     1
102
RTVSPropertyOp11
 70
     1
102
RTVSPropertyOp12
 70
     1
102
RTVSPropertyOp13
 70
     1
102
RTVSPropertyOp14
 70
     1
102
RTVSPropertyOp15
 70
     1
102
RTVSPropertyOp16
 70
     1
102
RTVSPropertyOp17
 70
     1
102
RTVSPropertyOp18
 70
     1
102
RTVSPropertyOp19
 70
     1
102
RTVSPropertyOp20
 70
     1
102
RTVSPropertyOp21
 70
     1
102
RTVSPropertyOp22
 70
     1
102
RTVSPropertyOp23
 70
     1
102
RTVSPropertyOp24
 70
     1
102
RTVSPropertyOp25
 70
     1
102
RTVSPropertyOp26
 70
     1
102
RTVSPropertyOp27
 70
     1
  0
XRECORD
  5
627
102
{ACAD_REACTORS
330
626
102
}
330
626
100
AcDbXrecord
280
     1
102
RTVSPropertyOp0
 70
     1
102
RTVSPropertyOp1
 70
     1
102
RTVSPropertyOp2
 70
     1
102
RTVSPropertyOp3
 70
     1
102
RTVSPropertyOp4
 70
     1
102
RTVSPropertyOp5
 70
     1
102
RTVSPropertyOp6
 70
     1
102
RTVSPropertyOp7
 70
     1
102
RTVSPropertyOp8
 70
     1
102
RTVSPropertyOp9
 70
     1
102
RTVSPropertyOp10
 70
     1
102
RTVSPropertyOp11
 70
     1
102
RTVSPropertyOp12
 70
     1
102
RTVSPropertyOp13
 70
     1
102
RTVSPropertyOp14
 70
     1
102
RTVSPropertyOp15
 70
     1
102
RTVSPropertyOp16
 70
     1
102
RTVSPropertyOp17
 70
     1
102
RTVSPropertyOp18
 70
     1
102
RTVSPropertyOp19
 70
     1
102
RTVSPropertyOp20
 70
     1
102
RTVSPropertyOp21
 70
     1
102
RTVSPropertyOp22
 70
     1
102
RTVSPropertyOp23
 70
     1
102
RTVSPropertyOp24
 70
     1
102
RTVSPropertyOp25
 70
     1
102
RTVSPropertyOp26
 70
     1
102
RTVSPropertyOp27
 70
     1
  0
XRECORD
  5
641
102
{ACAD_REACTORS
330
640
102
}
330
640
100
AcDbXrecord
280
     1
102
RTVSPropertyOp0
 70
     0
102
RTVSPropertyOp1
 70
     0
102
RTVSPropertyOp2
 70
     0
102
RTVSPropertyOp3
 70
     0
102
RTVSPropertyOp4
 70
     0
102
RTVSPropertyOp5
 70
     0
102
RTVSPropertyOp6
 70
     0
102
RTVSPropertyOp7
 70
     0
102
RTVSPropertyOp8
 70
     0
102
RTVSPropertyOp9
 70
     0
102
RTVSPropertyOp10
 70
     0
102
RTVSPropertyOp11
 70
     0
102
RTVSPropertyOp12
 70
     0
102
RTVSPropertyOp13
 70
     0
102
RTVSPropertyOp14
 70
     2
102
RTVSPropertyOp15
 70
     0
102
RTVSPropertyOp16
 70
     0
102
RTVSPropertyOp17
 70
     0
102
RTVSPropertyOp18
 70
     0
102
RTVSPropertyOp19
 70
     0
102
RTVSPropertyOp20
 70
     0
102
RTVSPropertyOp21
 70
     0
102
RTVSPropertyOp22
 70
     0
102
RTVSPropertyOp23
 70
     0
102
RTVSPropertyOp24
 70
     0
102
RTVSPropertyOp25
 70
     0
102
RTVSPropertyOp26
 70
     0
102
RTVSPropertyOp27
 70
     0
  0
XRECORD
  5
63B
102
{ACAD_REACTORS
330
63A
102
}
330
63A
100
AcDbXrecord
280
     1
102
RTVSPropertyOp0
 70
     1
102
RTVSPropertyOp1
 70
     1
102
RTVSPropertyOp2
 70
     1
102
RTVSPropertyOp3
 70
     1
102
RTVSPropertyOp4
 70
     1
102
RTVSPropertyOp5
 70
     1
102
RTVSPropertyOp6
 70
     1
102
RTVSPropertyOp7
 70
     1
102
RTVSPropertyOp8
 70
     1
102
RTVSPropertyOp9
 70
     1
102
RTVSPropertyOp10
 70
     1
102
RTVSPropertyOp11
 70
     1
102
RTVSPropertyOp12
 70
     1
102
RTVSPropertyOp13
 70
     1
102
RTVSPropertyOp14
 70
     1
102
RTVSPropertyOp15
 70
     1
102
RTVSPropertyOp16
 70
     1
102
RTVSPropertyOp17
 70
     1
102
RTVSPropertyOp18
 70
     1
102
RTVSPropertyOp19
 70
     1
102
RTVSPropertyOp20
 70
     1
102
RTVSPropertyOp21
 70
     1
102
RTVSPropertyOp22
 70
     1
102
RTVSPropertyOp23
 70
     1
102
RTVSPropertyOp24
 70
     1
102
RTVSPropertyOp25
 70
     1
102
RTVSPropertyOp26
 70
     1
102
RTVSPropertyOp27
 70
     1
  0
XRECORD
  5
643
102
{ACAD_REACTORS
330
642
102
}
330
642
100
AcDbXrecord
280
     1
102
RTVSPropertyOp0
 70
     0
102
RTVSPropertyOp1
 70
     0
102
RTVSPropertyOp2
 70
     0
102
RTVSPropertyOp3
 70
     0
102
RTVSPropertyOp4
 70
     0
102
RTVSPropertyOp5
 70
     0
102
RTVSPropertyOp6
 70
     0
102
RTVSPropertyOp7
 70
     0
102
RTVSPropertyOp8
 70
     0
102
RTVSPropertyOp9
 70
     0
102
RTVSPropertyOp10
 70
     0
102
RTVSPropertyOp11
 70
     0
102
RTVSPropertyOp12
 70
     0
102
RTVSPropertyOp13
 70
     0
102
RTVSPropertyOp14
 70
     2
102
RTVSPropertyOp15
 70
     0
102
RTVSPropertyOp16
 70
     0
102
RTVSPropertyOp17
 70
     0
102
RTVSPropertyOp18
 70
     0
102
RTVSPropertyOp19
 70
     0
102
RTVSPropertyOp20
 70
     0
102
RTVSPropertyOp21
 70
     0
102
RTVSPropertyOp22
 70
     0
102
RTVSPropertyOp23
 70
     0
102
RTVSPropertyOp24
 70
     0
102
RTVSPropertyOp25
 70
     0
102
RTVSPropertyOp26
 70
     0
102
RTVSPropertyOp27
 70
     0
  0
XRECORD
  5
633
102
{ACAD_REACTORS
330
632
102
}
330
632
100
AcDbXrecord
280
     1
102
RTVSPropertyOp0
 70
     1
102
RTVSPropertyOp1
 70
     1
102
RTVSPropertyOp2
 70
     1
102
RTVSPropertyOp3
 70
     1
102
RTVSPropertyOp4
 70
     1
102
RTVSPropertyOp5
 70
     1
102
RTVSPropertyOp6
 70
     1
102
RTVSPropertyOp7
 70
     1
102
RTVSPropertyOp8
 70
     1
102
RTVSPropertyOp9
 70
     1
102
RTVSPropertyOp10
 70
     1
102
RTVSPropertyOp11
 70
     1
102
RTVSPropertyOp12
 70
     1
102
RTVSPropertyOp13
 70
     1
102
RTVSPropertyOp14
 70
     1
102
RTVSPropertyOp15
 70
     1
102
RTVSPropertyOp16
 70
     1
102
RTVSPropertyOp17
 70
     1
102
RTVSPropertyOp18
 70
     1
102
RTVSPropertyOp19
 70
     1
102
RTVSPropertyOp20
 70
     1
102
RTVSPropertyOp21
 70
     1
102
RTVSPropertyOp22
 70
     1
102
RTVSPropertyOp23
 70
     1
102
RTVSPropertyOp24
 70
     1
102
RTVSPropertyOp25
 70
     1
102
RTVSPropertyOp26
 70
     1
102
RTVSPropertyOp27
 70
     1
  0
XRECORD
  5
639
102
{ACAD_REACTORS
330
638
102
}
330
638
100
AcDbXrecord
280
     1
102
RTVSPropertyOp0
 70
     1
102
RTVSPropertyOp1
 70
     1
102
RTVSPropertyOp2
 70
     1
102
RTVSPropertyOp3
 70
     1
102
RTVSPropertyOp4
 70
     1
102
RTVSPropertyOp5
 70
     1
102
RTVSPropertyOp6
 70
     1
102
RTVSPropertyOp7
 70
     1
102
RTVSPropertyOp8
 70
     1
102
RTVSPropertyOp9
 70
     1
102
RTVSPropertyOp10
 70
     1
102
RTVSPropertyOp11
 70
     1
102
RTVSPropertyOp12
 70
     1
102
RTVSPropertyOp13
 70
     1
102
RTVSPropertyOp14
 70
     1
102
RTVSPropertyOp15
 70
     1
102
RTVSPropertyOp16
 70
     1
102
RTVSPropertyOp17
 70
     1
102
RTVSPropertyOp18
 70
     1
102
RTVSPropertyOp19
 70
     1
102
RTVSPropertyOp20
 70
     1
102
RTVSPropertyOp21
 70
     1
102
RTVSPropertyOp22
 70
     1
102
RTVSPropertyOp23
 70
     1
102
RTVSPropertyOp24
 70
     1
102
RTVSPropertyOp25
 70
     1
102
RTVSPropertyOp26
 70
     1
102
RTVSPropertyOp27
 70
     1
  0
ENDSEC
  0
EOF
