  0
SECTION
  2
HEADER
  9
$ACADVER
  1
AC1021
  9
$ACADMAINTVER
 70
     1
  9
$DWGCODEPAGE
  3
ANSI_1252
  9
$LASTSAVEDBY
  1
gdseiver
  9
$INSBASE
 10
0.0
 20
0.0
 30
0.0
  9
$EXTMIN
 10
-0.0009646964400254
 20
-2.342181614964889
 30
-0.0000626696017054
  9
$EXTMAX
 10
2.120304705005665
 20
0.8384311523980088
 30
4.110062727021244
  9
$LIMMIN
 10
0.0
 20
0.0
  9
$LIMMAX
 10
12.0
 20
9.0
  9
$ORTHOMODE
 70
     0
  9
$REGENMODE
 70
     1
  9
$FILLMODE
 70
     1
  9
$QTEXTMODE
 70
     0
  9
$MIRRTEXT
 70
     1
  9
$LTSCALE
 40
1.0
  9
$ATTMODE
 70
     1
  9
$TEXTSIZE
 40
0.12
  9
$TRACEWID
 40
0.05
  9
$TEXTSTYLE
  7
STANDARD
  9
$CLAYER
  8
0
  9
$CELTYPE
  6
BYLAYER
  9
$CECOLOR
 62
   256
  9
$CELTSCALE
 40
1.0
  9
$DISPSILH
 70
     0
  9
$DIMSCALE
 40
1.0
  9
$DIMASZ
 40
0.18
  9
$DIMEXO
 40
0.0625
  9
$DIMDLI
 40
0.375
  9
$DIMRND
 40
0.0
  9
$DIMDLE
 40
0.0
  9
$DIMEXE
 40
0.18
  9
$DIMTP
 40
0.0
  9
$DIMTM
 40
0.0
  9
$DIMTXT
 40
0.14
  9
$DIMCEN
 40
0.09
  9
$DIMTSZ
 40
0.0
  9
$DIMTOL
 70
     0
  9
$DIMLIM
 70
     0
  9
$DIMTIH
 70
     0
  9
$DIMTOH
 70
     1
  9
$DIMSE1
 70
     0
  9
$DIMSE2
 70
     0
  9
$DIMTAD
 70
     0
  9
$DIMZIN
 70
     4
  9
$DIMBLK
  1

  9
$DIMASO
 70
     1
  9
$DIMSHO
 70
     1
  9
$DIMPOST
  1

  9
$DIMAPOST
  1

  9
$DIMALT
 70
     1
  9
$DIMALTD
 70
     2
  9
$DIMALTF
 40
25.4
  9
$DIMLFAC
 40
1.0
  9
$DIMTOFL
 70
     0
  9
$DIMTVP
 40
0.0
  9
$DIMTIX
 70
     0
  9
$DIMSOXD
 70
     0
  9
$DIMSAH
 70
     0
  9
$DIMBLK1
  1

  9
$DIMBLK2
  1

  9
$DIMSTYLE
  2
ABECAD_3D
  9
$DIMCLRD
 70
     0
  9
$DIMCLRE
 70
     0
  9
$DIMCLRT
 70
     0
  9
$DIMTFAC
 40
1.5
  9
$DIMGAP
 40
0.09
  9
$DIMJUST
 70
     0
  9
$DIMSD1
 70
     0
  9
$DIMSD2
 70
     0
  9
$DIMTOLJ
 70
     1
  9
$DIMTZIN
 70
     4
  9
$DIMALTZ
 70
     4
  9
$DIMALTTZ
 70
     4
  9
$DIMUPT
 70
     1
  9
$DIMDEC
 70
     6
  9
$DIMTDEC
 70
     6
  9
$DIMALTU
 70
     2
  9
$DIMALTTD
 70
     2
  9
$DIMTXSTY
  7
STANDARD
  9
$DIMAUNIT
 70
     0
  9
$DIMADEC
 70
     0
  9
$DIMALTRND
 40
0.0
  9
$DIMAZIN
 70
     0
  9
$DIMDSEP
 70
    46
  9
$DIMATFIT
 70
     2
  9
$DIMFRAC
 70
     2
  9
$DIMLDRBLK
  1

  9
$DIMLUNIT
 70
     5
  9
$DIMLWD
 70
    -2
  9
$DIMLWE
 70
    -2
  9
$DIMTMOVE
 70
     2
  9
$DIMFXL
 40
1.0
  9
$DIMFXLON
 70
     0
  9
$DIMJOGANG
 40
0.7853981633974483
  9
$DIMTFILL
 70
     0
  9
$DIMTFILLCLR
 70
     0
  9
$DIMARCSYM
 70
     0
  9
$DIMLTYPE
  6

  9
$DIMLTEX1
  6

  9
$DIMLTEX2
  6

  9
$LUNITS
 70
     2
  9
$LUPREC
 70
     4
  9
$SKETCHINC
 40
0.1
  9
$FILLETRAD
 40
0.0
  9
$AUNITS
 70
     0
  9
$AUPREC
 70
     0
  9
$MENU
  1
ACAD
  9
$ELEVATION
 40
0.0
  9
$PELEVATION
 40
0.0
  9
$THICKNESS
 40
0.0
  9
$LIMCHECK
 70
     0
  9
$CHAMFERA
 40
0.0
  9
$CHAMFERB
 40
0.0
  9
$CHAMFERC
 40
0.0
  9
$CHAMFERD
 40
0.0
  9
$SKPOLY
 70
     0
  9
$TDCREATE
 40
2451726.480055787
  9
$TDUCREATE
 40
2451726.688389120
  9
$TDUPDATE
 40
2454229.399643866
  9
$TDUUPDATE
 40
2454229.607977199
  9
$TDINDWG
 40
0.6779189583
  9
$TDUSRTIMER
 40
0.6779189583
  9
$USRTIMER
 70
     1
  9
$ANGBASE
 50
0.0
  9
$ANGDIR
 70
     0
  9
$PDMODE
 70
     3
  9
$PDSIZE
 40
0.09
  9
$PLINEWID
 40
0.0
  9
$SPLFRAME
 70
     1
  9
$SPLINETYPE
 70
     6
  9
$SPLINESEGS
 70
     8
  9
$HANDSEED
  5
615B4
  9
$SURFTAB1
 70
     6
  9
$SURFTAB2
 70
     6
  9
$SURFTYPE
 70
     6
  9
$SURFU
 70
     6
  9
$SURFV
 70
     6
  9
$UCSBASE
  2

  9
$UCSNAME
  2

  9
$UCSORG
 10
0.0
 20
0.0
 30
0.0
  9
$UCSXDIR
 10
1.0
 20
0.0
 30
0.0
  9
$UCSYDIR
 10
0.0
 20
1.0
 30
0.0
  9
$UCSORTHOREF
  2

  9
$UCSORTHOVIEW
 70
     1
  9
$UCSORGTOP
 10
0.0
 20
0.0
 30
0.0
  9
$UCSORGBOTTOM
 10
0.0
 20
0.0
 30
0.0
  9
$UCSORGLEFT
 10
0.0
 20
0.0
 30
0.0
  9
$UCSORGRIGHT
 10
0.0
 20
0.0
 30
0.0
  9
$UCSORGFRONT
 10
0.0
 20
0.0
 30
0.0
  9
$UCSORGBACK
 10
0.0
 20
0.0
 30
0.0
  9
$PUCSBASE
  2

  9
$PUCSNAME
  2

  9
$PUCSORG
 10
0.0
 20
0.0
 30
0.0
  9
$PUCSXDIR
 10
1.0
 20
0.0
 30
0.0
  9
$PUCSYDIR
 10
0.0
 20
1.0
 30
0.0
  9
$PUCSORTHOREF
  2

  9
$PUCSORTHOVIEW
 70
     0
  9
$PUCSORGTOP
 10
0.0
 20
0.0
 30
0.0
  9
$PUCSORGBOTTOM
 10
0.0
 20
0.0
 30
0.0
  9
$PUCSORGLEFT
 10
0.0
 20
0.0
 30
0.0
  9
$PUCSORGRIGHT
 10
0.0
 20
0.0
 30
0.0
  9
$PUCSORGFRONT
 10
0.0
 20
0.0
 30
0.0
  9
$PUCSORGBACK
 10
0.0
 20
0.0
 30
0.0
  9
$USERI1
 70
     0
  9
$USERI2
 70
     0
  9
$USERI3
 70
     0
  9
$USERI4
 70
     0
  9
$USERI5
 70
     0
  9
$USERR1
 40
0.0
  9
$USERR2
 40
0.0
  9
$USERR3
 40
0.0
  9
$USERR4
 40
0.0
  9
$USERR5
 40
0.0
  9
$WORLDVIEW
 70
     1
  9
$SHADEDGE
 70
     3
  9
$SHADEDIF
 70
    70
  9
$TILEMODE
 70
     1
  9
$MAXACTVP
 70
    16
  9
$PINSBASE
 10
0.0
 20
0.0
 30
0.0
  9
$PLIMCHECK
 70
     0
  9
$PEXTMIN
 10
1.049999952316284
 20
0.7999999523162842
 30
0.0
  9
$PEXTMAX
 10
9.449999570846555
 20
7.199999570846556
 30
0.0
  9
$PLIMMIN
 10
-0.2500002402958907
 20
-0.2499999962453767
  9
$PLIMMAX
 10
10.74999951940821
 20
8.249999763458731
  9
$UNITMODE
 70
     0
  9
$VISRETAIN
 70
     0
  9
$PLINEGEN
 70
     0
  9
$PSLTSCALE
 70
     1
  9
$TREEDEPTH
 70
  3020
  9
$CMLSTYLE
  2
STANDARD
  9
$CMLJUST
 70
     0
  9
$CMLSCALE
 40
1.0
  9
$PROXYGRAPHICS
 70
     1
  9
$MEASUREMENT
 70
     0
  9
$CELWEIGHT
370
    -1
  9
$ENDCAPS
280
     0
  9
$JOINSTYLE
280
     0
  9
$LWDISPLAY
290
     0
  9
$INSUNITS
 70
     0
  9
$HYPERLINKBASE
  1

  9
$STYLESHEET
  1

  9
$XEDIT
290
     1
  9
$CEPSNTYPE
380
     0
  9
$PSTYLEMODE
290
     1
  9
$FINGERPRINTGUID
  2
{6E0CF4B8-225E-11D4-A150-00A0CC3303EC}
  9
$VERSIONGUID
  2
{49C229DB-DADA-4BDC-83C5-9FAA30FF6947}
  9
$EXTNAMES
290
     1
  9
$PSVPSCALE
 40
0.0
  9
$OLESTARTUP
290
     0
  9
$SORTENTS
280
   127
  9
$INDEXCTL
280
     0
  9
$HIDETEXT
280
     0
  9
$XCLIPFRAME
290
     0
  9
$HALOGAP
280
     0
  9
$OBSCOLOR
 70
   257
  9
$OBSLTYPE
280
     0
  9
$INTERSECTIONDISPLAY
280
     0
  9
$INTERSECTIONCOLOR
 70
   257
  9
$DIMASSOC
280
     1
  9
$PROJECTNAME
  1

  9
$CAMERADISPLAY
290
     0
  9
$LENSLENGTH
 40
50.0
  9
$CAMERAHEIGHT
 40
0.0
  9
$STEPSPERSEC
 40
2.0
  9
$STEPSIZE
 40
6.0
  9
$3DDWFPREC
 40
2.0
  9
$PSOLWIDTH
 40
0.25
  9
$PSOLHEIGHT
 40
4.0
  9
$LOFTANG1
 40
1.570796326794896
  9
$LOFTANG2
 40
1.570796326794896
  9
$LOFTMAG1
 40
0.0
  9
$LOFTMAG2
 40
0.0
  9
$LOFTPARAM
 70
     7
  9
$LOFTNORMALS
280
     1
  9
$LATITUDE
 40
37.795
  9
$LONGITUDE
 40
-122.394
  9
$NORTHDIRECTION
 40
0.0
  9
$TIMEZONE
 70
 -8000
  9
$LIGHTGLYPHDISPLAY
280
     1
  9
$TILEMODELIGHTSYNCH
280
     1
  9
$CMATERIAL
347
61567
  9
$SOLIDHIST
280
     1
  9
$SHOWHIST
280
     1
  9
$DWFFRAME
280
     2
  9
$DGNFRAME
280
     0
  9
$REALWORLDSCALE
290
     1
  9
$INTERFERECOLOR
 62
     1
  9
$INTERFEREOBJVS
345
61574
  9
$INTERFEREVPVS
346
61571
  9
$CSHADOW
280
     0
  9
$SHADOWPLANELOCATION
 40
0.0
  0
ENDSEC
  0
SECTION
  2
CLASSES
  0
CLASS
  1
DICTIONARYVAR
  2
AcDbDictionaryVar
  3
ObjectDBX Classes
 90
        0
 91
        2
280
     0
281
     0
  0
CLASS
  1
ACDBDICTIONARYWDFLT
  2
AcDbDictionaryWithDefault
  3
ObjectDBX Classes
 90
        0
 91
        1
280
     0
281
     0
  0
CLASS
  1
MATERIAL
  2
AcDbMaterial
  3
ObjectDBX Classes
 90
     1024
 91
        3
280
     0
281
     0
  0
CLASS
  1
VISUALSTYLE
  2
AcDbVisualStyle
  3
ObjectDBX Classes
 90
     4095
 91
       16
280
     0
281
     0
  0
CLASS
  1
TABLESTYLE
  2
AcDbTableStyle
  3
ObjectDBX Classes
 90
     4095
 91
        1
280
     0
281
     0
  0
CLASS
  1
SOLID_BACKGROUND
  2
AcDbSolidBackground
  3
SCENEOE
 90
     4095
 91
        1
280
     0
281
     0
  0
CLASS
  1
NPOCOLLECTION
  2
AcDbImpNonPersistentObjectsCollection
  3
ObjectDBX Classes
 90
     1153
 91
        1
280
     0
281
     0
  0
CLASS
  1
EXACXREFPANELOBJECT
  2
ExAcXREFPanelObject
  3
EXAC_ESW
 90
     1025
 91
        0
280
     0
281
     0
  0
ENDSEC
  0
SECTION
  2
TABLES
  0
TABLE
  2
VPORT
  5
458C7
330
0
100
AcDbSymbolTable
 70
     1
  0
VPORT
  5
61533
330
458C7
100
AcDbSymbolTableRecord
100
AcDbViewportTableRecord
  2
*Active
 70
     0
 10
0.0
 20
0.0
 11
1.0
 21
1.0
 12
0.4962261093446095
 22
0.1282619390894126
 13
0.0
 23
0.0
 14
0.25
 24
0.25
 15
0.25
 25
0.25
 16
0.0
 26
0.0
 36
1.0
 17
0.5634438949382106
 27
-0.8801371703728531
 37
1.68649307151727
 40
3.203716492065292
 41
1.421818181818181
 42
50.0
 43
0.0
 44
0.0
 50
0.0
 51
0.0
 71
     0
 72
 20000
 73
     1
 74
     1
 75
     0
 76
     0
 77
     0
 78
     0
281
     1
 65
     1
110
0.0
120
0.0
130
0.0
111
1.0
121
0.0
131
0.0
112
0.0
122
1.0
132
0.0
 79
     0
146
0.0
348
61571
 60
     3
 61
     5
292
     1
282
     1
141
0.0
142
0.0
 63
   250
421
  3355443
  0
ENDTAB
  0
TABLE
  2
LTYPE
  5
458C4
330
0
100
AcDbSymbolTable
 70
     1
  0
LTYPE
  5
458D0
330
458C4
100
AcDbSymbolTableRecord
100
AcDbLinetypeTableRecord
  2
BYBLOCK
 70
     0
  3

 72
    65
 73
     0
 40
0.0
  0
LTYPE
  5
458D1
330
458C4
100
AcDbSymbolTableRecord
100
AcDbLinetypeTableRecord
  2
BYLAYER
 70
     0
  3

 72
    65
 73
     0
 40
0.0
  0
LTYPE
  5
458D2
330
458C4
100
AcDbSymbolTableRecord
100
AcDbLinetypeTableRecord
  2
CONTINUOUS
 70
     0
  3
Solid line
 72
    65
 73
     0
 40
0.0
  0
ENDTAB
  0
TABLE
  2
LAYER
  5
458C1
330
0
100
AcDbSymbolTable
 70
     8
  0
LAYER
  5
458CD
330
458C1
100
AcDbSymbolTableRecord
100
AcDbLayerTableRecord
  2
0
 70
     0
 62
     7
  6
CONTINUOUS
370
    -3
390
458FA
347
61569
  0
LAYER
  5
458EA
330
458C1
100
AcDbSymbolTableRecord
100
AcDbLayerTableRecord
  2
DIMS-MTG-HOLES
 70
     0
 62
     1
  6
CONTINUOUS
370
    -3
390
458FA
347
61569
  0
LAYER
  5
458EB
330
458C1
100
AcDbSymbolTableRecord
100
AcDbLayerTableRecord
  2
ATTRIBUTES
 70
     0
 62
     7
  6
CONTINUOUS
370
    -3
390
458FA
347
61569
  0
LAYER
  5
4593B
330
458C1
100
AcDbSymbolTableRecord
100
AcDbLayerTableRecord
  2
AREA1
 70
     1
 62
     7
  6
CONTINUOUS
290
     0
370
    -3
390
458FA
347
61569
  0
LAYER
  5
45940
330
458C1
100
AcDbSymbolTableRecord
100
AcDbLayerTableRecord
  2
Defpoints
 70
     1
 62
     7
  6
CONTINUOUS
290
     0
370
    -3
390
458FA
347
61569
  0
LAYER
  5
45954
330
458C1
100
AcDbSymbolTableRecord
100
AcDbLayerTableRecord
  2
SCALE
 70
     1
 62
     7
  6
CONTINUOUS
370
    -3
390
458FA
347
61569
  0
LAYER
  5
4D59A
330
458C1
100
AcDbSymbolTableRecord
100
AcDbLayerTableRecord
  2
SNAP_POINTS
 70
     1
 62
     1
  6
CONTINUOUS
370
    -3
390
458FA
347
61569
  0
LAYER
  5
61584
102
{ACAD_XDICTIONARY
360
61585
102
}
330
458C1
100
AcDbSymbolTableRecord
100
AcDbLayerTableRecord
  2
WIRES
 70
     0
 62
     7
  6
CONTINUOUS
370
    -3
390
458FA
347
61569
  0
ENDTAB
  0
TABLE
  2
STYLE
  5
458C2
330
0
100
AcDbSymbolTable
 70
     1
  0
STYLE
  5
458CE
330
458C2
100
AcDbSymbolTableRecord
100
AcDbTextStyleTableRecord
  2
STANDARD
 70
     0
 40
0.0
 41
1.0
 50
0.0
 71
     0
 42
0.12
  3
txt
  4

  0
ENDTAB
  0
TABLE
  2
VIEW
  5
458C5
330
0
100
AcDbSymbolTable
 70
     0
  0
ENDTAB
  0
TABLE
  2
UCS
  5
458C6
330
0
100
AcDbSymbolTable
 70
     0
  0
ENDTAB
  0
TABLE
  2
APPID
  5
458C8
330
0
100
AcDbSymbolTable
 70
     3
  0
APPID
  5
458CF
330
458C8
100
AcDbSymbolTableRecord
100
AcDbRegAppTableRecord
  2
ACAD
 70
     0
  0
APPID
  5
5FD5B
330
458C8
100
AcDbSymbolTableRecord
100
AcDbRegAppTableRecord
  2
AVE_RENDER
 70
     0
  0
APPID
  5
61589
330
458C8
100
AcDbSymbolTableRecord
100
AcDbRegAppTableRecord
  2
DCO15
 70
     0
  0
ENDTAB
  0
TABLE
  2
DIMSTYLE
  5
458C9
330
0
100
AcDbSymbolTable
 70
     1
100
AcDbDimStyleTable
 71
     0
  0
DIMSTYLE
105
458F6
102
{ACAD_REACTORS
330
61493
330
614A1
102
}
330
458C9
100
AcDbSymbolTableRecord
100
AcDbDimStyleTableRecord
  2
ABECAD_3D
 70
     0
 43
0.375
 73
     0
 78
     4
140
0.14
146
1.5
170
     1
271
     6
272
     6
276
     2
277
     5
279
     2
284
     4
285
     4
286
     4
288
     1
289
     2
340
458CE
  0
ENDTAB
  0
TABLE
  2
BLOCK_RECORD
  5
458C0
330
0
100
AcDbSymbolTable
 70
     2
  0
BLOCK_RECORD
  5
458D6
102
{ACAD_XDICTIONARY
360
4592C
102
}
330
458C0
100
AcDbSymbolTableRecord
100
AcDbBlockTableRecord
  2
*MODEL_SPACE
340
458FD
 70
     0
280
     1
281
     0
  0
BLOCK_RECORD
  5
458D3
102
{ACAD_XDICTIONARY
360
4592A
102
}
330
458C0
100
AcDbSymbolTableRecord
100
AcDbBlockTableRecord
  2
*PAPER_SPACE
340
458FE
 70
     0
280
     1
281
     0
  0
BLOCK_RECORD
  5
61494
330
458C0
100
AcDbSymbolTableRecord
100
AcDbBlockTableRecord
  2
*D0
340
0
 70
     0
280
     1
281
     0
  0
BLOCK_RECORD
  5
614A2
330
458C0
100
AcDbSymbolTableRecord
100
AcDbBlockTableRecord
  2
*D1
340
0
 70
     0
280
     1
281
     0
  0
ENDTAB
  0
ENDSEC
  0
SECTION
  2
BLOCKS
  0
BLOCK
  5
458DF
330
458D6
100
AcDbEntity
  8
0
100
AcDbBlockBegin
  2
*MODEL_SPACE
 70
     0
 10
0.0
 20
0.0
 30
0.0
  3
*MODEL_SPACE
  1

  0
ENDBLK
  5
458E0
330
458D6
100
AcDbEntity
  8
0
100
AcDbBlockEnd
  0
BLOCK
  5
458DD
330
458D3
100
AcDbEntity
 67
     1
  8
0
100
AcDbBlockBegin
  2
*PAPER_SPACE
 70
     0
 10
0.0
 20
0.0
 30
0.0
  3
*PAPER_SPACE
  1

  0
ENDBLK
  5
458DE
330
458D3
100
AcDbEntity
 67
     1
  8
0
100
AcDbBlockEnd
  0
BLOCK
  5
6149F
330
61494
100
AcDbEntity
  8
0
100
AcDbBlockBegin
  2
*D0
 70
     1
 10
0.0
 20
0.0
 30
0.0
  3
*D0
  1

  0
LINE
  5
61495
330
61494
100
AcDbEntity
  8
AREA1
 62
     0
370
    -2
100
AcDbLine
 10
0.4449999999999993
 20
0.838
 30
0.0
 11
-0.7767489213408567
 21
0.8380000000000006
 31
0.0
  0
LINE
  5
61496
330
61494
100
AcDbEntity
  8
AREA1
 62
     0
370
    -2
100
AcDbLine
 10
0.8119999999999993
 20
-2.342
 30
0.0
 11
-0.7767489213408576
 21
-2.342
 31
0.0
  0
LINE
  5
61497
330
61494
100
AcDbEntity
  8
AREA1
 62
     0
370
    -2
100
AcDbLine
 10
-0.5967489213408569
 20
0.6580000000000005
 30
0.0
 11
-0.596748921340857
 21
0.0774876360201948
 31
0.0
  0
LINE
  5
61498
330
61494
100
AcDbEntity
  8
AREA1
 62
     0
370
    -2
100
AcDbLine
 10
-0.5967489213408575
 20
-2.162
 30
0.0
 11
-0.5967489213408575
 21
-1.759179030646471
 31
0.0
  0
MTEXT
  5
61499
330
61494
100
AcDbEntity
  8
AREA1
 62
     0
100
AcDbMText
 10
-0.5967489213408573
 20
-0.8408456973131386
 30
0.0
 40
0.14
 41
0.0
 46
0.0
 71
     5
 72
     1
  1
\A1;3 3/16 [80.77]
 11
0.0000000000000001
 21
1.0
 31
0.0
 73
     1
 44
1.0
  0
SOLID
  5
6149A
330
61494
100
AcDbEntity
  8
AREA1
 62
     0
100
AcDbTrace
 10
-0.626748921340857
 20
0.6580000000000005
 30
0.0
 11
-0.5667489213408569
 21
0.6580000000000005
 31
0.0
 12
-0.5967489213408568
 22
0.8380000000000004
 32
0.0
 13
-0.5967489213408568
 23
0.8380000000000004
 33
0.0
  0
SOLID
  5
6149B
330
61494
100
AcDbEntity
  8
AREA1
 62
     0
100
AcDbTrace
 10
-0.6267489213408575
 20
-2.162
 30
0.0
 11
-0.5667489213408575
 21
-2.162
 31
0.0
 12
-0.5967489213408576
 22
-2.342
 32
0.0
 13
-0.5967489213408576
 23
-2.342
 33
0.0
  0
POINT
  5
6149C
330
61494
100
AcDbEntity
  8
Defpoints
 62
     0
100
AcDbPoint
 10
0.5074999999999994
 20
0.838
 30
1.388
  0
POINT
  5
6149D
330
61494
100
AcDbEntity
  8
Defpoints
 62
     0
100
AcDbPoint
 10
0.8744999999999993
 20
-2.342
 30
1.388
  0
POINT
  5
6149E
330
61494
100
AcDbEntity
  8
Defpoints
 62
     0
100
AcDbPoint
 10
-0.5967489213408576
 20
-2.342
 30
0.0
  0
ENDBLK
  5
614A0
330
61494
100
AcDbEntity
  8
0
100
AcDbBlockEnd
  0
BLOCK
  5
614AD
330
614A2
100
AcDbEntity
  8
0
100
AcDbBlockBegin
  2
*D1
 70
     1
 10
0.0
 20
0.0
 30
0.0
  3
*D1
  1

  0
LINE
  5
614A3
330
614A2
100
AcDbEntity
  8
AREA1
 62
     0
370
    -2
100
AcDbLine
 10
-0.0000000000000009
 20
0.5774999999999997
 30
0.0
 11
-0.0000000000000009
 21
1.406404817680059
 31
0.0
  0
LINE
  5
614A4
330
614A2
100
AcDbEntity
  8
AREA1
 62
     0
370
    -2
100
AcDbLine
 10
2.119999999999999
 20
0.5774999999999997
 30
0.0
 11
2.119999999999999
 21
1.406404817680059
 31
0.0
  0
LINE
  5
614A5
330
614A2
100
AcDbEntity
  8
AREA1
 62
     0
370
    -2
100
AcDbLine
 10
0.1799999999999991
 20
1.226404817680059
 30
0.0
 11
0.1945912518112677
 21
1.226404817680059
 31
0.0
  0
LINE
  5
614A6
330
614A2
100
AcDbEntity
  8
AREA1
 62
     0
370
    -2
100
AcDbLine
 10
1.939999999999999
 20
1.226404817680059
 30
0.0
 11
1.914591251811267
 21
1.226404817680059
 31
0.0
  0
MTEXT
  5
614A7
330
614A2
100
AcDbEntity
  8
AREA1
 62
     0
100
AcDbMText
 10
1.054591251811267
 20
1.226404817680059
 30
0.0
 40
0.14
 41
0.0
 46
0.0
 71
     5
 72
     1
  1
\A1;2 1/8 [53.85]
 73
     1
 44
1.0
  0
SOLID
  5
614A8
330
614A2
100
AcDbEntity
  8
AREA1
 62
     0
100
AcDbTrace
 10
0.1799999999999991
 20
1.256404817680059
 30
0.0
 11
0.1799999999999991
 21
1.196404817680059
 31
0.0
 12
-0.0000000000000009
 22
1.226404817680059
 32
0.0
 13
-0.0000000000000009
 23
1.226404817680059
 33
0.0
  0
SOLID
  5
614A9
330
614A2
100
AcDbEntity
  8
AREA1
 62
     0
100
AcDbTrace
 10
1.939999999999999
 20
1.256404817680059
 30
0.0
 11
1.939999999999999
 21
1.196404817680059
 31
0.0
 12
2.119999999999999
 22
1.226404817680059
 32
0.0
 13
2.119999999999999
 23
1.226404817680059
 33
0.0
  0
POINT
  5
614AA
330
614A2
100
AcDbEntity
  8
Defpoints
 62
     0
100
AcDbPoint
 10
-0.0000000000000009
 20
0.5149999999999997
 30
1.641
  0
POINT
  5
614AB
330
614A2
100
AcDbEntity
  8
Defpoints
 62
     0
100
AcDbPoint
 10
2.119999999999999
 20
0.5149999999999997
 30
1.641
  0
POINT
  5
614AC
330
614A2
100
AcDbEntity
  8
Defpoints
 62
     0
100
AcDbPoint
 10
2.119999999999999
 20
1.226404817680059
 30
0.0
  0
ENDBLK
  5
614AE
330
614A2
100
AcDbEntity
  8
0
100
AcDbBlockEnd
  0
ENDSEC
  0
SECTION
  2
ENTITIES
  0
ATTDEF
  5
61147
330
458D6
100
AcDbEntity
  8
ATTRIBUTES
100
AcDbText
 10
0.0784846182650734
 20
-0.2461715662756023
 30
0.0000000000000002
 40
0.0805203758744914
  1
SPRECHER+SCHUH
100
AcDbAttributeDefinition
  3
MANUFACTURER NAME?
  2
AC_VND_LABEL
 70
     1
280
     0
  0
ATTDEF
  5
61148
330
458D6
100
AcDbEntity
  8
ATTRIBUTES
100
AcDbText
 10
0.0784846182650734
 20
-0.4139223493474602
 30
0.0000000000000002
 40
0.0805203758744914
  1
CA7-43*00
100
AcDbAttributeDefinition
  3
CATALOG NUMBER?
  2
AC_PART_NO
 70
     1
280
     0
  0
ATTDEF
  5
61149
330
458D6
100
AcDbEntity
  8
ATTRIBUTES
100
AcDbText
 10
0.0784846182650734
 20
-0.5816731324193163
 30
0.0000000000000002
 40
0.0805203758744914
  1
IEC AC CONTACTOR; 43A
100
AcDbAttributeDefinition
  3
PART DESCRIPTION?
  2
AC_DESCRIPTION
 70
     1
280
     0
  0
ATTDEF
  5
6114A
330
458D6
100
AcDbEntity
  8
ATTRIBUTES
100
AcDbText
 10
0.0784846182650734
 20
-0.7494239154911742
 30
0.0000000000000002
 40
0.0805203758744914
  1

100
AcDbAttributeDefinition
  3
DEVICE ID?
  2
DEVICE_ID
 70
     1
280
     0
  0
ATTDEF
  5
6114B
330
458D6
100
AcDbEntity
  8
ATTRIBUTES
100
AcDbText
 10
0.0784846182650734
 20
-0.9171746985630303
 30
0.0000000000000002
 40
0.0805203758744914
  1

100
AcDbAttributeDefinition
  3
CUSTOMER PART NUMBER?
  2
AC_CPART_NO
 70
     1
280
     0
  0
ATTDEF
  5
6114C
330
458D6
100
AcDbEntity
  8
ATTRIBUTES
100
AcDbText
 10
0.0784846182650734
 20
-1.084925481634888
 30
0.0000000000000002
 40
0.0805203758744914
  1

100
AcDbAttributeDefinition
  3
CUSTOMER NOTE?
  2
AC_NOTE
 70
     1
280
     0
  0
ATTDEF
  5
6114D
330
458D6
100
AcDbEntity
  8
ATTRIBUTES
100
AcDbText
 10
0.0784846182650734
 20
-1.252676264706745
 30
0.0000000000000002
 40
0.0805203758744914
  1

100
AcDbAttributeDefinition
  3
FASTENER DATA?
  2
FASTENER
 70
     1
280
     0
  0
ATTDEF
  5
6114E
330
458D6
100
AcDbEntity
  8
ATTRIBUTES
100
AcDbText
 10
0.0784846182650734
 20
-1.420427047778603
 30
0.0000000000000002
 40
0.0805203758744914
  1
INCH
100
AcDbAttributeDefinition
  3
UNIT OF SCALE?
  2
AC_SCALE_UNIT
 70
     1
280
     0
  0
ATTDEF
  5
6114F
330
458D6
100
AcDbEntity
  8
ATTRIBUTES
100
AcDbText
 10
0.0784846182650734
 20
-1.58817783085046
 30
0.0000000000000002
 40
0.0805203758744914
  1
0
100
AcDbAttributeDefinition
  3
VIEW CODE?
  2
AC_VIEW_CODE
 70
     1
280
     0
  0
CIRCLE
  5
61150
330
458D6
100
AcDbEntity
  8
0
100
AcDbCircle
 10
0.3713499999999978
 20
0.1807980402316449
 30
3.859999999999999
 40
0.138
  0
POLYLINE
  5
61151
330
458D6
100
AcDbEntity
  8
0
100
AcDbPolygonMesh
 66
     1
 10
0.0
 20
0.0
 30
0.0
 70
    16
 71
     6
 72
     3
  0
VERTEX
  5
61152
330
61151
100
AcDbEntity
  8
0
100
AcDbVertex
100
AcDbPolygonMeshVertex
 10
1.4455
 20
-1.5045
 30
4.059999999999998
 70
    64
  0
VERTEX
  5
61153
330
61151
100
AcDbEntity
  8
0
100
AcDbVertex
100
AcDbPolygonMeshVertex
 10
1.4455
 20
-1.5045
 30
3.859999999999999
 70
    64
  0
VERTEX
  5
61154
330
61151
100
AcDbEntity
  8
0
100
AcDbVertex
100
AcDbPolygonMeshVertex
 10
1.4455
 20
-1.5045
 30
3.859999999999999
 70
    64
  0
VERTEX
  5
61155
330
61151
100
AcDbEntity
  8
0
100
AcDbVertex
100
AcDbPolygonMeshVertex
 10
0.6744999999999993
 20
-1.5045
 30
4.059999999999998
 70
    64
  0
VERTEX
  5
61156
330
61151
100
AcDbEntity
  8
0
100
AcDbVertex
100
AcDbPolygonMeshVertex
 10
0.6744999999999993
 20
-1.5045
 30
3.859999999999999
 70
    64
  0
VERTEX
  5
61157
330
61151
100
AcDbEntity
  8
0
100
AcDbVertex
100
AcDbPolygonMeshVertex
 10
0.6744999999999993
 20
-1.5045
 30
3.859999999999999
 70
    64
  0
VERTEX
  5
61158
330
61151
100
AcDbEntity
  8
0
100
AcDbVertex
100
AcDbPolygonMeshVertex
 10
0.6744999999999993
 20
-1.2225
 30
4.059999999999998
 70
    64
  0
VERTEX
  5
61159
330
61151
100
AcDbEntity
  8
0
100
AcDbVertex
100
AcDbPolygonMeshVertex
 10
0.6744999999999993
 20
-1.2225
 30
3.859999999999999
 70
    64
  0
VERTEX
  5
6115A
330
61151
100
AcDbEntity
  8
0
100
AcDbVertex
100
AcDbPolygonMeshVertex
 10
0.6744999999999993
 20
-1.5045
 30
3.859999999999999
 70
    64
  0
VERTEX
  5
6115B
330
61151
100
AcDbEntity
  8
0
100
AcDbVertex
100
AcDbPolygonMeshVertex
 10
1.4455
 20
-1.2225
 30
4.059999999999998
 70
    64
  0
VERTEX
  5
6115C
330
61151
100
AcDbEntity
  8
0
100
AcDbVertex
100
AcDbPolygonMeshVertex
 10
1.4455
 20
-1.2225
 30
3.859999999999999
 70
    64
  0
VERTEX
  5
6115D
330
61151
100
AcDbEntity
  8
0
100
AcDbVertex
100
AcDbPolygonMeshVertex
 10
1.4455
 20
-1.5045
 30
3.859999999999999
 70
    64
  0
VERTEX
  5
6115E
330
61151
100
AcDbEntity
  8
0
100
AcDbVertex
100
AcDbPolygonMeshVertex
 10
1.4455
 20
-1.2225
 30
4.059999999999998
 70
    64
  0
VERTEX
  5
6115F
330
61151
100
AcDbEntity
  8
0
100
AcDbVertex
100
AcDbPolygonMeshVertex
 10
1.4455
 20
-1.2225
 30
4.059999999999998
 70
    64
  0
VERTEX
  5
61160
330
61151
100
AcDbEntity
  8
0
100
AcDbVertex
100
AcDbPolygonMeshVertex
 10
1.4455
 20
-1.5045
 30
4.059999999999998
 70
    64
  0
VERTEX
  5
61161
330
61151
100
AcDbEntity
  8
0
100
AcDbVertex
100
AcDbPolygonMeshVertex
 10
0.6744999999999993
 20
-1.2225
 30
4.059999999999998
 70
    64
  0
VERTEX
  5
61162
330
61151
100
AcDbEntity
  8
0
100
AcDbVertex
100
AcDbPolygonMeshVertex
 10
0.6744999999999993
 20
-1.2225
 30
4.059999999999998
 70
    64
  0
VERTEX
  5
61163
330
61151
100
AcDbEntity
  8
0
100
AcDbVertex
100
AcDbPolygonMeshVertex
 10
0.6744999999999993
 20
-1.5045
 30
4.059999999999998
 70
    64
  0
SEQEND
  5
61164
330
61151
100
AcDbEntity
  8
0
  0
POLYLINE
  5
61165
330
458D6
100
AcDbEntity
  8
0
100
AcDbPolygonMesh
 66
     1
 10
0.0
 20
0.0
 30
0.0
 70
    16
 71
     6
 72
     3
  0
VERTEX
  5
61166
330
61165
100
AcDbEntity
  8
0
100
AcDbVertex
100
AcDbPolygonMeshVertex
 10
1.245499999999998
 20
-2.342
 30
2.062
 70
    64
  0
VERTEX
  5
61167
330
61165
100
AcDbEntity
  8
0
100
AcDbVertex
100
AcDbPolygonMeshVertex
 10
1.245499999999998
 20
-2.342
 30
1.388
 70
    64
  0
VERTEX
  5
61168
330
61165
100
AcDbEntity
  8
0
100
AcDbVertex
100
AcDbPolygonMeshVertex
 10
1.245499999999998
 20
-2.342
 30
1.388
 70
    64
  0
VERTEX
  5
61169
330
61165
100
AcDbEntity
  8
0
100
AcDbVertex
100
AcDbPolygonMeshVertex
 10
0.8744999999999993
 20
-2.342
 30
2.062
 70
    64
  0
VERTEX
  5
6116A
330
61165
100
AcDbEntity
  8
0
100
AcDbVertex
100
AcDbPolygonMeshVertex
 10
0.8744999999999993
 20
-2.342
 30
1.388
 70
    64
  0
VERTEX
  5
6116B
330
61165
100
AcDbEntity
  8
0
100
AcDbVertex
100
AcDbPolygonMeshVertex
 10
0.8744999999999993
 20
-2.342
 30
1.388
 70
    64
  0
VERTEX
  5
6116C
330
61165
100
AcDbEntity
  8
0
100
AcDbVertex
100
AcDbPolygonMeshVertex
 10
0.8744999999999993
 20
-2.089
 30
2.062
 70
    64
  0
VERTEX
  5
6116D
330
61165
100
AcDbEntity
  8
0
100
AcDbVertex
100
AcDbPolygonMeshVertex
 10
0.8744999999999993
 20
-2.089
 30
1.388
 70
    64
  0
VERTEX
  5
6116E
330
61165
100
AcDbEntity
  8
0
100
AcDbVertex
100
AcDbPolygonMeshVertex
 10
0.8744999999999993
 20
-2.342
 30
1.388
 70
    64
  0
VERTEX
  5
6116F
330
61165
100
AcDbEntity
  8
0
100
AcDbVertex
100
AcDbPolygonMeshVertex
 10
1.245499999999998
 20
-2.089
 30
2.062
 70
    64
  0
VERTEX
  5
61170
330
61165
100
AcDbEntity
  8
0
100
AcDbVertex
100
AcDbPolygonMeshVertex
 10
1.245499999999998
 20
-2.089
 30
1.388
 70
    64
  0
VERTEX
  5
61171
330
61165
100
AcDbEntity
  8
0
100
AcDbVertex
100
AcDbPolygonMeshVertex
 10
1.245499999999998
 20
-2.342
 30
1.388
 70
    64
  0
VERTEX
  5
61172
330
61165
100
AcDbEntity
  8
0
100
AcDbVertex
100
AcDbPolygonMeshVertex
 10
1.245499999999998
 20
-2.089
 30
2.062
 70
    64
  0
VERTEX
  5
61173
330
61165
100
AcDbEntity
  8
0
100
AcDbVertex
100
AcDbPolygonMeshVertex
 10
1.245499999999998
 20
-2.089
 30
2.062
 70
    64
  0
VERTEX
  5
61174
330
61165
100
AcDbEntity
  8
0
100
AcDbVertex
100
AcDbPolygonMeshVertex
 10
1.245499999999998
 20
-2.342
 30
2.062
 70
    64
  0
VERTEX
  5
61175
330
61165
100
AcDbEntity
  8
0
100
AcDbVertex
100
AcDbPolygonMeshVertex
 10
0.8744999999999993
 20
-2.089
 30
2.062
 70
    64
  0
VERTEX
  5
61176
330
61165
100
AcDbEntity
  8
0
100
AcDbVertex
100
AcDbPolygonMeshVertex
 10
0.8744999999999993
 20
-2.089
 30
2.062
 70
    64
  0
VERTEX
  5
61177
330
61165
100
AcDbEntity
  8
0
100
AcDbVertex
100
AcDbPolygonMeshVertex
 10
0.8744999999999993
 20
-2.342
 30
2.062
 70
    64
  0
SEQEND
  5
61178
330
61165
100
AcDbEntity
  8
0
  0
LWPOLYLINE
  5
61179
330
458D6
100
AcDbEntity
  8
0
100
AcDbPolyline
 90
        4
 70
     1
 43
0.0
 38
2.062
 10
0.9264999999999998
 20
-2.141
 10
1.1935
 20
-2.141
 10
1.1935
 20
-2.29
 10
0.9264999999999998
 20
-2.29
  0
POLYLINE
  5
6117A
330
458D6
100
AcDbEntity
  8
0
100
AcDbPolygonMesh
 66
     1
 10
0.0
 20
0.0
 30
0.0
 70
    16
 71
     6
 72
     3
  0
VERTEX
  5
6117B
330
6117A
100
AcDbEntity
  8
0
100
AcDbVertex
100
AcDbPolygonMeshVertex
 10
0.5074999999999994
 20
0.838
 30
2.062
 70
    64
  0
VERTEX
  5
6117C
330
6117A
100
AcDbEntity
  8
0
100
AcDbVertex
100
AcDbPolygonMeshVertex
 10
0.5074999999999994
 20
0.838
 30
1.388
 70
    64
  0
VERTEX
  5
6117D
330
6117A
100
AcDbEntity
  8
0
100
AcDbVertex
100
AcDbPolygonMeshVertex
 10
0.5074999999999994
 20
0.838
 30
1.388
 70
    64
  0
VERTEX
  5
6117E
330
6117A
100
AcDbEntity
  8
0
100
AcDbVertex
100
AcDbPolygonMeshVertex
 10
1.612499999999999
 20
0.838
 30
2.062
 70
    64
  0
VERTEX
  5
6117F
330
6117A
100
AcDbEntity
  8
0
100
AcDbVertex
100
AcDbPolygonMeshVertex
 10
1.612499999999999
 20
0.838
 30
1.388
 70
    64
  0
VERTEX
  5
61180
330
6117A
100
AcDbEntity
  8
0
100
AcDbVertex
100
AcDbPolygonMeshVertex
 10
1.612499999999999
 20
0.838
 30
1.388
 70
    64
  0
VERTEX
  5
61181
330
6117A
100
AcDbEntity
  8
0
100
AcDbVertex
100
AcDbPolygonMeshVertex
 10
1.612499999999999
 20
0.4009999999999998
 30
2.062
 70
    64
  0
VERTEX
  5
61182
330
6117A
100
AcDbEntity
  8
0
100
AcDbVertex
100
AcDbPolygonMeshVertex
 10
1.612499999999999
 20
0.4009999999999998
 30
1.388
 70
    64
  0
VERTEX
  5
61183
330
6117A
100
AcDbEntity
  8
0
100
AcDbVertex
100
AcDbPolygonMeshVertex
 10
1.612499999999999
 20
0.838
 30
1.388
 70
    64
  0
VERTEX
  5
61184
330
6117A
100
AcDbEntity
  8
0
100
AcDbVertex
100
AcDbPolygonMeshVertex
 10
0.5074999999999994
 20
0.4009999999999998
 30
2.062
 70
    64
  0
VERTEX
  5
61185
330
6117A
100
AcDbEntity
  8
0
100
AcDbVertex
100
AcDbPolygonMeshVertex
 10
0.5074999999999994
 20
0.4009999999999998
 30
1.388
 70
    64
  0
VERTEX
  5
61186
330
6117A
100
AcDbEntity
  8
0
100
AcDbVertex
100
AcDbPolygonMeshVertex
 10
0.5074999999999994
 20
0.838
 30
1.388
 70
    64
  0
VERTEX
  5
61187
330
6117A
100
AcDbEntity
  8
0
100
AcDbVertex
100
AcDbPolygonMeshVertex
 10
0.5074999999999994
 20
0.4009999999999998
 30
2.062
 70
    64
  0
VERTEX
  5
61188
330
6117A
100
AcDbEntity
  8
0
100
AcDbVertex
100
AcDbPolygonMeshVertex
 10
0.5074999999999994
 20
0.4009999999999998
 30
2.062
 70
    64
  0
VERTEX
  5
61189
330
6117A
100
AcDbEntity
  8
0
100
AcDbVertex
100
AcDbPolygonMeshVertex
 10
0.5074999999999994
 20
0.838
 30
2.062
 70
    64
  0
VERTEX
  5
6118A
330
6117A
100
AcDbEntity
  8
0
100
AcDbVertex
100
AcDbPolygonMeshVertex
 10
1.612499999999999
 20
0.4009999999999998
 30
2.062
 70
    64
  0
VERTEX
  5
6118B
330
6117A
100
AcDbEntity
  8
0
100
AcDbVertex
100
AcDbPolygonMeshVertex
 10
1.612499999999999
 20
0.4009999999999998
 30
2.062
 70
    64
  0
VERTEX
  5
6118C
330
6117A
100
AcDbEntity
  8
0
100
AcDbVertex
100
AcDbPolygonMeshVertex
 10
1.612499999999999
 20
0.838
 30
2.062
 70
    64
  0
SEQEND
  5
6118D
330
6117A
100
AcDbEntity
  8
0
  0
LINE
  5
6118E
330
458D6
100
AcDbEntity
  8
0
100
AcDbLine
 10
0.9199999999999999
 20
0.4009999999999998
 30
2.062
 11
0.9199999999999999
 21
0.6359999999999997
 31
2.062
  0
LINE
  5
6118F
330
458D6
100
AcDbEntity
  8
0
100
AcDbLine
 10
1.199999999999999
 20
0.6359999999999997
 30
2.062
 11
0.9199999999999999
 21
0.6359999999999997
 31
2.062
  0
LINE
  5
61190
330
458D6
100
AcDbEntity
  8
0
100
AcDbLine
 10
0.8794999999999992
 20
0.838
 30
1.841
 11
0.5624999999999992
 21
0.838
 31
1.841
  0
LINE
  5
61191
330
458D6
100
AcDbEntity
  8
0
100
AcDbLine
 10
0.8794999999999992
 20
0.838
 30
1.641
 11
0.5624999999999992
 21
0.838
 31
1.641
  0
LINE
  5
61192
330
458D6
100
AcDbEntity
  8
0
100
AcDbLine
 10
0.8794999999999992
 20
0.838
 30
1.841
 11
0.8794999999999992
 21
0.838
 31
1.641
  0
CIRCLE
  5
61193
330
458D6
100
AcDbEntity
  8
0
100
AcDbCircle
 10
0.7209999999999975
 20
0.6194999999999995
 30
2.062
 40
0.12
  0
CIRCLE
  5
61194
330
458D6
100
AcDbEntity
  8
0
100
AcDbCircle
 10
1.399000000000001
 20
0.6194999999999995
 30
2.062
 40
0.12
  0
LINE
  5
61195
330
458D6
100
AcDbEntity
  8
0
100
AcDbLine
 10
1.240499999999999
 20
0.838
 30
1.641
 11
1.5575
 21
0.838
 31
1.641
  0
LINE
  5
61196
330
458D6
100
AcDbEntity
  8
0
100
AcDbLine
 10
1.240499999999999
 20
0.838
 30
1.841
 11
1.5575
 21
0.838
 31
1.841
  0
LINE
  5
61197
330
458D6
100
AcDbEntity
  8
0
100
AcDbLine
 10
1.5575
 20
0.838
 30
1.841
 11
1.5575
 21
0.838
 31
1.641
  0
LINE
  5
61198
330
458D6
100
AcDbEntity
  8
0
100
AcDbLine
 10
1.240499999999999
 20
0.838
 30
1.841
 11
1.240499999999999
 21
0.838
 31
1.641
  0
POLYLINE
  5
61199
330
458D6
100
AcDbEntity
  8
0
100
AcDb3dPolyline
 66
     1
 10
0.0
 20
0.0
 30
0.0
 70
     8
  0
VERTEX
  5
6119A
330
61199
100
AcDbEntity
  8
0
100
AcDbVertex
100
AcDb3dPolylineVertex
 10
2.12
 20
-1.472999999999999
 30
0.187
 70
    32
  0
VERTEX
  5
6119B
330
61199
100
AcDbEntity
  8
0
100
AcDbVertex
100
AcDb3dPolylineVertex
 10
2.12
 20
-1.472999999999999
 30
1.056999999999999
 70
    32
  0
VERTEX
  5
6119C
330
61199
100
AcDbEntity
  8
0
100
AcDbVertex
100
AcDb3dPolylineVertex
 10
2.12
 20
-1.628
 30
1.056999999999999
 70
    32
  0
VERTEX
  5
6119D
330
61199
100
AcDbEntity
  8
0
100
AcDbVertex
100
AcDb3dPolylineVertex
 10
2.12
 20
-1.628
 30
0.187
 70
    32
  0
SEQEND
  5
6119E
330
61199
100
AcDbEntity
  8
0
  0
POLYLINE
  5
6119F
330
458D6
100
AcDbEntity
  8
0
100
AcDb3dPolyline
 66
     1
 10
0.0
 20
0.0
 30
0.0
 70
     8
  0
VERTEX
  5
611A0
330
6119F
100
AcDbEntity
  8
0
100
AcDbVertex
100
AcDb3dPolylineVertex
 10
2.12
 20
-0.0940000000000003
 30
0.187
 70
    32
  0
VERTEX
  5
611A1
330
6119F
100
AcDbEntity
  8
0
100
AcDbVertex
100
AcDb3dPolylineVertex
 10
2.12
 20
-0.0940000000000003
 30
1.056999999999999
 70
    32
  0
VERTEX
  5
611A2
330
6119F
100
AcDbEntity
  8
0
100
AcDbVertex
100
AcDb3dPolylineVertex
 10
2.12
 20
-0.2490000000000005
 30
1.056999999999999
 70
    32
  0
VERTEX
  5
611A3
330
6119F
100
AcDbEntity
  8
0
100
AcDbVertex
100
AcDb3dPolylineVertex
 10
2.12
 20
-0.2490000000000005
 30
0.187
 70
    32
  0
SEQEND
  5
611A4
330
6119F
100
AcDbEntity
  8
0
  0
POLYLINE
  5
611A5
330
458D6
100
AcDbEntity
  8
0
100
AcDb3dPolyline
 66
     1
 10
0.0
 20
0.0
 30
0.0
 70
     8
  0
VERTEX
  5
611A6
330
611A5
100
AcDbEntity
  8
0
100
AcDbVertex
100
AcDb3dPolylineVertex
 10
0.0
 20
-0.0940000000000003
 30
0.1870000000000001
 70
    32
  0
VERTEX
  5
611A7
330
611A5
100
AcDbEntity
  8
0
100
AcDbVertex
100
AcDb3dPolylineVertex
 10
0.0
 20
-0.0940000000000003
 30
1.056999999999999
 70
    32
  0
VERTEX
  5
611A8
330
611A5
100
AcDbEntity
  8
0
100
AcDbVertex
100
AcDb3dPolylineVertex
 10
0.0
 20
-0.2490000000000005
 30
1.056999999999999
 70
    32
  0
VERTEX
  5
611A9
330
611A5
100
AcDbEntity
  8
0
100
AcDbVertex
100
AcDb3dPolylineVertex
 10
0.0
 20
-0.2490000000000005
 30
0.1870000000000001
 70
    32
  0
SEQEND
  5
611AA
330
611A5
100
AcDbEntity
  8
0
  0
POLYLINE
  5
611AB
330
458D6
100
AcDbEntity
  8
0
100
AcDb3dPolyline
 66
     1
 10
0.0
 20
0.0
 30
0.0
 70
     8
  0
VERTEX
  5
611AC
330
611AB
100
AcDbEntity
  8
0
100
AcDbVertex
100
AcDb3dPolylineVertex
 10
0.0
 20
-1.472999999999999
 30
0.1870000000000001
 70
    32
  0
VERTEX
  5
611AD
330
611AB
100
AcDbEntity
  8
0
100
AcDbVertex
100
AcDb3dPolylineVertex
 10
0.0
 20
-1.472999999999999
 30
1.056999999999999
 70
    32
  0
VERTEX
  5
611AE
330
611AB
100
AcDbEntity
  8
0
100
AcDbVertex
100
AcDb3dPolylineVertex
 10
0.0
 20
-1.628
 30
1.056999999999999
 70
    32
  0
VERTEX
  5
611AF
330
611AB
100
AcDbEntity
  8
0
100
AcDbVertex
100
AcDb3dPolylineVertex
 10
0.0
 20
-1.628
 30
0.1870000000000001
 70
    32
  0
SEQEND
  5
611B0
330
611AB
100
AcDbEntity
  8
0
  0
POLYLINE
  5
611B1
330
458D6
100
AcDbEntity
  8
0
100
AcDbPolygonMesh
 66
     1
 10
0.0
 20
0.0
 30
0.0
 70
    16
 71
     6
 72
     3
  0
VERTEX
  5
611B2
330
611B1
100
AcDbEntity
  8
0
100
AcDbVertex
100
AcDbPolygonMeshVertex
 10
0.161
 20
0.5979999999999999
 30
0.187
 70
    64
  0
VERTEX
  5
611B3
330
611B1
100
AcDbEntity
  8
0
100
AcDbVertex
100
AcDbPolygonMeshVertex
 10
0.161
 20
0.5979999999999999
 30
0.0
 70
    64
  0
VERTEX
  5
611B4
330
611B1
100
AcDbEntity
  8
0
100
AcDbVertex
100
AcDbPolygonMeshVertex
 10
0.161
 20
0.5979999999999999
 30
0.0
 70
    64
  0
VERTEX
  5
611B5
330
611B1
100
AcDbEntity
  8
0
100
AcDbVertex
100
AcDbPolygonMeshVertex
 10
1.040999999999999
 20
0.5979999999999999
 30
0.187
 70
    64
  0
VERTEX
  5
611B6
330
611B1
100
AcDbEntity
  8
0
100
AcDbVertex
100
AcDbPolygonMeshVertex
 10
1.040999999999999
 20
0.5979999999999999
 30
0.0
 70
    64
  0
VERTEX
  5
611B7
330
611B1
100
AcDbEntity
  8
0
100
AcDbVertex
100
AcDbPolygonMeshVertex
 10
1.040999999999999
 20
0.5979999999999999
 30
0.0
 70
    64
  0
VERTEX
  5
611B8
330
611B1
100
AcDbEntity
  8
0
100
AcDbVertex
100
AcDbPolygonMeshVertex
 10
1.040999999999999
 20
0.0
 30
0.187
 70
    64
  0
VERTEX
  5
611B9
330
611B1
100
AcDbEntity
  8
0
100
AcDbVertex
100
AcDbPolygonMeshVertex
 10
1.040999999999999
 20
0.0
 30
0.0
 70
    64
  0
VERTEX
  5
611BA
330
611B1
100
AcDbEntity
  8
0
100
AcDbVertex
100
AcDbPolygonMeshVertex
 10
1.040999999999999
 20
0.5979999999999999
 30
0.0
 70
    64
  0
VERTEX
  5
611BB
330
611B1
100
AcDbEntity
  8
0
100
AcDbVertex
100
AcDbPolygonMeshVertex
 10
0.161
 20
0.0
 30
0.187
 70
    64
  0
VERTEX
  5
611BC
330
611B1
100
AcDbEntity
  8
0
100
AcDbVertex
100
AcDbPolygonMeshVertex
 10
0.161
 20
0.0
 30
0.0
 70
    64
  0
VERTEX
  5
611BD
330
611B1
100
AcDbEntity
  8
0
100
AcDbVertex
100
AcDbPolygonMeshVertex
 10
0.161
 20
0.5979999999999999
 30
0.0
 70
    64
  0
VERTEX
  5
611BE
330
611B1
100
AcDbEntity
  8
0
100
AcDbVertex
100
AcDbPolygonMeshVertex
 10
0.161
 20
0.0
 30
0.187
 70
    64
  0
VERTEX
  5
611BF
330
611B1
100
AcDbEntity
  8
0
100
AcDbVertex
100
AcDbPolygonMeshVertex
 10
0.161
 20
0.0
 30
0.187
 70
    64
  0
VERTEX
  5
611C0
330
611B1
100
AcDbEntity
  8
0
100
AcDbVertex
100
AcDbPolygonMeshVertex
 10
0.161
 20
0.5979999999999999
 30
0.187
 70
    64
  0
VERTEX
  5
611C1
330
611B1
100
AcDbEntity
  8
0
100
AcDbVertex
100
AcDbPolygonMeshVertex
 10
1.040999999999999
 20
0.0
 30
0.187
 70
    64
  0
VERTEX
  5
611C2
330
611B1
100
AcDbEntity
  8
0
100
AcDbVertex
100
AcDbPolygonMeshVertex
 10
1.040999999999999
 20
0.0
 30
0.187
 70
    64
  0
VERTEX
  5
611C3
330
611B1
100
AcDbEntity
  8
0
100
AcDbVertex
100
AcDbPolygonMeshVertex
 10
1.040999999999999
 20
0.5979999999999999
 30
0.187
 70
    64
  0
SEQEND
  5
611C4
330
611B1
100
AcDbEntity
  8
0
  0
CIRCLE
  5
611C5
330
458D6
100
AcDbEntity
  8
0
100
AcDbCircle
 10
1.944999999999999
 20
0.3369999999999995
 30
0.3160000000000003
 40
0.086
  0
POLYLINE
  5
611C6
330
458D6
100
AcDbEntity
  8
0
100
AcDb3dPolyline
 66
     1
 10
0.0
 20
0.0
 30
0.0
 70
     8
  0
VERTEX
  5
611C7
330
611C6
100
AcDbEntity
  8
0
100
AcDbVertex
100
AcDb3dPolylineVertex
 10
0.7063333333333324
 20
0.4009999999999998
 30
0.187
 70
    32
  0
VERTEX
  5
611C8
330
611C6
100
AcDbEntity
  8
0
100
AcDbVertex
100
AcDb3dPolylineVertex
 10
0.7063333333333324
 20
0.5359999999999996
 30
0.187
 70
    32
  0
VERTEX
  5
611C9
330
611C6
100
AcDbEntity
  8
0
100
AcDbVertex
100
AcDb3dPolylineVertex
 10
0.4956666666666659
 20
0.5359999999999996
 30
0.187
 70
    32
  0
VERTEX
  5
611CA
330
611C6
100
AcDbEntity
  8
0
100
AcDbVertex
100
AcDb3dPolylineVertex
 10
0.4956666666666659
 20
0.4009999999999998
 30
0.187
 70
    32
  0
SEQEND
  5
611CB
330
611C6
100
AcDbEntity
  8
0
  0
POLYLINE
  5
611CC
330
458D6
100
AcDbEntity
  8
0
100
AcDb3dPolyline
 66
     1
 10
0.0
 20
0.0
 30
0.0
 70
     8
  0
VERTEX
  5
611CD
330
611CC
100
AcDbEntity
  8
0
100
AcDbVertex
100
AcDb3dPolylineVertex
 10
0.4336666666666665
 20
0.4009999999999998
 30
0.187
 70
    32
  0
VERTEX
  5
611CE
330
611CC
100
AcDbEntity
  8
0
100
AcDbVertex
100
AcDb3dPolylineVertex
 10
0.4336666666666665
 20
0.5359999999999996
 30
0.187
 70
    32
  0
VERTEX
  5
611CF
330
611CC
100
AcDbEntity
  8
0
100
AcDbVertex
100
AcDb3dPolylineVertex
 10
0.2230000000000003
 20
0.5359999999999996
 30
0.187
 70
    32
  0
VERTEX
  5
611D0
330
611CC
100
AcDbEntity
  8
0
100
AcDbVertex
100
AcDb3dPolylineVertex
 10
0.2230000000000003
 20
0.4009999999999998
 30
0.187
 70
    32
  0
SEQEND
  5
611D1
330
611CC
100
AcDbEntity
  8
0
  0
POLYLINE
  5
611D2
330
458D6
100
AcDbEntity
  8
0
100
AcDb3dPolyline
 66
     1
 10
0.0
 20
0.0
 30
0.0
 70
     8
  0
VERTEX
  5
611D3
330
611D2
100
AcDbEntity
  8
0
100
AcDbVertex
100
AcDb3dPolylineVertex
 10
0.9789999999999983
 20
0.4009999999999998
 30
0.187
 70
    32
  0
VERTEX
  5
611D4
330
611D2
100
AcDbEntity
  8
0
100
AcDbVertex
100
AcDb3dPolylineVertex
 10
0.9789999999999983
 20
0.5359999999999996
 30
0.187
 70
    32
  0
VERTEX
  5
611D5
330
611D2
100
AcDbEntity
  8
0
100
AcDbVertex
100
AcDb3dPolylineVertex
 10
0.7683333333333318
 20
0.5359999999999996
 30
0.187
 70
    32
  0
VERTEX
  5
611D6
330
611D2
100
AcDbEntity
  8
0
100
AcDbVertex
100
AcDb3dPolylineVertex
 10
0.7683333333333318
 20
0.4009999999999998
 30
0.187
 70
    32
  0
SEQEND
  5
611D7
330
611D2
100
AcDbEntity
  8
0
  0
POLYLINE
  5
611D8
330
458D6
100
AcDbEntity
  8
0
100
AcDbPolygonMesh
 66
     1
 10
0.0
 20
0.0
 30
0.0
 70
    16
 71
     6
 72
     3
  0
VERTEX
  5
611D9
330
611D8
100
AcDbEntity
  8
0
100
AcDbVertex
100
AcDbPolygonMeshVertex
 10
0.8639999999999989
 20
-0.5675000000000004
 30
4.070999999999999
 70
    64
  0
VERTEX
  5
611DA
330
611D8
100
AcDbEntity
  8
0
100
AcDbVertex
100
AcDbPolygonMeshVertex
 10
0.8639999999999989
 20
-0.5675000000000004
 30
3.893999999999999
 70
    64
  0
VERTEX
  5
611DB
330
611D8
100
AcDbEntity
  8
0
100
AcDbVertex
100
AcDbPolygonMeshVertex
 10
0.8639999999999989
 20
-0.5675000000000004
 30
3.893999999999999
 70
    64
  0
VERTEX
  5
611DC
330
611D8
100
AcDbEntity
  8
0
100
AcDbVertex
100
AcDbPolygonMeshVertex
 10
0.6944999999999988
 20
-0.5675000000000004
 30
4.070999999999999
 70
    64
  0
VERTEX
  5
611DD
330
611D8
100
AcDbEntity
  8
0
100
AcDbVertex
100
AcDbPolygonMeshVertex
 10
0.6944999999999988
 20
-0.5675000000000004
 30
3.893999999999999
 70
    64
  0
VERTEX
  5
611DE
330
611D8
100
AcDbEntity
  8
0
100
AcDbVertex
100
AcDbPolygonMeshVertex
 10
0.6944999999999988
 20
-0.5675000000000004
 30
3.893999999999999
 70
    64
  0
VERTEX
  5
611DF
330
611D8
100
AcDbEntity
  8
0
100
AcDbVertex
100
AcDbPolygonMeshVertex
 10
0.6944999999999988
 20
-0.2145000000000006
 30
4.070999999999999
 70
    64
  0
VERTEX
  5
611E0
330
611D8
100
AcDbEntity
  8
0
100
AcDbVertex
100
AcDbPolygonMeshVertex
 10
0.6944999999999988
 20
-0.2145000000000006
 30
3.893999999999999
 70
    64
  0
VERTEX
  5
611E1
330
611D8
100
AcDbEntity
  8
0
100
AcDbVertex
100
AcDbPolygonMeshVertex
 10
0.6944999999999988
 20
-0.5675000000000004
 30
3.893999999999999
 70
    64
  0
VERTEX
  5
611E2
330
611D8
100
AcDbEntity
  8
0
100
AcDbVertex
100
AcDbPolygonMeshVertex
 10
0.8639999999999989
 20
-0.2145000000000006
 30
4.070999999999999
 70
    64
  0
VERTEX
  5
611E3
330
611D8
100
AcDbEntity
  8
0
100
AcDbVertex
100
AcDbPolygonMeshVertex
 10
0.8639999999999989
 20
-0.2145000000000006
 30
3.893999999999999
 70
    64
  0
VERTEX
  5
611E4
330
611D8
100
AcDbEntity
  8
0
100
AcDbVertex
100
AcDbPolygonMeshVertex
 10
0.8639999999999989
 20
-0.5675000000000004
 30
3.893999999999999
 70
    64
  0
VERTEX
  5
611E5
330
611D8
100
AcDbEntity
  8
0
100
AcDbVertex
100
AcDbPolygonMeshVertex
 10
0.8639999999999989
 20
-0.2145000000000006
 30
4.070999999999999
 70
    64
  0
VERTEX
  5
611E6
330
611D8
100
AcDbEntity
  8
0
100
AcDbVertex
100
AcDbPolygonMeshVertex
 10
0.8639999999999989
 20
-0.2145000000000006
 30
4.070999999999999
 70
    64
  0
VERTEX
  5
611E7
330
611D8
100
AcDbEntity
  8
0
100
AcDbVertex
100
AcDbPolygonMeshVertex
 10
0.8639999999999989
 20
-0.5675000000000004
 30
4.070999999999999
 70
    64
  0
VERTEX
  5
611E8
330
611D8
100
AcDbEntity
  8
0
100
AcDbVertex
100
AcDbPolygonMeshVertex
 10
0.6944999999999988
 20
-0.2145000000000006
 30
4.070999999999999
 70
    64
  0
VERTEX
  5
611E9
330
611D8
100
AcDbEntity
  8
0
100
AcDbVertex
100
AcDbPolygonMeshVertex
 10
0.6944999999999988
 20
-0.2145000000000006
 30
4.070999999999999
 70
    64
  0
VERTEX
  5
611EA
330
611D8
100
AcDbEntity
  8
0
100
AcDbVertex
100
AcDbPolygonMeshVertex
 10
0.6944999999999988
 20
-0.5675000000000004
 30
4.070999999999999
 70
    64
  0
SEQEND
  5
611EB
330
611D8
100
AcDbEntity
  8
0
  0
POLYLINE
  5
611EC
330
458D6
100
AcDbEntity
  8
0
100
AcDbPolygonMesh
 66
     1
 10
0.0
 20
0.0
 30
0.0
 70
    16
 71
     6
 72
     3
  0
VERTEX
  5
611ED
330
611EC
100
AcDbEntity
  8
0
100
AcDbVertex
100
AcDbPolygonMeshVertex
 10
1.425499999999998
 20
-0.5675000000000004
 30
3.893999999999999
 70
    64
  0
VERTEX
  5
611EE
330
611EC
100
AcDbEntity
  8
0
100
AcDbVertex
100
AcDbPolygonMeshVertex
 10
1.425499999999998
 20
-0.5675000000000004
 30
3.859999999999999
 70
    64
  0
VERTEX
  5
611EF
330
611EC
100
AcDbEntity
  8
0
100
AcDbVertex
100
AcDbPolygonMeshVertex
 10
1.425499999999998
 20
-0.5675000000000004
 30
3.859999999999999
 70
    64
  0
VERTEX
  5
611F0
330
611EC
100
AcDbEntity
  8
0
100
AcDbVertex
100
AcDbPolygonMeshVertex
 10
0.6944999999999988
 20
-0.5675000000000004
 30
3.893999999999999
 70
    64
  0
VERTEX
  5
611F1
330
611EC
100
AcDbEntity
  8
0
100
AcDbVertex
100
AcDbPolygonMeshVertex
 10
0.6944999999999988
 20
-0.5675000000000004
 30
3.859999999999999
 70
    64
  0
VERTEX
  5
611F2
330
611EC
100
AcDbEntity
  8
0
100
AcDbVertex
100
AcDbPolygonMeshVertex
 10
0.6944999999999988
 20
-0.5675000000000004
 30
3.859999999999999
 70
    64
  0
VERTEX
  5
611F3
330
611EC
100
AcDbEntity
  8
0
100
AcDbVertex
100
AcDbPolygonMeshVertex
 10
0.6944999999999988
 20
-0.2145000000000006
 30
3.893999999999999
 70
    64
  0
VERTEX
  5
611F4
330
611EC
100
AcDbEntity
  8
0
100
AcDbVertex
100
AcDbPolygonMeshVertex
 10
0.6944999999999988
 20
-0.2145000000000006
 30
3.859999999999999
 70
    64
  0
VERTEX
  5
611F5
330
611EC
100
AcDbEntity
  8
0
100
AcDbVertex
100
AcDbPolygonMeshVertex
 10
0.6944999999999988
 20
-0.5675000000000004
 30
3.859999999999999
 70
    64
  0
VERTEX
  5
611F6
330
611EC
100
AcDbEntity
  8
0
100
AcDbVertex
100
AcDbPolygonMeshVertex
 10
1.425499999999998
 20
-0.2145000000000006
 30
3.893999999999999
 70
    64
  0
VERTEX
  5
611F7
330
611EC
100
AcDbEntity
  8
0
100
AcDbVertex
100
AcDbPolygonMeshVertex
 10
1.425499999999998
 20
-0.2145000000000006
 30
3.859999999999999
 70
    64
  0
VERTEX
  5
611F8
330
611EC
100
AcDbEntity
  8
0
100
AcDbVertex
100
AcDbPolygonMeshVertex
 10
1.425499999999998
 20
-0.5675000000000004
 30
3.859999999999999
 70
    64
  0
VERTEX
  5
611F9
330
611EC
100
AcDbEntity
  8
0
100
AcDbVertex
100
AcDbPolygonMeshVertex
 10
1.425499999999998
 20
-0.2145000000000006
 30
3.893999999999999
 70
    64
  0
VERTEX
  5
611FA
330
611EC
100
AcDbEntity
  8
0
100
AcDbVertex
100
AcDbPolygonMeshVertex
 10
1.425499999999998
 20
-0.2145000000000006
 30
3.893999999999999
 70
    64
  0
VERTEX
  5
611FB
330
611EC
100
AcDbEntity
  8
0
100
AcDbVertex
100
AcDbPolygonMeshVertex
 10
1.425499999999998
 20
-0.5675000000000004
 30
3.893999999999999
 70
    64
  0
VERTEX
  5
611FC
330
611EC
100
AcDbEntity
  8
0
100
AcDbVertex
100
AcDbPolygonMeshVertex
 10
0.6944999999999988
 20
-0.2145000000000006
 30
3.893999999999999
 70
    64
  0
VERTEX
  5
611FD
330
611EC
100
AcDbEntity
  8
0
100
AcDbVertex
100
AcDbPolygonMeshVertex
 10
0.6944999999999988
 20
-0.2145000000000006
 30
3.893999999999999
 70
    64
  0
VERTEX
  5
611FE
330
611EC
100
AcDbEntity
  8
0
100
AcDbVertex
100
AcDbPolygonMeshVertex
 10
0.6944999999999988
 20
-0.5675000000000004
 30
3.893999999999999
 70
    64
  0
SEQEND
  5
611FF
330
611EC
100
AcDbEntity
  8
0
  0
POLYLINE
  5
61200
330
458D6
100
AcDbEntity
  8
0
100
AcDbPolygonMesh
 66
     1
 10
0.0
 20
0.0
 30
0.0
 70
    16
 71
     6
 72
     3
  0
VERTEX
  5
61201
330
61200
100
AcDbEntity
  8
0
100
AcDbVertex
100
AcDbPolygonMeshVertex
 10
1.425499999999998
 20
-0.5675000000000004
 30
4.070999999999999
 70
    64
  0
VERTEX
  5
61202
330
61200
100
AcDbEntity
  8
0
100
AcDbVertex
100
AcDbPolygonMeshVertex
 10
1.425499999999998
 20
-0.5675000000000004
 30
3.893999999999999
 70
    64
  0
VERTEX
  5
61203
330
61200
100
AcDbEntity
  8
0
100
AcDbVertex
100
AcDbPolygonMeshVertex
 10
1.425499999999998
 20
-0.5675000000000004
 30
3.893999999999999
 70
    64
  0
VERTEX
  5
61204
330
61200
100
AcDbEntity
  8
0
100
AcDbVertex
100
AcDbPolygonMeshVertex
 10
1.255999999999998
 20
-0.5675000000000004
 30
4.070999999999999
 70
    64
  0
VERTEX
  5
61205
330
61200
100
AcDbEntity
  8
0
100
AcDbVertex
100
AcDbPolygonMeshVertex
 10
1.255999999999998
 20
-0.5675000000000004
 30
3.893999999999999
 70
    64
  0
VERTEX
  5
61206
330
61200
100
AcDbEntity
  8
0
100
AcDbVertex
100
AcDbPolygonMeshVertex
 10
1.255999999999998
 20
-0.5675000000000004
 30
3.893999999999999
 70
    64
  0
VERTEX
  5
61207
330
61200
100
AcDbEntity
  8
0
100
AcDbVertex
100
AcDbPolygonMeshVertex
 10
1.255999999999998
 20
-0.2145000000000006
 30
4.070999999999999
 70
    64
  0
VERTEX
  5
61208
330
61200
100
AcDbEntity
  8
0
100
AcDbVertex
100
AcDbPolygonMeshVertex
 10
1.255999999999998
 20
-0.2145000000000006
 30
3.893999999999999
 70
    64
  0
VERTEX
  5
61209
330
61200
100
AcDbEntity
  8
0
100
AcDbVertex
100
AcDbPolygonMeshVertex
 10
1.255999999999998
 20
-0.5675000000000004
 30
3.893999999999999
 70
    64
  0
VERTEX
  5
6120A
330
61200
100
AcDbEntity
  8
0
100
AcDbVertex
100
AcDbPolygonMeshVertex
 10
1.425499999999998
 20
-0.2145000000000006
 30
4.070999999999999
 70
    64
  0
VERTEX
  5
6120B
330
61200
100
AcDbEntity
  8
0
100
AcDbVertex
100
AcDbPolygonMeshVertex
 10
1.425499999999998
 20
-0.2145000000000006
 30
3.893999999999999
 70
    64
  0
VERTEX
  5
6120C
330
61200
100
AcDbEntity
  8
0
100
AcDbVertex
100
AcDbPolygonMeshVertex
 10
1.425499999999998
 20
-0.5675000000000004
 30
3.893999999999999
 70
    64
  0
VERTEX
  5
6120D
330
61200
100
AcDbEntity
  8
0
100
AcDbVertex
100
AcDbPolygonMeshVertex
 10
1.425499999999998
 20
-0.2145000000000006
 30
4.070999999999999
 70
    64
  0
VERTEX
  5
6120E
330
61200
100
AcDbEntity
  8
0
100
AcDbVertex
100
AcDbPolygonMeshVertex
 10
1.425499999999998
 20
-0.2145000000000006
 30
4.070999999999999
 70
    64
  0
VERTEX
  5
6120F
330
61200
100
AcDbEntity
  8
0
100
AcDbVertex
100
AcDbPolygonMeshVertex
 10
1.425499999999998
 20
-0.5675000000000004
 30
4.070999999999999
 70
    64
  0
VERTEX
  5
61210
330
61200
100
AcDbEntity
  8
0
100
AcDbVertex
100
AcDbPolygonMeshVertex
 10
1.255999999999998
 20
-0.2145000000000006
 30
4.070999999999999
 70
    64
  0
VERTEX
  5
61211
330
61200
100
AcDbEntity
  8
0
100
AcDbVertex
100
AcDbPolygonMeshVertex
 10
1.255999999999998
 20
-0.2145000000000006
 30
4.070999999999999
 70
    64
  0
VERTEX
  5
61212
330
61200
100
AcDbEntity
  8
0
100
AcDbVertex
100
AcDbPolygonMeshVertex
 10
1.255999999999998
 20
-0.5675000000000004
 30
4.070999999999999
 70
    64
  0
SEQEND
  5
61213
330
61200
100
AcDbEntity
  8
0
  0
POLYLINE
  5
61214
330
458D6
100
AcDbEntity
  8
0
100
AcDbPolygonMesh
 66
     1
 10
0.0
 20
0.0
 30
0.0
 70
    16
 71
     6
 72
     3
  0
VERTEX
  5
61215
330
61214
100
AcDbEntity
  8
0
100
AcDbVertex
100
AcDbPolygonMeshVertex
 10
0.9574999999999986
 20
-1.022499999999999
 30
4.109999999999999
 70
    64
  0
VERTEX
  5
61216
330
61214
100
AcDbEntity
  8
0
100
AcDbVertex
100
AcDbPolygonMeshVertex
 10
0.9574999999999986
 20
-1.022499999999999
 30
3.894
 70
    64
  0
VERTEX
  5
61217
330
61214
100
AcDbEntity
  8
0
100
AcDbVertex
100
AcDbPolygonMeshVertex
 10
0.9574999999999986
 20
-1.022499999999999
 30
3.894
 70
    64
  0
VERTEX
  5
61218
330
61214
100
AcDbEntity
  8
0
100
AcDbVertex
100
AcDbPolygonMeshVertex
 10
0.8224999999999988
 20
-1.022499999999999
 30
4.109999999999999
 70
    64
  0
VERTEX
  5
61219
330
61214
100
AcDbEntity
  8
0
100
AcDbVertex
100
AcDbPolygonMeshVertex
 10
0.8224999999999988
 20
-1.022499999999999
 30
3.894
 70
    64
  0
VERTEX
  5
6121A
330
61214
100
AcDbEntity
  8
0
100
AcDbVertex
100
AcDbPolygonMeshVertex
 10
0.8224999999999988
 20
-1.022499999999999
 30
3.894
 70
    64
  0
VERTEX
  5
6121B
330
61214
100
AcDbEntity
  8
0
100
AcDbVertex
100
AcDbPolygonMeshVertex
 10
0.8224999999999988
 20
-0.6774999999999998
 30
4.109999999999999
 70
    64
  0
VERTEX
  5
6121C
330
61214
100
AcDbEntity
  8
0
100
AcDbVertex
100
AcDbPolygonMeshVertex
 10
0.8224999999999988
 20
-0.6774999999999998
 30
3.894
 70
    64
  0
VERTEX
  5
6121D
330
61214
100
AcDbEntity
  8
0
100
AcDbVertex
100
AcDbPolygonMeshVertex
 10
0.8224999999999988
 20
-1.022499999999999
 30
3.894
 70
    64
  0
VERTEX
  5
6121E
330
61214
100
AcDbEntity
  8
0
100
AcDbVertex
100
AcDbPolygonMeshVertex
 10
0.9574999999999986
 20
-0.6774999999999998
 30
4.109999999999999
 70
    64
  0
VERTEX
  5
6121F
330
61214
100
AcDbEntity
  8
0
100
AcDbVertex
100
AcDbPolygonMeshVertex
 10
0.9574999999999986
 20
-0.6774999999999998
 30
3.894
 70
    64
  0
VERTEX
  5
61220
330
61214
100
AcDbEntity
  8
0
100
AcDbVertex
100
AcDbPolygonMeshVertex
 10
0.9574999999999986
 20
-1.022499999999999
 30
3.894
 70
    64
  0
VERTEX
  5
61221
330
61214
100
AcDbEntity
  8
0
100
AcDbVertex
100
AcDbPolygonMeshVertex
 10
0.9574999999999986
 20
-0.6774999999999998
 30
4.109999999999999
 70
    64
  0
VERTEX
  5
61222
330
61214
100
AcDbEntity
  8
0
100
AcDbVertex
100
AcDbPolygonMeshVertex
 10
0.9574999999999986
 20
-0.6774999999999998
 30
4.109999999999999
 70
    64
  0
VERTEX
  5
61223
330
61214
100
AcDbEntity
  8
0
100
AcDbVertex
100
AcDbPolygonMeshVertex
 10
0.9574999999999986
 20
-1.022499999999999
 30
4.109999999999999
 70
    64
  0
VERTEX
  5
61224
330
61214
100
AcDbEntity
  8
0
100
AcDbVertex
100
AcDbPolygonMeshVertex
 10
0.8224999999999988
 20
-0.6774999999999998
 30
4.109999999999999
 70
    64
  0
VERTEX
  5
61225
330
61214
100
AcDbEntity
  8
0
100
AcDbVertex
100
AcDbPolygonMeshVertex
 10
0.8224999999999988
 20
-0.6774999999999998
 30
4.109999999999999
 70
    64
  0
VERTEX
  5
61226
330
61214
100
AcDbEntity
  8
0
100
AcDbVertex
100
AcDbPolygonMeshVertex
 10
0.8224999999999988
 20
-1.022499999999999
 30
4.109999999999999
 70
    64
  0
SEQEND
  5
61227
330
61214
100
AcDbEntity
  8
0
  0
POLYLINE
  5
61228
330
458D6
100
AcDbEntity
  8
0
100
AcDbPolygonMesh
 66
     1
 10
0.0
 20
0.0
 30
0.0
 70
    16
 71
     6
 72
     3
  0
VERTEX
  5
61229
330
61228
100
AcDbEntity
  8
0
100
AcDbVertex
100
AcDbPolygonMeshVertex
 10
1.297499999999998
 20
-1.022499999999999
 30
3.894
 70
    64
  0
VERTEX
  5
6122A
330
61228
100
AcDbEntity
  8
0
100
AcDbVertex
100
AcDbPolygonMeshVertex
 10
1.297499999999998
 20
-1.022499999999999
 30
3.859999999999999
 70
    64
  0
VERTEX
  5
6122B
330
61228
100
AcDbEntity
  8
0
100
AcDbVertex
100
AcDbPolygonMeshVertex
 10
1.297499999999998
 20
-1.022499999999999
 30
3.859999999999999
 70
    64
  0
VERTEX
  5
6122C
330
61228
100
AcDbEntity
  8
0
100
AcDbVertex
100
AcDbPolygonMeshVertex
 10
0.8224999999999988
 20
-1.022499999999999
 30
3.894
 70
    64
  0
VERTEX
  5
6122D
330
61228
100
AcDbEntity
  8
0
100
AcDbVertex
100
AcDbPolygonMeshVertex
 10
0.8224999999999988
 20
-1.022499999999999
 30
3.859999999999999
 70
    64
  0
VERTEX
  5
6122E
330
61228
100
AcDbEntity
  8
0
100
AcDbVertex
100
AcDbPolygonMeshVertex
 10
0.8224999999999988
 20
-1.022499999999999
 30
3.859999999999999
 70
    64
  0
VERTEX
  5
6122F
330
61228
100
AcDbEntity
  8
0
100
AcDbVertex
100
AcDbPolygonMeshVertex
 10
0.8224999999999988
 20
-0.6774999999999998
 30
3.894
 70
    64
  0
VERTEX
  5
61230
330
61228
100
AcDbEntity
  8
0
100
AcDbVertex
100
AcDbPolygonMeshVertex
 10
0.8224999999999988
 20
-0.6774999999999998
 30
3.859999999999999
 70
    64
  0
VERTEX
  5
61231
330
61228
100
AcDbEntity
  8
0
100
AcDbVertex
100
AcDbPolygonMeshVertex
 10
0.8224999999999988
 20
-1.022499999999999
 30
3.859999999999999
 70
    64
  0
VERTEX
  5
61232
330
61228
100
AcDbEntity
  8
0
100
AcDbVertex
100
AcDbPolygonMeshVertex
 10
1.297499999999998
 20
-0.6774999999999998
 30
3.894
 70
    64
  0
VERTEX
  5
61233
330
61228
100
AcDbEntity
  8
0
100
AcDbVertex
100
AcDbPolygonMeshVertex
 10
1.297499999999998
 20
-0.6774999999999998
 30
3.859999999999999
 70
    64
  0
VERTEX
  5
61234
330
61228
100
AcDbEntity
  8
0
100
AcDbVertex
100
AcDbPolygonMeshVertex
 10
1.297499999999998
 20
-1.022499999999999
 30
3.859999999999999
 70
    64
  0
VERTEX
  5
61235
330
61228
100
AcDbEntity
  8
0
100
AcDbVertex
100
AcDbPolygonMeshVertex
 10
1.297499999999998
 20
-0.6774999999999998
 30
3.894
 70
    64
  0
VERTEX
  5
61236
330
61228
100
AcDbEntity
  8
0
100
AcDbVertex
100
AcDbPolygonMeshVertex
 10
1.297499999999998
 20
-0.6774999999999998
 30
3.894
 70
    64
  0
VERTEX
  5
61237
330
61228
100
AcDbEntity
  8
0
100
AcDbVertex
100
AcDbPolygonMeshVertex
 10
1.297499999999998
 20
-1.022499999999999
 30
3.894
 70
    64
  0
VERTEX
  5
61238
330
61228
100
AcDbEntity
  8
0
100
AcDbVertex
100
AcDbPolygonMeshVertex
 10
0.8224999999999988
 20
-0.6774999999999998
 30
3.894
 70
    64
  0
VERTEX
  5
61239
330
61228
100
AcDbEntity
  8
0
100
AcDbVertex
100
AcDbPolygonMeshVertex
 10
0.8224999999999988
 20
-0.6774999999999998
 30
3.894
 70
    64
  0
VERTEX
  5
6123A
330
61228
100
AcDbEntity
  8
0
100
AcDbVertex
100
AcDbPolygonMeshVertex
 10
0.8224999999999988
 20
-1.022499999999999
 30
3.894
 70
    64
  0
SEQEND
  5
6123B
330
61228
100
AcDbEntity
  8
0
  0
POLYLINE
  5
6123C
330
458D6
100
AcDbEntity
  8
0
100
AcDbPolygonMesh
 66
     1
 10
0.0
 20
0.0
 30
0.0
 70
    16
 71
     6
 72
     3
  0
VERTEX
  5
6123D
330
6123C
100
AcDbEntity
  8
0
100
AcDbVertex
100
AcDbPolygonMeshVertex
 10
1.297499999999998
 20
-1.022499999999999
 30
4.109999999999999
 70
    64
  0
VERTEX
  5
6123E
330
6123C
100
AcDbEntity
  8
0
100
AcDbVertex
100
AcDbPolygonMeshVertex
 10
1.297499999999998
 20
-1.022499999999999
 30
3.894
 70
    64
  0
VERTEX
  5
6123F
330
6123C
100
AcDbEntity
  8
0
100
AcDbVertex
100
AcDbPolygonMeshVertex
 10
1.297499999999998
 20
-1.022499999999999
 30
3.894
 70
    64
  0
VERTEX
  5
61240
330
6123C
100
AcDbEntity
  8
0
100
AcDbVertex
100
AcDbPolygonMeshVertex
 10
1.162499999999998
 20
-1.022499999999999
 30
4.109999999999999
 70
    64
  0
VERTEX
  5
61241
330
6123C
100
AcDbEntity
  8
0
100
AcDbVertex
100
AcDbPolygonMeshVertex
 10
1.162499999999998
 20
-1.022499999999999
 30
3.894
 70
    64
  0
VERTEX
  5
61242
330
6123C
100
AcDbEntity
  8
0
100
AcDbVertex
100
AcDbPolygonMeshVertex
 10
1.162499999999998
 20
-1.022499999999999
 30
3.894
 70
    64
  0
VERTEX
  5
61243
330
6123C
100
AcDbEntity
  8
0
100
AcDbVertex
100
AcDbPolygonMeshVertex
 10
1.162499999999998
 20
-0.6774999999999998
 30
4.109999999999999
 70
    64
  0
VERTEX
  5
61244
330
6123C
100
AcDbEntity
  8
0
100
AcDbVertex
100
AcDbPolygonMeshVertex
 10
1.162499999999998
 20
-0.6774999999999998
 30
3.894
 70
    64
  0
VERTEX
  5
61245
330
6123C
100
AcDbEntity
  8
0
100
AcDbVertex
100
AcDbPolygonMeshVertex
 10
1.162499999999998
 20
-1.022499999999999
 30
3.894
 70
    64
  0
VERTEX
  5
61246
330
6123C
100
AcDbEntity
  8
0
100
AcDbVertex
100
AcDbPolygonMeshVertex
 10
1.297499999999998
 20
-0.6774999999999998
 30
4.109999999999999
 70
    64
  0
VERTEX
  5
61247
330
6123C
100
AcDbEntity
  8
0
100
AcDbVertex
100
AcDbPolygonMeshVertex
 10
1.297499999999998
 20
-0.6774999999999998
 30
3.894
 70
    64
  0
VERTEX
  5
61248
330
6123C
100
AcDbEntity
  8
0
100
AcDbVertex
100
AcDbPolygonMeshVertex
 10
1.297499999999998
 20
-1.022499999999999
 30
3.894
 70
    64
  0
VERTEX
  5
61249
330
6123C
100
AcDbEntity
  8
0
100
AcDbVertex
100
AcDbPolygonMeshVertex
 10
1.297499999999998
 20
-0.6774999999999998
 30
4.109999999999999
 70
    64
  0
VERTEX
  5
6124A
330
6123C
100
AcDbEntity
  8
0
100
AcDbVertex
100
AcDbPolygonMeshVertex
 10
1.297499999999998
 20
-0.6774999999999998
 30
4.109999999999999
 70
    64
  0
VERTEX
  5
6124B
330
6123C
100
AcDbEntity
  8
0
100
AcDbVertex
100
AcDbPolygonMeshVertex
 10
1.297499999999998
 20
-1.022499999999999
 30
4.109999999999999
 70
    64
  0
VERTEX
  5
6124C
330
6123C
100
AcDbEntity
  8
0
100
AcDbVertex
100
AcDbPolygonMeshVertex
 10
1.162499999999998
 20
-0.6774999999999998
 30
4.109999999999999
 70
    64
  0
VERTEX
  5
6124D
330
6123C
100
AcDbEntity
  8
0
100
AcDbVertex
100
AcDbPolygonMeshVertex
 10
1.162499999999998
 20
-0.6774999999999998
 30
4.109999999999999
 70
    64
  0
VERTEX
  5
6124E
330
6123C
100
AcDbEntity
  8
0
100
AcDbVertex
100
AcDbPolygonMeshVertex
 10
1.162499999999998
 20
-1.022499999999999
 30
4.109999999999999
 70
    64
  0
SEQEND
  5
6124F
330
6123C
100
AcDbEntity
  8
0
  0
TEXT
  5
61250
330
458D6
100
AcDbEntity
  8
0
100
AcDbText
 10
0.1132297932738142
 20
0.2811155340969122
 30
3.859999999999999
 40
0.0834654981097751
  1
1
100
AcDbText
  0
TEXT
  5
61251
330
458D6
100
AcDbEntity
  8
0
100
AcDbText
 10
0.5691308389222805
 20
0.2802736679910658
 30
3.859999999999999
 40
0.0834654981097751
  1
L1
100
AcDbText
  0
TEXT
  5
61252
330
458D6
100
AcDbEntity
  8
0
100
AcDbText
 10
0.8427030777100581
 20
0.2794318018852193
 30
3.859999999999999
 40
0.0834654981097751
  1
3
100
AcDbText
  0
TEXT
  5
61253
330
458D6
100
AcDbEntity
  8
0
100
AcDbText
 10
1.226609268925797
 20
0.2808433009258362
 30
3.859999999999999
 40
0.0834654981097751
  1
L2
100
AcDbText
  0
TEXT
  5
61254
330
458D6
100
AcDbEntity
  8
0
100
AcDbText
 10
1.534201536158613
 20
0.2822547999664535
 30
3.859999999999999
 40
0.0834654981097751
  1
5
100
AcDbText
  0
TEXT
  5
61255
330
458D6
100
AcDbEntity
  8
0
100
AcDbText
 10
1.917518723896797
 20
0.2842550160273163
 30
3.859999999999999
 40
0.0834654981097751
  1
L3
100
AcDbText
  0
TEXT
  5
61256
330
458D6
100
AcDbEntity
  8
0
100
AcDbText
 10
0.106209880414954
 20
-2.064187320954868
 30
3.859999999999999
 40
0.0834654981097751
  1
2
100
AcDbText
  0
TEXT
  5
61257
330
458D6
100
AcDbEntity
  8
0
100
AcDbText
 10
0.5673196778400627
 20
-2.062775821914252
 30
3.859999999999999
 40
0.0834654981097751
  1
T1
100
AcDbText
  0
TEXT
  5
61258
330
458D6
100
AcDbEntity
  8
0
100
AcDbText
 10
0.8432572033404213
 20
-2.060775605853388
 30
3.859999999999999
 40
0.0834654981097751
  1
4
100
AcDbText
  0
TEXT
  5
61259
330
458D6
100
AcDbEntity
  8
0
100
AcDbText
 10
1.227641572907644
 20
-2.062206188979481
 30
3.859999999999999
 40
0.0834654981097751
  1
T2
100
AcDbText
  0
TEXT
  5
6125A
330
458D6
100
AcDbEntity
  8
0
100
AcDbText
 10
1.539077812557039
 20
-2.063048055085327
 30
3.859999999999999
 40
0.0834654981097751
  1
6
100
AcDbText
  0
TEXT
  5
6125B
330
458D6
100
AcDbEntity
  8
0
100
AcDbText
 10
1.917186248518578
 20
-2.06163655604471
 30
3.859999999999999
 40
0.0834654981097751
  1
T3
100
AcDbText
  0
CIRCLE
  5
6125C
330
458D6
100
AcDbEntity
  8
0
100
AcDbCircle
 10
1.944999999999999
 20
0.3369999999999995
 30
0.0000000000000002
 40
0.086
  0
POLYLINE
  5
6125D
330
458D6
100
AcDbEntity
  8
0
100
AcDb3dPolyline
 66
     1
 10
0.0
 20
0.0
 30
0.0
 70
     8
  0
VERTEX
  5
6125E
330
6125D
100
AcDbEntity
  8
0
100
AcDbVertex
100
AcDb3dPolylineVertex
 10
0.9789999999999983
 20
0.4009999999999998
 30
-0.0000000000000001
 70
    32
  0
VERTEX
  5
6125F
330
6125D
100
AcDbEntity
  8
0
100
AcDbVertex
100
AcDb3dPolylineVertex
 10
0.9789999999999983
 20
0.5359999999999996
 30
0.0
 70
    32
  0
VERTEX
  5
61260
330
6125D
100
AcDbEntity
  8
0
100
AcDbVertex
100
AcDb3dPolylineVertex
 10
0.7683333333333318
 20
0.5359999999999996
 30
0.0
 70
    32
  0
VERTEX
  5
61261
330
6125D
100
AcDbEntity
  8
0
100
AcDbVertex
100
AcDb3dPolylineVertex
 10
0.7683333333333318
 20
0.4009999999999998
 30
-0.0000000000000001
 70
    32
  0
SEQEND
  5
61262
330
6125D
100
AcDbEntity
  8
0
  0
POLYLINE
  5
61263
330
458D6
100
AcDbEntity
  8
0
100
AcDb3dPolyline
 66
     1
 10
0.0
 20
0.0
 30
0.0
 70
     8
  0
VERTEX
  5
61264
330
61263
100
AcDbEntity
  8
0
100
AcDbVertex
100
AcDb3dPolylineVertex
 10
0.7063333333333324
 20
0.4009999999999998
 30
-0.0000000000000001
 70
    32
  0
VERTEX
  5
61265
330
61263
100
AcDbEntity
  8
0
100
AcDbVertex
100
AcDb3dPolylineVertex
 10
0.7063333333333324
 20
0.5359999999999996
 30
0.0
 70
    32
  0
VERTEX
  5
61266
330
61263
100
AcDbEntity
  8
0
100
AcDbVertex
100
AcDb3dPolylineVertex
 10
0.4956666666666659
 20
0.5359999999999996
 30
0.0
 70
    32
  0
VERTEX
  5
61267
330
61263
100
AcDbEntity
  8
0
100
AcDbVertex
100
AcDb3dPolylineVertex
 10
0.4956666666666659
 20
0.4009999999999998
 30
-0.0000000000000001
 70
    32
  0
SEQEND
  5
61268
330
61263
100
AcDbEntity
  8
0
  0
POLYLINE
  5
61269
330
458D6
100
AcDbEntity
  8
0
100
AcDb3dPolyline
 66
     1
 10
0.0
 20
0.0
 30
0.0
 70
     8
  0
VERTEX
  5
6126A
330
61269
100
AcDbEntity
  8
0
100
AcDbVertex
100
AcDb3dPolylineVertex
 10
0.4336666666666665
 20
0.4009999999999998
 30
-0.0000000000000001
 70
    32
  0
VERTEX
  5
6126B
330
61269
100
AcDbEntity
  8
0
100
AcDbVertex
100
AcDb3dPolylineVertex
 10
0.4336666666666665
 20
0.5359999999999996
 30
0.0
 70
    32
  0
VERTEX
  5
6126C
330
61269
100
AcDbEntity
  8
0
100
AcDbVertex
100
AcDb3dPolylineVertex
 10
0.2230000000000003
 20
0.5359999999999996
 30
0.0
 70
    32
  0
VERTEX
  5
6126D
330
61269
100
AcDbEntity
  8
0
100
AcDbVertex
100
AcDb3dPolylineVertex
 10
0.2230000000000003
 20
0.4009999999999998
 30
-0.0000000000000001
 70
    32
  0
SEQEND
  5
6126E
330
61269
100
AcDbEntity
  8
0
  0
LINE
  5
6126F
330
458D6
100
AcDbEntity
  8
0
100
AcDbLine
 10
0.9789999999999983
 20
0.4009999999999998
 30
-0.0000000000000001
 11
0.7683333333333327
 21
0.4009999999999998
 31
-0.0000000000000001
  0
LINE
  5
61270
330
458D6
100
AcDbEntity
  8
0
100
AcDbLine
 10
0.7063333333333324
 20
0.4009999999999998
 30
-0.0000000000000001
 11
0.4956666666666667
 21
0.4009999999999998
 31
-0.0000000000000001
  0
LINE
  5
61271
330
458D6
100
AcDbEntity
  8
0
100
AcDbLine
 10
0.4336666666666665
 20
0.4009999999999998
 30
-0.0000000000000001
 11
0.2230000000000007
 21
0.4009999999999998
 31
-0.0000000000000001
  0
POLYLINE
  5
61272
330
458D6
100
AcDbEntity
  8
0
100
AcDbPolygonMesh
 66
     1
 10
0.0
 20
0.0
 30
0.0
 70
    16
 71
     6
 72
     3
  0
VERTEX
  5
61273
330
61272
100
AcDbEntity
  8
0
100
AcDbVertex
100
AcDbPolygonMeshVertex
 10
0.391
 20
-1.806
 30
1.318
 70
    64
  0
VERTEX
  5
61274
330
61272
100
AcDbEntity
  8
0
100
AcDbVertex
100
AcDbPolygonMeshVertex
 10
0.391
 20
-1.806
 30
0.187
 70
    64
  0
VERTEX
  5
61275
330
61272
100
AcDbEntity
  8
0
100
AcDbVertex
100
AcDbPolygonMeshVertex
 10
0.391
 20
-1.806
 30
0.187
 70
    64
  0
VERTEX
  5
61276
330
61272
100
AcDbEntity
  8
0
100
AcDbVertex
100
AcDbPolygonMeshVertex
 10
0.0
 20
-1.806
 30
1.318
 70
    64
  0
VERTEX
  5
61277
330
61272
100
AcDbEntity
  8
0
100
AcDbVertex
100
AcDbPolygonMeshVertex
 10
0.0
 20
-1.806
 30
0.187
 70
    64
  0
VERTEX
  5
61278
330
61272
100
AcDbEntity
  8
0
100
AcDbVertex
100
AcDbPolygonMeshVertex
 10
0.0
 20
-1.806
 30
0.187
 70
    64
  0
VERTEX
  5
61279
330
61272
100
AcDbEntity
  8
0
100
AcDbVertex
100
AcDbPolygonMeshVertex
 10
0.0
 20
0.4009999999999998
 30
1.318
 70
    64
  0
VERTEX
  5
6127A
330
61272
100
AcDbEntity
  8
0
100
AcDbVertex
100
AcDbPolygonMeshVertex
 10
0.0
 20
0.4009999999999998
 30
0.187
 70
    64
  0
VERTEX
  5
6127B
330
61272
100
AcDbEntity
  8
0
100
AcDbVertex
100
AcDbPolygonMeshVertex
 10
0.0
 20
-1.806
 30
0.187
 70
    64
  0
VERTEX
  5
6127C
330
61272
100
AcDbEntity
  8
0
100
AcDbVertex
100
AcDbPolygonMeshVertex
 10
0.391
 20
0.4009999999999998
 30
1.318
 70
    64
  0
VERTEX
  5
6127D
330
61272
100
AcDbEntity
  8
0
100
AcDbVertex
100
AcDbPolygonMeshVertex
 10
0.391
 20
0.4009999999999998
 30
0.187
 70
    64
  0
VERTEX
  5
6127E
330
61272
100
AcDbEntity
  8
0
100
AcDbVertex
100
AcDbPolygonMeshVertex
 10
0.391
 20
-1.806
 30
0.187
 70
    64
  0
VERTEX
  5
6127F
330
61272
100
AcDbEntity
  8
0
100
AcDbVertex
100
AcDbPolygonMeshVertex
 10
0.391
 20
0.4009999999999998
 30
1.318
 70
    64
  0
VERTEX
  5
61280
330
61272
100
AcDbEntity
  8
0
100
AcDbVertex
100
AcDbPolygonMeshVertex
 10
0.391
 20
0.4009999999999998
 30
1.318
 70
    64
  0
VERTEX
  5
61281
330
61272
100
AcDbEntity
  8
0
100
AcDbVertex
100
AcDbPolygonMeshVertex
 10
0.391
 20
-1.806
 30
1.318
 70
    64
  0
VERTEX
  5
61282
330
61272
100
AcDbEntity
  8
0
100
AcDbVertex
100
AcDbPolygonMeshVertex
 10
0.0
 20
0.4009999999999998
 30
1.318
 70
    64
  0
VERTEX
  5
61283
330
61272
100
AcDbEntity
  8
0
100
AcDbVertex
100
AcDbPolygonMeshVertex
 10
0.0
 20
0.4009999999999998
 30
1.318
 70
    64
  0
VERTEX
  5
61284
330
61272
100
AcDbEntity
  8
0
100
AcDbVertex
100
AcDbPolygonMeshVertex
 10
0.0
 20
-1.806
 30
1.318
 70
    64
  0
SEQEND
  5
61285
330
61272
100
AcDbEntity
  8
0
  0
POLYLINE
  5
61286
330
458D6
100
AcDbEntity
  8
0
100
AcDbPolygonMesh
 66
     1
 10
0.0
 20
0.0
 30
0.0
 70
    16
 71
     6
 72
     3
  0
VERTEX
  5
61287
330
61286
100
AcDbEntity
  8
0
100
AcDbVertex
100
AcDbPolygonMeshVertex
 10
2.12
 20
-2.089
 30
1.318
 70
    64
  0
VERTEX
  5
61288
330
61286
100
AcDbEntity
  8
0
100
AcDbVertex
100
AcDbPolygonMeshVertex
 10
2.12
 20
-2.089
 30
0.187
 70
    64
  0
VERTEX
  5
61289
330
61286
100
AcDbEntity
  8
0
100
AcDbVertex
100
AcDbPolygonMeshVertex
 10
2.12
 20
-2.089
 30
0.187
 70
    64
  0
VERTEX
  5
6128A
330
61286
100
AcDbEntity
  8
0
100
AcDbVertex
100
AcDbPolygonMeshVertex
 10
1.729
 20
-2.089
 30
1.318
 70
    64
  0
VERTEX
  5
6128B
330
61286
100
AcDbEntity
  8
0
100
AcDbVertex
100
AcDbPolygonMeshVertex
 10
1.729
 20
-2.089
 30
0.187
 70
    64
  0
VERTEX
  5
6128C
330
61286
100
AcDbEntity
  8
0
100
AcDbVertex
100
AcDbPolygonMeshVertex
 10
1.729
 20
-2.089
 30
0.187
 70
    64
  0
VERTEX
  5
6128D
330
61286
100
AcDbEntity
  8
0
100
AcDbVertex
100
AcDbPolygonMeshVertex
 10
1.729
 20
0.1179999999999994
 30
1.318
 70
    64
  0
VERTEX
  5
6128E
330
61286
100
AcDbEntity
  8
0
100
AcDbVertex
100
AcDbPolygonMeshVertex
 10
1.729
 20
0.1179999999999994
 30
0.187
 70
    64
  0
VERTEX
  5
6128F
330
61286
100
AcDbEntity
  8
0
100
AcDbVertex
100
AcDbPolygonMeshVertex
 10
1.729
 20
-2.089
 30
0.187
 70
    64
  0
VERTEX
  5
61290
330
61286
100
AcDbEntity
  8
0
100
AcDbVertex
100
AcDbPolygonMeshVertex
 10
2.12
 20
0.1179999999999994
 30
1.318
 70
    64
  0
VERTEX
  5
61291
330
61286
100
AcDbEntity
  8
0
100
AcDbVertex
100
AcDbPolygonMeshVertex
 10
2.12
 20
0.1179999999999994
 30
0.187
 70
    64
  0
VERTEX
  5
61292
330
61286
100
AcDbEntity
  8
0
100
AcDbVertex
100
AcDbPolygonMeshVertex
 10
2.12
 20
-2.089
 30
0.187
 70
    64
  0
VERTEX
  5
61293
330
61286
100
AcDbEntity
  8
0
100
AcDbVertex
100
AcDbPolygonMeshVertex
 10
2.12
 20
0.1179999999999994
 30
1.318
 70
    64
  0
VERTEX
  5
61294
330
61286
100
AcDbEntity
  8
0
100
AcDbVertex
100
AcDbPolygonMeshVertex
 10
2.12
 20
0.1179999999999994
 30
1.318
 70
    64
  0
VERTEX
  5
61295
330
61286
100
AcDbEntity
  8
0
100
AcDbVertex
100
AcDbPolygonMeshVertex
 10
2.12
 20
-2.089
 30
1.318
 70
    64
  0
VERTEX
  5
61296
330
61286
100
AcDbEntity
  8
0
100
AcDbVertex
100
AcDbPolygonMeshVertex
 10
1.729
 20
0.1179999999999994
 30
1.318
 70
    64
  0
VERTEX
  5
61297
330
61286
100
AcDbEntity
  8
0
100
AcDbVertex
100
AcDbPolygonMeshVertex
 10
1.729
 20
0.1179999999999994
 30
1.318
 70
    64
  0
VERTEX
  5
61298
330
61286
100
AcDbEntity
  8
0
100
AcDbVertex
100
AcDbPolygonMeshVertex
 10
1.729
 20
-2.089
 30
1.318
 70
    64
  0
SEQEND
  5
61299
330
61286
100
AcDbEntity
  8
0
  0
POLYLINE
  5
6129A
330
458D6
100
AcDbEntity
  8
0
100
AcDbPolygonMesh
 66
     1
 10
0.0
 20
0.0
 30
0.0
 70
    16
 71
     6
 72
     3
  0
VERTEX
  5
6129B
330
6129A
100
AcDbEntity
  8
0
100
AcDbVertex
100
AcDbPolygonMeshVertex
 10
1.729
 20
-2.089
 30
1.318
 70
    64
  0
VERTEX
  5
6129C
330
6129A
100
AcDbEntity
  8
0
100
AcDbVertex
100
AcDbPolygonMeshVertex
 10
1.729
 20
-2.089
 30
0.187
 70
    64
  0
VERTEX
  5
6129D
330
6129A
100
AcDbEntity
  8
0
100
AcDbVertex
100
AcDbPolygonMeshVertex
 10
1.729
 20
-2.089
 30
0.187
 70
    64
  0
VERTEX
  5
6129E
330
6129A
100
AcDbEntity
  8
0
100
AcDbVertex
100
AcDbPolygonMeshVertex
 10
0.391
 20
-2.089
 30
1.318
 70
    64
  0
VERTEX
  5
6129F
330
6129A
100
AcDbEntity
  8
0
100
AcDbVertex
100
AcDbPolygonMeshVertex
 10
0.391
 20
-2.089
 30
0.187
 70
    64
  0
VERTEX
  5
612A0
330
6129A
100
AcDbEntity
  8
0
100
AcDbVertex
100
AcDbPolygonMeshVertex
 10
0.391
 20
-2.089
 30
0.187
 70
    64
  0
VERTEX
  5
612A1
330
6129A
100
AcDbEntity
  8
0
100
AcDbVertex
100
AcDbPolygonMeshVertex
 10
0.391
 20
0.4009999999999998
 30
1.318
 70
    64
  0
VERTEX
  5
612A2
330
6129A
100
AcDbEntity
  8
0
100
AcDbVertex
100
AcDbPolygonMeshVertex
 10
0.391
 20
0.4009999999999998
 30
0.187
 70
    64
  0
VERTEX
  5
612A3
330
6129A
100
AcDbEntity
  8
0
100
AcDbVertex
100
AcDbPolygonMeshVertex
 10
0.391
 20
-2.089
 30
0.187
 70
    64
  0
VERTEX
  5
612A4
330
6129A
100
AcDbEntity
  8
0
100
AcDbVertex
100
AcDbPolygonMeshVertex
 10
1.729
 20
0.4009999999999998
 30
1.318
 70
    64
  0
VERTEX
  5
612A5
330
6129A
100
AcDbEntity
  8
0
100
AcDbVertex
100
AcDbPolygonMeshVertex
 10
1.729
 20
0.4009999999999998
 30
0.187
 70
    64
  0
VERTEX
  5
612A6
330
6129A
100
AcDbEntity
  8
0
100
AcDbVertex
100
AcDbPolygonMeshVertex
 10
1.729
 20
-2.089
 30
0.187
 70
    64
  0
VERTEX
  5
612A7
330
6129A
100
AcDbEntity
  8
0
100
AcDbVertex
100
AcDbPolygonMeshVertex
 10
1.729
 20
0.4009999999999998
 30
1.318
 70
    64
  0
VERTEX
  5
612A8
330
6129A
100
AcDbEntity
  8
0
100
AcDbVertex
100
AcDbPolygonMeshVertex
 10
1.729
 20
0.4009999999999998
 30
1.318
 70
    64
  0
VERTEX
  5
612A9
330
6129A
100
AcDbEntity
  8
0
100
AcDbVertex
100
AcDbPolygonMeshVertex
 10
1.729
 20
-2.089
 30
1.318
 70
    64
  0
VERTEX
  5
612AA
330
6129A
100
AcDbEntity
  8
0
100
AcDbVertex
100
AcDbPolygonMeshVertex
 10
0.391
 20
0.4009999999999998
 30
1.318
 70
    64
  0
VERTEX
  5
612AB
330
6129A
100
AcDbEntity
  8
0
100
AcDbVertex
100
AcDbPolygonMeshVertex
 10
0.391
 20
0.4009999999999998
 30
1.318
 70
    64
  0
VERTEX
  5
612AC
330
6129A
100
AcDbEntity
  8
0
100
AcDbVertex
100
AcDbPolygonMeshVertex
 10
0.391
 20
-2.089
 30
1.318
 70
    64
  0
SEQEND
  5
612AD
330
6129A
100
AcDbEntity
  8
0
  0
LWPOLYLINE
  5
612AE
330
458D6
100
AcDbEntity
  8
0
100
AcDbPolyline
 90
        4
 70
     1
 43
0.0
 38
1.388
 10
0.9264999999999998
 20
-2.141
 10
1.1935
 20
-2.141
 10
1.1935
 20
-2.29
 10
0.9264999999999998
 20
-2.29
  0
LINE
  5
612AF
330
458D6
100
AcDbEntity
  8
0
100
AcDbLine
 10
1.199999999999999
 20
0.4009999999999998
 30
2.062
 11
1.199999999999999
 21
0.6359999999999997
 31
2.062
  0
LINE
  5
612B0
330
458D6
100
AcDbEntity
  8
0
100
AcDbLine
 10
0.5624999999999992
 20
0.838
 30
1.841
 11
0.5624999999999992
 21
0.838
 31
1.641
  0
LINE
  5
612B1
330
458D6
100
AcDbEntity
  8
0
100
AcDbLine
 10
0.3600000000000003
 20
0.5979999999999999
 30
0.187
 11
0.161
 21
0.5979999999999999
 31
0.187
  0
POLYLINE
  5
612B2
330
458D6
100
AcDbEntity
  8
0
100
AcDbPolygonMesh
 66
     1
 10
0.0
 20
0.0
 30
0.0
 70
    16
 71
     6
 72
     3
  0
VERTEX
  5
612B3
330
612B2
100
AcDbEntity
  8
0
100
AcDbVertex
100
AcDbPolygonMeshVertex
 10
1.959
 20
-2.286
 30
0.187
 70
    64
  0
VERTEX
  5
612B4
330
612B2
100
AcDbEntity
  8
0
100
AcDbVertex
100
AcDbPolygonMeshVertex
 10
1.959
 20
-2.286
 30
0.0
 70
    64
  0
VERTEX
  5
612B5
330
612B2
100
AcDbEntity
  8
0
100
AcDbVertex
100
AcDbPolygonMeshVertex
 10
1.959
 20
-2.286
 30
0.0
 70
    64
  0
VERTEX
  5
612B6
330
612B2
100
AcDbEntity
  8
0
100
AcDbVertex
100
AcDbPolygonMeshVertex
 10
1.079
 20
-2.286
 30
0.187
 70
    64
  0
VERTEX
  5
612B7
330
612B2
100
AcDbEntity
  8
0
100
AcDbVertex
100
AcDbPolygonMeshVertex
 10
1.079
 20
-2.286
 30
0.0
 70
    64
  0
VERTEX
  5
612B8
330
612B2
100
AcDbEntity
  8
0
100
AcDbVertex
100
AcDbPolygonMeshVertex
 10
1.079
 20
-2.286
 30
0.0
 70
    64
  0
VERTEX
  5
612B9
330
612B2
100
AcDbEntity
  8
0
100
AcDbVertex
100
AcDbPolygonMeshVertex
 10
1.079
 20
-1.688
 30
0.187
 70
    64
  0
VERTEX
  5
612BA
330
612B2
100
AcDbEntity
  8
0
100
AcDbVertex
100
AcDbPolygonMeshVertex
 10
1.079
 20
-1.688
 30
0.0
 70
    64
  0
VERTEX
  5
612BB
330
612B2
100
AcDbEntity
  8
0
100
AcDbVertex
100
AcDbPolygonMeshVertex
 10
1.079
 20
-2.286
 30
0.0
 70
    64
  0
VERTEX
  5
612BC
330
612B2
100
AcDbEntity
  8
0
100
AcDbVertex
100
AcDbPolygonMeshVertex
 10
1.959
 20
-1.688
 30
0.187
 70
    64
  0
VERTEX
  5
612BD
330
612B2
100
AcDbEntity
  8
0
100
AcDbVertex
100
AcDbPolygonMeshVertex
 10
1.959
 20
-1.688
 30
0.0
 70
    64
  0
VERTEX
  5
612BE
330
612B2
100
AcDbEntity
  8
0
100
AcDbVertex
100
AcDbPolygonMeshVertex
 10
1.959
 20
-2.286
 30
0.0
 70
    64
  0
VERTEX
  5
612BF
330
612B2
100
AcDbEntity
  8
0
100
AcDbVertex
100
AcDbPolygonMeshVertex
 10
1.959
 20
-1.688
 30
0.187
 70
    64
  0
VERTEX
  5
612C0
330
612B2
100
AcDbEntity
  8
0
100
AcDbVertex
100
AcDbPolygonMeshVertex
 10
1.959
 20
-1.688
 30
0.187
 70
    64
  0
VERTEX
  5
612C1
330
612B2
100
AcDbEntity
  8
0
100
AcDbVertex
100
AcDbPolygonMeshVertex
 10
1.959
 20
-2.286
 30
0.187
 70
    64
  0
VERTEX
  5
612C2
330
612B2
100
AcDbEntity
  8
0
100
AcDbVertex
100
AcDbPolygonMeshVertex
 10
1.079
 20
-1.688
 30
0.187
 70
    64
  0
VERTEX
  5
612C3
330
612B2
100
AcDbEntity
  8
0
100
AcDbVertex
100
AcDbPolygonMeshVertex
 10
1.079
 20
-1.688
 30
0.187
 70
    64
  0
VERTEX
  5
612C4
330
612B2
100
AcDbEntity
  8
0
100
AcDbVertex
100
AcDbPolygonMeshVertex
 10
1.079
 20
-2.286
 30
0.187
 70
    64
  0
SEQEND
  5
612C5
330
612B2
100
AcDbEntity
  8
0
  0
POLYLINE
  5
612C6
330
458D6
100
AcDbEntity
  8
0
100
AcDb3dPolyline
 66
     1
 10
0.0
 20
0.0
 30
0.0
 70
     8
  0
VERTEX
  5
612C7
330
612C6
100
AcDbEntity
  8
0
100
AcDbVertex
100
AcDb3dPolylineVertex
 10
1.686333333333333
 20
-2.089
 30
-0.0000000000000001
 70
    32
  0
VERTEX
  5
612C8
330
612C6
100
AcDbEntity
  8
0
100
AcDbVertex
100
AcDb3dPolylineVertex
 10
1.686333333333333
 20
-2.224
 30
0.0
 70
    32
  0
VERTEX
  5
612C9
330
612C6
100
AcDbEntity
  8
0
100
AcDbVertex
100
AcDb3dPolylineVertex
 10
1.896999999999999
 20
-2.224
 30
0.0
 70
    32
  0
VERTEX
  5
612CA
330
612C6
100
AcDbEntity
  8
0
100
AcDbVertex
100
AcDb3dPolylineVertex
 10
1.896999999999999
 20
-2.089
 30
-0.0000000000000001
 70
    32
  0
SEQEND
  5
612CB
330
612C6
100
AcDbEntity
  8
0
  0
POLYLINE
  5
612CC
330
458D6
100
AcDbEntity
  8
0
100
AcDb3dPolyline
 66
     1
 10
0.0
 20
0.0
 30
0.0
 70
     8
  0
VERTEX
  5
612CD
330
612CC
100
AcDbEntity
  8
0
100
AcDbVertex
100
AcDb3dPolylineVertex
 10
1.686333333333333
 20
-2.089
 30
0.187
 70
    32
  0
VERTEX
  5
612CE
330
612CC
100
AcDbEntity
  8
0
100
AcDbVertex
100
AcDb3dPolylineVertex
 10
1.686333333333333
 20
-2.224
 30
0.187
 70
    32
  0
VERTEX
  5
612CF
330
612CC
100
AcDbEntity
  8
0
100
AcDbVertex
100
AcDb3dPolylineVertex
 10
1.896999999999999
 20
-2.224
 30
0.187
 70
    32
  0
VERTEX
  5
612D0
330
612CC
100
AcDbEntity
  8
0
100
AcDbVertex
100
AcDb3dPolylineVertex
 10
1.896999999999999
 20
-2.089
 30
0.187
 70
    32
  0
SEQEND
  5
612D1
330
612CC
100
AcDbEntity
  8
0
  0
LINE
  5
612D2
330
458D6
100
AcDbEntity
  8
0
100
AcDbLine
 10
1.759999999999999
 20
-2.286
 30
0.187
 11
1.959
 21
-2.286
 31
0.187
  0
POLYLINE
  5
612D3
330
458D6
100
AcDbEntity
  8
0
100
AcDb3dPolyline
 66
     1
 10
0.0
 20
0.0
 30
0.0
 70
     8
  0
VERTEX
  5
612D4
330
612D3
100
AcDbEntity
  8
0
100
AcDbVertex
100
AcDb3dPolylineVertex
 10
1.413666666666667
 20
-2.089
 30
-0.0000000000000001
 70
    32
  0
VERTEX
  5
612D5
330
612D3
100
AcDbEntity
  8
0
100
AcDbVertex
100
AcDb3dPolylineVertex
 10
1.413666666666667
 20
-2.224
 30
0.0
 70
    32
  0
VERTEX
  5
612D6
330
612D3
100
AcDbEntity
  8
0
100
AcDbVertex
100
AcDb3dPolylineVertex
 10
1.624333333333334
 20
-2.224
 30
0.0
 70
    32
  0
VERTEX
  5
612D7
330
612D3
100
AcDbEntity
  8
0
100
AcDbVertex
100
AcDb3dPolylineVertex
 10
1.624333333333334
 20
-2.089
 30
-0.0000000000000001
 70
    32
  0
SEQEND
  5
612D8
330
612D3
100
AcDbEntity
  8
0
  0
POLYLINE
  5
612D9
330
458D6
100
AcDbEntity
  8
0
100
AcDb3dPolyline
 66
     1
 10
0.0
 20
0.0
 30
0.0
 70
     8
  0
VERTEX
  5
612DA
330
612D9
100
AcDbEntity
  8
0
100
AcDbVertex
100
AcDb3dPolylineVertex
 10
1.413666666666667
 20
-2.089
 30
0.187
 70
    32
  0
VERTEX
  5
612DB
330
612D9
100
AcDbEntity
  8
0
100
AcDbVertex
100
AcDb3dPolylineVertex
 10
1.413666666666667
 20
-2.224
 30
0.187
 70
    32
  0
VERTEX
  5
612DC
330
612D9
100
AcDbEntity
  8
0
100
AcDbVertex
100
AcDb3dPolylineVertex
 10
1.624333333333334
 20
-2.224
 30
0.187
 70
    32
  0
VERTEX
  5
612DD
330
612D9
100
AcDbEntity
  8
0
100
AcDbVertex
100
AcDb3dPolylineVertex
 10
1.624333333333334
 20
-2.089
 30
0.187
 70
    32
  0
SEQEND
  5
612DE
330
612D9
100
AcDbEntity
  8
0
  0
LINE
  5
612DF
330
458D6
100
AcDbEntity
  8
0
100
AcDbLine
 10
1.686333333333333
 20
-2.089
 30
-0.0000000000000001
 11
1.896999999999999
 21
-2.089
 31
-0.0000000000000001
  0
LINE
  5
612E0
330
458D6
100
AcDbEntity
  8
0
100
AcDbLine
 10
1.413666666666667
 20
-2.089
 30
-0.0000000000000001
 11
1.624333333333333
 21
-2.089
 31
-0.0000000000000001
  0
POLYLINE
  5
612E1
330
458D6
100
AcDbEntity
  8
0
100
AcDb3dPolyline
 66
     1
 10
0.0
 20
0.0
 30
0.0
 70
     8
  0
VERTEX
  5
612E2
330
612E1
100
AcDbEntity
  8
0
100
AcDbVertex
100
AcDb3dPolylineVertex
 10
1.141000000000001
 20
-2.089
 30
-0.0000000000000001
 70
    32
  0
VERTEX
  5
612E3
330
612E1
100
AcDbEntity
  8
0
100
AcDbVertex
100
AcDb3dPolylineVertex
 10
1.141000000000001
 20
-2.224
 30
0.0
 70
    32
  0
VERTEX
  5
612E4
330
612E1
100
AcDbEntity
  8
0
100
AcDbVertex
100
AcDb3dPolylineVertex
 10
1.351666666666668
 20
-2.224
 30
0.0
 70
    32
  0
VERTEX
  5
612E5
330
612E1
100
AcDbEntity
  8
0
100
AcDbVertex
100
AcDb3dPolylineVertex
 10
1.351666666666668
 20
-2.089
 30
-0.0000000000000001
 70
    32
  0
SEQEND
  5
612E6
330
612E1
100
AcDbEntity
  8
0
  0
POLYLINE
  5
612E7
330
458D6
100
AcDbEntity
  8
0
100
AcDb3dPolyline
 66
     1
 10
0.0
 20
0.0
 30
0.0
 70
     8
  0
VERTEX
  5
612E8
330
612E7
100
AcDbEntity
  8
0
100
AcDbVertex
100
AcDb3dPolylineVertex
 10
1.141000000000001
 20
-2.089
 30
0.187
 70
    32
  0
VERTEX
  5
612E9
330
612E7
100
AcDbEntity
  8
0
100
AcDbVertex
100
AcDb3dPolylineVertex
 10
1.141000000000001
 20
-2.224
 30
0.187
 70
    32
  0
VERTEX
  5
612EA
330
612E7
100
AcDbEntity
  8
0
100
AcDbVertex
100
AcDb3dPolylineVertex
 10
1.351666666666668
 20
-2.224
 30
0.187
 70
    32
  0
VERTEX
  5
612EB
330
612E7
100
AcDbEntity
  8
0
100
AcDbVertex
100
AcDb3dPolylineVertex
 10
1.351666666666668
 20
-2.089
 30
0.187
 70
    32
  0
SEQEND
  5
612EC
330
612E7
100
AcDbEntity
  8
0
  0
LINE
  5
612ED
330
458D6
100
AcDbEntity
  8
0
100
AcDbLine
 10
1.141000000000001
 20
-2.089
 30
-0.0000000000000001
 11
1.351666666666667
 21
-2.089
 31
-0.0000000000000001
  0
CIRCLE
  5
612EE
330
458D6
100
AcDbEntity
  8
0
100
AcDbCircle
 10
0.1730000000000008
 20
-2.024999999999999
 30
0.0000000000000002
 40
0.086
  0
CIRCLE
  5
612EF
330
458D6
100
AcDbEntity
  8
0
100
AcDbCircle
 10
0.1730000000000008
 20
-2.024999999999999
 30
0.3160000000000003
 40
0.086
  0
POLYLINE
  5
612F0
330
458D6
100
AcDbEntity
  8
0
100
AcDbPolygonMesh
 66
     1
 10
0.0
 20
0.0
 30
0.0
 70
    16
 71
     6
 72
     3
  0
VERTEX
  5
612F1
330
612F0
100
AcDbEntity
  8
0
100
AcDbVertex
100
AcDbPolygonMeshVertex
 10
0.6886999999999999
 20
0.5149999999999997
 30
3.058999999999999
 70
    64
  0
VERTEX
  5
612F2
330
612F0
100
AcDbEntity
  8
0
100
AcDbVertex
100
AcDbPolygonMeshVertex
 10
0.6886999999999999
 20
0.5149999999999997
 30
2.446999999999999
 70
    64
  0
VERTEX
  5
612F3
330
612F0
100
AcDbEntity
  8
0
100
AcDbVertex
100
AcDbPolygonMeshVertex
 10
0.6886999999999999
 20
0.5149999999999997
 30
2.446999999999999
 70
    64
  0
VERTEX
  5
612F4
330
612F0
100
AcDbEntity
  8
0
100
AcDbVertex
100
AcDbPolygonMeshVertex
 10
0.7427000000000002
 20
0.5149999999999997
 30
3.058999999999999
 70
    64
  0
VERTEX
  5
612F5
330
612F0
100
AcDbEntity
  8
0
100
AcDbVertex
100
AcDbPolygonMeshVertex
 10
0.7427000000000002
 20
0.5149999999999997
 30
2.446999999999999
 70
    64
  0
VERTEX
  5
612F6
330
612F0
100
AcDbEntity
  8
0
100
AcDbVertex
100
AcDbPolygonMeshVertex
 10
0.7427000000000002
 20
0.5149999999999997
 30
2.446999999999999
 70
    64
  0
VERTEX
  5
612F7
330
612F0
100
AcDbEntity
  8
0
100
AcDbVertex
100
AcDbPolygonMeshVertex
 10
0.7427000000000002
 20
0.4009999999999998
 30
3.058999999999999
 70
    64
  0
VERTEX
  5
612F8
330
612F0
100
AcDbEntity
  8
0
100
AcDbVertex
100
AcDbPolygonMeshVertex
 10
0.7427000000000002
 20
0.4009999999999998
 30
2.446999999999999
 70
    64
  0
VERTEX
  5
612F9
330
612F0
100
AcDbEntity
  8
0
100
AcDbVertex
100
AcDbPolygonMeshVertex
 10
0.7427000000000002
 20
0.5149999999999997
 30
2.446999999999999
 70
    64
  0
VERTEX
  5
612FA
330
612F0
100
AcDbEntity
  8
0
100
AcDbVertex
100
AcDbPolygonMeshVertex
 10
0.6886999999999999
 20
0.4009999999999998
 30
3.058999999999999
 70
    64
  0
VERTEX
  5
612FB
330
612F0
100
AcDbEntity
  8
0
100
AcDbVertex
100
AcDbPolygonMeshVertex
 10
0.6886999999999999
 20
0.4009999999999998
 30
2.446999999999999
 70
    64
  0
VERTEX
  5
612FC
330
612F0
100
AcDbEntity
  8
0
100
AcDbVertex
100
AcDbPolygonMeshVertex
 10
0.6886999999999999
 20
0.5149999999999997
 30
2.446999999999999
 70
    64
  0
VERTEX
  5
612FD
330
612F0
100
AcDbEntity
  8
0
100
AcDbVertex
100
AcDbPolygonMeshVertex
 10
0.6886999999999999
 20
0.4009999999999998
 30
3.058999999999999
 70
    64
  0
VERTEX
  5
612FE
330
612F0
100
AcDbEntity
  8
0
100
AcDbVertex
100
AcDbPolygonMeshVertex
 10
0.6886999999999999
 20
0.4009999999999998
 30
3.058999999999999
 70
    64
  0
VERTEX
  5
612FF
330
612F0
100
AcDbEntity
  8
0
100
AcDbVertex
100
AcDbPolygonMeshVertex
 10
0.6886999999999999
 20
0.5149999999999997
 30
3.058999999999999
 70
    64
  0
VERTEX
  5
61300
330
612F0
100
AcDbEntity
  8
0
100
AcDbVertex
100
AcDbPolygonMeshVertex
 10
0.7427000000000002
 20
0.4009999999999998
 30
3.058999999999999
 70
    64
  0
VERTEX
  5
61301
330
612F0
100
AcDbEntity
  8
0
100
AcDbVertex
100
AcDbPolygonMeshVertex
 10
0.7427000000000002
 20
0.4009999999999998
 30
3.058999999999999
 70
    64
  0
VERTEX
  5
61302
330
612F0
100
AcDbEntity
  8
0
100
AcDbVertex
100
AcDbPolygonMeshVertex
 10
0.7427000000000002
 20
0.5149999999999997
 30
3.058999999999999
 70
    64
  0
SEQEND
  5
61303
330
612F0
100
AcDbEntity
  8
0
  0
POLYLINE
  5
61304
330
458D6
100
AcDbEntity
  8
0
100
AcDbPolygonMesh
 66
     1
 10
0.0
 20
0.0
 30
0.0
 70
    16
 71
     6
 72
     3
  0
VERTEX
  5
61305
330
61304
100
AcDbEntity
  8
0
100
AcDbVertex
100
AcDbPolygonMeshVertex
 10
1.431299999999999
 20
0.5149999999999997
 30
3.058999999999999
 70
    64
  0
VERTEX
  5
61306
330
61304
100
AcDbEntity
  8
0
100
AcDbVertex
100
AcDbPolygonMeshVertex
 10
1.431299999999999
 20
0.5149999999999997
 30
2.446999999999999
 70
    64
  0
VERTEX
  5
61307
330
61304
100
AcDbEntity
  8
0
100
AcDbVertex
100
AcDbPolygonMeshVertex
 10
1.431299999999999
 20
0.5149999999999997
 30
2.446999999999999
 70
    64
  0
VERTEX
  5
61308
330
61304
100
AcDbEntity
  8
0
100
AcDbVertex
100
AcDbPolygonMeshVertex
 10
1.377299999999999
 20
0.5149999999999997
 30
3.058999999999999
 70
    64
  0
VERTEX
  5
61309
330
61304
100
AcDbEntity
  8
0
100
AcDbVertex
100
AcDbPolygonMeshVertex
 10
1.377299999999999
 20
0.5149999999999997
 30
2.446999999999999
 70
    64
  0
VERTEX
  5
6130A
330
61304
100
AcDbEntity
  8
0
100
AcDbVertex
100
AcDbPolygonMeshVertex
 10
1.377299999999999
 20
0.5149999999999997
 30
2.446999999999999
 70
    64
  0
VERTEX
  5
6130B
330
61304
100
AcDbEntity
  8
0
100
AcDbVertex
100
AcDbPolygonMeshVertex
 10
1.377299999999999
 20
0.4009999999999998
 30
3.058999999999999
 70
    64
  0
VERTEX
  5
6130C
330
61304
100
AcDbEntity
  8
0
100
AcDbVertex
100
AcDbPolygonMeshVertex
 10
1.377299999999999
 20
0.4009999999999998
 30
2.446999999999999
 70
    64
  0
VERTEX
  5
6130D
330
61304
100
AcDbEntity
  8
0
100
AcDbVertex
100
AcDbPolygonMeshVertex
 10
1.377299999999999
 20
0.5149999999999997
 30
2.446999999999999
 70
    64
  0
VERTEX
  5
6130E
330
61304
100
AcDbEntity
  8
0
100
AcDbVertex
100
AcDbPolygonMeshVertex
 10
1.431299999999999
 20
0.4009999999999998
 30
3.058999999999999
 70
    64
  0
VERTEX
  5
6130F
330
61304
100
AcDbEntity
  8
0
100
AcDbVertex
100
AcDbPolygonMeshVertex
 10
1.431299999999999
 20
0.4009999999999998
 30
2.446999999999999
 70
    64
  0
VERTEX
  5
61310
330
61304
100
AcDbEntity
  8
0
100
AcDbVertex
100
AcDbPolygonMeshVertex
 10
1.431299999999999
 20
0.5149999999999997
 30
2.446999999999999
 70
    64
  0
VERTEX
  5
61311
330
61304
100
AcDbEntity
  8
0
100
AcDbVertex
100
AcDbPolygonMeshVertex
 10
1.431299999999999
 20
0.4009999999999998
 30
3.058999999999999
 70
    64
  0
VERTEX
  5
61312
330
61304
100
AcDbEntity
  8
0
100
AcDbVertex
100
AcDbPolygonMeshVertex
 10
1.431299999999999
 20
0.4009999999999998
 30
3.058999999999999
 70
    64
  0
VERTEX
  5
61313
330
61304
100
AcDbEntity
  8
0
100
AcDbVertex
100
AcDbPolygonMeshVertex
 10
1.431299999999999
 20
0.5149999999999997
 30
3.058999999999999
 70
    64
  0
VERTEX
  5
61314
330
61304
100
AcDbEntity
  8
0
100
AcDbVertex
100
AcDbPolygonMeshVertex
 10
1.377299999999999
 20
0.4009999999999998
 30
3.058999999999999
 70
    64
  0
VERTEX
  5
61315
330
61304
100
AcDbEntity
  8
0
100
AcDbVertex
100
AcDbPolygonMeshVertex
 10
1.377299999999999
 20
0.4009999999999998
 30
3.058999999999999
 70
    64
  0
VERTEX
  5
61316
330
61304
100
AcDbEntity
  8
0
100
AcDbVertex
100
AcDbPolygonMeshVertex
 10
1.377299999999999
 20
0.5149999999999997
 30
3.058999999999999
 70
    64
  0
SEQEND
  5
61317
330
61304
100
AcDbEntity
  8
0
  0
LINE
  5
61318
330
458D6
100
AcDbEntity
  8
0
100
AcDbLine
 10
0.2363499999999998
 20
0.4009999999999998
 30
2.997999999999999
 11
0.5063499999999995
 21
0.4009999999999998
 31
2.997999999999999
  0
LINE
  5
61319
330
458D6
100
AcDbEntity
  8
0
100
AcDbLine
 10
0.2363499999999998
 20
0.4009999999999998
 30
2.327999999999999
 11
0.5063499999999995
 21
0.4009999999999998
 31
2.327999999999999
  0
LINE
  5
6131A
330
458D6
100
AcDbEntity
  8
0
100
AcDbLine
 10
0.2363499999999998
 20
0.4009999999999998
 30
2.725999999999999
 11
0.5063499999999995
 21
0.4009999999999998
 31
2.725999999999999
  0
LINE
  5
6131B
330
458D6
100
AcDbEntity
  8
0
100
AcDbLine
 10
0.2363499999999998
 20
0.4009999999999998
 30
2.621999999999999
 11
0.5063499999999995
 21
0.4009999999999998
 31
2.621999999999999
  0
LINE
  5
6131C
330
458D6
100
AcDbEntity
  8
0
100
AcDbLine
 10
0.5683499999999997
 20
0.4010000000000003
 30
2.36846065259117
 11
0.568349999999998
 21
0.4009999999999998
 31
3.058999999999999
  0
LINE
  5
6131D
330
458D6
100
AcDbEntity
  8
0
100
AcDbLine
 10
0.1743499999999995
 20
0.4009999999999993
 30
2.387499999999999
 11
0.1743499999999982
 21
0.4009999999999989
 31
3.058999999999999
  0
LINE
  5
6131E
330
458D6
100
AcDbEntity
  8
0
100
AcDbLine
 10
0.2363499999999998
 20
0.4009999999999998
 30
2.997999999999999
 11
0.2363499999999998
 21
0.4009999999999998
 31
2.725999999999999
  0
LINE
  5
6131F
330
458D6
100
AcDbEntity
  8
0
100
AcDbLine
 10
0.5063499999999995
 20
0.4009999999999998
 30
2.997999999999999
 11
0.5063499999999995
 21
0.4009999999999998
 31
2.725999999999999
  0
LINE
  5
61320
330
458D6
100
AcDbEntity
  8
0
100
AcDbLine
 10
0.2363500000000002
 20
0.4009999999999998
 30
2.621999999999999
 11
0.2363499999999998
 21
0.4009999999999998
 31
2.446999999999999
  0
LINE
  5
61321
330
458D6
100
AcDbEntity
  8
0
100
AcDbLine
 10
0.1743499999999991
 20
0.4009999999999998
 30
2.446999999999999
 11
0.2363499999999998
 21
0.4009999999999998
 31
2.446999999999999
  0
LINE
  5
61322
330
458D6
100
AcDbEntity
  8
0
100
AcDbLine
 10
0.5063499999999995
 20
0.4009999999999998
 30
2.327999999999999
 11
0.5683499999999997
 21
0.4009999999999998
 31
2.36846065259117
  0
LINE
  5
61323
330
458D6
100
AcDbEntity
  8
0
100
AcDbLine
 10
0.5683499999999997
 20
0.4009999999999998
 30
2.447
 11
0.5063499999999995
 21
0.4009999999999998
 31
2.446999999999999
  0
LINE
  5
61324
330
458D6
100
AcDbEntity
  8
0
100
AcDbLine
 10
0.5063499999999995
 20
0.4009999999999998
 30
2.621999999999999
 11
0.5063499999999995
 21
0.4009999999999998
 31
2.446999999999999
  0
LINE
  5
61325
330
458D6
100
AcDbEntity
  8
0
100
AcDbLine
 10
0.2363499999999998
 20
0.4009999999999998
 30
2.327999999999999
 11
0.17435
 21
0.4009999999999994
 31
2.387499999999999
  0
LINE
  5
61326
330
458D6
100
AcDbEntity
  8
0
100
AcDbLine
 10
0.1743499999999982
 20
0.4009999999999989
 30
3.058999999999999
 11
0.568349999999998
 21
0.4009999999999998
 31
3.058999999999999
210
0.0
220
-1.0
230
0.0
  0
LINE
  5
61327
330
458D6
100
AcDbEntity
  8
0
100
AcDbLine
 10
0.8630500000000003
 20
0.4009999999999993
 30
2.387499999999999
 11
0.8630499999999985
 21
0.4009999999999989
 31
3.058999999999999
  0
LINE
  5
61328
330
458D6
100
AcDbEntity
  8
0
100
AcDbLine
 10
1.25705
 20
0.4010000000000002
 30
2.36846065259117
 11
1.257049999999998
 21
0.4009999999999998
 31
3.058999999999999
  0
LINE
  5
61329
330
458D6
100
AcDbEntity
  8
0
100
AcDbLine
 10
0.9250500000000005
 20
0.4009999999999998
 30
2.327999999999999
 11
1.19505
 21
0.4009999999999998
 31
2.327999999999999
  0
LINE
  5
6132A
330
458D6
100
AcDbEntity
  8
0
100
AcDbLine
 10
0.9250500000000005
 20
0.4009999999999998
 30
2.621999999999999
 11
1.19505
 21
0.4009999999999998
 31
2.621999999999999
  0
LINE
  5
6132B
330
458D6
100
AcDbEntity
  8
0
100
AcDbLine
 10
0.9250500000000005
 20
0.4009999999999998
 30
2.327999999999999
 11
0.8630500000000003
 21
0.4009999999999993
 31
2.387499999999999
  0
LINE
  5
6132C
330
458D6
100
AcDbEntity
  8
0
100
AcDbLine
 10
0.9250500000000014
 20
0.4009999999999998
 30
2.621999999999999
 11
0.9250500000000005
 21
0.4009999999999998
 31
2.446999999999999
  0
LINE
  5
6132D
330
458D6
100
AcDbEntity
  8
0
100
AcDbLine
 10
0.8630500000000003
 20
0.4009999999999998
 30
2.446999999999999
 11
0.9250500000000005
 21
0.4009999999999998
 31
2.446999999999999
  0
LINE
  5
6132E
330
458D6
100
AcDbEntity
  8
0
100
AcDbLine
 10
1.19505
 20
0.4009999999999998
 30
2.327999999999999
 11
1.25705
 21
0.4009999999999998
 31
2.36846065259117
  0
LINE
  5
6132F
330
458D6
100
AcDbEntity
  8
0
100
AcDbLine
 10
1.19505
 20
0.4009999999999998
 30
2.621999999999999
 11
1.19505
 21
0.4009999999999998
 31
2.446999999999999
  0
LINE
  5
61330
330
458D6
100
AcDbEntity
  8
0
100
AcDbLine
 10
1.25705
 20
0.4009999999999998
 30
2.447
 11
1.19505
 21
0.4009999999999998
 31
2.446999999999999
  0
LINE
  5
61331
330
458D6
100
AcDbEntity
  8
0
100
AcDbLine
 10
0.8630499999999985
 20
0.4009999999999989
 30
3.058999999999999
 11
1.257049999999998
 21
0.4009999999999998
 31
3.058999999999999
210
0.0
220
-1.0
230
0.0
  0
LINE
  5
61332
330
458D6
100
AcDbEntity
  8
0
100
AcDbLine
 10
0.9250500000000005
 20
0.4009999999999998
 30
2.997999999999999
 11
1.19505
 21
0.4009999999999998
 31
2.997999999999999
  0
LINE
  5
61333
330
458D6
100
AcDbEntity
  8
0
100
AcDbLine
 10
0.9250500000000005
 20
0.4009999999999998
 30
2.725999999999999
 11
1.19505
 21
0.4009999999999998
 31
2.725999999999999
  0
LINE
  5
61334
330
458D6
100
AcDbEntity
  8
0
100
AcDbLine
 10
0.9250500000000005
 20
0.4009999999999998
 30
2.997999999999999
 11
0.9250500000000005
 21
0.4009999999999998
 31
2.725999999999999
  0
LINE
  5
61335
330
458D6
100
AcDbEntity
  8
0
100
AcDbLine
 10
1.19505
 20
0.4009999999999998
 30
2.997999999999999
 11
1.19505
 21
0.4009999999999998
 31
2.725999999999999
  0
LINE
  5
61336
330
458D6
100
AcDbEntity
  8
0
100
AcDbLine
 10
1.945649999999999
 20
0.4010000000000002
 30
2.36846065259117
 11
1.945649999999997
 21
0.4009999999999998
 31
3.058999999999999
  0
LINE
  5
61337
330
458D6
100
AcDbEntity
  8
0
100
AcDbLine
 10
1.551649999999999
 20
0.4009999999999993
 30
2.387499999999999
 11
1.551649999999997
 21
0.4009999999999989
 31
3.058999999999999
  0
LINE
  5
61338
330
458D6
100
AcDbEntity
  8
0
100
AcDbLine
 10
1.613649999999999
 20
0.4009999999999998
 30
2.621999999999999
 11
1.883649999999999
 21
0.4009999999999998
 31
2.621999999999999
  0
LINE
  5
61339
330
458D6
100
AcDbEntity
  8
0
100
AcDbLine
 10
1.613649999999999
 20
0.4009999999999998
 30
2.327999999999999
 11
1.883649999999999
 21
0.4009999999999998
 31
2.327999999999999
  0
LINE
  5
6133A
330
458D6
100
AcDbEntity
  8
0
100
AcDbLine
 10
1.613649999999999
 20
0.4009999999999998
 30
2.327999999999999
 11
1.551649999999999
 21
0.4009999999999993
 31
2.387499999999999
  0
LINE
  5
6133B
330
458D6
100
AcDbEntity
  8
0
100
AcDbLine
 10
1.61365
 20
0.4009999999999998
 30
2.621999999999999
 11
1.613649999999999
 21
0.4009999999999998
 31
2.446999999999999
  0
LINE
  5
6133C
330
458D6
100
AcDbEntity
  8
0
100
AcDbLine
 10
1.551649999999999
 20
0.4009999999999998
 30
2.446999999999999
 11
1.613649999999999
 21
0.4009999999999998
 31
2.446999999999999
  0
LINE
  5
6133D
330
458D6
100
AcDbEntity
  8
0
100
AcDbLine
 10
1.883649999999999
 20
0.4009999999999998
 30
2.327999999999999
 11
1.945649999999999
 21
0.4009999999999998
 31
2.36846065259117
  0
LINE
  5
6133E
330
458D6
100
AcDbEntity
  8
0
100
AcDbLine
 10
1.883649999999999
 20
0.4009999999999998
 30
2.621999999999999
 11
1.883649999999999
 21
0.4009999999999998
 31
2.446999999999999
  0
LINE
  5
6133F
330
458D6
100
AcDbEntity
  8
0
100
AcDbLine
 10
1.945649999999999
 20
0.4009999999999998
 30
2.447
 11
1.883649999999999
 21
0.4009999999999998
 31
2.446999999999999
  0
LINE
  5
61340
330
458D6
100
AcDbEntity
  8
0
100
AcDbLine
 10
1.613649999999999
 20
0.4009999999999998
 30
2.725999999999999
 11
1.883649999999999
 21
0.4009999999999998
 31
2.725999999999999
  0
LINE
  5
61341
330
458D6
100
AcDbEntity
  8
0
100
AcDbLine
 10
1.613649999999999
 20
0.4009999999999998
 30
2.997999999999999
 11
1.883649999999999
 21
0.4009999999999998
 31
2.997999999999999
  0
LINE
  5
61342
330
458D6
100
AcDbEntity
  8
0
100
AcDbLine
 10
1.613649999999999
 20
0.4009999999999998
 30
2.997999999999999
 11
1.613649999999999
 21
0.4009999999999998
 31
2.725999999999999
  0
LINE
  5
61343
330
458D6
100
AcDbEntity
  8
0
100
AcDbLine
 10
1.883649999999999
 20
0.4009999999999998
 30
2.997999999999999
 11
1.883649999999999
 21
0.4009999999999998
 31
2.725999999999999
  0
LINE
  5
61344
330
458D6
100
AcDbEntity
  8
0
100
AcDbLine
 10
1.551649999999997
 20
0.4009999999999989
 30
3.058999999999999
 11
1.945649999999997
 21
0.4009999999999998
 31
3.058999999999999
210
0.0
220
-1.0
230
0.0
  0
POLYLINE
  5
61345
330
458D6
100
AcDbEntity
  8
0
100
AcDbPolygonMesh
 66
     1
 10
0.0
 20
0.0
 30
0.0
 70
    16
 71
     6
 72
     3
  0
VERTEX
  5
61346
330
61345
100
AcDbEntity
  8
0
100
AcDbVertex
100
AcDbPolygonMeshVertex
 10
2.065999999999998
 20
0.5149999999999997
 30
3.058999999999999
 70
    64
  0
VERTEX
  5
61347
330
61345
100
AcDbEntity
  8
0
100
AcDbVertex
100
AcDbPolygonMeshVertex
 10
2.065999999999998
 20
0.5149999999999997
 30
1.641
 70
    64
  0
VERTEX
  5
61348
330
61345
100
AcDbEntity
  8
0
100
AcDbVertex
100
AcDbPolygonMeshVertex
 10
2.065999999999998
 20
0.5149999999999997
 30
1.641
 70
    64
  0
VERTEX
  5
61349
330
61345
100
AcDbEntity
  8
0
100
AcDbVertex
100
AcDbPolygonMeshVertex
 10
2.119999999999999
 20
0.5149999999999997
 30
3.058999999999999
 70
    64
  0
VERTEX
  5
6134A
330
61345
100
AcDbEntity
  8
0
100
AcDbVertex
100
AcDbPolygonMeshVertex
 10
2.119999999999999
 20
0.5149999999999997
 30
1.641
 70
    64
  0
VERTEX
  5
6134B
330
61345
100
AcDbEntity
  8
0
100
AcDbVertex
100
AcDbPolygonMeshVertex
 10
2.119999999999999
 20
0.5149999999999997
 30
1.641
 70
    64
  0
VERTEX
  5
6134C
330
61345
100
AcDbEntity
  8
0
100
AcDbVertex
100
AcDbPolygonMeshVertex
 10
2.119999999999999
 20
0.4009999999999998
 30
3.058999999999999
 70
    64
  0
VERTEX
  5
6134D
330
61345
100
AcDbEntity
  8
0
100
AcDbVertex
100
AcDbPolygonMeshVertex
 10
2.119999999999999
 20
0.4009999999999998
 30
1.641
 70
    64
  0
VERTEX
  5
6134E
330
61345
100
AcDbEntity
  8
0
100
AcDbVertex
100
AcDbPolygonMeshVertex
 10
2.119999999999999
 20
0.5149999999999997
 30
1.641
 70
    64
  0
VERTEX
  5
6134F
330
61345
100
AcDbEntity
  8
0
100
AcDbVertex
100
AcDbPolygonMeshVertex
 10
2.065999999999998
 20
0.4009999999999998
 30
3.058999999999999
 70
    64
  0
VERTEX
  5
61350
330
61345
100
AcDbEntity
  8
0
100
AcDbVertex
100
AcDbPolygonMeshVertex
 10
2.065999999999998
 20
0.4009999999999998
 30
1.641
 70
    64
  0
VERTEX
  5
61351
330
61345
100
AcDbEntity
  8
0
100
AcDbVertex
100
AcDbPolygonMeshVertex
 10
2.065999999999998
 20
0.5149999999999997
 30
1.641
 70
    64
  0
VERTEX
  5
61352
330
61345
100
AcDbEntity
  8
0
100
AcDbVertex
100
AcDbPolygonMeshVertex
 10
2.065999999999998
 20
0.4009999999999998
 30
3.058999999999999
 70
    64
  0
VERTEX
  5
61353
330
61345
100
AcDbEntity
  8
0
100
AcDbVertex
100
AcDbPolygonMeshVertex
 10
2.065999999999998
 20
0.4009999999999998
 30
3.058999999999999
 70
    64
  0
VERTEX
  5
61354
330
61345
100
AcDbEntity
  8
0
100
AcDbVertex
100
AcDbPolygonMeshVertex
 10
2.065999999999998
 20
0.5149999999999997
 30
3.058999999999999
 70
    64
  0
VERTEX
  5
61355
330
61345
100
AcDbEntity
  8
0
100
AcDbVertex
100
AcDbPolygonMeshVertex
 10
2.119999999999999
 20
0.4009999999999998
 30
3.058999999999999
 70
    64
  0
VERTEX
  5
61356
330
61345
100
AcDbEntity
  8
0
100
AcDbVertex
100
AcDbPolygonMeshVertex
 10
2.119999999999999
 20
0.4009999999999998
 30
3.058999999999999
 70
    64
  0
VERTEX
  5
61357
330
61345
100
AcDbEntity
  8
0
100
AcDbVertex
100
AcDbPolygonMeshVertex
 10
2.119999999999999
 20
0.5149999999999997
 30
3.058999999999999
 70
    64
  0
SEQEND
  5
61358
330
61345
100
AcDbEntity
  8
0
  0
POLYLINE
  5
61359
330
458D6
100
AcDbEntity
  8
0
100
AcDbPolygonMesh
 66
     1
 10
0.0
 20
0.0
 30
0.0
 70
    16
 71
     6
 72
     3
  0
VERTEX
  5
6135A
330
61359
100
AcDbEntity
  8
0
100
AcDbVertex
100
AcDbPolygonMeshVertex
 10
-0.0000000000000009
 20
0.5149999999999997
 30
3.058999999999999
 70
    64
  0
VERTEX
  5
6135B
330
61359
100
AcDbEntity
  8
0
100
AcDbVertex
100
AcDbPolygonMeshVertex
 10
-0.0000000000000009
 20
0.5149999999999997
 30
1.641
 70
    64
  0
VERTEX
  5
6135C
330
61359
100
AcDbEntity
  8
0
100
AcDbVertex
100
AcDbPolygonMeshVertex
 10
-0.0000000000000009
 20
0.5149999999999997
 30
1.641
 70
    64
  0
VERTEX
  5
6135D
330
61359
100
AcDbEntity
  8
0
100
AcDbVertex
100
AcDbPolygonMeshVertex
 10
0.0539999999999994
 20
0.5149999999999997
 30
3.058999999999999
 70
    64
  0
VERTEX
  5
6135E
330
61359
100
AcDbEntity
  8
0
100
AcDbVertex
100
AcDbPolygonMeshVertex
 10
0.0539999999999994
 20
0.5149999999999997
 30
1.641
 70
    64
  0
VERTEX
  5
6135F
330
61359
100
AcDbEntity
  8
0
100
AcDbVertex
100
AcDbPolygonMeshVertex
 10
0.0539999999999994
 20
0.5149999999999997
 30
1.641
 70
    64
  0
VERTEX
  5
61360
330
61359
100
AcDbEntity
  8
0
100
AcDbVertex
100
AcDbPolygonMeshVertex
 10
0.0539999999999994
 20
0.4009999999999998
 30
3.058999999999999
 70
    64
  0
VERTEX
  5
61361
330
61359
100
AcDbEntity
  8
0
100
AcDbVertex
100
AcDbPolygonMeshVertex
 10
0.0539999999999994
 20
0.4009999999999998
 30
1.641
 70
    64
  0
VERTEX
  5
61362
330
61359
100
AcDbEntity
  8
0
100
AcDbVertex
100
AcDbPolygonMeshVertex
 10
0.0539999999999994
 20
0.5149999999999997
 30
1.641
 70
    64
  0
VERTEX
  5
61363
330
61359
100
AcDbEntity
  8
0
100
AcDbVertex
100
AcDbPolygonMeshVertex
 10
-0.0000000000000009
 20
0.4009999999999998
 30
3.058999999999999
 70
    64
  0
VERTEX
  5
61364
330
61359
100
AcDbEntity
  8
0
100
AcDbVertex
100
AcDbPolygonMeshVertex
 10
-0.0000000000000009
 20
0.4009999999999998
 30
1.641
 70
    64
  0
VERTEX
  5
61365
330
61359
100
AcDbEntity
  8
0
100
AcDbVertex
100
AcDbPolygonMeshVertex
 10
-0.0000000000000009
 20
0.5149999999999997
 30
1.641
 70
    64
  0
VERTEX
  5
61366
330
61359
100
AcDbEntity
  8
0
100
AcDbVertex
100
AcDbPolygonMeshVertex
 10
-0.0000000000000009
 20
0.4009999999999998
 30
3.058999999999999
 70
    64
  0
VERTEX
  5
61367
330
61359
100
AcDbEntity
  8
0
100
AcDbVertex
100
AcDbPolygonMeshVertex
 10
-0.0000000000000009
 20
0.4009999999999998
 30
3.058999999999999
 70
    64
  0
VERTEX
  5
61368
330
61359
100
AcDbEntity
  8
0
100
AcDbVertex
100
AcDbPolygonMeshVertex
 10
-0.0000000000000009
 20
0.5149999999999997
 30
3.058999999999999
 70
    64
  0
VERTEX
  5
61369
330
61359
100
AcDbEntity
  8
0
100
AcDbVertex
100
AcDbPolygonMeshVertex
 10
0.0539999999999994
 20
0.4009999999999998
 30
3.058999999999999
 70
    64
  0
VERTEX
  5
6136A
330
61359
100
AcDbEntity
  8
0
100
AcDbVertex
100
AcDbPolygonMeshVertex
 10
0.0539999999999994
 20
0.4009999999999998
 30
3.058999999999999
 70
    64
  0
VERTEX
  5
6136B
330
61359
100
AcDbEntity
  8
0
100
AcDbVertex
100
AcDbPolygonMeshVertex
 10
0.0539999999999994
 20
0.5149999999999997
 30
3.058999999999999
 70
    64
  0
SEQEND
  5
6136C
330
61359
100
AcDbEntity
  8
0
  0
LINE
  5
6136D
330
458D6
100
AcDbEntity
  8
0
100
AcDbLine
 10
1.551649999999997
 20
-2.088999999999999
 30
3.058999999999999
 11
1.945649999999997
 21
-2.089
 31
3.058999999999999
210
0.0
220
1.0
230
0.0
  0
LINE
  5
6136E
330
458D6
100
AcDbEntity
  8
0
100
AcDbLine
 10
1.551649999999999
 20
-2.089
 30
2.446999999999999
 11
1.613649999999999
 21
-2.089
 31
2.446999999999999
  0
LINE
  5
6136F
330
458D6
100
AcDbEntity
  8
0
100
AcDbLine
 10
1.551649999999999
 20
-2.088999999999999
 30
2.387499999999999
 11
1.551649999999997
 21
-2.088999999999999
 31
3.058999999999999
  0
LINE
  5
61370
330
458D6
100
AcDbEntity
  8
0
100
AcDbLine
 10
1.25705
 20
-2.089
 30
2.36846065259117
 11
1.257049999999998
 21
-2.089
 31
3.058999999999999
  0
LINE
  5
61371
330
458D6
100
AcDbEntity
  8
0
100
AcDbLine
 10
0.8630500000000003
 20
-2.088999999999999
 30
2.387499999999999
 11
0.8630499999999985
 21
-2.088999999999999
 31
3.058999999999999
  0
LINE
  5
61372
330
458D6
100
AcDbEntity
  8
0
100
AcDbLine
 10
0.1743499999999995
 20
-2.088999999999999
 30
2.387499999999999
 11
0.1743499999999982
 21
-2.088999999999999
 31
3.058999999999999
  0
LINE
  5
61373
330
458D6
100
AcDbEntity
  8
0
100
AcDbLine
 10
0.5683499999999997
 20
-2.089
 30
2.36846065259117
 11
0.568349999999998
 21
-2.089
 31
3.058999999999999
  0
POLYLINE
  5
61374
330
458D6
100
AcDbEntity
  8
0
100
AcDbPolygonMesh
 66
     1
 10
0.0
 20
0.0
 30
0.0
 70
    16
 71
     6
 72
     3
  0
VERTEX
  5
61375
330
61374
100
AcDbEntity
  8
0
100
AcDbVertex
100
AcDbPolygonMeshVertex
 10
1.431299999999999
 20
-2.203
 30
3.058999999999999
 70
    64
  0
VERTEX
  5
61376
330
61374
100
AcDbEntity
  8
0
100
AcDbVertex
100
AcDbPolygonMeshVertex
 10
1.431299999999999
 20
-2.203
 30
2.446999999999999
 70
    64
  0
VERTEX
  5
61377
330
61374
100
AcDbEntity
  8
0
100
AcDbVertex
100
AcDbPolygonMeshVertex
 10
1.431299999999999
 20
-2.203
 30
2.446999999999999
 70
    64
  0
VERTEX
  5
61378
330
61374
100
AcDbEntity
  8
0
100
AcDbVertex
100
AcDbPolygonMeshVertex
 10
1.377299999999999
 20
-2.203
 30
3.058999999999999
 70
    64
  0
VERTEX
  5
61379
330
61374
100
AcDbEntity
  8
0
100
AcDbVertex
100
AcDbPolygonMeshVertex
 10
1.377299999999999
 20
-2.203
 30
2.446999999999999
 70
    64
  0
VERTEX
  5
6137A
330
61374
100
AcDbEntity
  8
0
100
AcDbVertex
100
AcDbPolygonMeshVertex
 10
1.377299999999999
 20
-2.203
 30
2.446999999999999
 70
    64
  0
VERTEX
  5
6137B
330
61374
100
AcDbEntity
  8
0
100
AcDbVertex
100
AcDbPolygonMeshVertex
 10
1.377299999999999
 20
-2.089
 30
3.058999999999999
 70
    64
  0
VERTEX
  5
6137C
330
61374
100
AcDbEntity
  8
0
100
AcDbVertex
100
AcDbPolygonMeshVertex
 10
1.377299999999999
 20
-2.089
 30
2.446999999999999
 70
    64
  0
VERTEX
  5
6137D
330
61374
100
AcDbEntity
  8
0
100
AcDbVertex
100
AcDbPolygonMeshVertex
 10
1.377299999999999
 20
-2.203
 30
2.446999999999999
 70
    64
  0
VERTEX
  5
6137E
330
61374
100
AcDbEntity
  8
0
100
AcDbVertex
100
AcDbPolygonMeshVertex
 10
1.431299999999999
 20
-2.089
 30
3.058999999999999
 70
    64
  0
VERTEX
  5
6137F
330
61374
100
AcDbEntity
  8
0
100
AcDbVertex
100
AcDbPolygonMeshVertex
 10
1.431299999999999
 20
-2.089
 30
2.446999999999999
 70
    64
  0
VERTEX
  5
61380
330
61374
100
AcDbEntity
  8
0
100
AcDbVertex
100
AcDbPolygonMeshVertex
 10
1.431299999999999
 20
-2.203
 30
2.446999999999999
 70
    64
  0
VERTEX
  5
61381
330
61374
100
AcDbEntity
  8
0
100
AcDbVertex
100
AcDbPolygonMeshVertex
 10
1.431299999999999
 20
-2.089
 30
3.058999999999999
 70
    64
  0
VERTEX
  5
61382
330
61374
100
AcDbEntity
  8
0
100
AcDbVertex
100
AcDbPolygonMeshVertex
 10
1.431299999999999
 20
-2.089
 30
3.058999999999999
 70
    64
  0
VERTEX
  5
61383
330
61374
100
AcDbEntity
  8
0
100
AcDbVertex
100
AcDbPolygonMeshVertex
 10
1.431299999999999
 20
-2.203
 30
3.058999999999999
 70
    64
  0
VERTEX
  5
61384
330
61374
100
AcDbEntity
  8
0
100
AcDbVertex
100
AcDbPolygonMeshVertex
 10
1.377299999999999
 20
-2.089
 30
3.058999999999999
 70
    64
  0
VERTEX
  5
61385
330
61374
100
AcDbEntity
  8
0
100
AcDbVertex
100
AcDbPolygonMeshVertex
 10
1.377299999999999
 20
-2.089
 30
3.058999999999999
 70
    64
  0
VERTEX
  5
61386
330
61374
100
AcDbEntity
  8
0
100
AcDbVertex
100
AcDbPolygonMeshVertex
 10
1.377299999999999
 20
-2.203
 30
3.058999999999999
 70
    64
  0
SEQEND
  5
61387
330
61374
100
AcDbEntity
  8
0
  0
POLYLINE
  5
61388
330
458D6
100
AcDbEntity
  8
0
100
AcDbPolygonMesh
 66
     1
 10
0.0
 20
0.0
 30
0.0
 70
    16
 71
     6
 72
     3
  0
VERTEX
  5
61389
330
61388
100
AcDbEntity
  8
0
100
AcDbVertex
100
AcDbPolygonMeshVertex
 10
0.6886999999999999
 20
-2.203
 30
3.058999999999999
 70
    64
  0
VERTEX
  5
6138A
330
61388
100
AcDbEntity
  8
0
100
AcDbVertex
100
AcDbPolygonMeshVertex
 10
0.6886999999999999
 20
-2.203
 30
2.446999999999999
 70
    64
  0
VERTEX
  5
6138B
330
61388
100
AcDbEntity
  8
0
100
AcDbVertex
100
AcDbPolygonMeshVertex
 10
0.6886999999999999
 20
-2.203
 30
2.446999999999999
 70
    64
  0
VERTEX
  5
6138C
330
61388
100
AcDbEntity
  8
0
100
AcDbVertex
100
AcDbPolygonMeshVertex
 10
0.7427000000000002
 20
-2.203
 30
3.058999999999999
 70
    64
  0
VERTEX
  5
6138D
330
61388
100
AcDbEntity
  8
0
100
AcDbVertex
100
AcDbPolygonMeshVertex
 10
0.7427000000000002
 20
-2.203
 30
2.446999999999999
 70
    64
  0
VERTEX
  5
6138E
330
61388
100
AcDbEntity
  8
0
100
AcDbVertex
100
AcDbPolygonMeshVertex
 10
0.7427000000000002
 20
-2.203
 30
2.446999999999999
 70
    64
  0
VERTEX
  5
6138F
330
61388
100
AcDbEntity
  8
0
100
AcDbVertex
100
AcDbPolygonMeshVertex
 10
0.7427000000000002
 20
-2.089
 30
3.058999999999999
 70
    64
  0
VERTEX
  5
61390
330
61388
100
AcDbEntity
  8
0
100
AcDbVertex
100
AcDbPolygonMeshVertex
 10
0.7427000000000002
 20
-2.089
 30
2.446999999999999
 70
    64
  0
VERTEX
  5
61391
330
61388
100
AcDbEntity
  8
0
100
AcDbVertex
100
AcDbPolygonMeshVertex
 10
0.7427000000000002
 20
-2.203
 30
2.446999999999999
 70
    64
  0
VERTEX
  5
61392
330
61388
100
AcDbEntity
  8
0
100
AcDbVertex
100
AcDbPolygonMeshVertex
 10
0.6886999999999999
 20
-2.089
 30
3.058999999999999
 70
    64
  0
VERTEX
  5
61393
330
61388
100
AcDbEntity
  8
0
100
AcDbVertex
100
AcDbPolygonMeshVertex
 10
0.6886999999999999
 20
-2.089
 30
2.446999999999999
 70
    64
  0
VERTEX
  5
61394
330
61388
100
AcDbEntity
  8
0
100
AcDbVertex
100
AcDbPolygonMeshVertex
 10
0.6886999999999999
 20
-2.203
 30
2.446999999999999
 70
    64
  0
VERTEX
  5
61395
330
61388
100
AcDbEntity
  8
0
100
AcDbVertex
100
AcDbPolygonMeshVertex
 10
0.6886999999999999
 20
-2.089
 30
3.058999999999999
 70
    64
  0
VERTEX
  5
61396
330
61388
100
AcDbEntity
  8
0
100
AcDbVertex
100
AcDbPolygonMeshVertex
 10
0.6886999999999999
 20
-2.089
 30
3.058999999999999
 70
    64
  0
VERTEX
  5
61397
330
61388
100
AcDbEntity
  8
0
100
AcDbVertex
100
AcDbPolygonMeshVertex
 10
0.6886999999999999
 20
-2.203
 30
3.058999999999999
 70
    64
  0
VERTEX
  5
61398
330
61388
100
AcDbEntity
  8
0
100
AcDbVertex
100
AcDbPolygonMeshVertex
 10
0.7427000000000002
 20
-2.089
 30
3.058999999999999
 70
    64
  0
VERTEX
  5
61399
330
61388
100
AcDbEntity
  8
0
100
AcDbVertex
100
AcDbPolygonMeshVertex
 10
0.7427000000000002
 20
-2.089
 30
3.058999999999999
 70
    64
  0
VERTEX
  5
6139A
330
61388
100
AcDbEntity
  8
0
100
AcDbVertex
100
AcDbPolygonMeshVertex
 10
0.7427000000000002
 20
-2.203
 30
3.058999999999999
 70
    64
  0
SEQEND
  5
6139B
330
61388
100
AcDbEntity
  8
0
  0
LINE
  5
6139C
330
458D6
100
AcDbEntity
  8
0
100
AcDbLine
 10
0.2363499999999998
 20
-2.089
 30
2.327999999999999
 11
0.5063499999999995
 21
-2.089
 31
2.327999999999999
  0
LINE
  5
6139D
330
458D6
100
AcDbEntity
  8
0
100
AcDbLine
 10
0.2363499999999998
 20
-2.089
 30
2.621999999999999
 11
0.5063499999999995
 21
-2.089
 31
2.621999999999999
  0
LINE
  5
6139E
330
458D6
100
AcDbEntity
  8
0
100
AcDbLine
 10
0.2363499999999998
 20
-2.089
 30
2.327999999999999
 11
0.17435
 21
-2.088999999999999
 31
2.387499999999999
  0
LINE
  5
6139F
330
458D6
100
AcDbEntity
  8
0
100
AcDbLine
 10
0.2363500000000002
 20
-2.089
 30
2.621999999999999
 11
0.2363499999999998
 21
-2.089
 31
2.446999999999999
  0
LINE
  5
613A0
330
458D6
100
AcDbEntity
  8
0
100
AcDbLine
 10
0.1743499999999991
 20
-2.089
 30
2.446999999999999
 11
0.2363499999999998
 21
-2.089
 31
2.446999999999999
  0
LINE
  5
613A1
330
458D6
100
AcDbEntity
  8
0
100
AcDbLine
 10
0.9250500000000005
 20
-2.089
 30
2.621999999999999
 11
1.19505
 21
-2.089
 31
2.621999999999999
  0
LINE
  5
613A2
330
458D6
100
AcDbEntity
  8
0
100
AcDbLine
 10
0.9250500000000005
 20
-2.089
 30
2.327999999999999
 11
1.19505
 21
-2.089
 31
2.327999999999999
  0
LINE
  5
613A3
330
458D6
100
AcDbEntity
  8
0
100
AcDbLine
 10
0.5063499999999995
 20
-2.089
 30
2.327999999999999
 11
0.5683499999999997
 21
-2.089
 31
2.36846065259117
  0
LINE
  5
613A4
330
458D6
100
AcDbEntity
  8
0
100
AcDbLine
 10
0.9250500000000005
 20
-2.089
 30
2.327999999999999
 11
0.8630500000000003
 21
-2.088999999999999
 31
2.387499999999999
  0
LINE
  5
613A5
330
458D6
100
AcDbEntity
  8
0
100
AcDbLine
 10
0.5063499999999995
 20
-2.089
 30
2.621999999999999
 11
0.5063499999999995
 21
-2.089
 31
2.446999999999999
  0
LINE
  5
613A6
330
458D6
100
AcDbEntity
  8
0
100
AcDbLine
 10
0.5683499999999997
 20
-2.089
 30
2.447
 11
0.5063499999999995
 21
-2.089
 31
2.446999999999999
  0
LINE
  5
613A7
330
458D6
100
AcDbEntity
  8
0
100
AcDbLine
 10
0.9250500000000014
 20
-2.089
 30
2.621999999999999
 11
0.9250500000000005
 21
-2.089
 31
2.446999999999999
  0
LINE
  5
613A8
330
458D6
100
AcDbEntity
  8
0
100
AcDbLine
 10
0.8630500000000003
 20
-2.089
 30
2.446999999999999
 11
0.9250500000000005
 21
-2.089
 31
2.446999999999999
  0
LINE
  5
613A9
330
458D6
100
AcDbEntity
  8
0
100
AcDbLine
 10
1.19505
 20
-2.089
 30
2.327999999999999
 11
1.25705
 21
-2.089
 31
2.36846065259117
  0
LINE
  5
613AA
330
458D6
100
AcDbEntity
  8
0
100
AcDbLine
 10
1.19505
 20
-2.089
 30
2.621999999999999
 11
1.19505
 21
-2.089
 31
2.446999999999999
  0
LINE
  5
613AB
330
458D6
100
AcDbEntity
  8
0
100
AcDbLine
 10
1.25705
 20
-2.089
 30
2.447
 11
1.19505
 21
-2.089
 31
2.446999999999999
  0
LINE
  5
613AC
330
458D6
100
AcDbEntity
  8
0
100
AcDbLine
 10
0.1743499999999982
 20
-2.088999999999999
 30
3.058999999999999
 11
0.568349999999998
 21
-2.089
 31
3.058999999999999
210
0.0
220
1.0
230
0.0
  0
LINE
  5
613AD
330
458D6
100
AcDbEntity
  8
0
100
AcDbLine
 10
0.2363499999999998
 20
-2.089
 30
2.997999999999999
 11
0.5063499999999995
 21
-2.089
 31
2.997999999999999
  0
LINE
  5
613AE
330
458D6
100
AcDbEntity
  8
0
100
AcDbLine
 10
0.2363499999999998
 20
-2.089
 30
2.725999999999999
 11
0.5063499999999995
 21
-2.089
 31
2.725999999999999
  0
LINE
  5
613AF
330
458D6
100
AcDbEntity
  8
0
100
AcDbLine
 10
0.2363499999999998
 20
-2.089
 30
2.997999999999999
 11
0.2363499999999998
 21
-2.089
 31
2.725999999999999
  0
LINE
  5
613B0
330
458D6
100
AcDbEntity
  8
0
100
AcDbLine
 10
0.9250500000000005
 20
-2.089
 30
2.725999999999999
 11
1.19505
 21
-2.089
 31
2.725999999999999
  0
LINE
  5
613B1
330
458D6
100
AcDbEntity
  8
0
100
AcDbLine
 10
0.9250500000000005
 20
-2.089
 30
2.997999999999999
 11
1.19505
 21
-2.089
 31
2.997999999999999
  0
LINE
  5
613B2
330
458D6
100
AcDbEntity
  8
0
100
AcDbLine
 10
0.9250500000000005
 20
-2.089
 30
2.997999999999999
 11
0.9250500000000005
 21
-2.089
 31
2.725999999999999
  0
LINE
  5
613B3
330
458D6
100
AcDbEntity
  8
0
100
AcDbLine
 10
0.5063499999999995
 20
-2.089
 30
2.997999999999999
 11
0.5063499999999995
 21
-2.089
 31
2.725999999999999
  0
LINE
  5
613B4
330
458D6
100
AcDbEntity
  8
0
100
AcDbLine
 10
1.19505
 20
-2.089
 30
2.997999999999999
 11
1.19505
 21
-2.089
 31
2.725999999999999
  0
LINE
  5
613B5
330
458D6
100
AcDbEntity
  8
0
100
AcDbLine
 10
0.8630499999999985
 20
-2.088999999999999
 30
3.058999999999999
 11
1.257049999999998
 21
-2.089
 31
3.058999999999999
210
0.0
220
1.0
230
0.0
  0
LINE
  5
613B6
330
458D6
100
AcDbEntity
  8
0
100
AcDbLine
 10
1.613649999999999
 20
-2.089
 30
2.621999999999999
 11
1.883649999999999
 21
-2.089
 31
2.621999999999999
  0
LINE
  5
613B7
330
458D6
100
AcDbEntity
  8
0
100
AcDbLine
 10
1.61365
 20
-2.089
 30
2.621999999999999
 11
1.613649999999999
 21
-2.089
 31
2.446999999999999
  0
LINE
  5
613B8
330
458D6
100
AcDbEntity
  8
0
100
AcDbLine
 10
1.883649999999999
 20
-2.089
 30
2.997999999999999
 11
1.883649999999999
 21
-2.089
 31
2.725999999999999
  0
LINE
  5
613B9
330
458D6
100
AcDbEntity
  8
0
100
AcDbLine
 10
1.613649999999999
 20
-2.089
 30
2.997999999999999
 11
1.613649999999999
 21
-2.089
 31
2.725999999999999
  0
LINE
  5
613BA
330
458D6
100
AcDbEntity
  8
0
100
AcDbLine
 10
1.613649999999999
 20
-2.089
 30
2.725999999999999
 11
1.883649999999999
 21
-2.089
 31
2.725999999999999
  0
LINE
  5
613BB
330
458D6
100
AcDbEntity
  8
0
100
AcDbLine
 10
1.613649999999999
 20
-2.089
 30
2.997999999999999
 11
1.883649999999999
 21
-2.089
 31
2.997999999999999
  0
POLYLINE
  5
613BC
330
458D6
100
AcDbEntity
  8
0
100
AcDbPolygonMesh
 66
     1
 10
0.0
 20
0.0
 30
0.0
 70
    16
 71
     6
 72
     3
  0
VERTEX
  5
613BD
330
613BC
100
AcDbEntity
  8
0
100
AcDbVertex
100
AcDbPolygonMeshVertex
 10
-0.0000000000000009
 20
-2.203
 30
3.058999999999999
 70
    64
  0
VERTEX
  5
613BE
330
613BC
100
AcDbEntity
  8
0
100
AcDbVertex
100
AcDbPolygonMeshVertex
 10
-0.0000000000000009
 20
-2.203
 30
1.641
 70
    64
  0
VERTEX
  5
613BF
330
613BC
100
AcDbEntity
  8
0
100
AcDbVertex
100
AcDbPolygonMeshVertex
 10
-0.0000000000000009
 20
-2.203
 30
1.641
 70
    64
  0
VERTEX
  5
613C0
330
613BC
100
AcDbEntity
  8
0
100
AcDbVertex
100
AcDbPolygonMeshVertex
 10
0.0539999999999994
 20
-2.203
 30
3.058999999999999
 70
    64
  0
VERTEX
  5
613C1
330
613BC
100
AcDbEntity
  8
0
100
AcDbVertex
100
AcDbPolygonMeshVertex
 10
0.0539999999999994
 20
-2.203
 30
1.641
 70
    64
  0
VERTEX
  5
613C2
330
613BC
100
AcDbEntity
  8
0
100
AcDbVertex
100
AcDbPolygonMeshVertex
 10
0.0539999999999994
 20
-2.203
 30
1.641
 70
    64
  0
VERTEX
  5
613C3
330
613BC
100
AcDbEntity
  8
0
100
AcDbVertex
100
AcDbPolygonMeshVertex
 10
0.0539999999999994
 20
-2.089
 30
3.058999999999999
 70
    64
  0
VERTEX
  5
613C4
330
613BC
100
AcDbEntity
  8
0
100
AcDbVertex
100
AcDbPolygonMeshVertex
 10
0.0539999999999994
 20
-2.089
 30
1.641
 70
    64
  0
VERTEX
  5
613C5
330
613BC
100
AcDbEntity
  8
0
100
AcDbVertex
100
AcDbPolygonMeshVertex
 10
0.0539999999999994
 20
-2.203
 30
1.641
 70
    64
  0
VERTEX
  5
613C6
330
613BC
100
AcDbEntity
  8
0
100
AcDbVertex
100
AcDbPolygonMeshVertex
 10
-0.0000000000000009
 20
-2.089
 30
3.058999999999999
 70
    64
  0
VERTEX
  5
613C7
330
613BC
100
AcDbEntity
  8
0
100
AcDbVertex
100
AcDbPolygonMeshVertex
 10
-0.0000000000000009
 20
-2.089
 30
1.641
 70
    64
  0
VERTEX
  5
613C8
330
613BC
100
AcDbEntity
  8
0
100
AcDbVertex
100
AcDbPolygonMeshVertex
 10
-0.0000000000000009
 20
-2.203
 30
1.641
 70
    64
  0
VERTEX
  5
613C9
330
613BC
100
AcDbEntity
  8
0
100
AcDbVertex
100
AcDbPolygonMeshVertex
 10
-0.0000000000000009
 20
-2.089
 30
3.058999999999999
 70
    64
  0
VERTEX
  5
613CA
330
613BC
100
AcDbEntity
  8
0
100
AcDbVertex
100
AcDbPolygonMeshVertex
 10
-0.0000000000000009
 20
-2.089
 30
3.058999999999999
 70
    64
  0
VERTEX
  5
613CB
330
613BC
100
AcDbEntity
  8
0
100
AcDbVertex
100
AcDbPolygonMeshVertex
 10
-0.0000000000000009
 20
-2.203
 30
3.058999999999999
 70
    64
  0
VERTEX
  5
613CC
330
613BC
100
AcDbEntity
  8
0
100
AcDbVertex
100
AcDbPolygonMeshVertex
 10
0.0539999999999994
 20
-2.089
 30
3.058999999999999
 70
    64
  0
VERTEX
  5
613CD
330
613BC
100
AcDbEntity
  8
0
100
AcDbVertex
100
AcDbPolygonMeshVertex
 10
0.0539999999999994
 20
-2.089
 30
3.058999999999999
 70
    64
  0
VERTEX
  5
613CE
330
613BC
100
AcDbEntity
  8
0
100
AcDbVertex
100
AcDbPolygonMeshVertex
 10
0.0539999999999994
 20
-2.203
 30
3.058999999999999
 70
    64
  0
SEQEND
  5
613CF
330
613BC
100
AcDbEntity
  8
0
  0
LINE
  5
613D0
330
458D6
100
AcDbEntity
  8
0
100
AcDbLine
 10
1.613649999999999
 20
-2.089
 30
2.327999999999999
 11
1.551649999999999
 21
-2.088999999999999
 31
2.387499999999999
  0
POLYLINE
  5
613D1
330
458D6
100
AcDbEntity
  8
0
100
AcDbPolygonMesh
 66
     1
 10
0.0
 20
0.0
 30
0.0
 70
    16
 71
     6
 72
     3
  0
VERTEX
  5
613D2
330
613D1
100
AcDbEntity
  8
0
100
AcDbVertex
100
AcDbPolygonMeshVertex
 10
2.065999999999998
 20
-2.203
 30
3.058999999999999
 70
    64
  0
VERTEX
  5
613D3
330
613D1
100
AcDbEntity
  8
0
100
AcDbVertex
100
AcDbPolygonMeshVertex
 10
2.065999999999998
 20
-2.203
 30
1.641
 70
    64
  0
VERTEX
  5
613D4
330
613D1
100
AcDbEntity
  8
0
100
AcDbVertex
100
AcDbPolygonMeshVertex
 10
2.065999999999998
 20
-2.203
 30
1.641
 70
    64
  0
VERTEX
  5
613D5
330
613D1
100
AcDbEntity
  8
0
100
AcDbVertex
100
AcDbPolygonMeshVertex
 10
2.119999999999999
 20
-2.203
 30
3.058999999999999
 70
    64
  0
VERTEX
  5
613D6
330
613D1
100
AcDbEntity
  8
0
100
AcDbVertex
100
AcDbPolygonMeshVertex
 10
2.119999999999999
 20
-2.203
 30
1.641
 70
    64
  0
VERTEX
  5
613D7
330
613D1
100
AcDbEntity
  8
0
100
AcDbVertex
100
AcDbPolygonMeshVertex
 10
2.119999999999999
 20
-2.203
 30
1.641
 70
    64
  0
VERTEX
  5
613D8
330
613D1
100
AcDbEntity
  8
0
100
AcDbVertex
100
AcDbPolygonMeshVertex
 10
2.119999999999999
 20
-2.089
 30
3.058999999999999
 70
    64
  0
VERTEX
  5
613D9
330
613D1
100
AcDbEntity
  8
0
100
AcDbVertex
100
AcDbPolygonMeshVertex
 10
2.119999999999999
 20
-2.089
 30
1.641
 70
    64
  0
VERTEX
  5
613DA
330
613D1
100
AcDbEntity
  8
0
100
AcDbVertex
100
AcDbPolygonMeshVertex
 10
2.119999999999999
 20
-2.203
 30
1.641
 70
    64
  0
VERTEX
  5
613DB
330
613D1
100
AcDbEntity
  8
0
100
AcDbVertex
100
AcDbPolygonMeshVertex
 10
2.065999999999998
 20
-2.089
 30
3.058999999999999
 70
    64
  0
VERTEX
  5
613DC
330
613D1
100
AcDbEntity
  8
0
100
AcDbVertex
100
AcDbPolygonMeshVertex
 10
2.065999999999998
 20
-2.089
 30
1.641
 70
    64
  0
VERTEX
  5
613DD
330
613D1
100
AcDbEntity
  8
0
100
AcDbVertex
100
AcDbPolygonMeshVertex
 10
2.065999999999998
 20
-2.203
 30
1.641
 70
    64
  0
VERTEX
  5
613DE
330
613D1
100
AcDbEntity
  8
0
100
AcDbVertex
100
AcDbPolygonMeshVertex
 10
2.065999999999998
 20
-2.089
 30
3.058999999999999
 70
    64
  0
VERTEX
  5
613DF
330
613D1
100
AcDbEntity
  8
0
100
AcDbVertex
100
AcDbPolygonMeshVertex
 10
2.065999999999998
 20
-2.089
 30
3.058999999999999
 70
    64
  0
VERTEX
  5
613E0
330
613D1
100
AcDbEntity
  8
0
100
AcDbVertex
100
AcDbPolygonMeshVertex
 10
2.065999999999998
 20
-2.203
 30
3.058999999999999
 70
    64
  0
VERTEX
  5
613E1
330
613D1
100
AcDbEntity
  8
0
100
AcDbVertex
100
AcDbPolygonMeshVertex
 10
2.119999999999999
 20
-2.089
 30
3.058999999999999
 70
    64
  0
VERTEX
  5
613E2
330
613D1
100
AcDbEntity
  8
0
100
AcDbVertex
100
AcDbPolygonMeshVertex
 10
2.119999999999999
 20
-2.089
 30
3.058999999999999
 70
    64
  0
VERTEX
  5
613E3
330
613D1
100
AcDbEntity
  8
0
100
AcDbVertex
100
AcDbPolygonMeshVertex
 10
2.119999999999999
 20
-2.203
 30
3.058999999999999
 70
    64
  0
SEQEND
  5
613E4
330
613D1
100
AcDbEntity
  8
0
  0
LINE
  5
613E5
330
458D6
100
AcDbEntity
  8
0
100
AcDbLine
 10
1.945649999999999
 20
-2.089
 30
2.36846065259117
 11
1.945649999999997
 21
-2.089
 31
3.058999999999999
  0
LINE
  5
613E6
330
458D6
100
AcDbEntity
  8
0
100
AcDbLine
 10
1.613649999999999
 20
-2.089
 30
2.327999999999999
 11
1.883649999999999
 21
-2.089
 31
2.327999999999999
  0
LINE
  5
613E7
330
458D6
100
AcDbEntity
  8
0
100
AcDbLine
 10
1.883649999999999
 20
-2.089
 30
2.327999999999999
 11
1.945649999999999
 21
-2.089
 31
2.36846065259117
  0
LINE
  5
613E8
330
458D6
100
AcDbEntity
  8
0
100
AcDbLine
 10
1.883649999999999
 20
-2.089
 30
2.621999999999999
 11
1.883649999999999
 21
-2.089
 31
2.446999999999999
  0
LINE
  5
613E9
330
458D6
100
AcDbEntity
  8
0
100
AcDbLine
 10
1.945649999999999
 20
-2.089
 30
2.447
 11
1.883649999999999
 21
-2.089
 31
2.446999999999999
  0
LINE
  5
613EA
330
458D6
100
AcDbEntity
  8
0
100
AcDbLine
 10
0.647723391696637
 20
-2.089
 30
-0.0000000000000001
 11
0.8583900583633035
 21
-2.089
 31
-0.0000000000000001
  0
POLYLINE
  5
613EB
330
458D6
100
AcDbEntity
  8
0
100
AcDb3dPolyline
 66
     1
 10
0.0
 20
0.0
 30
0.0
 70
     8
  0
VERTEX
  5
613EC
330
613EB
100
AcDbEntity
  8
0
100
AcDbVertex
100
AcDb3dPolylineVertex
 10
0.647723391696637
 20
-2.089
 30
-0.0000000000000001
 70
    32
  0
VERTEX
  5
613ED
330
613EB
100
AcDbEntity
  8
0
100
AcDbVertex
100
AcDb3dPolylineVertex
 10
0.647723391696637
 20
-2.224
 30
0.0
 70
    32
  0
VERTEX
  5
613EE
330
613EB
100
AcDbEntity
  8
0
100
AcDbVertex
100
AcDb3dPolylineVertex
 10
0.8583900583633035
 20
-2.224
 30
0.0
 70
    32
  0
VERTEX
  5
613EF
330
613EB
100
AcDbEntity
  8
0
100
AcDbVertex
100
AcDb3dPolylineVertex
 10
0.8583900583633035
 20
-2.089
 30
-0.0000000000000001
 70
    32
  0
SEQEND
  5
613F0
330
613EB
100
AcDbEntity
  8
0
  0
POLYLINE
  5
613F1
330
458D6
100
AcDbEntity
  8
0
100
AcDb3dPolyline
 66
     1
 10
0.0
 20
0.0
 30
0.0
 70
     8
  0
VERTEX
  5
613F2
330
613F1
100
AcDbEntity
  8
0
100
AcDbVertex
100
AcDb3dPolylineVertex
 10
0.647723391696637
 20
-2.089
 30
0.187
 70
    32
  0
VERTEX
  5
613F3
330
613F1
100
AcDbEntity
  8
0
100
AcDbVertex
100
AcDb3dPolylineVertex
 10
0.647723391696637
 20
-2.224
 30
0.187
 70
    32
  0
VERTEX
  5
613F4
330
613F1
100
AcDbEntity
  8
0
100
AcDbVertex
100
AcDb3dPolylineVertex
 10
0.8583900583633035
 20
-2.224
 30
0.187
 70
    32
  0
VERTEX
  5
613F5
330
613F1
100
AcDbEntity
  8
0
100
AcDbVertex
100
AcDb3dPolylineVertex
 10
0.8583900583633035
 20
-2.089
 30
0.187
 70
    32
  0
SEQEND
  5
613F6
330
613F1
100
AcDbEntity
  8
0
  0
POLYLINE
  5
613F7
330
458D6
100
AcDbEntity
  8
0
100
AcDbPolygonMesh
 66
     1
 10
0.0
 20
0.0
 30
0.0
 70
    16
 71
     6
 72
     3
  0
VERTEX
  5
613F8
330
613F7
100
AcDbEntity
  8
0
100
AcDbVertex
100
AcDbPolygonMeshVertex
 10
0.9203900583633028
 20
-2.286
 30
0.187
 70
    64
  0
VERTEX
  5
613F9
330
613F7
100
AcDbEntity
  8
0
100
AcDbVertex
100
AcDbPolygonMeshVertex
 10
0.9203900583633028
 20
-2.286
 30
0.0
 70
    64
  0
VERTEX
  5
613FA
330
613F7
100
AcDbEntity
  8
0
100
AcDbVertex
100
AcDbPolygonMeshVertex
 10
0.9203900583633028
 20
-2.286
 30
0.0
 70
    64
  0
VERTEX
  5
613FB
330
613F7
100
AcDbEntity
  8
0
100
AcDbVertex
100
AcDbPolygonMeshVertex
 10
0.3130567250299698
 20
-2.286
 30
0.187
 70
    64
  0
VERTEX
  5
613FC
330
613F7
100
AcDbEntity
  8
0
100
AcDbVertex
100
AcDbPolygonMeshVertex
 10
0.3130567250299698
 20
-2.286
 30
0.0
 70
    64
  0
VERTEX
  5
613FD
330
613F7
100
AcDbEntity
  8
0
100
AcDbVertex
100
AcDbPolygonMeshVertex
 10
0.3130567250299698
 20
-2.286
 30
0.0
 70
    64
  0
VERTEX
  5
613FE
330
613F7
100
AcDbEntity
  8
0
100
AcDbVertex
100
AcDbPolygonMeshVertex
 10
0.3130567250299698
 20
-2.224
 30
0.187
 70
    64
  0
VERTEX
  5
613FF
330
613F7
100
AcDbEntity
  8
0
100
AcDbVertex
100
AcDbPolygonMeshVertex
 10
0.3130567250299698
 20
-2.224
 30
0.0
 70
    64
  0
VERTEX
  5
61400
330
613F7
100
AcDbEntity
  8
0
100
AcDbVertex
100
AcDbPolygonMeshVertex
 10
0.3130567250299698
 20
-2.286
 30
0.0
 70
    64
  0
VERTEX
  5
61401
330
613F7
100
AcDbEntity
  8
0
100
AcDbVertex
100
AcDbPolygonMeshVertex
 10
0.9203900583633028
 20
-2.224
 30
0.187
 70
    64
  0
VERTEX
  5
61402
330
613F7
100
AcDbEntity
  8
0
100
AcDbVertex
100
AcDbPolygonMeshVertex
 10
0.9203900583633028
 20
-2.224
 30
0.0
 70
    64
  0
VERTEX
  5
61403
330
613F7
100
AcDbEntity
  8
0
100
AcDbVertex
100
AcDbPolygonMeshVertex
 10
0.9203900583633028
 20
-2.286
 30
0.0
 70
    64
  0
VERTEX
  5
61404
330
613F7
100
AcDbEntity
  8
0
100
AcDbVertex
100
AcDbPolygonMeshVertex
 10
0.9203900583633028
 20
-2.224
 30
0.187
 70
    64
  0
VERTEX
  5
61405
330
613F7
100
AcDbEntity
  8
0
100
AcDbVertex
100
AcDbPolygonMeshVertex
 10
0.9203900583633028
 20
-2.224
 30
0.187
 70
    64
  0
VERTEX
  5
61406
330
613F7
100
AcDbEntity
  8
0
100
AcDbVertex
100
AcDbPolygonMeshVertex
 10
0.9203900583633028
 20
-2.286
 30
0.187
 70
    64
  0
VERTEX
  5
61407
330
613F7
100
AcDbEntity
  8
0
100
AcDbVertex
100
AcDbPolygonMeshVertex
 10
0.3130567250299698
 20
-2.224
 30
0.187
 70
    64
  0
VERTEX
  5
61408
330
613F7
100
AcDbEntity
  8
0
100
AcDbVertex
100
AcDbPolygonMeshVertex
 10
0.3130567250299698
 20
-2.224
 30
0.187
 70
    64
  0
VERTEX
  5
61409
330
613F7
100
AcDbEntity
  8
0
100
AcDbVertex
100
AcDbPolygonMeshVertex
 10
0.3130567250299698
 20
-2.286
 30
0.187
 70
    64
  0
SEQEND
  5
6140A
330
613F7
100
AcDbEntity
  8
0
  0
LINE
  5
6140B
330
458D6
100
AcDbEntity
  8
0
100
AcDbLine
 10
0.1962766083033624
 20
-1.954
 30
0.187
 11
0.1962766083033624
 21
-1.954
 31
0.187
  0
POLYLINE
  5
6140C
330
458D6
100
AcDbEntity
  8
0
100
AcDbPolygonMesh
 66
     1
 10
0.0
 20
0.0
 30
0.0
 70
    16
 71
     6
 72
     3
  0
VERTEX
  5
6140D
330
6140C
100
AcDbEntity
  8
0
100
AcDbVertex
100
AcDbPolygonMeshVertex
 10
0.9203900583633028
 20
-2.224
 30
0.187
 70
    64
  0
VERTEX
  5
6140E
330
6140C
100
AcDbEntity
  8
0
100
AcDbVertex
100
AcDbPolygonMeshVertex
 10
0.9203900583633028
 20
-2.224
 30
0.0
 70
    64
  0
VERTEX
  5
6140F
330
6140C
100
AcDbEntity
  8
0
100
AcDbVertex
100
AcDbPolygonMeshVertex
 10
0.9203900583633028
 20
-2.224
 30
0.0
 70
    64
  0
VERTEX
  5
61410
330
6140C
100
AcDbEntity
  8
0
100
AcDbVertex
100
AcDbPolygonMeshVertex
 10
0.5857233916966376
 20
-2.224
 30
0.187
 70
    64
  0
VERTEX
  5
61411
330
6140C
100
AcDbEntity
  8
0
100
AcDbVertex
100
AcDbPolygonMeshVertex
 10
0.5857233916966376
 20
-2.224
 30
0.0
 70
    64
  0
VERTEX
  5
61412
330
6140C
100
AcDbEntity
  8
0
100
AcDbVertex
100
AcDbPolygonMeshVertex
 10
0.5857233916966376
 20
-2.224
 30
0.0
 70
    64
  0
VERTEX
  5
61413
330
6140C
100
AcDbEntity
  8
0
100
AcDbVertex
100
AcDbPolygonMeshVertex
 10
0.5857233916966376
 20
-2.027000000000001
 30
0.187
 70
    64
  0
VERTEX
  5
61414
330
6140C
100
AcDbEntity
  8
0
100
AcDbVertex
100
AcDbPolygonMeshVertex
 10
0.5857233916966376
 20
-2.027000000000001
 30
0.0
 70
    64
  0
VERTEX
  5
61415
330
6140C
100
AcDbEntity
  8
0
100
AcDbVertex
100
AcDbPolygonMeshVertex
 10
0.5857233916966376
 20
-2.224
 30
0.0
 70
    64
  0
VERTEX
  5
61416
330
6140C
100
AcDbEntity
  8
0
100
AcDbVertex
100
AcDbPolygonMeshVertex
 10
0.9203900583633028
 20
-2.027000000000001
 30
0.187
 70
    64
  0
VERTEX
  5
61417
330
6140C
100
AcDbEntity
  8
0
100
AcDbVertex
100
AcDbPolygonMeshVertex
 10
0.9203900583633028
 20
-2.027000000000001
 30
0.0
 70
    64
  0
VERTEX
  5
61418
330
6140C
100
AcDbEntity
  8
0
100
AcDbVertex
100
AcDbPolygonMeshVertex
 10
0.9203900583633028
 20
-2.224
 30
0.0
 70
    64
  0
VERTEX
  5
61419
330
6140C
100
AcDbEntity
  8
0
100
AcDbVertex
100
AcDbPolygonMeshVertex
 10
0.9203900583633028
 20
-2.027000000000001
 30
0.187
 70
    64
  0
VERTEX
  5
6141A
330
6140C
100
AcDbEntity
  8
0
100
AcDbVertex
100
AcDbPolygonMeshVertex
 10
0.9203900583633028
 20
-2.027000000000001
 30
0.187
 70
    64
  0
VERTEX
  5
6141B
330
6140C
100
AcDbEntity
  8
0
100
AcDbVertex
100
AcDbPolygonMeshVertex
 10
0.9203900583633028
 20
-2.224
 30
0.187
 70
    64
  0
VERTEX
  5
6141C
330
6140C
100
AcDbEntity
  8
0
100
AcDbVertex
100
AcDbPolygonMeshVertex
 10
0.5857233916966376
 20
-2.027000000000001
 30
0.187
 70
    64
  0
VERTEX
  5
6141D
330
6140C
100
AcDbEntity
  8
0
100
AcDbVertex
100
AcDbPolygonMeshVertex
 10
0.5857233916966376
 20
-2.027000000000001
 30
0.187
 70
    64
  0
VERTEX
  5
6141E
330
6140C
100
AcDbEntity
  8
0
100
AcDbVertex
100
AcDbPolygonMeshVertex
 10
0.5857233916966376
 20
-2.224
 30
0.187
 70
    64
  0
SEQEND
  5
6141F
330
6140C
100
AcDbEntity
  8
0
  0
LINE
  5
61420
330
458D6
100
AcDbEntity
  8
0
100
AcDbLine
 10
0.647723391696637
 20
-2.089
 30
0.187
 11
0.8583900583633035
 21
-2.089
 31
0.187
  0
CIRCLE
  5
61421
330
458D6
100
AcDbEntity
  8
0
100
AcDbCircle
 10
1.060049999999997
 20
0.1807980402316449
 30
3.859999999999999
 40
0.138
  0
CIRCLE
  5
61422
330
458D6
100
AcDbEntity
  8
0
100
AcDbCircle
 10
1.748649999999996
 20
0.1807980402316449
 30
3.859999999999999
 40
0.138
  0
CIRCLE
  5
61423
330
458D6
100
AcDbEntity
  8
0
100
AcDbCircle
 10
0.3713499999999978
 20
-1.868798040231645
 30
3.859999999999999
 40
0.138
  0
CIRCLE
  5
61424
330
458D6
100
AcDbEntity
  8
0
100
AcDbCircle
 10
1.060049999999997
 20
-1.868798040231645
 30
3.859999999999999
 40
0.138
  0
CIRCLE
  5
61425
330
458D6
100
AcDbEntity
  8
0
100
AcDbCircle
 10
1.748649999999996
 20
-1.868798040231645
 30
3.859999999999999
 40
0.138
  0
TEXT
  5
61426
330
458D6
100
AcDbEntity
  8
0
100
AcDbText
 39
0.0000001
 10
0.533641379288321
 20
0.7426541452578432
 30
2.062
 40
0.0834654981097751
  1
A1
100
AcDbText
  0
TEXT
  5
61427
330
458D6
100
AcDbEntity
  8
0
100
AcDbText
 39
0.0000001
 10
1.454764247209924
 20
0.7418122791519969
 30
2.062
 40
0.0834654981097751
  1
A2
100
AcDbText
  0
POLYLINE
  5
61428
330
458D6
100
AcDbEntity
  8
0
100
AcDb3dPolyline
 66
     1
 10
0.0
 20
0.0
 30
0.0
 70
     8
  0
VERTEX
  5
61429
330
61428
100
AcDbEntity
  8
0
100
AcDbVertex
100
AcDb3dPolylineVertex
 10
-0.0000000000000036
 20
-0.7610000000000002
 30
1.592
 70
    32
  0
VERTEX
  5
6142A
330
61428
100
AcDbEntity
  8
0
100
AcDbVertex
100
AcDb3dPolylineVertex
 10
-0.0000000000000036
 20
-0.7610000000000002
 30
2.165
 70
    32
  0
VERTEX
  5
6142B
330
61428
100
AcDbEntity
  8
0
100
AcDbVertex
100
AcDb3dPolylineVertex
 10
-0.0000000000000036
 20
-0.9269999999999999
 30
2.165
 70
    32
  0
VERTEX
  5
6142C
330
61428
100
AcDbEntity
  8
0
100
AcDbVertex
100
AcDb3dPolylineVertex
 10
-0.0000000000000036
 20
-0.9270000000000004
 30
1.592
 70
    32
  0
VERTEX
  5
6142D
330
61428
100
AcDbEntity
  8
0
100
AcDbVertex
100
AcDb3dPolylineVertex
 10
-0.0000000000000036
 20
-0.7610000000000002
 30
1.592
 70
    32
  0
SEQEND
  5
6142E
330
61428
100
AcDbEntity
  8
0
  0
LINE
  5
6142F
330
458D6
100
AcDbEntity
  8
0
100
AcDbLine
 10
-0.0000000000000036
 20
-0.9270000000000003
 30
1.8785
 11
-0.0000000000000036
 21
-0.7610000000000002
 31
1.8785
  0
LINE
  5
61430
330
458D6
100
AcDbEntity
  8
0
100
AcDbLine
 10
-0.0000000000000036
 20
-0.9270000000000004
 30
2.0685
 11
-0.0000000000000036
 21
-0.7610000000000002
 31
2.0685
  0
POLYLINE
  5
61431
330
458D6
100
AcDbEntity
  8
0
100
AcDb3dPolyline
 66
     1
 10
0.0
 20
0.0
 30
0.0
 70
     8
  0
VERTEX
  5
61432
330
61431
100
AcDbEntity
  8
0
100
AcDbVertex
100
AcDb3dPolylineVertex
 10
2.119999999999996
 20
-0.7610000000000002
 30
1.591999999999999
 70
    32
  0
VERTEX
  5
61433
330
61431
100
AcDbEntity
  8
0
100
AcDbVertex
100
AcDb3dPolylineVertex
 10
2.119999999999996
 20
-0.7610000000000002
 30
2.165
 70
    32
  0
VERTEX
  5
61434
330
61431
100
AcDbEntity
  8
0
100
AcDbVertex
100
AcDb3dPolylineVertex
 10
2.119999999999996
 20
-0.9269999999999999
 30
2.165
 70
    32
  0
VERTEX
  5
61435
330
61431
100
AcDbEntity
  8
0
100
AcDbVertex
100
AcDb3dPolylineVertex
 10
2.119999999999996
 20
-0.9270000000000004
 30
1.591999999999999
 70
    32
  0
VERTEX
  5
61436
330
61431
100
AcDbEntity
  8
0
100
AcDbVertex
100
AcDb3dPolylineVertex
 10
2.119999999999996
 20
-0.7610000000000002
 30
1.591999999999999
 70
    32
  0
SEQEND
  5
61437
330
61431
100
AcDbEntity
  8
0
  0
LINE
  5
61438
330
458D6
100
AcDbEntity
  8
0
100
AcDbLine
 10
2.119999999999996
 20
-0.9270000000000003
 30
1.8785
 11
2.119999999999996
 21
-0.7610000000000002
 31
1.8785
  0
LINE
  5
61439
330
458D6
100
AcDbEntity
  8
0
100
AcDbLine
 10
2.119999999999996
 20
-0.9270000000000004
 30
2.0685
 11
2.119999999999996
 21
-0.7610000000000002
 31
2.0685
  0
POLYLINE
  5
6143A
330
458D6
100
AcDbEntity
  8
0
100
AcDbPolygonMesh
 66
     1
 10
0.0
 20
0.0
 30
0.0
 70
    16
 71
     6
 72
     3
  0
VERTEX
  5
6143B
330
6143A
100
AcDbEntity
  8
0
100
AcDbVertex
100
AcDbPolygonMeshVertex
 10
0.391
 20
-2.172
 30
0.3160000000000003
 70
    64
  0
VERTEX
  5
6143C
330
6143A
100
AcDbEntity
  8
0
100
AcDbVertex
100
AcDbPolygonMeshVertex
 10
0.391
 20
-2.172
 30
0.0000000000000002
 70
    64
  0
VERTEX
  5
6143D
330
6143A
100
AcDbEntity
  8
0
100
AcDbVertex
100
AcDbPolygonMeshVertex
 10
0.391
 20
-2.172
 30
0.0000000000000002
 70
    64
  0
VERTEX
  5
6143E
330
6143A
100
AcDbEntity
  8
0
100
AcDbVertex
100
AcDbPolygonMeshVertex
 10
0.0
 20
-2.172
 30
0.3160000000000003
 70
    64
  0
VERTEX
  5
6143F
330
6143A
100
AcDbEntity
  8
0
100
AcDbVertex
100
AcDbPolygonMeshVertex
 10
0.0
 20
-2.172
 30
0.0000000000000002
 70
    64
  0
VERTEX
  5
61440
330
6143A
100
AcDbEntity
  8
0
100
AcDbVertex
100
AcDbPolygonMeshVertex
 10
0.0
 20
-2.172
 30
0.0000000000000002
 70
    64
  0
VERTEX
  5
61441
330
6143A
100
AcDbEntity
  8
0
100
AcDbVertex
100
AcDbPolygonMeshVertex
 10
0.0
 20
-1.806
 30
0.3160000000000003
 70
    64
  0
VERTEX
  5
61442
330
6143A
100
AcDbEntity
  8
0
100
AcDbVertex
100
AcDbPolygonMeshVertex
 10
0.0
 20
-1.806
 30
0.0000000000000002
 70
    64
  0
VERTEX
  5
61443
330
6143A
100
AcDbEntity
  8
0
100
AcDbVertex
100
AcDbPolygonMeshVertex
 10
0.0
 20
-2.172
 30
0.0000000000000002
 70
    64
  0
VERTEX
  5
61444
330
6143A
100
AcDbEntity
  8
0
100
AcDbVertex
100
AcDbPolygonMeshVertex
 10
0.391
 20
-1.806
 30
0.3160000000000003
 70
    64
  0
VERTEX
  5
61445
330
6143A
100
AcDbEntity
  8
0
100
AcDbVertex
100
AcDbPolygonMeshVertex
 10
0.391
 20
-1.806
 30
0.0000000000000002
 70
    64
  0
VERTEX
  5
61446
330
6143A
100
AcDbEntity
  8
0
100
AcDbVertex
100
AcDbPolygonMeshVertex
 10
0.391
 20
-2.172
 30
0.0000000000000002
 70
    64
  0
VERTEX
  5
61447
330
6143A
100
AcDbEntity
  8
0
100
AcDbVertex
100
AcDbPolygonMeshVertex
 10
0.391
 20
-1.806
 30
0.3160000000000003
 70
    64
  0
VERTEX
  5
61448
330
6143A
100
AcDbEntity
  8
0
100
AcDbVertex
100
AcDbPolygonMeshVertex
 10
0.391
 20
-1.806
 30
0.3160000000000003
 70
    64
  0
VERTEX
  5
61449
330
6143A
100
AcDbEntity
  8
0
100
AcDbVertex
100
AcDbPolygonMeshVertex
 10
0.391
 20
-2.172
 30
0.3160000000000003
 70
    64
  0
VERTEX
  5
6144A
330
6143A
100
AcDbEntity
  8
0
100
AcDbVertex
100
AcDbPolygonMeshVertex
 10
0.0
 20
-1.806
 30
0.3160000000000003
 70
    64
  0
VERTEX
  5
6144B
330
6143A
100
AcDbEntity
  8
0
100
AcDbVertex
100
AcDbPolygonMeshVertex
 10
0.0
 20
-1.806
 30
0.3160000000000003
 70
    64
  0
VERTEX
  5
6144C
330
6143A
100
AcDbEntity
  8
0
100
AcDbVertex
100
AcDbPolygonMeshVertex
 10
0.0
 20
-2.172
 30
0.3160000000000003
 70
    64
  0
SEQEND
  5
6144D
330
6143A
100
AcDbEntity
  8
0
  0
POLYLINE
  5
6144E
330
458D6
100
AcDbEntity
  8
0
100
AcDbPolygonMesh
 66
     1
 10
0.0
 20
0.0
 30
0.0
 70
    16
 71
     6
 72
     3
  0
VERTEX
  5
6144F
330
6144E
100
AcDbEntity
  8
0
100
AcDbVertex
100
AcDbPolygonMeshVertex
 10
2.12
 20
0.1179999999999994
 30
0.3160000000000003
 70
    64
  0
VERTEX
  5
61450
330
6144E
100
AcDbEntity
  8
0
100
AcDbVertex
100
AcDbPolygonMeshVertex
 10
2.12
 20
0.1179999999999994
 30
0.0000000000000002
 70
    64
  0
VERTEX
  5
61451
330
6144E
100
AcDbEntity
  8
0
100
AcDbVertex
100
AcDbPolygonMeshVertex
 10
2.12
 20
0.1179999999999994
 30
0.0000000000000002
 70
    64
  0
VERTEX
  5
61452
330
6144E
100
AcDbEntity
  8
0
100
AcDbVertex
100
AcDbPolygonMeshVertex
 10
1.729
 20
0.1179999999999994
 30
0.3160000000000003
 70
    64
  0
VERTEX
  5
61453
330
6144E
100
AcDbEntity
  8
0
100
AcDbVertex
100
AcDbPolygonMeshVertex
 10
1.729
 20
0.1179999999999994
 30
0.0000000000000002
 70
    64
  0
VERTEX
  5
61454
330
6144E
100
AcDbEntity
  8
0
100
AcDbVertex
100
AcDbPolygonMeshVertex
 10
1.729
 20
0.1179999999999994
 30
0.0000000000000002
 70
    64
  0
VERTEX
  5
61455
330
6144E
100
AcDbEntity
  8
0
100
AcDbVertex
100
AcDbPolygonMeshVertex
 10
1.729
 20
0.4839999999999995
 30
0.3160000000000003
 70
    64
  0
VERTEX
  5
61456
330
6144E
100
AcDbEntity
  8
0
100
AcDbVertex
100
AcDbPolygonMeshVertex
 10
1.729
 20
0.4839999999999995
 30
0.0000000000000002
 70
    64
  0
VERTEX
  5
61457
330
6144E
100
AcDbEntity
  8
0
100
AcDbVertex
100
AcDbPolygonMeshVertex
 10
1.729
 20
0.1179999999999994
 30
0.0000000000000002
 70
    64
  0
VERTEX
  5
61458
330
6144E
100
AcDbEntity
  8
0
100
AcDbVertex
100
AcDbPolygonMeshVertex
 10
2.12
 20
0.4839999999999995
 30
0.3160000000000003
 70
    64
  0
VERTEX
  5
61459
330
6144E
100
AcDbEntity
  8
0
100
AcDbVertex
100
AcDbPolygonMeshVertex
 10
2.12
 20
0.4839999999999995
 30
0.0000000000000002
 70
    64
  0
VERTEX
  5
6145A
330
6144E
100
AcDbEntity
  8
0
100
AcDbVertex
100
AcDbPolygonMeshVertex
 10
2.12
 20
0.1179999999999994
 30
0.0000000000000002
 70
    64
  0
VERTEX
  5
6145B
330
6144E
100
AcDbEntity
  8
0
100
AcDbVertex
100
AcDbPolygonMeshVertex
 10
2.12
 20
0.4839999999999995
 30
0.3160000000000003
 70
    64
  0
VERTEX
  5
6145C
330
6144E
100
AcDbEntity
  8
0
100
AcDbVertex
100
AcDbPolygonMeshVertex
 10
2.12
 20
0.4839999999999995
 30
0.3160000000000003
 70
    64
  0
VERTEX
  5
6145D
330
6144E
100
AcDbEntity
  8
0
100
AcDbVertex
100
AcDbPolygonMeshVertex
 10
2.12
 20
0.1179999999999994
 30
0.3160000000000003
 70
    64
  0
VERTEX
  5
6145E
330
6144E
100
AcDbEntity
  8
0
100
AcDbVertex
100
AcDbPolygonMeshVertex
 10
1.729
 20
0.4839999999999995
 30
0.3160000000000003
 70
    64
  0
VERTEX
  5
6145F
330
6144E
100
AcDbEntity
  8
0
100
AcDbVertex
100
AcDbPolygonMeshVertex
 10
1.729
 20
0.4839999999999995
 30
0.3160000000000003
 70
    64
  0
VERTEX
  5
61460
330
6144E
100
AcDbEntity
  8
0
100
AcDbVertex
100
AcDbPolygonMeshVertex
 10
1.729
 20
0.1179999999999994
 30
0.3160000000000003
 70
    64
  0
SEQEND
  5
61461
330
6144E
100
AcDbEntity
  8
0
  0
POLYLINE
  5
61462
330
458D6
100
AcDbEntity
  8
0
100
AcDbPolygonMesh
 66
     1
 10
0.0
 20
0.0
 30
0.0
 70
    16
 71
     6
 72
     3
  0
VERTEX
  5
61463
330
61462
100
AcDbEntity
  8
0
100
AcDbVertex
100
AcDbPolygonMeshVertex
 10
2.12
 20
-2.089
 30
3.859999999999999
 70
    64
  0
VERTEX
  5
61464
330
61462
100
AcDbEntity
  8
0
100
AcDbVertex
100
AcDbPolygonMeshVertex
 10
2.12
 20
-2.089
 30
1.318
 70
    64
  0
VERTEX
  5
61465
330
61462
100
AcDbEntity
  8
0
100
AcDbVertex
100
AcDbPolygonMeshVertex
 10
2.12
 20
-2.089
 30
1.318
 70
    64
  0
VERTEX
  5
61466
330
61462
100
AcDbEntity
  8
0
100
AcDbVertex
100
AcDbPolygonMeshVertex
 10
0.0
 20
-2.089
 30
3.859999999999999
 70
    64
  0
VERTEX
  5
61467
330
61462
100
AcDbEntity
  8
0
100
AcDbVertex
100
AcDbPolygonMeshVertex
 10
0.0
 20
-2.089
 30
1.318
 70
    64
  0
VERTEX
  5
61468
330
61462
100
AcDbEntity
  8
0
100
AcDbVertex
100
AcDbPolygonMeshVertex
 10
0.0
 20
-2.089
 30
1.318
 70
    64
  0
VERTEX
  5
61469
330
61462
100
AcDbEntity
  8
0
100
AcDbVertex
100
AcDbPolygonMeshVertex
 10
0.0
 20
0.4009999999999998
 30
3.859999999999999
 70
    64
  0
VERTEX
  5
6146A
330
61462
100
AcDbEntity
  8
0
100
AcDbVertex
100
AcDbPolygonMeshVertex
 10
0.0
 20
0.4009999999999998
 30
1.318
 70
    64
  0
VERTEX
  5
6146B
330
61462
100
AcDbEntity
  8
0
100
AcDbVertex
100
AcDbPolygonMeshVertex
 10
0.0
 20
-2.089
 30
1.318
 70
    64
  0
VERTEX
  5
6146C
330
61462
100
AcDbEntity
  8
0
100
AcDbVertex
100
AcDbPolygonMeshVertex
 10
2.12
 20
0.4009999999999998
 30
3.859999999999999
 70
    64
  0
VERTEX
  5
6146D
330
61462
100
AcDbEntity
  8
0
100
AcDbVertex
100
AcDbPolygonMeshVertex
 10
2.12
 20
0.4009999999999998
 30
1.318
 70
    64
  0
VERTEX
  5
6146E
330
61462
100
AcDbEntity
  8
0
100
AcDbVertex
100
AcDbPolygonMeshVertex
 10
2.12
 20
-2.089
 30
1.318
 70
    64
  0
VERTEX
  5
6146F
330
61462
100
AcDbEntity
  8
0
100
AcDbVertex
100
AcDbPolygonMeshVertex
 10
2.12
 20
0.4009999999999998
 30
3.859999999999999
 70
    64
  0
VERTEX
  5
61470
330
61462
100
AcDbEntity
  8
0
100
AcDbVertex
100
AcDbPolygonMeshVertex
 10
2.12
 20
0.4009999999999998
 30
3.859999999999999
 70
    64
  0
VERTEX
  5
61471
330
61462
100
AcDbEntity
  8
0
100
AcDbVertex
100
AcDbPolygonMeshVertex
 10
2.12
 20
-2.089
 30
3.859999999999999
 70
    64
  0
VERTEX
  5
61472
330
61462
100
AcDbEntity
  8
0
100
AcDbVertex
100
AcDbPolygonMeshVertex
 10
0.0
 20
0.4009999999999998
 30
3.859999999999999
 70
    64
  0
VERTEX
  5
61473
330
61462
100
AcDbEntity
  8
0
100
AcDbVertex
100
AcDbPolygonMeshVertex
 10
0.0
 20
0.4009999999999998
 30
3.859999999999999
 70
    64
  0
VERTEX
  5
61474
330
61462
100
AcDbEntity
  8
0
100
AcDbVertex
100
AcDbPolygonMeshVertex
 10
0.0
 20
-2.089
 30
3.859999999999999
 70
    64
  0
SEQEND
  5
61475
330
61462
100
AcDbEntity
  8
0
  0
3DFACE
  5
61476
330
458D6
100
AcDbEntity
  8
0
100
AcDbFace
 10
2.12
 20
-2.089
 30
1.318
 11
2.12
 21
-2.089
 31
1.318
 12
0.0
 22
-2.089
 32
1.318
 13
0.0
 23
-2.089
 33
1.318
  0
3DFACE
  5
61477
330
458D6
100
AcDbEntity
  8
0
100
AcDbFace
 10
0.0
 20
-2.089
 30
1.318
 11
0.0
 21
-2.089
 31
1.318
 12
0.0
 22
-2.089
 32
1.318
 13
0.0
 23
0.4009999999999998
 33
1.318
  0
3DFACE
  5
61478
330
458D6
100
AcDbEntity
  8
0
100
AcDbFace
 10
0.0
 20
0.4009999999999998
 30
1.318
 11
0.0
 21
-2.089
 31
1.318
 12
2.12
 22
-2.089
 32
1.318
 13
2.12
 23
0.4009999999999998
 33
1.318
  0
3DFACE
  5
61479
330
458D6
100
AcDbEntity
  8
0
100
AcDbFace
 10
2.12
 20
0.4009999999999998
 30
3.859999999999999
 11
2.12
 21
0.4009999999999998
 31
3.859999999999999
 12
0.0
 22
0.4009999999999998
 32
3.859999999999999
 13
0.0
 23
0.4009999999999998
 33
3.859999999999999
  0
3DFACE
  5
6147A
330
458D6
100
AcDbEntity
  8
0
100
AcDbFace
 10
2.12
 20
0.4009999999999998
 30
3.859999999999999
 11
2.12
 21
-2.089
 31
3.859999999999999
 12
0.0
 22
-2.089
 32
3.859999999999999
 13
0.0
 23
0.4009999999999998
 33
3.859999999999999
  0
POINT
  5
6147B
330
458D6
100
AcDbEntity
  8
SNAP_POINTS
100
AcDbPoint
 10
-0.0000000000000036
 20
-0.8940000000000001
 30
2.0685
  0
POINT
  5
6147C
330
458D6
100
AcDbEntity
  8
SNAP_POINTS
100
AcDbPoint
 10
2.119999999999996
 20
-0.7940000000000001
 30
2.0685
  0
POINT
  5
6147D
330
458D6
100
AcDbEntity
  8
SNAP_POINTS
100
AcDbPoint
 10
1.059999999999998
 20
-0.8499999999999998
 30
3.894
  0
POINT
  5
6147E
330
458D6
100
AcDbEntity
  8
SNAP_POINTS
100
AcDbPoint
 10
1.729
 20
-2.089
 30
1.318
  0
POINT
  5
6147F
330
458D6
100
AcDbEntity
  8
SNAP_POINTS
100
AcDbPoint
 10
0.0
 20
0.0
 30
0.0
  0
POINT
  5
61480
330
458D6
100
AcDbEntity
  8
SNAP_POINTS
100
AcDbPoint
 10
0.8794999999999992
 20
0.838
 30
1.641
  0
POINT
  5
61481
330
458D6
100
AcDbEntity
  8
DIMS-MTG-HOLES
100
AcDbPoint
 10
0.1730000000000008
 20
-2.024999999999999
 30
0.0000000000000002
  0
POINT
  5
61482
330
458D6
100
AcDbEntity
  8
DIMS-MTG-HOLES
100
AcDbPoint
 10
1.944999999999999
 20
0.3369999999999995
 30
0.0000000000000002
  0
LWPOLYLINE
  5
61483
330
458D6
100
AcDbEntity
  8
0
100
AcDbPolyline
 90
        6
 70
     0
 43
0.0
 38
3.859999999999999
 10
1.728649999999996
 20
0.3173410737412325
 10
1.728649999999996
 20
0.2007980402316456
 10
1.668649999999996
 20
0.2007980402316458
 10
1.668649999999996
 20
0.1607980402316456
 10
1.728649999999996
 20
0.160798040231646
 10
1.728649999999996
 20
0.0442550067220591
  0
LWPOLYLINE
  5
61484
330
458D6
100
AcDbEntity
  8
0
100
AcDbPolyline
 90
        6
 70
     0
 43
0.0
 38
3.859999999999999
 10
1.768649999999996
 20
0.3173410737412325
 10
1.768649999999996
 20
0.2007980402316456
 10
1.828649999999997
 20
0.2007980402316458
 10
1.828649999999997
 20
0.1607980402316456
 10
1.768649999999996
 20
0.160798040231646
 10
1.768649999999996
 20
0.0442550067220591
  0
LWPOLYLINE
  5
61485
330
458D6
100
AcDbEntity
  8
0
100
AcDbPolyline
 90
        6
 70
     0
 43
0.0
 38
3.859999999999999
 10
1.040049999999997
 20
0.3173410737412325
 10
1.040049999999997
 20
0.2007980402316456
 10
0.9800499999999978
 20
0.2007980402316458
 10
0.9800499999999978
 20
0.1607980402316456
 10
1.040049999999997
 20
0.160798040231646
 10
1.040049999999997
 20
0.0442550067220591
  0
LWPOLYLINE
  5
61486
330
458D6
100
AcDbEntity
  8
0
100
AcDbPolyline
 90
        6
 70
     0
 43
0.0
 38
3.859999999999999
 10
1.080049999999997
 20
0.3173410737412325
 10
1.080049999999997
 20
0.2007980402316456
 10
1.140049999999997
 20
0.2007980402316458
 10
1.140049999999997
 20
0.1607980402316456
 10
1.080049999999997
 20
0.160798040231646
 10
1.080049999999997
 20
0.0442550067220591
  0
LWPOLYLINE
  5
61487
330
458D6
100
AcDbEntity
  8
0
100
AcDbPolyline
 90
        6
 70
     0
 43
0.0
 38
3.859999999999999
 10
0.3513499999999979
 20
0.3173410737412325
 10
0.3513499999999979
 20
0.2007980402316456
 10
0.2913499999999979
 20
0.2007980402316458
 10
0.2913499999999979
 20
0.1607980402316456
 10
0.3513499999999979
 20
0.160798040231646
 10
0.3513499999999979
 20
0.0442550067220591
  0
LWPOLYLINE
  5
61488
330
458D6
100
AcDbEntity
  8
0
100
AcDbPolyline
 90
        6
 70
     0
 43
0.0
 38
3.859999999999999
 10
0.3913499999999979
 20
0.3173410737412325
 10
0.3913499999999979
 20
0.2007980402316456
 10
0.451349999999998
 20
0.2007980402316458
 10
0.451349999999998
 20
0.1607980402316456
 10
0.3913499999999979
 20
0.160798040231646
 10
0.3913499999999979
 20
0.0442550067220591
  0
LWPOLYLINE
  5
61489
330
458D6
100
AcDbEntity
  8
0
100
AcDbPolyline
 90
        6
 70
     0
 43
0.0
 38
2.062
 10
1.419000000000001
 20
0.737821595661996
 10
1.419000000000001
 20
0.6395000000000002
 10
1.479000000000001
 20
0.6395000000000004
 10
1.479000000000001
 20
0.5995000000000001
 10
1.419000000000001
 20
0.5995000000000007
 10
1.419000000000001
 20
0.5011784043380114
  0
LWPOLYLINE
  5
6148A
330
458D6
100
AcDbEntity
  8
0
100
AcDbPolyline
 90
        6
 70
     0
 43
0.0
 38
2.062
 10
1.379000000000001
 20
0.7378215956619877
 10
1.379000000000001
 20
0.6395000000000002
 10
1.319000000000001
 20
0.6395000000000004
 10
1.319000000000001
 20
0.5995000000000001
 10
1.379000000000001
 20
0.5995000000000007
 10
1.379000000000001
 20
0.5011784043380031
  0
LWPOLYLINE
  5
6148B
330
458D6
100
AcDbEntity
  8
0
100
AcDbPolyline
 90
        6
 70
     0
 43
0.0
 38
2.062
 10
0.7409999999999975
 20
0.737821595661996
 10
0.7409999999999975
 20
0.6395000000000002
 10
0.8009999999999974
 20
0.6395000000000004
 10
0.8009999999999974
 20
0.5995000000000001
 10
0.7409999999999975
 20
0.5995000000000007
 10
0.7409999999999975
 20
0.5011784043380114
  0
LWPOLYLINE
  5
6148C
330
458D6
100
AcDbEntity
  8
0
100
AcDbPolyline
 90
        6
 70
     0
 43
0.0
 38
2.062
 10
0.7009999999999974
 20
0.7378215956619877
 10
0.7009999999999974
 20
0.6395000000000002
 10
0.6409999999999974
 20
0.6395000000000004
 10
0.6409999999999974
 20
0.5995000000000001
 10
0.7009999999999974
 20
0.5995000000000007
 10
0.7009999999999974
 20
0.5011784043380031
  0
LWPOLYLINE
  5
6148D
330
458D6
100
AcDbEntity
  8
0
100
AcDbPolyline
 90
        6
 70
     0
 43
0.0
 38
3.859999999999999
 10
1.040049999999997
 20
-1.732255006722057
 10
1.040049999999997
 20
-1.848798040231644
 10
0.9800499999999978
 20
-1.848798040231644
 10
0.9800499999999978
 20
-1.888798040231644
 10
1.040049999999997
 20
-1.888798040231644
 10
1.040049999999997
 20
-2.005341073741231
  0
LWPOLYLINE
  5
6148E
330
458D6
100
AcDbEntity
  8
0
100
AcDbPolyline
 90
        6
 70
     0
 43
0.0
 38
3.859999999999999
 10
1.080049999999997
 20
-1.732255006722057
 10
1.080049999999997
 20
-1.848798040231644
 10
1.140049999999997
 20
-1.848798040231644
 10
1.140049999999997
 20
-1.888798040231644
 10
1.080049999999997
 20
-1.888798040231644
 10
1.080049999999997
 20
-2.005341073741231
  0
LWPOLYLINE
  5
6148F
330
458D6
100
AcDbEntity
  8
0
100
AcDbPolyline
 90
        6
 70
     0
 43
0.0
 38
3.859999999999999
 10
1.728649999999996
 20
-1.732255006722057
 10
1.728649999999996
 20
-1.848798040231644
 10
1.668649999999996
 20
-1.848798040231644
 10
1.668649999999996
 20
-1.888798040231644
 10
1.728649999999996
 20
-1.888798040231644
 10
1.728649999999996
 20
-2.005341073741231
  0
LWPOLYLINE
  5
61490
330
458D6
100
AcDbEntity
  8
0
100
AcDbPolyline
 90
        6
 70
     0
 43
0.0
 38
3.859999999999999
 10
1.768649999999996
 20
-1.732255006722057
 10
1.768649999999996
 20
-1.848798040231644
 10
1.828649999999997
 20
-1.848798040231644
 10
1.828649999999997
 20
-1.888798040231644
 10
1.768649999999996
 20
-1.888798040231644
 10
1.768649999999996
 20
-2.005341073741231
  0
LWPOLYLINE
  5
61491
330
458D6
100
AcDbEntity
  8
0
100
AcDbPolyline
 90
        6
 70
     0
 43
0.0
 38
3.859999999999999
 10
0.3513499999999979
 20
-1.732255006722057
 10
0.3513499999999979
 20
-1.848798040231644
 10
0.2913499999999979
 20
-1.848798040231644
 10
0.2913499999999979
 20
-1.888798040231644
 10
0.3513499999999979
 20
-1.888798040231644
 10
0.3513499999999979
 20
-2.005341073741231
  0
LWPOLYLINE
  5
61492
330
458D6
100
AcDbEntity
  8
0
100
AcDbPolyline
 90
        6
 70
     0
 43
0.0
 38
3.859999999999999
 10
0.3913499999999979
 20
-1.732255006722057
 10
0.3913499999999979
 20
-1.848798040231644
 10
0.451349999999998
 20
-1.848798040231644
 10
0.451349999999998
 20
-1.888798040231644
 10
0.3913499999999979
 20
-1.888798040231644
 10
0.3913499999999979
 20
-2.005341073741231
  0
DIMENSION
  5
61493
330
458D6
100
AcDbEntity
  8
AREA1
100
AcDbDimension
  2
*D0
 10
-0.5967489213408576
 20
-2.342
 30
0.0
 11
-0.5967489213408573
 21
-0.8408456973131386
 31
0.0
 70
   160
 71
     5
 42
-1.0
 73
     0
 74
     0
 75
     0
  3
ABECAD_3D
100
AcDbAlignedDimension
 13
0.5074999999999994
 23
0.838
 33
1.388
 14
0.8744999999999993
 24
-2.342
 34
1.388
 50
90.0
100
AcDbRotatedDimension
  0
DIMENSION
  5
614A1
330
458D6
100
AcDbEntity
  8
AREA1
100
AcDbDimension
  2
*D1
 10
2.119999999999999
 20
1.226404817680059
 30
0.0
 11
1.054591251811267
 21
1.226404817680059
 31
0.0
 70
   160
 71
     5
 42
-1.0
 73
     0
 74
     0
 75
     0
  3
ABECAD_3D
100
AcDbAlignedDimension
 13
-0.0000000000000009
 23
0.5149999999999997
 33
1.641
 14
2.119999999999999
 24
0.5149999999999997
 34
1.641
100
AcDbRotatedDimension
  0
LWPOLYLINE
  5
614BE
330
458D6
100
AcDbEntity
  8
SCALE
100
AcDbPolyline
 90
        4
 70
     1
 43
0.0
 10
0.4623354867022802
 20
-2.469785478725232
 10
1.597964306244252
 20
-2.469785478725232
 10
1.597964306244252
 20
-3.311395045503247
 10
0.4623354867022802
 20
-3.311395045503247
  0
LINE
  5
614BF
330
458D6
100
AcDbEntity
  8
SCALE
100
AcDbLine
 10
0.5203341509290423
 20
-2.849863797429447
 30
0.0
 11
1.520334150929042
 21
-2.849863797429447
 31
0.0
  0
LINE
  5
614C0
330
458D6
100
AcDbEntity
  8
SCALE
100
AcDbLine
 10
0.5203341509290423
 20
-3.149863797429447
 30
0.0
 11
0.9140341509290422
 21
-3.149863797429447
 31
0.0
  0
LINE
  5
614C1
330
458D6
100
AcDbEntity
  8
SCALE
100
AcDbLine
 10
0.5203341509290423
 20
-2.949863797429448
 30
0.0
 11
0.5203341509290423
 21
-2.749863797429447
 31
0.0
  0
TEXT
  5
614C2
330
458D6
100
AcDbEntity
  8
SCALE
100
AcDbText
 10
0.5763101328595171
 20
-3.102178707666605
 30
0.0
 40
0.0625
  1
[10mm]
100
AcDbText
  0
LINE
  5
614C3
330
458D6
100
AcDbEntity
  8
SCALE
100
AcDbLine
 10
0.5203341509290423
 20
-3.249863797429447
 30
0.0
 11
0.5203341509290423
 21
-3.049863797429448
 31
0.0
  0
TEXT
  5
614C4
330
458D6
100
AcDbEntity
  8
SCALE
100
AcDbText
 10
0.5218644161755682
 20
-2.574986676155834
 30
0.0
 40
0.0625
  1
SCALE:
100
AcDbText
  0
LINE
  5
614C5
330
458D6
100
AcDbEntity
  8
SCALE
100
AcDbLine
 10
0.9140341509290422
 20
-3.249863797429447
 30
0.0
 11
0.9140341509290422
 21
-3.049863797429448
 31
0.0
  0
TEXT
  5
614C6
330
458D6
100
AcDbEntity
  8
SCALE
100
AcDbText
 10
0.8836171394129518
 20
-2.780815102056246
 30
0.0
 40
0.0625
  1
1 Inch
100
AcDbText
  0
LINE
  5
614C7
330
458D6
100
AcDbEntity
  8
SCALE
100
AcDbLine
 10
1.520334150929042
 20
-2.849863797429447
 30
0.0
 11
1.520334150929042
 21
-2.949863797429448
 31
0.0
  0
LINE
  5
614C8
330
458D6
100
AcDbEntity
  8
SCALE
100
AcDbLine
 10
1.520334150929042
 20
-2.949863797429448
 30
0.0
 11
1.520334150929042
 21
-2.749863797429447
 31
0.0
  0
VIEWPORT
  5
5677D
330
458D3
100
AcDbEntity
 67
     1
  8
0
100
AcDbViewport
 10
5.249999639556163
 20
3.999999883606677
 30
0.0
 40
16.38686186943767
 41
8.992999745766947
 68
     1
 69
     1
 12
5.249999639556163
 22
3.999999883606677
 13
0.0
 23
0.0
 14
0.5
 24
0.5
 15
0.5
 25
0.5
 16
0.0
 26
0.0
 36
1.0
 17
0.0
 27
0.0
 37
0.0
 42
50.0
 43
0.0
 44
0.0
 45
8.992999745766947
 50
0.0
 51
0.0
 72
 20000
 90
    32800
  1

281
     0
 71
     1
 74
     0
110
0.0
120
0.0
130
0.0
111
1.0
121
0.0
131
0.0
112
0.0
122
1.0
132
0.0
 79
     0
146
0.0
170
     0
 61
     5
348
61570
292
     1
282
     1
141
0.0
142
0.0
 63
   250
421
  3355443
  0
VIEWPORT
  5
5677F
330
458D3
100
AcDbEntity
 67
     1
  8
AREA1
100
AcDbViewport
 10
5.24999976158142
 20
3.99999976158142
 30
0.0
 40
8.399999618530271
 41
6.399999618530272
 68
     2
 69
     2
 12
-1.017175299537903
 22
0.747812767808223
 13
0.0
 23
0.0
 14
0.25
 24
0.25
 15
0.25
 25
0.25
 16
0.0
 26
0.0
 36
1.0
 17
0.5634438949382106
 27
-0.8801371703728531
 37
1.68649307151727
 42
50.0
 43
0.0
 44
0.0
 45
4.58291448918931
 50
0.0
 51
0.0
 72
 20000
 90
    32800
  1

281
     1
 71
     1
 74
     0
110
0.0
120
0.0
130
0.0
111
1.0
121
0.0
131
0.0
112
0.0
122
1.0
132
0.0
 79
     1
146
0.0
170
     0
 61
     5
348
61571
292
     1
282
     1
141
0.0
142
0.0
 63
   250
421
  3355443
  0
ENDSEC
  0
SECTION
  2
OBJECTS
  0
DICTIONARY
  5
458CB
330
0
100
AcDbDictionary
281
     1
  3
ACAD_BACKGROUND
350
61580
  3
ACAD_COLOR
350
6157B
  3
ACAD_GROUP
350
458CC
  3
ACAD_LAYOUT
350
458FB
  3
ACAD_MATERIAL
350
61566
  3
ACAD_MLINESTYLE
350
458D9
  3
ACAD_PLOTSETTINGS
350
458FC
  3
ACAD_PLOTSTYLENAME
350
458F9
  3
ACAD_TABLESTYLE
350
6157C
  3
ACAD_VISUALSTYLE
350
6156A
  3
ACADE_WIRETYPE
350
61595
  3
ACDBVARIABLEDICTIONARY
350
458E1
  3
ASE_INDEX_DICTIONARY
350
61588
  0
DICTIONARY
  5
61585
330
61584
100
AcDbDictionary
280
     1
281
     1
  3
ACADE_WIRETYPE
360
61586
  0
DICTIONARY
  5
4592C
330
458D6
100
AcDbDictionary
280
     1
281
     1
  3
ACAD_LAYOUTSELFREF
360
6155A
  0
DICTIONARY
  5
4592A
330
458D3
100
AcDbDictionary
280
     1
281
     1
  3
ACAD_LAYOUTSELFREF
360
61559
  0
DICTIONARY
  5
61580
102
{ACAD_REACTORS
330
458CB
102
}
330
458CB
100
AcDbDictionary
281
     1
  0
DICTIONARY
  5
6157B
102
{ACAD_REACTORS
330
458CB
102
}
330
458CB
100
AcDbDictionary
281
     1
  0
DICTIONARY
  5
458CC
102
{ACAD_REACTORS
330
458CB
102
}
330
458CB
100
AcDbDictionary
281
     1
  0
DICTIONARY
  5
458FB
102
{ACAD_REACTORS
330
458CB
102
}
330
458CB
100
AcDbDictionary
281
     1
  3
Layout1
350
458FE
  3
Model
350
458FD
  0
DICTIONARY
  5
61566
102
{ACAD_REACTORS
330
458CB
102
}
330
458CB
100
AcDbDictionary
281
     1
  3
ByBlock
350
61568
  3
ByLayer
350
61567
  3
Global
350
61569
  0
DICTIONARY
  5
458D9
102
{ACAD_REACTORS
330
458CB
102
}
330
458CB
100
AcDbDictionary
281
     1
  3
STANDARD
350
458DA
  0
DICTIONARY
  5
458FC
102
{ACAD_REACTORS
330
458CB
102
}
330
458CB
100
AcDbDictionary
281
     1
  0
ACDBDICTIONARYWDFLT
  5
458F9
102
{ACAD_REACTORS
330
458CB
102
}
330
458CB
100
AcDbDictionary
281
     1
  3
Normal
350
458FA
100
AcDbDictionaryWithDefault
340
458FA
  0
DICTIONARY
  5
6157C
102
{ACAD_REACTORS
330
458CB
102
}
330
458CB
100
AcDbDictionary
281
     1
  3
Standard
350
6157D
  0
DICTIONARY
  5
6156A
102
{ACAD_REACTORS
330
458CB
102
}
330
458CB
100
AcDbDictionary
281
     1
  3
2dWireframe
350
61570
  3
3D Hidden
350
61572
  3
3dWireframe
350
61571
  3
Basic
350
6156F
  3
Brighten
350
61576
  3
ColorChange
350
6157A
  3
Conceptual
350
61573
  3
Dim
350
61575
  3
Facepattern
350
61579
  3
Flat
350
6156B
  3
FlatWithEdges
350
6156C
  3
Gouraud
350
6156D
  3
GouraudWithEdges
350
6156E
  3
Linepattern
350
61578
  3
Realistic
350
61574
  3
Thicken
350
61577
  0
DICTIONARY
  5
61595
102
{ACAD_REACTORS
330
458CB
102
}
330
458CB
100
AcDbDictionary
281
     1
  3
CURRENT_WIRELAY
350
61596
  0
DICTIONARY
  5
458E1
102
{ACAD_REACTORS
330
458CB
102
}
330
458CB
100
AcDbDictionary
281
     1
  3
CTABLESTYLE
350
6158B
  3
DIMADEC
350
458E2
  0
DICTIONARY
  5
61588
102
{ACAD_REACTORS
330
458CB
102
}
330
458CB
100
AcDbDictionary
281
     1
  3
ASEBlockHierarchyIndexRecord
350
6158A
1001
DCO15
1040
1582951425.087
  0
XRECORD
  5
61586
102
{ACAD_REACTORS
330
61585
102
}
330
61585
100
AcDbXrecord
280
     1
  1

  2

  3
WIRE
 90
        0
  0
XRECORD
  5
6155A
102
{ACAD_REACTORS
330
4592C
102
}
330
4592C
100
AcDbXrecord
280
     1
340
458D6
  0
XRECORD
  5
61559
102
{ACAD_REACTORS
330
4592A
102
}
330
4592A
100
AcDbXrecord
280
     1
340
458D3
  0
LAYOUT
  5
458FE
102
{ACAD_REACTORS
330
458FB
102
}
330
458FB
100
AcDbPlotSettings
  1

  2
none_device
  4
Letter_(8.50_x_11.00_Inches)
  6

 40
6.349999904632568
 41
6.349999904632568
 42
6.350006103515625
 43
6.350006103515625
 44
215.8999938964844
 45
279.3999938964844
 46
0.0
 47
0.0
 48
0.0
 49
0.0
140
0.0
141
0.0
142
1.0
143
1.0
 70
   688
 72
     0
 73
     1
 74
     5
  7
Default R14 pen assignments.ctb
 75
    16
147
1.0
 76
     0
 77
     2
 78
   300
148
0.0
149
0.0
100
AcDbLayout
  1
Layout1
 70
     1
 71
     1
 10
-0.2500002402958907
 20
-0.2499999962453767
 11
10.74999951940821
 21
8.249999763458731
 12
0.0
 22
0.0
 32
0.0
 14
1.049999952316284
 24
0.7999999523162842
 34
0.0
 15
9.449999570846555
 25
7.199999570846556
 35
0.0
146
0.0
 13
0.0
 23
0.0
 33
0.0
 16
1.0
 26
0.0
 36
0.0
 17
0.0
 27
1.0
 37
0.0
 76
     0
330
458D3
331
5677D
  0
LAYOUT
  5
458FD
102
{ACAD_REACTORS
330
458FB
102
}
330
458FB
100
AcDbPlotSettings
  1

  2
HP LaserJet 5000 Series PCL 6
  4

  6

 40
0.0
 41
0.0
 42
0.0
 43
0.0
 44
0.0
 45
0.0
 46
0.0
 47
0.0
 48
0.0
 49
0.0
140
0.0
141
0.0
142
1.0
143
1.0
 70
  1712
 72
     0
 73
     0
 74
     0
  7
Default R14 pen assignments.ctb
 75
     0
147
1.0
 76
     0
 77
     2
 78
   300
148
0.0
149
0.0
100
AcDbLayout
  1
Model
 70
     1
 71
     0
 10
0.0
 20
0.0
 11
12.0
 21
9.0
 12
0.0
 22
0.0
 32
0.0
 14
0.0
 24
0.0
 34
0.0
 15
0.0
 25
0.0
 35
0.0
146
0.0
 13
0.0
 23
0.0
 33
0.0
 16
1.0
 26
0.0
 36
0.0
 17
0.0
 27
1.0
 37
0.0
 76
     0
330
458D6
331
61533
  0
MATERIAL
  5
61568
102
{ACAD_REACTORS
330
61566
102
}
330
61566
100
AcDbMaterial
  1
ByBlock
  0
MATERIAL
  5
61567
102
{ACAD_REACTORS
330
61566
102
}
330
61566
100
AcDbMaterial
  1
ByLayer
  0
MATERIAL
  5
61569
102
{ACAD_REACTORS
330
61566
102
}
330
61566
100
AcDbMaterial
  1
Global
  0
MLINESTYLE
  5
458DA
102
{ACAD_REACTORS
330
458D9
102
}
330
458D9
100
AcDbMlineStyle
  2
STANDARD
 70
     0
  3

 62
   256
 51
90.0
 52
90.0
 71
     2
 49
0.5
 62
   256
  6
BYLAYER
 49
-0.5
 62
   256
  6
BYLAYER
  0
ACDBPLACEHOLDER
  5
458FA
102
{ACAD_REACTORS
330
458F9
102
}
330
458F9
  0
TABLESTYLE
  5
6157D
102
{ACAD_REACTORS
330
6157C
102
}
330
6157C
100
AcDbTableStyle
  3
Standard
 70
     0
 71
     0
 40
0.06
 41
0.06
280
     0
281
     0
  7
STANDARD
140
0.18
170
     2
 62
     0
 63
     7
283
     0
 90
      512
 91
        0
  1

274
    -2
284
     1
 64
     0
275
    -2
285
     1
 65
     0
276
    -2
286
     1
 66
     0
277
    -2
287
     1
 67
     0
278
    -2
288
     1
 68
     0
279
    -2
289
     1
 69
     0
  7
STANDARD
140
0.25
170
     5
 62
     0
 63
     7
283
     0
 90
      512
 91
        0
  1

274
    -2
284
     1
 64
     0
275
    -2
285
     1
 65
     0
276
    -2
286
     1
 66
     0
277
    -2
287
     1
 67
     0
278
    -2
288
     1
 68
     0
279
    -2
289
     1
 69
     0
  7
STANDARD
140
0.18
170
     5
 62
     0
 63
     7
283
     0
 90
      512
 91
        0
  1

274
    -2
284
     1
 64
     0
275
    -2
285
     1
 65
     0
276
    -2
286
     1
 66
     0
277
    -2
287
     1
 67
     0
278
    -2
288
     1
 68
     0
279
    -2
289
     1
 69
     0
  0
VISUALSTYLE
  5
61570
102
{ACAD_REACTORS
330
6156A
102
}
330
6156A
100
AcDbVisualStyle
  2
2dWireframe
 70
     4
 71
     0
 72
     2
 73
     0
 90
        0
 40
-0.6
 41
-30.0
 62
     5
 63
     7
421
 16777215
 74
     1
 91
        4
 64
     7
 65
   257
 75
     1
175
     1
 42
1.0
 92
        0
 66
   257
 43
1.0
 76
     1
 77
     6
 78
     2
 67
     7
 79
     5
170
     0
171
     0
290
     0
174
     0
 93
        1
 44
0.0
173
     0
291
     0
 45
0.0
  0
VISUALSTYLE
  5
61572
102
{ACAD_REACTORS
330
6156A
102
}
330
6156A
100
AcDbVisualStyle
  2
3D Hidden
 70
     6
 71
     1
 72
     2
 73
     2
 90
        0
 40
-0.6
 41
-30.0
 62
     5
 63
     7
421
 16777215
 74
     2
 91
        2
 64
     7
 65
   257
 75
     2
175
     1
 42
40.0
 92
        0
 66
   257
 43
1.0
 76
     1
 77
     6
 78
     2
 67
     7
 79
     3
170
     0
171
     0
290
     0
174
     0
 93
        1
 44
0.0
173
     0
291
     0
 45
0.0
  0
VISUALSTYLE
  5
61571
102
{ACAD_REACTORS
330
6156A
102
}
330
6156A
100
AcDbVisualStyle
  2
3dWireframe
 70
     5
 71
     0
 72
     2
 73
     0
 90
        0
 40
-0.6
 41
-30.0
 62
     5
 63
     7
421
 16777215
 74
     1
 91
        4
 64
     7
 65
   257
 75
     1
175
     1
 42
1.0
 92
        0
 66
   257
 43
1.0
 76
     1
 77
     6
 78
     2
 67
     7
 79
     5
170
     0
171
     0
290
     0
174
     0
 93
        1
 44
0.0
173
     0
291
     0
 45
0.0
  0
VISUALSTYLE
  5
6156F
102
{ACAD_REACTORS
330
6156A
102
}
330
6156A
100
AcDbVisualStyle
  2
Basic
 70
     7
 71
     1
 72
     0
 73
     1
 90
        0
 40
-0.6
 41
-30.0
 62
     5
 63
     7
421
 16777215
 74
     0
 91
        4
 64
     7
 65
   257
 75
     1
175
     1
 42
1.0
 92
        8
 66
     7
 43
1.0
 76
     1
 77
     6
 78
     2
 67
     7
 79
     5
170
     0
171
     0
290
     0
174
     0
 93
        1
 44
0.0
173
     0
291
     1
 45
0.0
  0
VISUALSTYLE
  5
61576
102
{ACAD_REACTORS
330
6156A
102
}
330
6156A
100
AcDbVisualStyle
  2
Brighten
 70
    12
 71
     2
 72
     2
 73
     0
 90
        0
 40
-0.6
 41
-30.0
 62
     5
 63
     7
421
 16777215
 74
     1
 91
        4
 64
     7
 65
   257
 75
     1
175
     1
 42
1.0
 92
        8
 66
     7
 43
1.0
 76
     1
 77
     6
 78
     2
 67
     7
 79
     5
170
     0
171
     0
290
     0
174
     0
 93
        1
 44
50.0
173
     0
291
     1
 45
0.0
  0
VISUALSTYLE
  5
6157A
102
{ACAD_REACTORS
330
6156A
102
}
330
6156A
100
AcDbVisualStyle
  2
ColorChange
 70
    16
 71
     2
 72
     2
 73
     3
 90
        0
 40
-0.6
 41
-30.0
 62
     5
 63
     8
421
  8421504
 74
     1
 91
        4
 64
     7
 65
   257
 75
     1
175
     1
 42
1.0
 92
        8
 66
     8
424
  8421504
 43
1.0
 76
     1
 77
     6
 78
     2
 67
     7
 79
     5
170
     0
171
     0
290
     0
174
     0
 93
        1
 44
0.0
173
     0
291
     1
 45
0.0
  0
VISUALSTYLE
  5
61573
102
{ACAD_REACTORS
330
6156A
102
}
330
6156A
100
AcDbVisualStyle
  2
Conceptual
 70
     9
 71
     3
 72
     2
 73
     0
 90
        0
 40
-0.6
 41
-30.0
 62
     5
 63
     7
421
 16777215
 74
     2
 91
        2
 64
     7
 65
   257
 75
     1
175
     1
 42
40.0
 92
        8
 66
     7
 43
1.0
 76
     1
 77
     6
 78
     2
 67
     7
 79
     3
170
     0
171
     0
290
     0
174
     0
 93
        1
 44
0.0
173
     0
291
     0
 45
0.0
  0
VISUALSTYLE
  5
61575
102
{ACAD_REACTORS
330
6156A
102
}
330
6156A
100
AcDbVisualStyle
  2
Dim
 70
    11
 71
     2
 72
     2
 73
     0
 90
        0
 40
-0.6
 41
-30.0
 62
     5
 63
     7
421
 16777215
 74
     1
 91
        4
 64
     7
 65
   257
 75
     1
175
     1
 42
1.0
 92
        8
 66
     7
 43
1.0
 76
     1
 77
     6
 78
     2
 67
     7
 79
     5
170
     0
171
     0
290
     0
174
     0
 93
        1
 44
-50.0
173
     0
291
     1
 45
0.0
  0
VISUALSTYLE
  5
61579
102
{ACAD_REACTORS
330
6156A
102
}
330
6156A
100
AcDbVisualStyle
  2
Facepattern
 70
    15
 71
     2
 72
     2
 73
     0
 90
        0
 40
-0.6
 41
-30.0
 62
     5
 63
     7
421
 16777215
 74
     1
 91
        4
 64
     7
 65
   257
 75
     1
175
     1
 42
1.0
 92
        8
 66
     7
 43
1.0
 76
     1
 77
     6
 78
     2
 67
     7
 79
     5
170
     0
171
     0
290
     0
174
     0
 93
        1
 44
0.0
173
     0
291
     1
 45
0.0
  0
VISUALSTYLE
  5
6156B
102
{ACAD_REACTORS
330
6156A
102
}
330
6156A
100
AcDbVisualStyle
  2
Flat
 70
     0
 71
     2
 72
     1
 73
     1
 90
        2
 40
-0.6
 41
30.0
 62
     5
 63
     7
421
 16777215
 74
     0
 91
        4
 64
     7
 65
   257
 75
     1
175
     1
 42
1.0
 92
        8
 66
     7
 43
1.0
 76
     1
 77
     6
 78
     2
 67
     7
 79
     5
170
     0
171
     0
290
     0
174
     0
 93
       13
 44
0.0
173
     0
291
     1
 45
0.0
  0
VISUALSTYLE
  5
6156C
102
{ACAD_REACTORS
330
6156A
102
}
330
6156A
100
AcDbVisualStyle
  2
FlatWithEdges
 70
     1
 71
     2
 72
     1
 73
     1
 90
        2
 40
-0.6
 41
30.0
 62
     5
 63
     7
421
 16777215
 74
     1
 91
        4
 64
     7
 65
   257
 75
     1
175
     1
 42
1.0
 92
        0
 66
   257
 43
1.0
 76
     1
 77
     6
 78
     2
 67
     7
 79
     5
170
     0
171
     0
290
     0
174
     0
 93
       13
 44
0.0
173
     0
291
     1
 45
0.0
  0
VISUALSTYLE
  5
6156D
102
{ACAD_REACTORS
330
6156A
102
}
330
6156A
100
AcDbVisualStyle
  2
Gouraud
 70
     2
 71
     2
 72
     2
 73
     1
 90
        2
 40
-0.6
 41
30.0
 62
     5
 63
     7
421
 16777215
 74
     0
 91
        4
 64
     7
 65
   257
 75
     1
175
     1
 42
1.0
 92
        0
 66
     7
 43
1.0
 76
     1
 77
     6
 78
     2
 67
     7
 79
     5
170
     0
171
     0
290
     0
174
     0
 93
       13
 44
0.0
173
     0
291
     1
 45
0.0
  0
VISUALSTYLE
  5
6156E
102
{ACAD_REACTORS
330
6156A
102
}
330
6156A
100
AcDbVisualStyle
  2
GouraudWithEdges
 70
     3
 71
     2
 72
     2
 73
     1
 90
        2
 40
-0.6
 41
30.0
 62
     5
 63
     7
421
 16777215
 74
     1
 91
        4
 64
     7
 65
   257
 75
     1
175
     1
 42
1.0
 92
        0
 66
   257
 43
1.0
 76
     1
 77
     6
 78
     2
 67
     7
 79
     5
170
     0
171
     0
290
     0
174
     0
 93
       13
 44
0.0
173
     0
291
     1
 45
0.0
  0
VISUALSTYLE
  5
61578
102
{ACAD_REACTORS
330
6156A
102
}
330
6156A
100
AcDbVisualStyle
  2
Linepattern
 70
    14
 71
     2
 72
     2
 73
     0
 90
        0
 40
-0.6
 41
-30.0
 62
     5
 63
     7
421
 16777215
 74
     1
 91
        4
 64
     7
 65
   257
 75
     7
175
     7
 42
1.0
 92
        8
 66
     7
 43
1.0
 76
     1
 77
     6
 78
     2
 67
     7
 79
     5
170
     0
171
     0
290
     0
174
     0
 93
        1
 44
0.0
173
     0
291
     1
 45
0.0
  0
VISUALSTYLE
  5
61574
102
{ACAD_REACTORS
330
6156A
102
}
330
6156A
100
AcDbVisualStyle
  2
Realistic
 70
     8
 71
     2
 72
     2
 73
     0
 90
        0
 40
-0.6
 41
-30.0
 62
     5
 63
     7
421
 16777215
 74
     1
 91
        0
 64
     7
 65
   257
 75
     1
175
     1
 42
1.0
 92
        8
 66
     8
424
  7895160
 43
1.0
 76
     1
 77
     6
 78
     2
 67
     7
 79
     5
170
     0
171
     0
290
     0
174
     0
 93
       13
 44
0.0
173
     0
291
     0
 45
0.0
  0
VISUALSTYLE
  5
61577
102
{ACAD_REACTORS
330
6156A
102
}
330
6156A
100
AcDbVisualStyle
  2
Thicken
 70
    13
 71
     2
 72
     2
 73
     0
 90
        0
 40
-0.6
 41
-30.0
 62
     5
 63
     7
421
 16777215
 74
     1
 91
        4
 64
     7
 65
   257
 75
     1
175
     1
 42
1.0
 92
       12
 66
     7
 43
1.0
 76
     1
 77
     6
 78
     2
 67
     7
 79
     5
170
     0
171
     0
290
     0
174
     0
 93
        1
 44
0.0
173
     0
291
     1
 45
0.0
  0
XRECORD
  5
61596
102
{ACAD_REACTORS
330
61595
102
}
330
61595
100
AcDbXrecord
280
     1
  1
WIRES
  1
WIRES
  1

290
     0
  0
DICTIONARYVAR
  5
6158B
102
{ACAD_REACTORS
330
458E1
102
}
330
458E1
100
DictionaryVariables
280
     0
  1
STANDARD
  0
DICTIONARYVAR
  5
458E2
102
{ACAD_REACTORS
330
458E1
102
}
330
458E1
100
DictionaryVariables
280
     0
  1
0
  0
XRECORD
  5
6158A
102
{ACAD_REACTORS
330
61588
102
}
330
61588
100
AcDbXrecord
280
     1
  0
ENDSEC
  0
EOF
